osu file format v14

[General]
AudioFilename: transmitted.mp3
AudioLeadIn: 0
PreviewTime: 27093
Countdown: 0
SampleSet: Soft
StackLeniency: 0.5
Mode: 0
LetterboxInBreaks: 0
WidescreenStoryboard: 1

[Editor]
DistanceSpacing: 0.8
BeatDivisor: 3
GridSize: 16
TimelineZoom: 1.5

[Metadata]
Title:Transmission
TitleUnicode:Transmission
Artist:TANUKI
ArtistUnicode:TANUKI
Creator:Canderos
Version:Hard
Source:
Tags:electro probably
BeatmapID:1230544
BeatmapSetID:580942

[Difficulty]
HPDrainRate:5
CircleSize:4
OverallDifficulty:7
ApproachRate:8
SliderMultiplier:1.4
SliderTickRate:1

[Events]
//Background and Video events
0,0,"cityscape.jpg",0,0
//Break Periods
//Storyboard Layer 0 (Background)
//Storyboard Layer 1 (Fail)
//Storyboard Layer 2 (Pass)
//Storyboard Layer 3 (Foreground)
//Storyboard Sound Samples

[TimingPoints]
51,422.535211267606,4,2,1,40,1,0
51,-200,4,2,1,40,0,0
7234,-200,4,2,1,5,0,0
7656,-200,4,2,1,60,0,0
12727,-66.6666666666667,4,2,1,60,0,0
19487,-100,4,2,1,60,0,0
19769,-133.333333333333,4,2,1,60,0,0
20051,-200,4,2,1,60,0,0
20332,-66.6666666666667,4,2,1,60,0,0
26248,-133.333333333333,4,2,1,60,0,0
27093,-57.1428571428571,4,2,1,70,0,1
33008,-100,4,2,1,55,0,0
33853,-133.333333333333,4,2,1,55,0,1
37234,-200,4,2,1,50,0,1
39769,-100,4,2,1,60,0,0

[HitObjects]
161,155,51,6,0,P|143:226|355:153,1,490
283,94,3431,2,0,P|176:79|122:-11,1,210
287,191,5121,2,0,P|394:206|448:296,1,210
213,269,6811,6,0,P|179:234|185:159,1,116.666666666667,0|0,0:3|0:3,0:3:0:0:
256,192,7656,12,0,11881,0:0:0:0:
323,216,12727,6,0,B|360:229|360:229|437:221,1,70.0000026702882
362,148,13008,1,0,0:0:0:0:
417,294,13149,6,0,B|454:281|454:281|531:289,1,70.0000026702882
456,362,13430,1,0,0:0:0:0:
276,380,13572,5,8,0:0:0:0:
276,380,13712,2,0,P|214:372|190:355,1,70.0000026702882
3,288,13994,1,8,0:0:0:0:
3,288,14135,2,0,P|65:280|111:238,1,70.0000026702882
276,196,14417,5,8,0:0:0:0:
276,196,14558,2,0,P|214:188|188:158,1,70.0000026702882
3,104,14839,1,8,0:0:0:0:
3,104,14980,2,0,P|65:96|101:68,1,70.0000026702882
228,32,15262,6,0,L|236:124,2,70.0000026702882,8|0|0,0:0|0:0|0:0,0:0:0:0:
376,137,15684,2,0,L|368:229,2,70.0000026702882,8|0|0,0:0|0:0|0:0,0:0:0:0:
278,210,16107,6,0,L|286:302,2,70.0000026702882,8|0|0,0:0|0:0|0:0,0:0:0:0:
426,315,16529,2,0,L|418:407,2,70.0000026702882,8|0|0,0:0|0:0|0:0,0:0:0:0:
438,146,16952,5,8,0:0:0:0:
438,146,17093,2,0,P|435:97|453:61,1,70.0000026702882
303,271,17374,1,8,0:0:0:0:
303,271,17515,2,0,P|300:320|318:356,1,70.0000026702882
168,146,17797,5,8,0:0:0:0:
168,146,17938,2,0,P|165:97|183:61,1,70.0000026702882
33,271,18220,1,8,0:0:0:0:
33,271,18361,2,0,P|30:320|48:356,1,70.0000026702882
161,291,18642,6,0,L|145:385,2,70.0000026702882,8|0|0,0:0|0:0|0:0,0:0:0:0:
232,200,19065,2,0,L|248:294,2,70.0000026702882,8|0|0,0:0|0:0|0:0,0:0:0:0:
105,7,19487,6,0,P|89:68|89:78,1,46.6666666666667,2|0,0:0|0:0,0:0:0:0:
206,30,19769,2,0,P|175:47|164:66,1,35.0000013351441,2|0,0:0|0:0,0:0:0:0:
269,103,20051,2,0,P|252:91|228:91,1,23.3333333333333,2|0,0:0|0:0,0:0:0:0:
18,96,20332,5,8,0:0:0:0:
18,96,20473,2,0,P|46:122|95:133,1,70.0000026702882
324,174,20755,1,8,0:0:0:0:
324,174,20896,2,0,P|296:200|247:211,1,70.0000026702882
18,252,21177,5,8,0:0:0:0:
18,252,21318,2,0,P|46:278|95:289,1,70.0000026702882
324,330,21600,1,8,0:0:0:0:
324,330,21741,2,0,P|296:356|247:367,1,70.0000026702882
168,188,22022,6,0,L|172:278,2,70.0000026702882,8|0|0,0:0|0:0|0:0,0:0:0:0:
85,74,22445,2,0,L|81:164,2,70.0000026702882,8|0|0,0:0|0:0|0:0,0:0:0:0:
284,134,22867,6,0,L|288:224,2,70.0000026702882,8|0|0,0:0|0:0|0:0,0:0:0:0:
201,20,23290,2,0,L|197:110,2,70.0000026702882,8|0|0,0:0|0:0|0:0,0:0:0:0:
308,45,23712,5,8,0:0:0:0:
308,45,23853,2,0,P|363:63|388:57,1,70.0000026702882
512,187,24135,1,8,0:0:0:0:
512,187,24276,2,0,P|457:205|432:199,1,70.0000026702882
337,297,24558,5,8,0:0:0:0:
337,297,24698,2,0,L|337:400,1,70.0000026702882
244,196,24980,1,8,0:0:0:0:
244,196,25121,2,0,L|244:93,1,70.0000026702882
57,42,25403,6,0,L|66:130,2,70.0000026702882,8|0|0,0:0|0:0|0:0,0:0:0:0:
22,179,25825,2,0,L|13:267,2,70.0000026702882,8|0|0,0:0|0:0|0:0,0:0:0:0:
141,244,26248,6,0,P|170:251|204:236,1,35.0000013351441,8|0,0:0|0:0,0:0:0:0:
293,102,26529,1,2,0:0:0:0:
304,119,26670,2,0,L|301:216,1,70.0000026702882,8|0,0:0|0:0,0:0:0:0:
440,353,27093,5,10,0:0:0:0:
429,373,27234,2,0,P|378:385|344:365,1,81.6666674455007
125,376,27515,1,10,0:0:0:0:
105,365,27656,2,0,P|93:314|113:280,1,81.6666674455007
104,78,27938,5,10,0:0:0:0:
115,59,28079,2,0,P|166:47|200:67,1,81.6666674455007
408,45,28360,1,10,0:0:0:0:
427,56,28501,2,0,P|439:107|419:141,1,81.6666674455007
150,241,28783,5,10,0:0:0:0:
129,256,28924,2,0,L|44:242,1,81.6666674455007
283,50,29205,1,10,0:0:0:0:
304,65,29346,2,0,L|389:51,1,81.6666674455007
166,125,29628,5,10,0:0:0:0:
145,140,29769,2,0,L|60:126,1,81.6666674455007
263,344,30051,1,10,0:0:0:0:
284,359,30192,2,0,L|369:345,1,81.6666674455007
0,261,30473,5,10,0:0:0:0:
4,289,30614,2,0,L|14:393,1,81.6666674455007
166,125,30896,1,10,0:0:0:0:
162,97,31037,2,0,L|152:-7,1,81.6666674455007
357,275,31318,5,10,0:0:0:0:
357,303,31459,2,0,L|367:406,1,81.6666674455007
498,109,31740,1,10,0:0:0:0:
494,81,31881,2,0,L|484:-23,1,81.6666674455007
249,152,32163,5,10,0:0:0:0:
217,163,32304,2,0,P|160:148|139:124,1,81.6666674455007
387,333,32586,1,10,0:0:0:0:
419,344,32727,2,0,P|476:329|497:305,1,81.6666674455007
366,143,33008,6,0,L|373:217,1,46.6666666666667,8|0,0:0|0:0,0:0:0:0:
275,161,33290,2,0,L|271:115,1,46.6666666666667,8|0,0:0|0:0,0:0:0:0:
187,173,33572,2,0,L|194:247,1,46.6666666666667,8|0,0:0|0:0,0:0:0:0:
212,348,33853,6,0,L|215:392,2,35.0000013351441,10|0|0,0:0|0:0|0:0,0:0:0:0:
295,311,34276,2,0,L|292:355,2,35.0000013351441,10|0|0,0:0|0:0|0:0,0:0:0:0:
374,235,34698,6,0,L|371:279,2,35.0000013351441,10|0|0,0:0|0:0|0:0,0:0:0:0:
291,198,35121,2,0,L|294:242,2,35.0000013351441,10|0|0,0:0|0:0|0:0,0:0:0:0:
168,181,35543,6,0,L|165:225,2,35.0000013351441,10|0|0,0:0|0:0|0:0,0:0:0:0:
85,144,35966,2,0,L|88:188,2,35.0000013351441,10|0|0,0:0|0:0|0:0,0:0:0:0:
6,68,36388,6,0,L|9:112,2,35.0000013351441,10|0|0,0:0|0:0|0:0,0:0:0:0:
89,31,36811,2,0,L|86:75,2,35.0000013351441,10|0|0,0:0|0:0|0:0,0:0:0:0:
219,91,37234,6,0,L|256:81,2,23.3333333333333,10|0|0,0:0|0:0|0:0,0:0:0:0:
257,170,37656,2,0,L|294:180,2,23.3333333333333,10|0|0,0:0|0:0|0:0,0:0:0:0:
321,106,38079,6,0,L|343:112,2,23.3333333333333,10|0|0,0:0|0:0|0:0,0:0:0:0:
359,27,38501,2,0,L|381:20,2,23.3333333333333,10|0|0,0:0|0:0|0:0,0:0:0:0:
431,92,38924,6,0,L|468:82,2,23.3333333333333,10|0|0,0:0|0:0|0:0,0:0:0:0:
469,171,39346,2,0,L|506:181,2,23.3333333333333,10|0|0,0:0|0:0|0:0,0:0:0:0:
449,263,39769,5,8,0:0:0:0:
437,298,39910,1,8,0:0:0:0:
402,285,40051,1,8,0:0:0:0:
415,250,40192,1,8,0:0:0:0:
