osu file format v14

[General]
AudioFilename: audio.mp3
AudioLeadIn: 0
PreviewTime: 80355
Countdown: 0
SampleSet: None
StackLeniency: 0.2
Mode: 0
LetterboxInBreaks: 0
WidescreenStoryboard: 0

[Editor]
DistanceSpacing: 0.7
BeatDivisor: 4
GridSize: 4
TimelineZoom: 1

[Metadata]
Title:BABYBABY
TitleUnicode:BABYBABYの夢
Artist:TANUKI
ArtistUnicode:TANUKI
Creator:Criss
Version:Extra
Source:
Tags:Future Funk Vaporwave A E S T H E T I C S
BeatmapID:962364
BeatmapSetID:448385

[Difficulty]
HPDrainRate:7
CircleSize:4
OverallDifficulty:8
ApproachRate:9.4
SliderMultiplier:3.2
SliderTickRate:1

[Events]
//Background and Video events
0,0,"descarga.png",0,0
//Break Periods
//Storyboard Layer 0 (Background)
//Storyboard Layer 1 (Fail)
//Storyboard Layer 2 (Pass)
//Storyboard Layer 3 (Foreground)
//Storyboard Sound Samples

[TimingPoints]
375,500,4,3,1,100,1,0
375,-100,4,3,1,100,0,0
13625,-100,4,3,2,100,0,0
14375,-100,4,3,1,100,0,0
48375,-100,4,3,1,100,0,0
80375,-100,4,3,1,100,0,0
100375,-100,4,3,1,100,0,0
116250,-100,4,3,1,100,0,0
148375,-100,4,3,1,100,0,0

[HitObjects]
96,208,375,6,0,P|128:112|144:104,1,80
164,80,625,1,0,0:0:0:0:
326,309,1125,5,0,0:0:0:0:
418,202,1375,1,0,0:0:0:0:
116,68,2375,5,0,0:0:0:0:
116,142,2500,1,0,0:0:0:0:
113,218,2625,1,0,0:0:0:0:
276,333,3125,1,0,0:0:0:0:
202,46,3375,2,0,B|279:17|301:78|301:78|310:157|375:176|375:176|433:222|395:282,1,320,0|2,0:0|0:0,0:0:0:0:
278,316,4125,5,0,0:0:0:0:
278,316,4250,1,0,0:0:0:0:
146,312,4375,2,0,B|171:272|171:272|139:207,1,80
100,137,4625,1,0,0:0:0:0:
341,55,5125,5,0,0:0:0:0:
161,58,5375,2,0,B|189:136|190:137|190:137|270:83|338:165|338:165|411:113,1,320
359,296,6375,1,0,0:0:0:0:
227,351,6500,1,0,0:0:0:0:
361,177,6625,2,0,B|410:104|410:104|330:62,1,160
146,75,7125,1,0,0:0:0:0:
92,238,7375,6,0,B|66:137|66:137|164:206|233:159|247:80,1,320,0|2,0:0|0:0,0:0:0:0:
372,207,8125,1,0,0:0:0:0:
331,87,8250,1,0,0:0:0:0:
290,327,8375,2,0,L|343:254,1,80
437,108,8625,6,0,B|366:150|280:147|280:147|261:57|148:66,1,320
61,179,9375,2,0,B|145:197|91:290|91:290|202:342|272:280,1,320
359,196,10375,5,0,0:0:0:0:
385,84,10500,1,0,0:0:0:0:
260,273,10625,1,0,0:0:0:0:
105,57,11125,1,0,0:0:0:0:
106,288,11375,2,0,P|175:237|30:161,1,320,0|2,0:0|0:0,0:0:0:0:
103,199,12125,5,0,0:0:0:0:
205,126,12250,1,0,0:0:0:0:
106,328,12375,1,0,0:0:0:0:
107,117,12500,1,0,0:0:0:0:
195,253,12625,2,0,P|262:313|338:254,1,160
289,122,13125,5,0,0:0:0:0:
399,40,13375,1,0,0:0:0:0:
353,204,13625,2,2,B|379:257|379:257|423:257,1,80
270,224,13875,2,2,B|248:180|248:180|213:182,1,80
315,288,14125,2,0,B|289:322|289:322|246:322,1,80,2|0,0:0|0:0,0:0:0:0:
122,65,14375,5,2,0:0:0:0:
346,28,14500,1,2,0:0:0:0:
196,269,14625,1,2,0:0:0:0:
302,102,14750,2,0,P|212:120|179:179,1,160,2|2,0:0|0:0,0:0:0:0:
179,338,15125,1,2,0:0:0:0:
329,177,15250,1,2,0:0:0:0:
83,177,15375,6,0,P|168:149|163:65,1,160,2|0,0:0|0:0,0:0:0:0:
362,84,15875,2,0,P|302:157|353:219,1,160
217,324,16250,1,0,0:0:0:0:
392,144,16375,2,0,P|427:54|366:18,1,160
186,97,16875,6,0,L|255:159,1,80,8|0,0:0|0:0,0:0:0:0:
128,183,17125,2,0,L|62:122,1,80
276,74,17375,2,0,P|376:56|378:144,1,160
251,222,17875,2,0,B|224:304|224:304|296:336,1,160,8|0,0:0|0:0,0:0:0:0:
251,147,18250,1,0,0:0:0:0:
396,279,18375,2,0,B|427:194|427:194|338:134,1,160
204,48,18750,5,0,0:0:0:0:
204,48,18875,2,0,P|188:48|110:143,1,80,8|0,3:0|0:0,0:0:0:0:
37,154,19125,2,0,P|101:187|146:172,1,80
79,284,19375,2,0,P|158:324|251:233,1,160
413,215,19875,1,8,0:0:0:0:
258,37,20125,1,0,0:0:0:0:
341,122,20250,1,0,0:0:0:0:
114,44,20375,6,0,B|68:119|68:119|111:141|91:210,1,160
115,307,20875,2,0,L|181:233,1,80,8|0,0:0|0:0,0:0:0:0:
257,147,21125,1,0,0:0:0:0:
256,278,21250,1,0,0:0:0:0:
371,46,21375,2,0,P|406:118|384:198,1,160
129,191,21875,6,0,P|100:107|136:32,1,160,8|0,0:0|0:0,0:0:0:0:
186,101,22250,1,0,0:0:0:0:
385,32,22375,2,0,P|302:66|286:141,1,160
285,253,22750,1,0,0:0:0:0:
391,101,22875,2,0,B|370:149|370:149|397:198,1,80,8|0,0:0|0:0,0:0:0:0:
369,283,23125,2,0,B|348:326|348:326|296:328,1,80
106,294,23375,5,0,0:0:0:0:
214,318,23500,1,0,0:0:0:0:
120,69,23625,1,8,0:0:0:0:
122,174,23750,1,0,0:0:0:0:
278,42,23875,2,0,L|373:40,1,80
289,181,24125,2,0,L|199:180,1,80,8|0,0:0|0:0,0:0:0:0:
410,182,24375,6,0,B|421:270|421:270|351:313,1,160
137,312,24875,2,0,B|95:289|95:289|96:228,1,80,8|0,0:0|0:0,0:0:0:0:
98,88,25125,2,0,L|96:181,1,80
206,38,25375,2,0,P|240:114|190:187,1,160
220,280,25750,1,0,0:0:0:0:
220,280,25875,2,0,P|230:285|266:356,1,80,8|0,3:0|0:0,0:0:0:0:
319,204,26125,1,0,0:0:0:0:
265,351,26250,1,0,0:0:0:0:
174,201,26375,6,0,B|251:235|251:235|268:311,1,160
376,306,26750,1,0,0:0:0:0:
413,163,26875,1,8,0:0:0:0:
422,132,27000,1,0,0:0:0:0:
431,98,27125,1,0,0:0:0:0:
440,67,27250,1,0,0:0:0:0:
281,61,27375,6,0,B|257:152|257:152|287:234,1,160
412,217,27750,1,0,0:0:0:0:
231,329,27875,1,8,0:0:0:0:
176,328,28000,1,0,0:0:0:0:
124,327,28125,1,0,0:0:0:0:
86,326,28250,1,0,0:0:0:0:
117,109,28375,6,0,B|173:176|173:176|118:239,1,160
265,233,28750,1,0,0:0:0:0:
243,82,28875,2,0,L|167:10,1,80,8|0,0:0|0:0,0:0:0:0:
348,88,29125,2,0,B|397:81|397:81|446:114,1,80
343,243,29375,2,0,P|421:279|343:328,1,160
278,328,29750,1,0,0:0:0:0:
133,330,29875,6,0,P|74:267|95:220,1,80,8|0,0:0|0:0,0:0:0:0:
75,82,30125,1,0,0:0:0:0:
74,203,30250,1,0,0:0:0:0:
214,135,30375,2,0,L|272:68,1,80
339,119,30625,2,0,L|396:52,1,80
433,161,30875,2,0,L|376:242,1,80,8|0,0:0|0:0,0:0:0:0:
310,324,31125,5,0,0:0:0:0:
310,191,31250,1,0,0:0:0:0:
118,338,31375,2,0,L|56:274,1,80,8|0,0:0|0:0,0:0:0:0:
65,84,31625,1,0,0:0:0:0:
124,180,31750,1,0,0:0:0:0:
245,57,31875,2,0,L|180:122,1,80,8|0,0:0|0:0,0:0:0:0:
187,322,32125,1,0,0:0:0:0:
232,229,32250,1,0,0:0:0:0:
50,333,32375,6,0,P|78:253|26:164,1,160
49,83,32750,1,0,0:0:0:0:
150,222,32875,2,0,L|150:318,1,80,8|0,0:0|0:0,0:0:0:0:
242,254,33125,1,0,0:0:0:0:
200,161,33250,1,0,0:0:0:0:
358,46,33375,6,0,P|346:139|421:192,1,160
459,247,33750,1,0,0:0:0:0:
374,331,33875,1,8,0:0:0:0:
281,235,34000,1,0,0:0:0:0:
380,147,34125,1,0,0:0:0:0:
282,47,34250,1,0,0:0:0:0:
185,122,34375,6,0,L|110:46,1,80
147,207,34625,2,0,L|66:207,1,80
198,274,34875,2,0,L|196:364,1,80,8|0,0:0|0:0,0:0:0:0:
326,317,35125,1,0,0:0:0:0:
254,234,35250,1,0,0:0:0:0:
385,238,35375,2,0,P|422:161|368:87,1,160
309,39,35750,5,0,0:0:0:0:
189,42,35875,2,0,P|98:84|89:169,1,160,8|0,0:0|0:0,0:0:0:0:
85,257,36250,1,0,0:0:0:0:
174,346,36375,2,0,B|175:263|175:263|242:205,1,160
305,150,36750,1,0,0:0:0:0:
379,93,36875,1,8,0:0:0:0:
146,83,37125,6,0,L|87:148,1,80
164,219,37375,2,0,B|228:143|228:143|230:61,1,160
303,45,37750,1,0,0:0:0:0:
406,108,37875,2,0,B|402:211|402:211|339:249,1,160,8|0,0:0|0:0,0:0:0:0:
269,278,38250,1,0,0:0:0:0:
107,282,38375,6,0,L|107:108,1,160
222,118,38750,1,0,0:0:0:0:
150,43,38875,1,8,0:0:0:0:
152,219,39000,1,0,0:0:0:0:
263,56,39125,2,0,L|371:55,1,80
289,172,39375,6,0,B|389:191|389:191|414:258,1,160,0|8,0:0|0:0,0:0:0:0:
315,335,39750,1,0,0:0:0:0:
204,236,39875,2,0,L|146:310,1,80,8|0,0:0|0:0,0:0:0:0:
60,226,40125,2,0,L|121:147,1,80
181,63,40375,6,0,B|276:41|276:41|325:93,1,160
372,153,40750,1,0,0:0:0:0:
434,214,40875,1,8,0:0:0:0:
251,321,41125,5,0,0:0:0:0:
141,325,41250,1,0,0:0:0:0:
193,208,41375,2,0,B|131:132|131:132|50:131,1,160
52,34,41750,1,0,0:0:0:0:
188,36,41875,1,8,0:0:0:0:
316,36,42000,1,0,0:0:0:0:
234,141,42125,1,0,0:0:0:0:
420,184,42250,1,0,0:0:0:0:
346,298,42375,6,0,P|262:335|186:298,1,160
67,219,42875,2,0,P|145:172|246:244,1,160,8|0,0:0|0:0,0:0:0:0:
293,328,43375,6,0,B|374:291|374:291|374:192,1,160
375,39,43875,2,0,B|326:122|326:122|242:124,1,160,8|0,0:0|0:0,0:0:0:0:
280,42,44250,1,0,0:0:0:0:
140,44,44375,2,0,P|78:108|135:178,1,160
159,265,44750,1,0,0:0:0:0:
234,162,44875,2,0,P|268:254|207:301,1,160,8|0,0:0|0:0,0:0:0:0:
195,229,45250,1,0,0:0:0:0:
116,221,45375,6,0,B|109:123|109:123|191:58,1,160
231,145,45750,1,0,0:0:0:0:
324,65,45875,6,0,L|404:24,1,80,8|0,0:0|0:0,0:0:0:0:
426,129,46125,2,0,L|508:85,1,80
439,234,46375,6,0,B|367:298|367:298|325:363,1,160
267,228,46750,1,0,0:0:0:0:
182,321,46875,1,8,0:0:0:0:
182,113,47000,1,0,0:0:0:0:
117,182,47125,1,0,0:0:0:0:
196,227,47250,1,0,0:0:0:0:
258,56,47375,6,0,B|352:47|352:47|416:119,1,160
344,258,47875,1,8,0:0:0:0:
155,258,48125,1,8,0:0:0:0:
84,206,48250,1,8,0:0:0:0:
96,129,48375,6,0,L|206:67,1,80
267,32,48625,1,0,0:0:0:0:
109,267,48750,1,0,0:0:0:0:
215,187,48875,2,0,P|230:262|156:335,1,160,8|0,0:0|0:0,0:0:0:0:
321,185,49375,2,0,P|335:97|417:73,1,160
391,154,49750,1,0,0:0:0:0:
387,326,49875,5,8,0:0:0:0:
271,324,50000,1,0,0:0:0:0:
448,143,50125,1,0,0:0:0:0:
449,238,50250,1,0,0:0:0:0:
281,238,50375,2,0,L|168:237,1,80
91,236,50625,1,0,0:0:0:0:
131,52,50875,6,0,B|210:117|210:117|287:78,1,160,8|0,0:0|0:0,0:0:0:0:
261,223,51375,2,0,P|346:240|383:170,1,160
451,267,51750,1,0,0:0:0:0:
323,333,51875,2,0,L|134:331,1,160,8|0,0:0|0:0,0:0:0:0:
79,327,52250,1,0,0:0:0:0:
85,114,52375,6,0,P|102:209|112:214,1,80
136,250,52625,1,0,0:0:0:0:
376,250,52875,1,8,0:0:0:0:
141,340,53125,1,0,0:0:0:0:
137,141,53375,6,0,B|68:96|68:96|111:17,1,160
162,74,53750,1,0,0:0:0:0:
233,34,53875,2,0,L|325:34,1,80,8|0,0:0|0:0,0:0:0:0:
304,117,54125,2,0,L|395:116,1,80
419,212,54375,1,0,0:0:0:0:
463,280,54500,1,0,0:0:0:0:
406,335,54625,2,0,P|317:351|258:288,1,160,0|8,0:0|0:0,0:0:0:0:
216,179,55125,5,0,0:0:0:0:
138,330,55375,2,0,P|63:277|92:182,1,160
105,133,55750,1,0,0:0:0:0:
154,36,55875,2,0,B|191:113|191:113|185:214,1,160,8|0,0:0|0:0,0:0:0:0:
182,276,56250,1,0,0:0:0:0:
179,355,56375,1,0,0:0:0:0:
277,172,56500,1,0,0:0:0:0:
278,249,56625,1,0,0:0:0:0:
387,326,56875,6,0,B|441:248|441:248|430:164,1,160,8|0,0:0|0:0,0:0:0:0:
337,42,57375,2,0,L|337:213,1,160
238,297,57875,1,8,0:0:0:0:
159,201,58000,1,0,0:0:0:0:
321,204,58125,1,0,0:0:0:0:
184,89,58250,1,0,0:0:0:0:
286,89,58375,2,0,L|223:27,1,80
136,30,58625,1,0,0:0:0:0:
76,162,58875,6,0,P|51:249|128:315,1,160,8|0,0:0|0:0,0:0:0:0:
267,300,59375,1,0,0:0:0:0:
401,277,59500,1,0,0:0:0:0:
411,149,59625,1,0,0:0:0:0:
246,34,59875,2,0,B|231:131|231:131|289:197,1,160,8|0,0:0|0:0,0:0:0:0:
355,285,60375,1,0,0:0:0:0:
248,327,60500,1,0,0:0:0:0:
246,211,60625,2,0,B|341:195|341:195|363:111,1,160,0|8,0:0|0:0,0:0:0:0:
209,40,61125,5,0,0:0:0:0:
132,198,61375,2,0,B|70:143|70:143|101:49,1,160
174,96,61875,1,8,0:0:0:0:
287,58,62000,5,0,0:0:0:0:
426,152,62125,1,0,0:0:0:0:
234,152,62250,1,0,0:0:0:0:
353,153,62375,2,0,L|382:242,1,80
301,319,62625,2,0,P|206:331|175:269,1,160,0|8,0:0|0:0,0:0:0:0:
176,152,63125,1,0,0:0:0:0:
81,38,63375,6,0,P|53:128|105:214,1,160
153,283,63750,1,0,0:0:0:0:
285,288,63875,2,0,B|337:286|337:286|366:242,1,80,8|0,0:0|0:0,0:0:0:0:
276,129,64125,2,0,L|171:128,1,80
358,52,64375,2,0,P|408:116|357:199,1,160
242,318,64875,1,8,0:0:0:0:
239,145,65125,1,0,0:0:0:0:
96,245,65375,6,0,L|96:83,1,160
174,152,65750,1,0,0:0:0:0:
190,51,65875,2,0,L|273:26,1,80,8|0,0:0|0:0,0:0:0:0:
341,100,66125,2,0,L|240:144,1,80
166,240,66375,1,0,0:0:0:0:
199,340,66500,1,0,0:0:0:0:
286,273,66625,2,0,P|370:226|375:137,1,160,0|8,0:0|0:0,0:0:0:0:
278,53,67125,5,0,0:0:0:0:
137,58,67375,2,0,P|74:123|143:167,1,160
240,116,67750,1,0,0:0:0:0:
240,116,67875,2,0,P|256:136|184:176,1,80,8|0,3:0|0:0,0:0:0:0:
118,241,68125,1,0,0:0:0:0:
121,334,68250,1,0,0:0:0:0:
185,125,68375,2,0,L|261:73,1,80
312,37,68625,1,0,0:0:0:0:
312,207,68875,6,0,P|393:262|351:319,1,160,8|0,0:0|0:0,0:0:0:0:
194,302,69375,1,0,0:0:0:0:
230,92,69625,1,0,0:0:0:0:
114,225,69750,2,0,P|151:186|243:196,1,80,0|8,0:0|0:0,0:0:0:0:
188,253,70000,1,0,0:0:0:0:
285,337,70125,1,0,0:0:0:0:
372,261,70250,1,0,0:0:0:0:
281,182,70375,2,0,L|368:131,1,80
434,99,70625,1,0,0:0:0:0:
276,25,70875,6,0,B|237:98|237:98|144:86,1,160,8|0,0:0|0:0,0:0:0:0:
75,168,71375,2,0,P|132:230|64:322,1,160
54,242,71750,1,0,0:0:0:0:
227,243,71875,1,8,0:0:0:0:
181,332,72000,1,0,0:0:0:0:
274,128,72125,6,0,L|186:128,1,80
73,132,72375,6,0,L|132:58,1,80
230,50,72625,2,0,P|321:42|360:130,1,160,0|8,0:0|0:0,0:0:0:0:
235,255,73125,1,0,0:0:0:0:
368,156,73375,2,0,B|423:232|423:232|380:317,1,160
151,287,73875,5,8,0:0:0:0:
97,177,74000,1,0,0:0:0:0:
72,260,74125,1,0,0:0:0:0:
114,102,74250,1,0,0:0:0:0:
241,178,74375,6,0,L|216:82,1,80
198,32,74625,1,0,0:0:0:0:
292,52,74750,1,0,0:0:0:0:
343,125,74875,6,0,B|393:209|393:209|363:297,1,160,8|0,0:0|0:0,0:0:0:0:
271,335,75250,1,0,0:0:0:0:
179,268,75375,2,0,P|138:185|41:215,1,160
145,112,75750,1,0,0:0:0:0:
76,333,75875,1,8,0:0:0:0:
247,158,76125,1,0,0:0:0:0:
324,69,76250,1,0,0:0:0:0:
440,90,76375,6,0,L|392:163,1,80
349,231,76625,1,0,0:0:0:0:
241,329,76875,2,0,L|240:162,1,160,8|0,0:0|0:0,0:0:0:0:
130,168,77375,2,0,P|95:248|166:281,1,160
328,307,77875,5,8,0:0:0:0:
217,182,78000,1,0,0:0:0:0:
218,273,78125,1,0,0:0:0:0:
304,78,78250,1,0,0:0:0:0:
211,80,78375,2,0,P|151:111|124:100,1,80
71,37,78625,6,0,P|47:125|84:197,1,160,0|8,0:0|0:0,0:0:0:0:
179,285,79125,2,0,P|216:197|181:127,1,160
95,209,79625,2,0,L|258:147,1,160,0|8,0:0|0:0,0:0:0:0:
129,64,80125,5,0,0:0:0:0:
80,238,80375,2,0,P|125:316|199:316,1,160,4|0,3:0|0:0,0:0:0:0:
191,142,80875,1,8,0:0:0:0:
339,50,81125,5,0,0:0:0:0:
438,96,81250,1,0,0:0:0:0:
201,95,81375,1,0,0:0:0:0:
266,140,81500,1,0,0:0:0:0:
203,189,81625,1,0,0:0:0:0:
98,299,81875,6,0,P|190:338|266:287,1,160,8|0,0:0|0:0,0:0:0:0:
319,252,82250,1,0,0:0:0:0:
127,251,82375,2,0,L|81:179,1,80
36,121,82625,1,0,0:0:0:0:
160,32,82875,6,0,P|232:99|311:47,1,160,8|0,0:0|0:0,0:0:0:0:
418,83,83375,2,0,L|417:257,1,160
360,344,83750,1,0,0:0:0:0:
360,344,83875,2,0,B|324:308|324:308|323:256,1,80,8|0,3:0|0:0,0:0:0:0:
326,50,84125,2,0,L|326:154,1,80
217,50,84375,6,0,L|128:75,1,80
61,98,84625,1,0,0:0:0:0:
60,224,84875,2,0,P|156:232|196:332,1,160,8|0,0:0|0:0,0:0:0:0:
96,312,85250,1,0,0:0:0:0:
152,128,85375,1,0,0:0:0:0:
200,208,85500,1,0,0:0:0:0:
52,60,85625,1,0,0:0:0:0:
188,68,85875,6,0,B|276:104|276:104|360:72,1,160,8|0,0:0|0:0,0:0:0:0:
400,48,86250,1,0,0:0:0:0:
464,228,86375,1,0,0:0:0:0:
392,176,86500,1,0,0:0:0:0:
368,256,86625,1,0,0:0:0:0:
300,56,86875,5,8,0:0:0:0:
216,192,87125,1,0,0:0:0:0:
188,112,87250,1,0,0:0:0:0:
112,112,87375,2,0,P|56:184|64:268,1,160
116,304,87750,1,0,0:0:0:0:
144,216,87875,2,0,P|188:144|272:128,1,160,8|0,0:0|0:0,0:0:0:0:
328,128,88250,1,0,0:0:0:0:
400,128,88375,6,0,P|448:72|396:40,1,80
336,40,88625,2,0,P|256:68|252:88,1,80
148,56,88875,2,0,B|72:116|72:116|72:240,1,160,8|0,0:0|0:0,0:0:0:0:
68,312,89375,2,0,P|144:244|200:276,1,160
278,209,89750,1,0,0:0:0:0:
284,320,89875,2,0,P|376:316|388:252,1,160,8|0,0:0|0:0,0:0:0:0:
376,160,90250,1,0,0:0:0:0:
328,264,90375,1,0,0:0:0:0:
296,56,90500,1,0,0:0:0:0:
308,136,90625,1,0,0:0:0:0:
236,232,90875,6,0,P|208:320|136:320,1,160,8|0,0:0|0:0,0:0:0:0:
128,224,91375,2,0,P|160:144|88:92,1,160
88,163,91750,1,0,0:0:0:0:
160,32,91875,1,8,0:0:0:0:
214,181,92000,1,0,0:0:0:0:
252,76,92125,2,0,B|368:76|368:76|416:144,1,160
432,208,92625,1,0,0:0:0:0:
348,312,92875,2,0,P|252:296|260:200,1,160,8|0,0:0|0:0,0:0:0:0:
237,68,93375,6,0,B|72:65|72:65|33:130|86:177,1,240
213,152,93875,2,0,P|299:144|325:68,1,160,8|0,0:0|0:0,0:0:0:0:
269,36,94250,1,0,0:0:0:0:
198,73,94375,2,0,P|128:117|127:164,1,80
101,187,94625,1,0,0:0:0:0:
131,310,94750,1,0,0:0:0:0:
178,155,94875,6,0,B|243:150|255:85|255:85|331:57,1,160,8|0,0:0|0:0,0:0:0:0:
373,48,95250,1,0,0:0:0:0:
330,185,95375,2,0,P|276:255|326:343,1,160
183,252,95750,1,0,0:0:0:0:
363,253,95875,1,8,0:0:0:0:
259,153,96000,1,0,0:0:0:0:
256,339,96125,2,0,P|175:346|161:333,1,80
71,260,96375,6,0,L|94:157,2,80
143,316,96750,1,0,0:0:0:0:
78,113,96875,2,0,P|150:160|204:113,1,160,8|0,0:0|0:0,0:0:0:0:
140,85,97250,1,0,0:0:0:0:
218,253,97375,2,0,L|292:88,1,160
288,308,97750,1,0,0:0:0:0:
288,308,97875,2,0,P|256:344|173:334,1,80,8|0,3:0|0:0,0:0:0:0:
97,274,98125,5,0,0:0:0:0:
168,108,98250,1,0,0:0:0:0:
154,225,98375,1,0,0:0:0:0:
100,63,98500,1,0,0:0:0:0:
221,176,98625,2,0,P|277:176|295:135,1,80
360,50,98875,6,0,P|422:125|402:207,1,160,8|0,0:0|0:0,0:0:0:0:
343,278,99250,1,0,0:0:0:0:
260,89,99375,2,0,P|181:47|109:68,1,160
46,168,99750,1,0,0:0:0:0:
272,167,99875,2,0,P|322:139|336:99,1,80,8|0,0:0|0:0,0:0:0:0:
336,240,100125,2,0,L|336:333,1,80
189,260,100375,6,0,L|133:184,2,80
269,303,100750,1,0,0:0:0:0:
81,303,100875,2,0,P|49:216|78:133,1,160,8|0,0:0|0:0,0:0:0:0:
297,65,101375,1,0,0:0:0:0:
200,280,101875,5,8,0:0:0:0:
102,205,102000,2,0,P|90:297|105:306,2,80
246,268,102375,2,0,L|306:329,1,80
383,283,102625,2,0,L|445:351,1,80
412,189,102875,2,0,B|415:95|415:95|348:55,1,160,8|0,0:0|0:0,0:0:0:0:
335,222,103375,2,0,P|390:281|465:255,1,160
295,49,103875,5,8,0:0:0:0:
372,153,104000,1,0,0:0:0:0:
163,46,104125,2,0,L|267:99,1,80
396,153,104375,5,0,0:0:0:0:
396,153,104500,1,0,0:0:0:0:
342,283,104625,1,0,0:0:0:0:
251,87,104875,2,0,P|330:51|424:91,1,160,8|0,0:0|0:0,0:0:0:0:
266,157,105375,2,0,P|155:180|100:132,1,160
257,272,105875,1,8,0:0:0:0:
323,177,106000,5,0,0:0:0:0:
161,174,106125,1,0,0:0:0:0:
161,174,106250,1,0,0:0:0:0:
401,74,106375,2,0,P|313:37|299:43,1,80
240,32,106625,1,0,0:0:0:0:
409,213,106875,6,0,P|375:130|292:113,1,160,8|0,0:0|0:0,0:0:0:0:
327,190,107250,1,0,0:0:0:0:
446,57,107375,2,0,L|254:57,1,160
179,54,107750,1,0,0:0:0:0:
385,163,107875,1,8,0:0:0:0:
385,163,108000,1,0,0:0:0:0:
300,313,108125,1,0,0:0:0:0:
300,313,108250,1,0,0:0:0:0:
116,227,108375,6,0,B|94:172|94:172|135:191,1,80
146,283,108625,2,0,B|176:341|176:341|127:345,1,80
47,172,108875,2,0,B|101:82|141:59|141:59|151:103,1,160,8|0,0:0|0:0,0:0:0:0:
177,265,109375,1,0,0:0:0:0:
356,151,109625,5,0,0:0:0:0:
199,51,109875,5,8,0:0:0:0:
113,144,110000,1,0,0:0:0:0:
222,188,110125,1,0,0:0:0:0:
115,144,110250,1,0,0:0:0:0:
106,278,110375,6,0,P|190:328|225:315,1,80
168,209,110625,2,0,P|159:166|102:123,1,80
244,103,110875,2,0,P|322:69|411:147,1,160,8|0,0:0|0:0,0:0:0:0:
429,156,111250,1,0,0:0:0:0:
440,230,111375,2,0,P|391:305|301:297,1,160
345,47,111875,6,0,B|313:81|313:81|313:145,1,80,8|0,0:0|0:0,0:0:0:0:
255,32,112125,2,0,B|210:46|210:46|153:27,1,80
168,133,112375,1,0,0:0:0:0:
226,230,112500,1,0,0:0:0:0:
278,140,112625,1,0,0:0:0:0:
355,54,112875,6,0,P|405:136|365:202,1,160,8|0,0:0|0:0,0:0:0:0:
166,66,113375,2,0,P|129:113|161:209,1,160
252,214,113750,1,0,0:0:0:0:
266,108,113875,6,0,B|336:38|336:38|445:39,1,160,8|0,0:0|0:0,0:0:0:0:
404,228,114375,1,2,0:0:0:0:
404,228,114500,1,2,0:0:0:0:
148,56,115875,5,2,0:0:0:0:
100,216,116125,2,2,B|132:248|132:248|144:296,1,80
172,156,116375,2,0,B|216:80|216:80,1,80
248,24,116625,1,0,0:0:0:0:
240,220,116875,2,0,P|192:280|108:284,1,160,8|0,0:0|0:0,0:0:0:0:
156,212,117250,1,0,0:0:0:0:
264,320,117375,1,0,0:0:0:0:
156,216,117500,1,0,0:0:0:0:
264,320,117625,1,0,0:0:0:0:
372,164,117875,6,0,L|344:48,1,80,8|0,0:0|0:0,0:0:0:0:
300,184,118125,2,0,P|324:236|356:252,1,80
276,328,118375,2,0,L|160:328,1,80
244,236,118625,1,0,0:0:0:0:
132,80,118875,6,0,P|96:152|112:248,1,160,8|0,0:0|0:0,0:0:0:0:
240,116,119375,6,0,P|308:48|380:48,1,160
312,148,119750,2,0,P|256:204|216:192,1,80,0|8,0:0|0:0,0:0:0:0:
152,196,120000,1,0,0:0:0:0:
132,84,120125,1,0,0:0:0:0:
128,296,120250,1,0,0:0:0:0:
244,136,120375,1,0,0:0:0:0:
48,168,120500,1,0,0:0:0:0:
168,300,120625,6,0,P|256:308|336:284,1,160,0|8,0:0|0:0,0:0:0:0:
324,56,121125,6,0,P|264:60|244:40,1,80
276,144,121375,2,0,L|256:240,1,80
388,80,121625,1,0,0:0:0:0:
324,304,121875,6,0,L|224:344,1,80,8|0,0:0|0:0,0:0:0:0:
352,192,122125,2,0,L|396:272,1,80
280,244,122375,1,0,0:0:0:0:
416,136,122500,1,0,0:0:0:0:
264,48,122625,2,0,L|176:48,1,80
300,144,122875,2,0,P|392:196|368:264,1,160,8|0,0:0|0:0,0:0:0:0:
320,216,123250,1,0,0:0:0:0:
412,72,123375,6,0,L|240:44,1,160
248,132,123750,1,0,0:0:0:0:
168,48,123875,2,0,L|104:108,1,80,8|0,0:0|0:0,0:0:0:0:
200,160,124125,2,0,L|272:228,1,80
152,256,124375,1,0,0:0:0:0:
288,128,124500,1,0,0:0:0:0:
128,96,124625,1,0,0:0:0:0:
212,284,124875,6,0,P|304:312|396:276,1,160,8|0,0:0|0:0,0:0:0:0:
232,56,125375,2,0,P|120:68|80:124,1,160
312,136,125875,6,0,L|372:64,1,80,8|0,0:0|0:0,0:0:0:0:
376,204,126125,1,0,0:0:0:0:
272,44,126250,1,0,0:0:0:0:
276,184,126375,1,0,0:0:0:0:
276,184,126500,1,0,0:0:0:0:
232,320,126625,2,0,P|136:328|68:300,1,160,0|8,0:0|0:0,0:0:0:0:
168,120,127125,5,0,0:0:0:0:
352,312,127375,1,0,0:0:0:0:
388,96,127500,1,0,0:0:0:0:
280,192,127625,1,0,0:0:0:0:
148,40,127875,6,0,L|84:112,1,80,8|0,0:0|0:0,0:0:0:0:
48,168,128125,1,0,0:0:0:0:
272,116,128375,1,0,0:0:0:0:
376,40,128500,1,0,0:0:0:0:
368,272,128625,1,0,0:0:0:0:
356,120,128875,6,0,B|260:72|260:72|168:72,1,160,8|0,0:0|0:0,0:0:0:0:
300,176,129375,2,0,B|384:200|384:200|440:132,1,160
292,40,129750,1,0,0:0:0:0:
292,40,129875,2,0,P|248:32|176:64,1,80,8|0,3:0|0:0,0:0:0:0:
136,104,130125,1,0,0:0:0:0:
248,108,130250,1,0,0:0:0:0:
132,268,130375,1,0,0:0:0:0:
132,184,130500,1,0,0:0:0:0:
296,184,130625,1,0,0:0:0:0:
148,52,130875,6,0,B|100:144|100:144|100:228,1,160,8|0,0:0|0:0,0:0:0:0:
252,184,131375,1,0,0:0:0:0:
172,40,131500,1,0,0:0:0:0:
396,40,131625,1,0,0:0:0:0:
232,40,131750,1,0,0:0:0:0:
424,96,131875,2,0,P|440:192|392:256,1,160,8|0,0:0|0:0,0:0:0:0:
332,196,132250,1,0,0:0:0:0:
280,292,132375,6,0,L|168:312,1,80
260,212,132625,1,0,0:0:0:0:
140,44,132875,6,0,B|96:132|96:132|96:176|60:228,1,160,8|0,0:0|0:0,0:0:0:0:
216,80,133375,2,0,P|288:60|376:80,1,160
328,228,133875,6,0,P|296:288|316:336,1,80,8|0,0:0|0:0,0:0:0:0:
388,156,134125,2,0,P|408:116|376:56,1,80
220,88,134375,1,0,0:0:0:0:
340,196,134500,1,0,0:0:0:0:
224,272,134625,2,0,P|116:264|80:204,1,160,0|8,0:0|0:0,0:0:0:0:
192,52,135125,1,0,0:0:0:0:
380,168,135375,6,0,B|404:256|404:256|308:324,1,160
232,144,135875,1,8,0:0:0:0:
232,144,136000,2,0,P|160:64|92:72,1,160
88,148,136375,1,0,0:0:0:0:
256,32,136500,1,0,0:0:0:0:
152,136,136625,1,0,0:0:0:0:
360,132,136875,6,0,P|420:196|372:268,1,160,8|0,0:0|0:0,0:0:0:0:
256,148,137375,6,0,P|200:80|92:76,1,160
168,180,137875,2,0,L|120:252,1,80,8|0,0:0|0:0,0:0:0:0:
240,168,138125,2,0,P|200:112|164:108,1,80
256,52,138375,1,0,0:0:0:0:
376,52,138500,1,0,0:0:0:0:
436,168,138625,1,0,0:0:0:0:
316,288,138875,6,0,P|208:280|136:304,1,160,8|0,0:0|0:0,0:0:0:0:
308,144,139375,2,0,P|368:60|344:24,1,160
252,28,139750,1,0,0:0:0:0:
144,28,139875,2,0,P|88:104|128:156,1,160,8|2,0:0|0:0,0:0:0:0:
164,88,140250,1,0,0:0:0:0:
72,248,140375,1,0,0:0:0:0:
136,136,140500,1,0,0:0:0:0:
136,320,140625,2,0,P|232:332|300:324,1,160,0|8,0:0|0:0,0:0:0:0:
376,192,141125,5,0,0:0:0:0:
252,56,141375,2,0,B|176:92|176:92|88:68,1,160
276,128,141875,2,0,P|340:108|372:120,1,80,8|0,0:0|0:0,0:0:0:0:
296,40,142125,1,0,0:0:0:0:
336,192,142250,1,0,0:0:0:0:
176,72,142375,2,0,L|92:72,1,80
224,136,142625,2,0,P|224:220|160:272,1,160,0|8,0:0|0:0,0:0:0:0:
68,128,143125,1,0,0:0:0:0:
332,64,143375,5,0,0:0:0:0:
436,140,143500,1,0,0:0:0:0:
188,136,143625,1,0,0:0:0:0:
108,304,143875,2,0,L|208:324,1,80,8|0,0:0|0:0,0:0:0:0:
100,224,144125,2,0,P|88:140|152:76,1,160
160,168,144500,1,0,0:0:0:0:
220,96,144625,1,0,0:0:0:0:
392,196,144875,6,0,P|348:280|288:288,1,160,8|0,0:0|0:0,0:0:0:0:
200,132,145375,1,0,0:0:0:0:
376,100,145875,6,0,L|352:200,1,80,8|0,0:0|0:0,0:0:0:0:
280,100,146125,1,0,0:0:0:0:
456,168,146250,1,0,0:0:0:0:
280,272,146375,2,0,L|184:304,1,80
272,192,146625,2,0,L|360:164,1,80
220,72,146875,6,0,P|124:72|84:136,1,160,8|0,0:0|0:0,0:0:0:0:
168,136,147250,1,0,0:0:0:0:
320,76,147375,2,0,P|408:120|404:192,1,160
116,196,147875,2,0,L|36:124,1,80,8|0,0:0|0:0,0:0:0:0:
172,136,148125,2,0,L|288:68,1,80
292,284,148375,6,0,B|332:244|332:244|404:232|400:160,1,160
216,60,148875,2,0,L|336:176,1,160,8|0,0:0|0:0,0:0:0:0:
144,104,149375,2,0,L|44:104,1,80
116,180,149625,1,0,0:0:0:0:
252,76,149875,6,0,P|384:56|432:96,1,160,8|0,0:0|0:0,0:0:0:0:
332,120,150250,1,0,0:0:0:0:
184,48,150375,1,0,0:0:0:0:
176,136,150500,1,0,0:0:0:0:
96,96,150625,1,0,0:0:0:0:
120,248,150875,6,0,P|148:328|212:304,1,160,8|0,0:0|0:0,0:0:0:0:
208,172,151375,2,0,B|248:72|248:72|328:48,1,160
252,228,151750,1,0,0:0:0:0:
252,228,151875,2,0,P|200:244|136:184,1,80,8|0,3:0|0:0,0:0:0:0:
144,60,152125,6,0,L|220:20,1,80
176,124,152375,2,0,P|120:128|76:88,1,80
116,204,152625,1,0,0:0:0:0:
184,320,152875,6,0,P|292:332|368:312,1,160,8|0,0:0|0:0,0:0:0:0:
232,200,153375,2,0,L|108:200,1,80
264,132,153625,1,0,0:0:0:0:
384,84,153875,6,0,L|296:24,1,80,8|0,0:0|0:0,0:0:0:0:
344,152,154125,2,0,L|344:248,1,80
248,108,154375,2,0,L|164:52,1,80
176,164,154625,1,0,0:0:0:0:
136,276,154875,6,0,P|228:300|316:272,1,160,8|0,0:0|0:0,0:0:0:0:
256,212,155250,1,0,0:0:0:0:
344,168,155375,2,0,P|268:88|152:72,1,160
168,136,155750,1,0,0:0:0:0:
260,184,155875,2,0,L|328:96,1,80,8|0,0:0|0:0,0:0:0:0:
332,228,156125,2,0,L|280:300,1,80
256,192,156375,12,0,164375,0:0:0:0:
