osu file format v14

[General]
AudioFilename: audio.mp3
AudioLeadIn: 0
PreviewTime: 52014
Countdown: 0
SampleSet: Normal
StackLeniency: 0.7
Mode: 1
LetterboxInBreaks: 0
WidescreenStoryboard: 0

[Editor]
DistanceSpacing: 1.3
BeatDivisor: 4
GridSize: 32
TimelineZoom: 2.1

[Metadata]
Title:BATTLE NO.1
TitleUnicode:BATTLE NO.1
Artist:TANO*C Sound Team
ArtistUnicode:TANO*C Sound Team
Creator:tamakagi2000
Version:Luqua's Muzukashii
Source:WACCA
Tags:hardcore floor arcaea instrumental electronic video game noizenecio noriken redalice getty srav3r t+pazolite laur myosuke usao dj genki kobaryo massive new krew p*light yuki_momoiro722 Eryzr Luqua Maeda [R] Ron
BeatmapID:2355347
BeatmapSetID:1080359

[Difficulty]
HPDrainRate:6
CircleSize:2
OverallDifficulty:4.5
ApproachRate:5
SliderMultiplier:1.4
SliderTickRate:1

[Events]
//Background and Video events
0,0,"maxresdefault.jpg",0,60
//Break Periods
//Storyboard Layer 0 (Background)
//Storyboard Layer 1 (Fail)
//Storyboard Layer 2 (Pass)
//Storyboard Layer 3 (Foreground)
//Storyboard Layer 4 (Overlay)
//Storyboard Sound Samples

[TimingPoints]
1614,300,4,1,0,100,1,0
1614.91643937042,-100,4,1,0,70,0,0
4014,-100,4,1,0,85,0,0
12714,-100,4,1,0,80,0,0
13014,-100,4,1,0,75,0,0
13314,-100,4,1,0,70,0,0
13614,-100,4,1,0,60,0,0
16014,-100,4,1,0,65,0,0
18414,-100,4,1,0,70,0,0
19464,-100,4,1,0,75,0,0
20814,-100,4,1,0,80,0,0
23214,-100,4,1,0,85,0,0
33114,-100,4,1,0,90,0,0
41214,-100,4,1,0,85,0,0
41439,-100,4,1,0,80,0,0
41664,-100,4,1,0,75,0,0
41889,-100,4,1,0,70,0,0
42114,-100,4,1,0,65,0,0
42264,-100,4,1,0,60,0,0
42414,-100,4,1,0,80,0,0
52014,-100,4,1,0,95,0,1
61614,-100,4,1,0,95,0,0
61914,-100,4,1,0,50,0,0
66414,-100,4,1,0,65,0,0
71214,-100,4,1,0,80,0,0
80814,-100,4,1,0,60,0,0
85614,-100,4,1,0,70,0,0
88014,-100,4,1,0,85,0,0
90414,-100,4,1,0,95,0,1
100014,-100,4,1,0,75,0,0
102414,-100,4,1,0,95,0,0
104814,-100,4,1,0,75,0,0
107214,-100,4,1,0,95,0,0
109614,-100,4,1,0,80,0,0
110814,-100,4,1,0,75,0,0
112014,-100,4,1,0,70,0,0
113214,-100,4,1,0,65,0,0
114414,-100,4,1,0,70,0,0
115014,-100,4,1,0,75,0,0
115614,-100,4,1,0,80,0,0
116814,-100,4,1,0,85,0,0
119214,-100,4,1,0,95,0,1
128814,-100,4,1,0,85,0,0
128964,-100,4,1,0,75,0,0
129114,-100,4,1,0,65,0,0
129264,-100,4,1,0,55,0,0
129414,-100,4,1,0,45,0,0
129564,-100,4,1,0,35,0,0
129714,-100,4,1,0,25,0,0
129864,-100,4,1,0,15,0,0
130014,-100,4,1,0,5,0,0

[HitObjects]
256,192,2814,5,0,0:0:0:0:
256,192,4014,1,4,0:0:0:0:
256,192,4314,1,8,0:0:0:0:
256,192,4614,1,8,0:0:0:0:
256,192,4914,1,8,0:0:0:0:
256,192,5064,1,8,0:0:0:0:
256,192,5214,1,8,0:0:0:0:
256,192,5514,1,8,0:0:0:0:
256,192,5814,1,8,0:0:0:0:
256,192,5964,1,8,0:0:0:0:
256,192,6114,1,8,0:0:0:0:
256,192,6264,1,8,0:0:0:0:
256,192,6414,1,8,0:0:0:0:
256,192,6714,1,8,0:0:0:0:
256,192,7014,1,8,0:0:0:0:
256,192,7164,1,8,0:0:0:0:
256,192,7314,1,0,0:0:0:0:
256,192,7614,1,12,0:0:0:0:
256,192,8064,1,12,0:0:0:0:
256,192,8364,1,4,0:0:0:0:
256,192,8514,1,12,0:0:0:0:
256,192,8814,1,4,0:0:0:0:
256,192,9114,1,8,0:0:0:0:
256,192,9414,1,0,0:0:0:0:
256,192,9714,1,8,0:0:0:0:
256,192,9864,1,8,0:0:0:0:
256,192,10014,1,0,0:0:0:0:
256,192,10314,1,12,0:0:0:0:
256,192,10764,1,12,0:0:0:0:
256,192,10914,1,4,0:0:0:0:
256,192,11214,1,0,0:0:0:0:
256,192,11364,1,0,0:0:0:0:
256,192,11514,1,0,0:0:0:0:
256,192,11664,1,0,0:0:0:0:
256,192,11814,1,8,0:0:0:0:
256,192,12114,1,8,0:0:0:0:
256,192,12414,1,0,0:0:0:0:
256,192,13614,1,4,0:0:0:0:
256,192,14214,1,8,0:0:0:0:
256,192,14514,1,8,0:0:0:0:
256,192,14664,1,0,0:0:0:0:
256,192,14814,1,8,0:0:0:0:
256,192,15114,1,8,0:0:0:0:
256,192,15264,1,0,0:0:0:0:
256,192,15414,1,8,0:0:0:0:
256,192,15564,1,8,0:0:0:0:
256,192,15714,1,8,0:0:0:0:
256,192,16014,1,4,0:0:0:0:
256,192,16314,1,8,0:0:0:0:
256,192,16464,1,0,0:0:0:0:
256,192,16614,1,8,0:0:0:0:
256,192,16764,1,0,0:0:0:0:
256,192,16914,1,8,0:0:0:0:
256,192,17214,1,4,0:0:0:0:
256,192,17514,1,8,0:0:0:0:
256,192,17814,1,4,0:0:0:0:
256,192,18039,1,4,0:0:0:0:
256,192,18264,1,4,0:0:0:0:
256,192,18414,1,4,0:0:0:0:
256,192,18714,1,8,0:0:0:0:
256,192,19014,1,0,0:0:0:0:
256,192,19314,1,8,0:0:0:0:
256,192,19464,1,0,0:0:0:0:
256,192,19614,1,8,0:0:0:0:
256,192,19914,1,8,0:0:0:0:
256,192,20064,1,0,0:0:0:0:
256,192,20214,1,8,0:0:0:0:
256,192,20814,1,8,0:0:0:0:
256,192,20964,1,0,0:0:0:0:
256,192,21114,1,8,0:0:0:0:
256,192,21264,1,0,0:0:0:0:
256,192,21414,1,8,0:0:0:0:
256,192,21564,1,0,0:0:0:0:
256,192,21639,1,0,0:0:0:0:
256,192,21714,1,0,0:0:0:0:
256,192,21864,1,0,0:0:0:0:
256,192,22014,1,12,0:0:0:0:
256,192,22464,1,8,0:0:0:0:
256,192,22539,1,8,0:0:0:0:
256,192,22614,1,8,0:0:0:0:
256,192,22764,1,0,0:0:0:0:
256,192,22914,1,0,0:0:0:0:
256,192,23214,1,12,0:0:0:0:
256,192,23364,1,8,0:0:0:0:
256,192,23514,1,0,0:0:0:0:
256,192,23664,1,8,0:0:0:0:
256,192,23964,1,8,0:0:0:0:
256,192,24414,1,0,0:0:0:0:
256,192,24564,1,8,0:0:0:0:
256,192,24714,1,0,0:0:0:0:
256,192,24864,1,8,0:0:0:0:
256,192,25014,1,0,0:0:0:0:
256,192,25314,1,8,0:0:0:0:
256,192,25614,1,8,0:0:0:0:
256,192,25764,1,8,0:0:0:0:
256,192,25914,1,0,0:0:0:0:
256,192,26064,1,8,0:0:0:0:
256,192,26364,1,8,0:0:0:0:
256,192,26814,1,0,0:0:0:0:
256,192,26889,1,0,0:0:0:0:
256,192,26964,1,0,0:0:0:0:
256,192,27114,1,8,0:0:0:0:
256,192,27264,1,8,0:0:0:0:
256,192,27414,1,0,0:0:0:0:
227,256,27564,1,0,0:0:0:0:
256,192,27714,1,8,0:0:0:0:
256,192,28014,1,8,0:0:0:0:
256,192,28164,1,8,0:0:0:0:
256,192,28314,1,0,0:0:0:0:
256,192,28464,1,8,0:0:0:0:
256,192,28764,1,8,0:0:0:0:
256,192,29214,1,0,0:0:0:0:
256,192,29364,1,8,0:0:0:0:
256,192,29514,1,0,0:0:0:0:
256,192,29664,1,8,0:0:0:0:
256,192,29814,1,0,0:0:0:0:
256,192,30114,1,8,0:0:0:0:
256,192,30414,1,8,0:0:0:0:
256,192,30714,1,8,0:0:0:0:
256,192,30864,1,8,0:0:0:0:
256,192,31014,1,0,0:0:0:0:
256,192,31314,1,0,0:0:0:0:
256,192,31464,1,2,0:0:0:0:
256,192,31539,1,2,0:0:0:0:
256,192,31614,1,8,0:0:0:0:
256,192,31764,1,8,0:0:0:0:
256,192,31914,1,0,0:0:0:0:
256,192,32214,1,8,0:0:0:0:
256,192,32514,1,12,0:0:0:0:
256,192,33114,1,4,0:0:0:0:
256,192,33339,1,4,0:0:0:0:
256,192,33564,1,4,0:0:0:0:
256,192,33714,1,4,0:0:0:0:
256,192,34314,1,4,0:0:0:0:
256,192,34539,1,4,0:0:0:0:
256,192,34764,1,4,0:0:0:0:
256,192,34914,1,4,0:0:0:0:
256,192,35514,1,4,0:0:0:0:
256,192,35739,1,4,0:0:0:0:
256,192,35964,1,4,0:0:0:0:
256,192,36114,1,4,0:0:0:0:
256,192,36714,1,4,0:0:0:0:
256,192,36864,1,4,0:0:0:0:
256,192,37914,1,12,0:0:0:0:
256,192,38139,1,12,0:0:0:0:
256,192,38364,1,12,0:0:0:0:
256,192,38589,1,12,0:0:0:0:
256,192,38814,1,12,0:0:0:0:
256,192,39039,1,12,0:0:0:0:
256,192,39264,1,12,0:0:0:0:
256,192,39489,1,12,0:0:0:0:
256,192,39714,1,12,0:0:0:0:
256,192,40014,1,12,0:0:0:0:
256,192,40314,1,12,0:0:0:0:
256,192,40464,1,12,0:0:0:0:
256,192,40614,1,8,0:0:0:0:
256,192,40689,1,8,0:0:0:0:
256,192,40764,1,8,0:0:0:0:
256,192,40914,1,0,0:0:0:0:
256,192,41064,1,0,0:0:0:0:
256,192,41214,1,8,0:0:0:0:
256,192,41439,1,8,0:0:0:0:
256,192,41664,1,8,0:0:0:0:
256,192,41889,1,8,0:0:0:0:
256,192,42414,1,4,0:0:0:0:
256,192,42714,1,8,0:0:0:0:
256,192,43014,1,0,0:0:0:0:
256,192,43164,1,0,0:0:0:0:
256,192,43314,1,8,0:0:0:0:
256,192,43614,1,0,0:0:0:0:
256,192,43764,1,0,0:0:0:0:
256,192,43914,1,8,0:0:0:0:
256,192,44064,1,0,0:0:0:0:
256,192,44364,1,0,0:0:0:0:
256,192,44439,1,0,0:0:0:0:
256,192,44514,1,0,0:0:0:0:
256,192,44664,1,8,0:0:0:0:
256,192,44814,1,0,0:0:0:0:
256,192,45114,1,8,0:0:0:0:
256,192,45414,1,8,0:0:0:0:
256,192,45564,1,8,0:0:0:0:
256,192,45714,1,0,0:0:0:0:
256,192,45864,1,8,0:0:0:0:
256,192,46164,1,0,0:0:0:0:
256,192,46314,1,8,0:0:0:0:
256,192,46464,1,0,0:0:0:0:
256,192,46764,1,8,0:0:0:0:
256,192,46914,1,8,0:0:0:0:
256,192,47064,1,0,0:0:0:0:
256,192,47214,1,8,0:0:0:0:
256,192,47514,1,8,0:0:0:0:
256,192,47664,1,0,0:0:0:0:
256,192,47814,1,8,0:0:0:0:
256,192,47889,1,8,0:0:0:0:
256,192,47964,1,8,0:0:0:0:
256,192,48114,1,8,0:0:0:0:
256,192,48264,1,0,0:0:0:0:
256,192,48714,1,0,0:0:0:0:
256,192,49014,1,12,0:0:0:0:
256,192,49164,1,4,0:0:0:0:
256,192,49614,1,12,0:0:0:0:
256,192,49914,1,0,0:0:0:0:
256,192,50214,1,0,0:0:0:0:
256,192,50364,1,0,0:0:0:0:
256,192,50514,1,8,0:0:0:0:
256,192,50664,1,0,0:0:0:0:
256,192,50964,1,0,0:0:0:0:
256,192,51114,1,8,0:0:0:0:
256,192,51264,1,8,0:0:0:0:
256,192,51414,1,0,0:0:0:0:
256,192,52014,1,4,0:0:0:0:
256,192,52314,1,8,0:0:0:0:
256,192,52464,1,0,0:0:0:0:
256,192,52614,1,8,0:0:0:0:
256,192,52914,1,8,0:0:0:0:
256,192,53214,1,0,0:0:0:0:
256,192,53364,1,8,0:0:0:0:
256,192,53514,1,8,0:0:0:0:
256,192,53664,1,0,0:0:0:0:
256,192,53814,1,8,0:0:0:0:
256,192,53964,1,0,0:0:0:0:
256,192,54039,1,0,0:0:0:0:
256,192,54114,1,0,0:0:0:0:
256,192,54414,1,0,0:0:0:0:
256,192,54564,1,8,0:0:0:0:
256,192,54714,1,8,0:0:0:0:
256,192,54864,1,8,0:0:0:0:
256,192,55014,1,0,0:0:0:0:
256,192,55314,1,0,0:0:0:0:
256,192,55464,1,8,0:0:0:0:
256,192,55764,1,8,0:0:0:0:
256,192,56064,1,0,0:0:0:0:
256,192,56364,1,8,0:0:0:0:
256,192,56814,1,4,0:0:0:0:
256,192,57114,1,8,0:0:0:0:
256,192,57264,1,0,0:0:0:0:
256,192,57414,1,8,0:0:0:0:
256,192,57714,1,8,0:0:0:0:
256,192,58014,1,0,0:0:0:0:
256,192,58164,1,8,0:0:0:0:
256,192,58314,1,8,0:0:0:0:
256,192,58464,1,0,0:0:0:0:
256,192,58614,1,8,0:0:0:0:
256,192,58764,1,0,0:0:0:0:
256,192,58839,1,0,0:0:0:0:
256,192,58914,1,0,0:0:0:0:
256,192,59214,1,0,0:0:0:0:
256,192,59364,1,8,0:0:0:0:
256,192,59514,1,8,0:0:0:0:
256,192,59664,1,8,0:0:0:0:
256,192,59814,1,0,0:0:0:0:
256,192,60114,1,0,0:0:0:0:
256,192,60264,1,8,0:0:0:0:
256,192,60564,1,8,0:0:0:0:
256,192,60864,1,0,0:0:0:0:
256,192,61164,1,8,0:0:0:0:
256,192,61614,1,4,0:0:0:0:
256,192,62664,1,8,0:0:0:0:
256,192,64014,1,8,0:0:0:0:
256,192,64614,1,0,0:0:0:0:
256,192,65064,1,0,0:0:0:0:
256,192,65814,1,0,0:0:0:0:
256,192,66414,1,8,0:0:0:0:
256,192,67014,1,0,0:0:0:0:
256,192,67314,1,0,0:0:0:0:
256,192,67464,1,8,0:0:0:0:
256,192,67914,1,8,0:0:0:0:
256,192,68514,1,0,0:0:0:0:
256,192,68664,1,0,0:0:0:0:
256,192,68814,1,8,0:0:0:0:
256,192,69114,1,0,0:0:0:0:
256,192,69264,1,0,0:0:0:0:
256,192,69414,1,8,0:0:0:0:
256,192,69714,1,8,0:0:0:0:
256,192,69864,1,0,0:0:0:0:
256,192,70314,1,0,0:0:0:0:
256,192,70614,1,0,0:0:0:0:
256,192,70764,1,0,0:0:0:0:
256,192,70914,1,8,0:0:0:0:
256,192,70989,1,2,0:0:0:0:
256,192,71064,1,2,0:0:0:0:
256,192,71214,1,4,0:0:0:0:
256,192,71514,1,8,0:0:0:0:
256,192,71664,1,8,0:0:0:0:
256,192,71814,1,0,0:0:0:0:
256,192,72114,1,0,0:0:0:0:
256,192,72264,1,8,0:0:0:0:
256,192,72714,1,0,0:0:0:0:
256,192,72864,1,8,0:0:0:0:
256,192,73014,1,0,0:0:0:0:
256,192,73089,1,0,0:0:0:0:
256,192,73164,1,0,0:0:0:0:
256,192,73314,1,0,0:0:0:0:
256,192,73464,1,8,0:0:0:0:
256,192,73614,1,0,0:0:0:0:
256,192,73764,1,0,0:0:0:0:
256,192,73914,1,8,0:0:0:0:
256,192,74214,1,0,0:0:0:0:
256,192,74364,1,0,0:0:0:0:
256,192,74514,1,0,0:0:0:0:
256,192,74664,1,8,0:0:0:0:
256,192,74814,1,0,0:0:0:0:
256,192,75114,1,0,0:0:0:0:
256,192,75264,1,8,0:0:0:0:
256,192,75414,1,0,0:0:0:0:
256,192,75564,1,0,0:0:0:0:
256,192,75714,1,8,0:0:0:0:
256,192,75789,1,8,0:0:0:0:
256,192,75864,1,8,0:0:0:0:
256,192,76014,1,4,0:0:0:0:
256,192,76314,1,8,0:0:0:0:
256,192,76464,1,8,0:0:0:0:
256,192,76614,1,0,0:0:0:0:
256,192,76914,1,0,0:0:0:0:
256,192,77064,1,8,0:0:0:0:
256,192,77514,1,0,0:0:0:0:
256,192,77664,1,8,0:0:0:0:
256,192,77814,1,0,0:0:0:0:
256,192,77889,1,0,0:0:0:0:
256,192,77964,1,0,0:0:0:0:
256,192,78114,1,0,0:0:0:0:
256,192,78264,1,8,0:0:0:0:
256,192,78414,1,4,0:0:0:0:
256,192,78714,1,0,0:0:0:0:
256,192,78789,1,0,0:0:0:0:
256,192,78864,1,0,0:0:0:0:
256,192,79014,1,12,0:0:0:0:
256,192,79314,1,8,0:0:0:0:
256,192,79389,1,8,0:0:0:0:
256,192,79464,1,8,0:0:0:0:
256,192,79614,1,4,0:0:0:0:
256,192,79914,1,0,0:0:0:0:
256,192,80064,1,0,0:0:0:0:
256,192,80214,1,8,0:0:0:0:
256,192,80814,1,4,0:0:0:0:
256,192,81114,1,8,0:0:0:0:
256,192,81264,1,0,0:0:0:0:
256,192,81414,1,0,0:0:0:0:
256,192,81714,1,0,0:0:0:0:
256,192,82014,1,0,0:0:0:0:
256,192,82164,1,0,0:0:0:0:
256,192,82314,1,8,0:0:0:0:
256,192,82614,1,0,0:0:0:0:
256,192,82914,1,0,0:0:0:0:
256,192,83214,1,0,0:0:0:0:
256,192,83514,1,8,0:0:0:0:
256,192,83664,1,0,0:0:0:0:
256,192,83814,1,0,0:0:0:0:
256,192,84114,1,0,0:0:0:0:
256,192,84414,1,0,0:0:0:0:
256,192,84564,1,0,0:0:0:0:
256,192,84714,1,8,0:0:0:0:
256,192,85014,1,0,0:0:0:0:
256,192,85614,1,0,0:0:0:0:
256,192,85764,1,0,0:0:0:0:
256,192,85914,1,8,0:0:0:0:
256,192,86214,1,0,0:0:0:0:
256,192,86364,1,0,0:0:0:0:
256,192,86514,1,8,0:0:0:0:
256,192,86814,1,0,0:0:0:0:
256,192,86964,1,8,0:0:0:0:
256,192,87039,1,8,0:0:0:0:
256,192,87114,1,8,0:0:0:0:
256,192,87264,1,0,0:0:0:0:
256,192,87414,1,8,0:0:0:0:
256,192,87564,1,8,0:0:0:0:
256,192,87714,1,0,0:0:0:0:
256,192,88014,1,0,0:0:0:0:
256,192,88239,1,0,0:0:0:0:
256,192,88464,1,0,0:0:0:0:
256,192,88689,1,0,0:0:0:0:
256,192,88914,1,0,0:0:0:0:
256,192,89214,1,8,0:0:0:0:
256,192,89514,1,8,0:0:0:0:
256,192,89664,1,8,0:0:0:0:
256,192,89814,1,8,0:0:0:0:
256,192,89889,1,8,0:0:0:0:
256,192,89964,1,2,0:0:0:0:
256,192,90414,1,4,0:0:0:0:
256,192,90564,1,8,0:0:0:0:
256,192,90714,1,0,0:0:0:0:
256,192,91014,1,0,0:0:0:0:
256,192,91314,1,0,0:0:0:0:
256,192,91464,1,8,0:0:0:0:
256,192,91614,1,0,0:0:0:0:
256,192,91764,1,0,0:0:0:0:
256,192,91914,1,8,0:0:0:0:
256,192,91989,1,8,0:0:0:0:
256,192,92064,1,8,0:0:0:0:
256,192,92214,1,0,0:0:0:0:
256,192,92364,1,0,0:0:0:0:
256,192,92514,1,12,0:0:0:0:
256,192,92814,1,8,0:0:0:0:
256,192,93114,1,0,0:0:0:0:
256,192,93264,1,8,0:0:0:0:
256,192,93414,1,0,0:0:0:0:
256,192,93489,1,0,0:0:0:0:
256,192,93564,1,0,0:0:0:0:
256,192,93714,1,8,0:0:0:0:
256,192,94014,1,8,0:0:0:0:
256,192,94089,1,8,0:0:0:0:
256,192,94164,1,8,0:0:0:0:
256,192,94314,1,0,0:0:0:0:
256,192,94464,1,0,0:0:0:0:
256,192,94614,1,8,0:0:0:0:
256,192,95214,1,0,0:0:0:0:
256,192,95364,1,8,0:0:0:0:
256,192,95514,1,0,0:0:0:0:
256,192,95814,1,0,0:0:0:0:
256,192,95964,1,0,0:0:0:0:
256,192,96114,1,8,0:0:0:0:
256,192,96414,1,8,0:0:0:0:
256,192,96489,1,8,0:0:0:0:
256,192,96564,1,8,0:0:0:0:
256,192,96714,1,0,0:0:0:0:
256,192,96864,1,0,0:0:0:0:
256,192,97014,1,8,0:0:0:0:
256,192,97164,1,0,0:0:0:0:
256,192,97314,1,12,0:0:0:0:
256,192,97614,1,8,0:0:0:0:
256,192,97764,1,8,0:0:0:0:
256,192,97914,1,0,0:0:0:0:
256,192,98064,1,0,0:0:0:0:
256,192,98214,1,8,0:0:0:0:
256,192,98514,1,0,0:0:0:0:
256,192,98589,1,0,0:0:0:0:
256,192,98664,1,0,0:0:0:0:
256,192,98814,1,8,0:0:0:0:
256,192,98964,1,0,0:0:0:0:
256,192,99114,1,8,0:0:0:0:
256,192,99414,1,8,0:0:0:0:
256,192,99564,1,8,0:0:0:0:
256,192,99714,1,0,0:0:0:0:
256,192,99864,1,8,0:0:0:0:
256,192,100014,1,4,0:0:0:0:
256,192,100614,1,8,0:0:0:0:
256,192,100914,1,0,0:0:0:0:
256,192,101214,1,0,0:0:0:0:
256,192,101514,1,0,0:0:0:0:
256,192,101814,1,8,0:0:0:0:
256,192,102414,1,4,0:0:0:0:
256,192,102714,1,8,0:0:0:0:
256,192,102864,1,0,0:0:0:0:
256,192,103014,1,0,0:0:0:0:
256,192,103164,1,0,0:0:0:0:
256,192,103314,1,8,0:0:0:0:
256,192,103614,1,0,0:0:0:0:
256,192,103914,1,8,0:0:0:0:
256,192,104064,1,0,0:0:0:0:
256,192,104214,1,0,0:0:0:0:
256,192,104364,1,0,0:0:0:0:
256,192,104514,1,8,0:0:0:0:
256,192,104814,1,0,0:0:0:0:
256,192,105114,1,0,0:0:0:0:
256,192,105414,1,0,0:0:0:0:
256,192,105714,1,8,0:0:0:0:
256,192,105864,1,8,0:0:0:0:
256,192,106014,1,0,0:0:0:0:
256,192,106314,1,0,0:0:0:0:
256,192,106464,1,0,0:0:0:0:
256,192,106614,1,8,0:0:0:0:
256,192,107214,1,4,0:0:0:0:
256,192,107514,1,8,0:0:0:0:
256,192,107664,1,8,0:0:0:0:
256,192,107814,1,0,0:0:0:0:
256,192,107964,1,0,0:0:0:0:
256,192,108114,1,8,0:0:0:0:
256,192,108414,1,0,0:0:0:0:
256,192,108714,1,8,0:0:0:0:
256,192,108864,1,8,0:0:0:0:
256,192,109014,1,0,0:0:0:0:
256,192,109164,1,8,0:0:0:0:
256,192,109614,1,4,0:0:0:0:
256,192,109914,1,8,0:0:0:0:
256,192,110214,1,0,0:0:0:0:
256,192,110364,1,8,0:0:0:0:
256,192,110664,1,8,0:0:0:0:
256,192,111114,1,8,0:0:0:0:
256,192,111414,1,0,0:0:0:0:
256,192,111564,1,8,0:0:0:0:
256,192,111714,1,0,0:0:0:0:
256,192,112014,1,0,0:0:0:0:
256,192,112314,1,8,0:0:0:0:
256,192,112614,1,0,0:0:0:0:
256,192,112764,1,8,0:0:0:0:
256,192,113064,1,8,0:0:0:0:
256,192,113364,1,0,0:0:0:0:
256,192,113514,1,8,0:0:0:0:
256,192,113814,1,0,0:0:0:0:
256,192,114114,1,0,0:0:0:0:
256,192,114414,1,8,0:0:0:0:
256,192,114714,1,8,0:0:0:0:
256,192,115014,1,8,0:0:0:0:
256,192,115314,1,8,0:0:0:0:
256,192,115464,1,8,0:0:0:0:
256,192,115764,1,8,0:0:0:0:
256,192,116064,1,8,0:0:0:0:
256,192,116214,1,8,0:0:0:0:
256,192,116514,1,0,0:0:0:0:
256,192,116814,1,0,0:0:0:0:
256,192,116889,1,0,0:0:0:0:
256,192,116964,1,0,0:0:0:0:
256,192,117114,1,0,0:0:0:0:
256,192,117264,1,0,0:0:0:0:
256,192,117414,1,8,0:0:0:0:
256,192,117489,1,8,0:0:0:0:
256,192,117564,1,8,0:0:0:0:
256,192,117714,1,8,0:0:0:0:
256,192,117864,1,8,0:0:0:0:
256,192,118014,1,4,0:0:0:0:
256,192,118914,1,6,0:0:0:0:
256,192,119214,1,4,0:0:0:0:
256,192,119514,1,8,0:0:0:0:
256,192,119664,1,8,0:0:0:0:
256,192,119814,1,0,0:0:0:0:
256,192,119964,1,8,0:0:0:0:
256,192,120039,1,8,0:0:0:0:
256,192,120114,1,8,0:0:0:0:
256,192,120264,1,0,0:0:0:0:
256,192,120564,1,0,0:0:0:0:
256,192,120714,1,8,0:0:0:0:
256,192,120864,1,0,0:0:0:0:
256,192,121164,1,0,0:0:0:0:
256,192,121314,1,8,0:0:0:0:
256,192,121614,1,0,0:0:0:0:
256,192,121764,1,0,0:0:0:0:
256,192,121839,1,0,0:0:0:0:
256,192,121914,1,0,0:0:0:0:
256,192,122064,1,8,0:0:0:0:
256,192,122214,1,0,0:0:0:0:
256,192,122514,1,0,0:0:0:0:
256,192,122664,1,8,0:0:0:0:
256,192,122739,1,8,0:0:0:0:
256,192,122814,1,8,0:0:0:0:
256,192,122964,1,0,0:0:0:0:
256,192,123114,1,8,0:0:0:0:
256,192,123264,1,0,0:0:0:0:
256,192,123414,1,8,0:0:0:0:
256,192,123714,1,12,0:0:0:0:
256,192,124014,1,0,0:0:0:0:
256,192,124164,1,0,0:0:0:0:
256,192,124314,1,12,0:0:0:0:
256,192,124614,1,0,0:0:0:0:
256,192,124764,1,0,0:0:0:0:
256,192,124914,1,12,0:0:0:0:
256,192,125214,1,0,0:0:0:0:
256,192,125364,1,0,0:0:0:0:
256,192,125514,1,12,0:0:0:0:
256,192,125814,1,0,0:0:0:0:
256,192,125964,1,0,0:0:0:0:
256,192,126114,1,12,0:0:0:0:
256,192,126414,1,12,0:0:0:0:
256,192,126564,1,0,0:0:0:0:
256,192,126714,1,12,0:0:0:0:
256,192,126864,1,0,0:0:0:0:
256,192,127014,1,12,0:0:0:0:
256,192,127164,1,0,0:0:0:0:
256,192,127314,1,12,0:0:0:0:
256,192,127764,1,0,0:0:0:0:
256,192,127914,1,8,0:0:0:0:
256,192,128064,1,8,0:0:0:0:
256,192,128214,1,0,0:0:0:0:
256,192,128289,1,0,0:0:0:0:
256,192,128364,1,0,0:0:0:0:
256,192,128514,1,12,0:0:0:0:
256,192,128814,12,0,130014,0:0:0:0:
