osu file format v14

[General]
AudioFilename: audio.mp3
AudioLeadIn: 0
PreviewTime: 52014
Countdown: 0
SampleSet: None
StackLeniency: 0.7
Mode: 1
LetterboxInBreaks: 0
WidescreenStoryboard: 1

[Editor]
Bookmarks: 1614,13614,23214,33114,42414,52014,61614,71214,80814,90414,100014,109614,119214,130014
DistanceSpacing: 2.2
BeatDivisor: 4
GridSize: 32
TimelineZoom: 1.1

[Metadata]
Title:BATTLE NO.1
TitleUnicode:BATTLE NO.1
Artist:TANO*C Sound Team
ArtistUnicode:TANO*C Sound Team
Creator:tamakagi2000
Version:Ery's Futsuu
Source:WACCA
Tags:hardcore floor arcaea instrumental electronic video game noizenecio noriken redalice getty srav3r t+pazolite laur myosuke usao dj genki kobaryo massive new krew p*light yuki_momoiro722 Eryzr Luqua Maeda [R] Ron
BeatmapID:2359231
BeatmapSetID:1080359

[Difficulty]
HPDrainRate:7
CircleSize:2
OverallDifficulty:3.6
ApproachRate:5
SliderMultiplier:1.4
SliderTickRate:1

[Events]
//Background and Video events
0,0,"maxresdefault.jpg",0,60
//Break Periods
//Storyboard Layer 0 (Background)
//Storyboard Layer 1 (Fail)
//Storyboard Layer 2 (Pass)
//Storyboard Layer 3 (Foreground)
//Storyboard Layer 4 (Overlay)
//Storyboard Sound Samples

[TimingPoints]
1614,300,4,1,0,70,1,0
1614.91643937042,-100,4,1,0,70,0,0
4014,-100,4,1,0,85,0,0
12714,-100,4,1,0,80,0,0
13014,-100,4,1,0,75,0,0
13314,-100,4,1,0,70,0,0
13614,-100,4,1,0,60,0,0
16014,-100,4,1,0,65,0,0
18414,-100,4,1,0,70,0,0
19614,-100,4,1,0,75,0,0
20814,-100,4,1,0,80,0,0
23214,-100,4,1,0,85,0,0
33114,-100,4,1,0,90,0,0
41214,-100,4,1,0,85,0,0
41439,-100,4,1,0,80,0,0
41664,-100,4,1,0,75,0,0
41889,-100,4,1,0,70,0,0
42114,-100,4,1,0,65,0,0
42264,-100,4,1,0,60,0,0
42414,-100,4,1,0,80,0,0
52014,-100,4,1,0,95,0,1
61614,-100,4,1,0,95,0,0
61914,-100,4,1,0,50,0,0
66414,-100,4,1,0,65,0,0
71214,-100,4,1,0,80,0,0
80814,-100,4,1,0,60,0,0
85614,-100,4,1,0,70,0,0
88014,-100,4,1,0,85,0,0
90414,-100,4,1,0,100,0,1
100014,-100,4,1,0,75,0,0
102414,-100,4,1,0,95,0,0
104814,-100,4,1,0,75,0,0
107214,-100,4,1,0,95,0,0
109614,-100,4,1,0,80,0,0
110814,-100,4,1,0,75,0,0
112014,-100,4,1,0,70,0,0
113214,-100,4,1,0,65,0,0
114414,-100,4,1,0,70,0,0
115014,-100,4,1,0,75,0,0
115614,-100,4,1,0,80,0,0
116814,-100,4,1,0,85,0,0
119214,-100,4,1,0,100,0,1
128814,-100,4,1,0,85,0,0
128964,-100,4,1,0,75,0,0
129114,-100,4,1,0,65,0,0
129264,-100,4,1,0,55,0,0
129414,-100,4,1,0,45,0,0
129564,-100,4,1,0,35,0,0
129714,-100,4,1,0,25,0,0
129864,-100,4,1,0,15,0,0
130014,-100,4,1,0,5,0,0

[HitObjects]
261,194,2814,5,0,0:0:0:0:
257,192,4014,1,4,0:0:0:0:
257,192,4614,1,0,0:0:0:0:
257,192,4914,1,0,0:0:0:0:
257,182,5064,1,0,0:0:0:0:
257,192,5214,1,0,0:0:0:0:
257,192,5514,1,0,0:0:0:0:
249,180,5814,1,0,0:0:0:0:
249,180,5964,1,0,0:0:0:0:
254,191,6114,1,0,0:0:0:0:
254,191,6414,1,0,0:0:0:0:
257,201,6714,1,2,0:0:0:0:
253,199,7014,1,2,0:0:0:0:
249,180,7314,1,0,0:0:0:0:
253,199,7614,1,4,0:0:0:0:
254,199,8064,1,4,0:0:0:0:
255,199,8814,1,4,0:0:0:0:
261,197,9114,1,2,0:0:0:0:
261,197,9414,1,6,0:0:0:0:
260,197,9714,1,2,0:0:0:0:
260,197,9864,1,2,0:0:0:0:
260,197,10014,1,0,0:0:0:0:
260,197,10314,1,2,0:0:0:0:
255,192,10764,1,2,0:0:0:0:
256,195,11214,1,0,0:0:0:0:
256,195,11514,1,0,0:0:0:0:
256,195,11814,1,0,0:0:0:0:
257,196,12414,1,2,0:0:0:0:
266,195,13614,5,4,0:0:0:0:
262,199,14214,1,2,0:0:0:0:
262,199,14514,1,2,0:0:0:0:
262,199,14814,1,2,0:0:0:0:
263,197,15114,1,2,0:0:0:0:
263,197,15264,1,2,0:0:0:0:
263,197,15414,1,2,0:0:0:0:
255,197,15714,1,0,0:0:0:0:
255,197,16014,1,4,0:0:0:0:
258,198,16614,1,2,0:0:0:0:
258,198,16914,1,2,0:0:0:0:
258,198,17214,1,4,0:0:0:0:
262,197,17814,1,4,0:0:0:0:
261,189,18414,1,4,0:0:0:0:
262,189,19014,1,0,0:0:0:0:
259,192,19614,1,4,0:0:0:0:
259,192,19914,1,0,0:0:0:0:
259,192,20214,1,0,0:0:0:0:
259,192,20514,1,0,0:0:0:0:
256,192,20814,12,0,21714,0:0:0:0:
262,193,22014,5,4,0:0:0:0:
262,193,22614,5,2,0:0:0:0:
257,197,23214,1,0,0:0:0:0:
248,199,23814,1,0,0:0:0:0:
248,199,24414,1,0,0:0:0:0:
248,199,24714,1,2,0:0:0:0:
248,199,25014,1,0,0:0:0:0:
248,199,25314,1,0,0:0:0:0:
255,204,25464,1,2,0:0:0:0:
248,199,25614,1,0,0:0:0:0:
248,199,26214,1,2,0:0:0:0:
248,199,26814,1,0,0:0:0:0:
248,199,26964,1,2,0:0:0:0:
248,199,27114,1,0,0:0:0:0:
248,202,27264,1,2,0:0:0:0:
248,202,27414,1,0,0:0:0:0:
248,202,27714,1,2,0:0:0:0:
249,197,28014,1,0,0:0:0:0:
249,197,28614,1,0,0:0:0:0:
249,197,29214,1,0,0:0:0:0:
261,191,29364,1,0,0:0:0:0:
250,196,29514,1,0,0:0:0:0:
250,196,29814,1,2,0:0:0:0:
250,196,30114,1,2,0:0:0:0:
250,196,30414,1,0,0:0:0:0:
250,196,31014,1,2,0:0:0:0:
241,165,31464,1,2,0:0:0:0:
255,193,31914,1,2,0:0:0:0:
255,193,32064,1,0,0:0:0:0:
261,199,32514,1,2,0:0:0:0:
260,199,32814,1,0,0:0:0:0:
261,198,33114,1,4,0:0:0:0:
261,198,33714,1,4,0:0:0:0:
261,198,34014,1,2,0:0:0:0:
261,198,34314,1,4,0:0:0:0:
261,198,34914,1,4,0:0:0:0:
261,198,35214,1,2,0:0:0:0:
261,198,35514,1,4,0:0:0:0:
261,198,36114,1,4,0:0:0:0:
261,198,36414,1,2,0:0:0:0:
261,198,36714,1,4,0:0:0:0:
261,198,36864,1,4,0:0:0:0:
265,196,37614,1,0,0:0:0:0:
258,199,37914,1,6,0:0:0:0:
252,195,38364,1,6,0:0:0:0:
252,195,38814,1,6,0:0:0:0:
252,195,39264,1,6,0:0:0:0:
251,207,39714,1,6,0:0:0:0:
251,207,40014,1,6,0:0:0:0:
251,207,40314,1,6,0:0:0:0:
257,200,40614,2,6,L|421:200,2,140
260,194,42414,5,6,0:0:0:0:
260,194,42714,1,0,0:0:0:0:
257,195,43314,1,2,0:0:0:0:
257,195,43614,1,0,0:0:0:0:
257,195,43914,1,2,0:0:0:0:
250,193,44064,1,2,0:0:0:0:
250,193,44514,1,0,0:0:0:0:
259,201,44814,1,0,0:0:0:0:
258,201,45114,1,2,0:0:0:0:
258,201,45264,1,0,0:0:0:0:
258,201,45414,1,2,0:0:0:0:
258,201,45714,1,0,0:0:0:0:
257,200,45864,1,2,0:0:0:0:
252,185,46314,1,2,0:0:0:0:
252,185,46464,1,0,0:0:0:0:
252,185,46764,1,0,0:0:0:0:
252,185,46914,1,0,0:0:0:0:
252,185,47214,1,2,0:0:0:0:
250,190,47514,1,0,0:0:0:0:
250,190,47664,1,0,0:0:0:0:
248,188,47964,1,2,0:0:0:0:
248,188,48264,1,0,0:0:0:0:
248,188,48714,1,0,0:0:0:0:
248,188,49014,1,2,0:0:0:0:
248,188,49164,1,2,0:0:0:0:
257,194,49614,1,4,0:0:0:0:
258,189,50214,1,0,0:0:0:0:
258,189,50514,1,2,0:0:0:0:
258,189,50664,1,2,0:0:0:0:
258,192,51414,1,0,0:0:0:0:
258,192,51714,1,0,0:0:0:0:
257,191,52014,5,4,0:0:0:0:
258,191,52314,1,2,0:0:0:0:
258,191,52614,1,0,0:0:0:0:
258,191,52914,1,2,0:0:0:0:
258,191,53064,1,2,0:0:0:0:
267,191,53364,1,0,0:0:0:0:
267,191,53514,1,0,0:0:0:0:
267,191,53814,1,2,0:0:0:0:
267,191,53964,1,2,0:0:0:0:
267,190,54114,1,2,0:0:0:0:
267,190,54414,1,0,0:0:0:0:
260,189,54714,1,2,0:0:0:0:
267,190,55014,1,0,0:0:0:0:
260,196,55314,1,0,0:0:0:0:
260,196,55464,1,2,0:0:0:0:
261,199,55764,1,2,0:0:0:0:
261,199,56064,1,0,0:0:0:0:
261,199,56364,1,2,0:0:0:0:
261,199,56514,1,0,0:0:0:0:
261,199,56814,1,4,0:0:0:0:
263,193,57114,1,2,0:0:0:0:
263,193,57414,1,0,0:0:0:0:
263,193,57714,1,2,0:0:0:0:
263,193,57864,1,2,0:0:0:0:
257,197,58164,1,0,0:0:0:0:
257,197,58314,1,0,0:0:0:0:
257,197,58614,1,2,0:0:0:0:
257,197,58764,1,0,0:0:0:0:
257,197,58914,1,0,0:0:0:0:
26,210,59214,2,0,L|472:205,1,420
257,195,60414,1,0,0:0:0:0:
257,195,60564,1,2,0:0:0:0:
257,195,60864,1,2,0:0:0:0:
258,195,61164,1,0,0:0:0:0:
258,195,61314,1,2,0:0:0:0:
258,194,61614,5,4,0:0:0:0:
258,194,62664,1,0,0:0:0:0:
253,199,64014,1,2,0:0:0:0:
254,199,64614,1,0,0:0:0:0:
254,199,65064,1,2,0:0:0:0:
254,199,65814,1,0,0:0:0:0:
255,199,66414,1,2,0:0:0:0:
254,200,67014,1,2,0:0:0:0:
254,200,67614,1,2,0:0:0:0:
254,200,68214,1,2,0:0:0:0:
254,200,68814,1,2,0:0:0:0:
254,200,69114,1,2,0:0:0:0:
254,200,69414,1,2,0:0:0:0:
254,200,69714,1,2,0:0:0:0:
256,192,70014,12,2,70914,0:0:0:0:
250,194,71214,5,4,0:0:0:0:
252,194,71514,1,2,0:0:0:0:
262,192,71814,1,0,0:0:0:0:
262,192,72114,1,2,0:0:0:0:
262,192,72414,1,0,0:0:0:0:
262,192,72714,1,0,0:0:0:0:
262,192,72864,1,2,0:0:0:0:
262,192,73014,1,0,0:0:0:0:
258,196,73314,1,0,0:0:0:0:
258,196,73464,1,2,0:0:0:0:
258,196,73614,1,0,0:0:0:0:
258,196,73914,1,2,0:0:0:0:
261,190,74214,1,0,0:0:0:0:
254,192,74514,1,2,0:0:0:0:
262,190,74814,1,0,0:0:0:0:
262,190,74964,1,0,0:0:0:0:
254,192,75114,1,2,0:0:0:0:
299,155,75414,1,0,0:0:0:0:
299,155,75564,1,0,0:0:0:0:
254,192,75714,1,2,0:0:0:0:
254,192,76314,1,2,0:0:0:0:
254,192,76464,1,2,0:0:0:0:
254,192,76614,1,2,0:0:0:0:
264,182,76914,1,0,0:0:0:0:
253,192,77064,1,2,0:0:0:0:
257,186,77214,1,0,0:0:0:0:
265,182,77514,1,0,0:0:0:0:
253,192,77664,1,2,0:0:0:0:
253,192,77814,1,0,0:0:0:0:
260,191,78114,1,2,0:0:0:0:
254,195,78414,1,0,0:0:0:0:
260,191,78714,1,2,0:0:0:0:
259,191,79014,1,0,0:0:0:0:
259,192,79614,1,2,0:0:0:0:
259,192,79914,1,2,0:0:0:0:
259,192,80214,1,2,0:0:0:0:
259,192,80514,1,2,0:0:0:0:
255,200,80814,5,0,0:0:0:0:
256,201,81114,1,0,0:0:0:0:
256,201,81264,1,0,0:0:0:0:
256,201,81414,1,2,0:0:0:0:
256,201,81714,1,2,0:0:0:0:
256,201,81864,1,0,0:0:0:0:
256,201,82014,1,0,0:0:0:0:
257,195,82314,1,0,0:0:0:0:
257,195,82614,1,2,0:0:0:0:
257,195,82914,1,0,0:0:0:0:
258,193,83514,1,0,0:0:0:0:
258,193,83664,1,0,0:0:0:0:
258,193,83814,1,2,0:0:0:0:
255,199,84114,1,2,0:0:0:0:
255,199,84264,1,0,0:0:0:0:
255,199,84414,1,0,0:0:0:0:
255,199,84714,1,0,0:0:0:0:
255,199,85014,1,2,0:0:0:0:
251,197,85314,1,0,0:0:0:0:
251,197,85614,1,4,0:0:0:0:
263,202,85914,1,2,0:0:0:0:
254,197,86514,1,2,0:0:0:0:
254,197,86814,1,0,0:0:0:0:
254,197,87114,1,2,0:0:0:0:
254,197,87414,1,2,0:0:0:0:
254,197,87714,1,0,0:0:0:0:
257,189,88014,1,0,0:0:0:0:
257,189,88614,1,0,0:0:0:0:
256,205,89214,1,0,0:0:0:0:
256,205,89514,1,0,0:0:0:0:
256,205,89814,1,2,0:0:0:0:
256,205,90114,1,0,0:0:0:0:
256,205,90414,5,4,0:0:0:0:
256,205,90714,1,0,0:0:0:0:
254,195,90864,1,0,0:0:0:0:
254,197,91014,1,2,0:0:0:0:
254,197,91314,1,2,0:0:0:0:
247,202,91464,1,0,0:0:0:0:
254,197,91614,1,0,0:0:0:0:
254,197,91914,1,0,0:0:0:0:
254,197,92214,1,2,0:0:0:0:
254,197,92814,1,6,0:0:0:0:
253,201,93114,1,0,0:0:0:0:
253,201,93264,1,0,0:0:0:0:
253,201,93414,1,2,0:0:0:0:
253,201,93714,1,2,0:0:0:0:
253,201,93864,1,0,0:0:0:0:
253,201,94014,1,0,0:0:0:0:
254,197,94314,1,0,0:0:0:0:
246,195,94614,1,2,0:0:0:0:
246,195,94914,1,2,0:0:0:0:
246,195,95064,1,2,0:0:0:0:
246,195,95214,1,4,0:0:0:0:
248,196,95514,1,2,0:0:0:0:
241,198,95814,1,0,0:0:0:0:
244,192,96114,1,0,0:0:0:0:
244,192,96264,1,0,0:0:0:0:
244,192,96414,1,4,0:0:0:0:
244,192,96714,1,2,0:0:0:0:
244,192,97014,1,0,0:0:0:0:
244,192,97164,1,0,0:0:0:0:
244,192,97314,1,0,0:0:0:0:
256,190,97614,1,6,0:0:0:0:
259,193,97914,1,0,0:0:0:0:
259,193,98064,1,0,0:0:0:0:
259,193,98214,1,0,0:0:0:0:
261,191,98514,1,0,0:0:0:0:
256,192,98814,12,0,100014,0:0:0:0:
257,197,100614,5,2,0:0:0:0:
257,197,101214,1,0,0:0:0:0:
257,197,101514,1,0,0:0:0:0:
257,197,101814,1,2,0:0:0:0:
257,197,101964,1,0,0:0:0:0:
257,197,102114,1,2,0:0:0:0:
256,199,102414,1,2,0:0:0:0:
257,206,102714,1,0,0:0:0:0:
257,206,103014,1,0,0:0:0:0:
257,206,103314,1,2,0:0:0:0:
257,206,103614,1,2,0:0:0:0:
257,206,103764,1,0,0:0:0:0:
258,206,103914,1,0,0:0:0:0:
258,206,104214,1,0,0:0:0:0:
257,197,104364,1,0,0:0:0:0:
258,206,104514,1,2,0:0:0:0:
252,194,104814,1,0,0:0:0:0:
252,194,105114,1,2,0:0:0:0:
252,194,105414,1,2,0:0:0:0:
252,194,105714,1,2,0:0:0:0:
252,194,106014,1,0,0:0:0:0:
253,187,106314,1,0,0:0:0:0:
241,181,106614,1,2,0:0:0:0:
252,194,107214,1,2,0:0:0:0:
252,194,107514,1,0,0:0:0:0:
252,194,107664,1,0,0:0:0:0:
259,201,107964,1,0,0:0:0:0:
252,194,108114,1,2,0:0:0:0:
252,193,108414,1,2,0:0:0:0:
252,193,108714,1,0,0:0:0:0:
252,193,109014,1,0,0:0:0:0:
252,193,109164,1,2,0:0:0:0:
252,193,109314,1,2,0:0:0:0:
252,192,109614,1,4,0:0:0:0:
252,192,110214,1,0,0:0:0:0:
252,192,110364,1,2,0:0:0:0:
247,189,110664,1,2,0:0:0:0:
247,189,110814,1,0,0:0:0:0:
246,190,111114,1,2,0:0:0:0:
246,190,111414,1,0,0:0:0:0:
246,190,111564,1,2,0:0:0:0:
245,190,112014,1,0,0:0:0:0:
248,198,112614,1,0,0:0:0:0:
248,198,112764,1,2,0:0:0:0:
248,203,113064,1,2,0:0:0:0:
248,203,113214,1,0,0:0:0:0:
248,203,113514,1,2,0:0:0:0:
248,203,113664,1,0,0:0:0:0:
248,203,113814,1,0,0:0:0:0:
248,200,114414,1,0,0:0:0:0:
248,200,114714,1,0,0:0:0:0:
249,199,115014,1,0,0:0:0:0:
249,199,115314,1,0,0:0:0:0:
249,199,115464,1,0,0:0:0:0:
249,199,115764,1,0,0:0:0:0:
249,199,116064,1,0,0:0:0:0:
249,199,116214,1,0,0:0:0:0:
250,199,116514,1,0,0:0:0:0:
250,199,116814,2,0,L|407:200,3,140
249,197,118014,1,4,0:0:0:0:
253,195,118914,1,6,0:0:0:0:
257,190,119214,1,4,0:0:0:0:
262,196,119514,1,0,0:0:0:0:
262,196,119814,1,0,0:0:0:0:
262,196,119964,1,0,0:0:0:0:
262,196,120114,1,0,0:0:0:0:
264,193,120414,1,2,0:0:0:0:
264,193,120564,1,2,0:0:0:0:
264,193,120714,1,2,0:0:0:0:
264,193,121014,1,2,0:0:0:0:
264,193,121314,1,2,0:0:0:0:
264,193,121614,1,0,0:0:0:0:
263,193,121914,1,0,0:0:0:0:
263,193,122064,1,0,0:0:0:0:
263,193,122214,1,2,0:0:0:0:
263,193,122364,1,2,0:0:0:0:
263,193,122514,1,0,0:0:0:0:
261,192,122814,1,6,0:0:0:0:
262,192,123114,1,6,0:0:0:0:
262,192,123414,1,6,0:0:0:0:
262,192,123714,1,6,0:0:0:0:
262,192,124014,1,4,0:0:0:0:
256,192,124314,1,2,0:0:0:0:
259,187,124614,1,0,0:0:0:0:
259,187,124914,1,2,0:0:0:0:
259,187,125214,1,0,0:0:0:0:
259,187,125514,1,2,0:0:0:0:
260,183,125814,1,0,0:0:0:0:
260,183,126114,1,2,0:0:0:0:
255,205,126414,1,0,0:0:0:0:
255,205,126564,1,0,0:0:0:0:
255,205,126714,1,2,0:0:0:0:
255,205,127014,1,0,0:0:0:0:
255,205,127164,1,0,0:0:0:0:
255,205,127314,1,2,0:0:0:0:
255,204,127614,1,0,0:0:0:0:
255,204,127764,1,0,0:0:0:0:
255,204,127914,1,2,0:0:0:0:
255,204,128214,1,0,0:0:0:0:
255,204,128514,1,6,0:0:0:0:
256,192,128814,12,0,130014,0:0:0:0:
