osu file format v14

[General]
AudioFilename: audio.mp3
AudioLeadIn: 0
PreviewTime: 52014
Countdown: 0
SampleSet: Normal
StackLeniency: 0.7
Mode: 1
LetterboxInBreaks: 0
WidescreenStoryboard: 0

[Editor]
Bookmarks: 1614,13614,23214,32814,42414,52014,61614,71214,80814,90414,100014,109614,119214,130014
DistanceSpacing: 1.3
BeatDivisor: 4
GridSize: 32
TimelineZoom: 1.7

[Metadata]
Title:BATTLE NO.1
TitleUnicode:BATTLE NO.1
Artist:TANO*C Sound Team
ArtistUnicode:TANO*C Sound Team
Creator:tamakagi2000
Version:Battle On.1
Source:WACCA
Tags:hardcore floor arcaea instrumental electronic video game noizenecio noriken redalice getty srav3r t+pazolite laur myosuke usao dj genki kobaryo massive new krew p*light yuki_momoiro722 Eryzr Luqua Maeda [R] Ron
BeatmapID:2260269
BeatmapSetID:1080359

[Difficulty]
HPDrainRate:5
CircleSize:4.5
OverallDifficulty:7.2
ApproachRate:1.9
SliderMultiplier:1.4
SliderTickRate:1

[Events]
//Background and Video events
0,0,"maxresdefault.jpg",0,60
//Break Periods
//Storyboard Layer 0 (Background)
//Storyboard Layer 1 (Fail)
//Storyboard Layer 2 (Pass)
//Storyboard Layer 3 (Foreground)
//Storyboard Layer 4 (Overlay)
//Storyboard Sound Samples

[TimingPoints]
1614,300,4,1,0,70,1,0
1614.91643937042,-95.2380952380952,4,1,0,70,0,0
4012,-95.2380952380952,4,1,0,85,0,0
12712,-100,4,1,0,80,0,0
13012,-105.263157894737,4,1,0,75,0,0
13312,-111.111111111111,4,1,0,70,0,0
13612,-117.647058823529,4,1,0,60,0,0
16012,-111.111111111111,4,1,0,65,0,0
17812,-108.695652173913,4,1,0,65,0,0
18037,-106.382978723404,4,1,0,65,0,0
18262,-104.166666666667,4,1,0,65,0,0
18412,-102.040816326531,4,1,0,70,0,0
18562,-100,4,1,0,70,0,0
19612,-98.0392156862745,4,1,0,75,0,0
20812,-97.0873786407767,4,1,0,80,0,0
20887,-96.6183574879227,4,1,0,80,0,0
20962,-96.1538461538461,4,1,0,80,0,0
21037,-95.6937799043062,4,1,0,80,0,0
21112,-95.2380952380952,4,1,0,80,0,0
21187,-94.7867298578199,4,1,0,80,0,0
21262,-94.3396226415094,4,1,0,80,0,0
21337,-93.8967136150235,4,1,0,80,0,0
21412,-93.4579439252336,4,1,0,80,0,0
21487,-93.0232558139535,4,1,0,80,0,0
21562,-92.5925925925926,4,1,0,80,0,0
21637,-92.1658986175115,4,1,0,80,0,0
21712,-91.743119266055,4,1,0,80,0,0
21787,-91.324200913242,4,1,0,80,0,0
21862,-90.9090909090909,4,1,0,80,0,0
21937,-90.4977375565611,4,1,0,80,0,0
22012,-90.0900900900901,4,1,0,80,0,0
22762,-91.743119266055,4,1,0,80,0,0
22912,-93.4579439252336,4,1,0,80,0,0
23212,-97.0873786407767,4,1,0,85,0,0
28012,-95.2380952380952,4,1,0,85,0,0
32362,-92.5925925925926,4,1,0,85,0,0
32812,-100,4,1,0,85,0,0
33112,-90.9090909090909,4,1,0,90,0,0
33337,-83.3333333333333,4,1,0,100,0,0
33562,-76.9230769230769,4,1,0,100,0,0
33712,-71.4285714285714,4,1,0,100,0,0
34012,-95.2380952380952,4,1,0,100,0,0
34312,-86.9565217391304,4,1,0,100,0,0
34537,-80,4,1,0,100,0,0
34762,-74.0740740740741,4,1,0,100,0,0
34912,-68.9655172413793,4,1,0,100,0,0
35212,-90.9090909090909,4,1,0,100,0,0
35512,-83.3333333333333,4,1,0,100,0,0
35737,-80,4,1,0,100,0,0
35962,-76.9230769230769,4,1,0,100,0,0
36112,-74.0740740740741,4,1,0,100,0,0
36262,-71.4285714285714,4,1,0,100,0,0
36412,-68.9655172413793,4,1,0,100,0,0
36712,-71.4285714285714,4,1,0,100,0,0
36862,-76.9230769230769,4,1,0,100,0,0
37012,-83.3333333333333,4,1,0,100,0,0
37612,-86.9565217391304,4,1,0,100,0,0
37912,-83.3333333333333,4,1,0,100,0,0
38137,-80,4,1,0,100,0,0
38362,-76.9230769230769,4,1,0,100,0,0
38587,-74.0740740740741,4,1,0,100,0,0
38812,-71.4285714285714,4,1,0,100,0,0
39037,-68.9655172413793,4,1,0,100,0,0
39262,-66.6666666666667,4,1,0,100,0,0
39487,-64.5161290322581,4,1,0,100,0,0
39712,-62.5,4,1,0,100,0,0
39862,-60.9756097560976,4,1,0,100,0,0
40012,-59.5238095238095,4,1,0,100,0,0
40162,-58.1395348837209,4,1,0,100,0,0
40312,-56.8181818181818,4,1,0,100,0,0
40462,-55.5555555555556,4,1,0,100,0,0
40612,-57.1428571428571,4,1,0,100,0,0
40687,-58.8235294117647,4,1,0,100,0,0
40762,-60.6060606060606,4,1,0,100,0,0
40837,-62.5,4,1,0,100,0,0
40912,-64.5161290322581,4,1,0,100,0,0
40987,-66.6666666666667,4,1,0,100,0,0
41062,-68.9655172413793,4,1,0,100,0,0
41137,-71.4285714285714,4,1,0,100,0,0
41212,-74.0740740740741,4,1,0,85,0,0
41437,-76.9230769230769,4,1,0,80,0,0
41662,-80,4,1,0,75,0,0
41887,-83.3333333333333,4,1,0,70,0,0
42112,-86.9565217391304,4,1,0,65,0,0
42262,-90.9090909090909,4,1,0,60,0,0
42412,-95.2380952380952,4,1,0,80,0,0
49012,-92.5925925925926,4,1,0,80,0,0
49162,-90.0900900900901,4,1,0,80,0,0
49424,-87.719298245614,4,1,0,80,0,0
49612,-85.4700854700855,4,1,0,80,0,0
49762,-86.9565217391304,4,1,0,80,0,0
49912,-88.4955752212389,4,1,0,80,0,0
50062,-90.0900900900901,4,1,0,80,0,0
50212,-91.743119266055,4,1,0,80,0,0
50287,-92.5925925925926,4,1,0,80,0,0
50362,-93.4579439252336,4,1,0,80,0,0
50512,-95.2380952380952,4,1,0,80,0,0
50662,-97.0873786407767,4,1,0,80,0,0
50812,-99.009900990099,4,1,0,80,0,0
50887,-100,4,1,0,80,0,0
50962,-101.010101010101,4,1,0,80,0,0
51112,-103.092783505155,4,1,0,80,0,0
51262,-105.263157894737,4,1,0,80,0,0
51412,-107.52688172043,4,1,0,80,0,0
51487,-108.695652173913,4,1,0,80,0,0
51562,-109.89010989011,4,1,0,80,0,0
51637,-111.111111111111,4,1,0,80,0,0
51712,-112.359550561798,4,1,0,80,0,0
52014,-90.9090909090909,4,1,0,95,0,1
56812,-89.2857142857143,4,1,0,95,0,1
61614,-100,4,1,0,95,0,0
61912,-102.040816326531,4,1,0,50,0,0
62062,-104.166666666667,4,1,0,50,0,0
62137,-105.263157894737,4,1,0,50,0,0
62212,-106.382978723404,4,1,0,50,0,0
62362,-108.695652173913,4,1,0,50,0,0
62512,-111.111111111111,4,1,0,50,0,0
62662,-113.636363636364,4,1,0,50,0,0
62962,-116.279069767442,4,1,0,50,0,0
63112,-119.047619047619,4,1,0,50,0,0
63262,-121.951219512195,4,1,0,50,0,0
63412,-125,4,1,0,50,0,0
63712,-126.582278481013,4,1,0,50,0,0
64012,-128.205128205128,4,1,0,50,0,0
64312,-129.87012987013,4,1,0,50,0,0
64387,-131.578947368421,4,1,0,50,0,0
64462,-133.333333333333,4,1,0,50,0,0
64537,-135.135135135135,4,1,0,50,0,0
64612,-136.986301369863,4,1,0,50,0,0
64762,-138.888888888889,4,1,0,50,0,0
64912,-140.845070422535,4,1,0,50,0,0
65062,-142.857142857143,4,1,0,50,0,0
66412,-133.333333333333,4,1,0,65,0,0
67312,-125,4,1,0,65,0,0
68512,-117.647058823529,4,1,0,65,0,0
68662,-114.942528735632,4,1,0,65,0,0
68812,-112.359550561798,4,1,0,65,0,0
68962,-109.89010989011,4,1,0,65,0,0
69037,-108.695652173913,4,1,0,65,0,0
69112,-107.52688172043,4,1,0,65,0,0
69262,-105.263157894737,4,1,0,65,0,0
69412,-103.092783505155,4,1,0,65,0,0
69487,-102.040816326531,4,1,0,65,0,0
69562,-101.010101010101,4,1,0,65,0,0
69712,-100,4,1,0,65,0,0
69862,-98.0392156862745,4,1,0,65,0,0
70012,-96.1538461538461,4,1,0,65,0,0
70087,-95.2380952380952,4,1,0,65,0,0
70162,-94.3396226415094,4,1,0,65,0,0
70237,-93.4579439252336,4,1,0,65,0,0
70312,-92.5925925925926,4,1,0,65,0,0
70387,-91.743119266055,4,1,0,65,0,0
70462,-90.9090909090909,4,1,0,65,0,0
70537,-90.0900900900901,4,1,0,65,0,0
70612,-89.2857142857143,4,1,0,65,0,0
70912,-86.9565217391304,4,1,0,65,0,0
71212,-74.0740740740741,4,1,0,80,0,0
71512,-66.6666666666667,4,1,0,80,0,0
71587,-67.1140939597315,4,1,0,80,0,0
71662,-67.5675675675676,4,1,0,80,0,0
71737,-68.0272108843537,4,1,0,80,0,0
71812,-68.4931506849315,4,1,0,80,0,0
71887,-68.9655172413793,4,1,0,80,0,0
71962,-69.4444444444444,4,1,0,80,0,0
72037,-69.9300699300699,4,1,0,80,0,0
72112,-70.4225352112676,4,1,0,80,0,0
72187,-70.9219858156028,4,1,0,80,0,0
72262,-71.4285714285714,4,1,0,80,0,0
72337,-71.9424460431655,4,1,0,80,0,0
72412,-72.463768115942,4,1,0,80,0,0
72487,-72.992700729927,4,1,0,80,0,0
72562,-73.5294117647059,4,1,0,80,0,0
72637,-74.0740740740741,4,1,0,80,0,0
72712,-74.6268656716418,4,1,0,80,0,0
72787,-75.187969924812,4,1,0,80,0,0
72862,-75.7575757575758,4,1,0,80,0,0
72937,-76.3358778625954,4,1,0,80,0,0
73012,-76.9230769230769,4,1,0,80,0,0
73087,-77.5193798449612,4,1,0,80,0,0
73162,-78.125,4,1,0,80,0,0
73237,-78.7401574803149,4,1,0,80,0,0
73312,-79.3650793650794,4,1,0,80,0,0
73387,-80,4,1,0,80,0,0
73462,-80.6451612903226,4,1,0,80,0,0
73537,-81.3008130081301,4,1,0,80,0,0
73612,-81.9672131147541,4,1,0,80,0,0
73912,-82.6446280991736,4,1,0,80,0,0
73987,-83.3333333333333,4,1,0,80,0,0
74062,-84.0336134453781,4,1,0,80,0,0
74137,-84.7457627118644,4,1,0,80,0,0
74212,-85.4700854700855,4,1,0,80,0,0
74287,-86.2068965517241,4,1,0,80,0,0
74362,-86.9565217391304,4,1,0,80,0,0
74437,-87.719298245614,4,1,0,80,0,0
74512,-88.4955752212389,4,1,0,80,0,0
74587,-89.2857142857143,4,1,0,80,0,0
74662,-90.0900900900901,4,1,0,80,0,0
74737,-90.9090909090909,4,1,0,80,0,0
74812,-91.743119266055,4,1,0,80,0,0
74887,-92.5925925925926,4,1,0,80,0,0
74962,-93.4579439252336,4,1,0,80,0,0
75037,-94.3396226415094,4,1,0,80,0,0
75112,-95.2380952380952,4,1,0,80,0,0
75187,-96.1538461538461,4,1,0,80,0,0
75262,-97.0873786407767,4,1,0,80,0,0
75337,-98.0392156862745,4,1,0,80,0,0
75412,-99.009900990099,4,1,0,80,0,0
75562,-100,4,1,0,80,0,0
75712,-101.010101010101,4,1,0,80,0,0
76012,-74.0740740740741,4,1,0,80,0,0
76312,-66.6666666666667,4,1,0,80,0,0
76387,-67.1140939597315,4,1,0,80,0,0
76462,-67.5675675675676,4,1,0,80,0,0
76537,-68.0272108843537,4,1,0,80,0,0
76612,-68.4931506849315,4,1,0,80,0,0
76687,-68.9655172413793,4,1,0,80,0,0
76762,-69.4444444444444,4,1,0,80,0,0
76837,-69.9300699300699,4,1,0,80,0,0
76912,-70.4225352112676,4,1,0,80,0,0
76987,-70.9219858156028,4,1,0,80,0,0
77062,-71.4285714285714,4,1,0,80,0,0
77137,-71.9424460431655,4,1,0,80,0,0
77212,-72.463768115942,4,1,0,80,0,0
77287,-72.992700729927,4,1,0,80,0,0
77362,-73.5294117647059,4,1,0,80,0,0
77437,-74.0740740740741,4,1,0,80,0,0
77512,-74.6268656716418,4,1,0,80,0,0
77587,-75.187969924812,4,1,0,80,0,0
77662,-75.7575757575758,4,1,0,80,0,0
77737,-76.3358778625954,4,1,0,80,0,0
77812,-76.9230769230769,4,1,0,80,0,0
77887,-77.5193798449612,4,1,0,80,0,0
77962,-78.125,4,1,0,80,0,0
78037,-78.7401574803149,4,1,0,80,0,0
78112,-79.3650793650794,4,1,0,80,0,0
78187,-80,4,1,0,80,0,0
78262,-80.6451612903226,4,1,0,80,0,0
78337,-81.3008130081301,4,1,0,80,0,0
78412,-81.9672131147541,4,1,0,80,0,0
78712,-82.6446280991736,4,1,0,80,0,0
78787,-83.3333333333333,4,1,0,80,0,0
78862,-84.0336134453781,4,1,0,80,0,0
79012,-84.7457627118644,4,1,0,80,0,0
79312,-85.4700854700855,4,1,0,80,0,0
79387,-86.2068965517241,4,1,0,80,0,0
79462,-86.9565217391304,4,1,0,80,0,0
79537,-87.719298245614,4,1,0,80,0,0
79612,-88.4955752212389,4,1,0,80,0,0
79762,-89.2857142857143,4,1,0,80,0,0
79912,-90.0900900900901,4,1,0,80,0,0
80062,-90.9090909090909,4,1,0,80,0,0
80137,-91.743119266055,4,1,0,80,0,0
80212,-92.5925925925926,4,1,0,80,0,0
80362,-93.4579439252336,4,1,0,80,0,0
80512,-94.3396226415094,4,1,0,80,0,0
80812,-125,4,1,0,60,0,0
85612,-100,4,1,0,70,0,0
88012,-99.009900990099,4,1,0,85,0,0
88087,-98.5221674876847,4,1,0,85,0,0
88162,-98.0392156862745,4,1,0,85,0,0
88237,-97.5609756097561,4,1,0,85,0,0
88312,-97.0873786407767,4,1,0,85,0,0
88387,-96.6183574879227,4,1,0,85,0,0
88462,-96.1538461538461,4,1,0,85,0,0
88537,-95.6937799043062,4,1,0,85,0,0
88612,-95.2380952380952,4,1,0,85,0,0
88687,-94.7867298578199,4,1,0,85,0,0
88762,-94.3396226415094,4,1,0,85,0,0
88837,-93.8967136150235,4,1,0,85,0,0
88912,-93.4579439252336,4,1,0,85,0,0
88987,-93.0232558139535,4,1,0,85,0,0
89062,-92.5925925925926,4,1,0,85,0,0
89137,-92.1658986175115,4,1,0,85,0,0
89212,-91.743119266055,4,1,0,85,0,0
89287,-91.324200913242,4,1,0,85,0,0
89362,-90.9090909090909,4,1,0,85,0,0
89437,-90.4977375565611,4,1,0,85,0,0
89512,-90.0900900900901,4,1,0,85,0,0
89587,-89.6860986547085,4,1,0,85,0,0
89662,-89.2857142857143,4,1,0,85,0,0
89737,-88.8888888888889,4,1,0,85,0,0
89812,-88.4955752212389,4,1,0,85,0,0
89887,-88.1057268722467,4,1,0,85,0,0
89962,-87.719298245614,4,1,0,85,0,0
90037,-87.3362445414847,4,1,0,85,0,0
90112,-86.9565217391304,4,1,0,85,0,0
90262,-86.5800865800866,4,1,0,85,0,0
90414,-86.2068965517241,4,1,0,100,0,1
97312,-84.7457627118644,4,1,0,100,0,1
97612,-84.7457627118644,4,1,0,100,0,1
100014,-86.9565217391304,4,1,0,75,0,0
100162,-89.2857142857143,4,1,0,75,0,0
100312,-91.743119266055,4,1,0,75,0,0
100462,-94.3396226415094,4,1,0,75,0,0
100612,-97.0873786407767,4,1,0,75,0,0
100762,-100,4,1,0,75,0,0
100912,-103.092783505155,4,1,0,75,0,0
101062,-106.382978723404,4,1,0,75,0,0
101212,-109.89010989011,4,1,0,75,0,0
101362,-113.636363636364,4,1,0,75,0,0
101512,-117.647058823529,4,1,0,75,0,0
101662,-121.951219512195,4,1,0,75,0,0
101812,-126.582278481013,4,1,0,75,0,0
101887,-128.205128205128,4,1,0,75,0,0
101962,-129.87012987013,4,1,0,75,0,0
102112,-90.9090909090909,4,1,0,75,0,0
102412,-80,4,1,0,95,0,0
104812,-80,4,1,0,75,0,0
104962,-81.3008130081301,4,1,0,75,0,0
105037,-82.6446280991736,4,1,0,75,0,0
105112,-84.0336134453781,4,1,0,75,0,0
105262,-85.4700854700855,4,1,0,75,0,0
105412,-86.9565217391304,4,1,0,75,0,0
105487,-88.4955752212389,4,1,0,75,0,0
105562,-90.0900900900901,4,1,0,75,0,0
105712,-91.743119266055,4,1,0,75,0,0
105862,-93.4579439252336,4,1,0,75,0,0
106012,-95.2380952380952,4,1,0,75,0,0
106087,-97.0873786407767,4,1,0,75,0,0
106162,-99.009900990099,4,1,0,75,0,0
106237,-101.010101010101,4,1,0,75,0,0
106312,-103.092783505155,4,1,0,75,0,0
106462,-105.263157894737,4,1,0,75,0,0
106537,-107.52688172043,4,1,0,75,0,0
106612,-109.89010989011,4,1,0,75,0,0
106687,-112.359550561798,4,1,0,75,0,0
106762,-114.942528735632,4,1,0,75,0,0
106912,-86.9565217391304,4,1,0,75,0,0
107212,-78.125,4,1,0,95,0,0
108562,-78.7401574803149,4,1,0,95,0,0
108637,-79.3650793650794,4,1,0,95,0,0
108712,-80,4,1,0,95,0,0
108862,-80.6451612903226,4,1,0,95,0,0
109012,-81.3008130081301,4,1,0,95,0,0
109087,-81.9672131147541,4,1,0,95,0,0
109162,-82.6446280991736,4,1,0,95,0,0
109312,-83.3333333333333,4,1,0,95,0,0
109612,-86.9565217391304,4,1,0,80,0,0
109762,-87.719298245614,4,1,0,80,0,0
109837,-88.4955752212389,4,1,0,80,0,0
109912,-89.2857142857143,4,1,0,80,0,0
110062,-90.0900900900901,4,1,0,80,0,0
110137,-90.9090909090909,4,1,0,80,0,0
110212,-91.743119266055,4,1,0,80,0,0
110362,-92.5925925925926,4,1,0,80,0,0
110512,-93.4579439252336,4,1,0,80,0,0
110662,-94.3396226415094,4,1,0,80,0,0
110812,-95.2380952380952,4,1,0,75,0,0
110962,-96.1538461538461,4,1,0,75,0,0
111037,-97.0873786407767,4,1,0,75,0,0
111112,-98.0392156862745,4,1,0,75,0,0
111262,-99.009900990099,4,1,0,75,0,0
111337,-100,4,1,0,75,0,0
111412,-101.010101010101,4,1,0,75,0,0
111562,-102.040816326531,4,1,0,75,0,0
111712,-103.092783505155,4,1,0,75,0,0
112012,-105.263157894737,4,1,0,70,0,0
112162,-106.382978723404,4,1,0,70,0,0
112312,-107.52688172043,4,1,0,70,0,0
112387,-108.695652173913,4,1,0,70,0,0
112462,-109.89010989011,4,1,0,70,0,0
112612,-111.111111111111,4,1,0,70,0,0
112687,-112.359550561798,4,1,0,70,0,0
112762,-113.636363636364,4,1,0,70,0,0
112912,-114.942528735632,4,1,0,70,0,0
113062,-116.279069767442,4,1,0,70,0,0
113212,-117.647058823529,4,1,0,65,0,0
113362,-119.047619047619,4,1,0,65,0,0
113512,-120.481927710843,4,1,0,65,0,0
113587,-121.951219512195,4,1,0,65,0,0
113662,-123.456790123457,4,1,0,65,0,0
113737,-125,4,1,0,65,0,0
113812,-126.582278481013,4,1,0,65,0,0
114112,-128.205128205128,4,1,0,65,0,0
114412,-117.647058823529,4,1,0,70,0,0
114712,-111.111111111111,4,1,0,70,0,0
115012,-105.263157894737,4,1,0,75,0,0
115312,-100,4,1,0,75,0,0
115462,-95.2380952380952,4,1,0,75,0,0
115762,-90.9090909090909,4,1,0,80,0,0
116062,-86.9565217391304,4,1,0,80,0,0
116212,-83.3333333333333,4,1,0,80,0,0
116512,-80,4,1,0,80,0,0
116812,-80,4,1,0,85,0,0
116887,-79.6812749003984,4,1,0,85,0,0
116962,-79.3650793650794,4,1,0,85,0,0
117037,-79.0513833992095,4,1,0,85,0,0
117112,-78.7401574803149,4,1,0,85,0,0
117187,-78.4313725490196,4,1,0,85,0,0
117262,-78.125,4,1,0,85,0,0
117337,-77.8210116731517,4,1,0,85,0,0
117412,-77.5193798449612,4,1,0,85,0,0
117487,-77.2200772200772,4,1,0,85,0,0
117562,-76.9230769230769,4,1,0,85,0,0
117637,-76.6283524904215,4,1,0,85,0,0
117712,-76.3358778625954,4,1,0,85,0,0
117787,-76.0456273764259,4,1,0,85,0,0
117862,-75.7575757575758,4,1,0,85,0,0
117937,-75.4716981132076,4,1,0,85,0,0
118012,-75.187969924812,4,1,0,85,0,0
118312,-81.9672131147541,4,1,0,85,0,0
118612,-90.0900900900901,4,1,0,85,0,0
118912,-101.010101010101,4,1,0,85,0,0
119214,-83.3333333333333,4,1,0,100,0,1
124012,-80,4,1,0,100,0,1
124612,-79.3650793650794,4,1,0,100,0,1
125212,-78.7401574803149,4,1,0,100,0,1
125812,-78.125,4,1,0,100,0,1
126412,-77.5193798449612,4,1,0,100,0,1
127012,-76.9230769230769,4,1,0,100,0,1
127612,-76.3358778625954,4,1,0,100,0,1
127762,-75.7575757575758,4,1,0,100,0,1
127912,-75.187969924812,4,1,0,100,0,1
128062,-74.6268656716418,4,1,0,100,0,1
128137,-74.0740740740741,4,1,0,100,0,1
128212,-73.5294117647059,4,1,0,100,0,1
128287,-72.992700729927,4,1,0,100,0,1
128362,-72.463768115942,4,1,0,100,0,1
128512,-66.6666666666667,4,1,0,100,0,1
128662,-33.3333333333333,4,1,0,100,0,1
128814,-33.3333333333333,4,1,0,85,0,0
128962,-33.3333333333333,4,1,0,70,0,0
129112,-33.3333333333333,4,1,0,55,0,0
129262,-33.3333333333333,4,1,0,40,0,0
129412,-33.3333333333333,4,1,0,25,0,0
129562,-33.3333333333333,4,1,0,10,0,0
129712,-33.3333333333333,4,1,0,8,0,0
129862,-33.3333333333333,4,1,0,6,0,0
130012,-33.3333333333333,4,1,0,5,0,0

[HitObjects]
258,193,2814,5,0,0:0:0:0:
259,192,4014,1,4,0:0:0:0:
254,195,4314,1,4,0:0:0:0:
254,195,4614,1,4,0:0:0:0:
256,197,4914,1,4,0:0:0:0:
254,195,5064,1,4,0:0:0:0:
254,195,5214,1,4,0:0:0:0:
254,195,5514,1,4,0:0:0:0:
256,191,5814,1,4,0:0:0:0:
254,195,5964,1,4,0:0:0:0:
257,191,6114,1,4,0:0:0:0:
259,193,6264,1,0,0:0:0:0:
254,195,6339,1,0,0:0:0:0:
254,195,6414,1,0,0:0:0:0:
256,191,6714,1,4,0:0:0:0:
257,191,7014,1,4,0:0:0:0:
256,191,7164,1,4,0:0:0:0:
258,192,7314,1,2,0:0:0:0:
255,183,7464,1,0,0:0:0:0:
253,186,7539,1,2,0:0:0:0:
256,191,7614,1,0,0:0:0:0:
257,191,7914,1,2,0:0:0:0:
256,191,8064,1,4,0:0:0:0:
254,195,8364,1,2,0:0:0:0:
258,193,8514,1,4,0:0:0:0:
257,191,8814,1,4,0:0:0:0:
252,188,9114,1,6,0:0:0:0:
252,188,9414,1,6,0:0:0:0:
257,191,9714,1,6,0:0:0:0:
252,188,9864,1,2,0:0:0:0:
252,188,9939,1,0,0:0:0:0:
252,188,10014,1,2,0:0:0:0:
252,188,10314,1,2,0:0:0:0:
246,187,10464,1,4,0:0:0:0:
252,188,10764,1,2,0:0:0:0:
252,188,10914,1,4,0:0:0:0:
246,187,11214,1,4,0:0:0:0:
246,187,11364,1,4,0:0:0:0:
246,186,11514,1,6,0:0:0:0:
246,186,11664,1,6,0:0:0:0:
246,186,11814,1,0,0:0:0:0:
252,188,11914,1,0,0:0:0:0:
246,187,12014,1,0,0:0:0:0:
246,187,12114,1,2,0:0:0:0:
246,187,12214,1,2,0:0:0:0:
246,187,12314,1,2,0:0:0:0:
250,188,12414,1,0,0:0:0:0:
246,186,12714,1,0,0:0:0:0:
237,186,13014,1,2,0:0:0:0:
251,183,13314,1,2,0:0:0:0:
252,184,13614,5,4,0:0:0:0:
251,185,13914,1,2,0:0:0:0:
251,183,14064,1,2,0:0:0:0:
251,183,14214,1,2,0:0:0:0:
252,184,14514,1,2,0:0:0:0:
251,185,14664,1,2,0:0:0:0:
251,185,14814,1,0,0:0:0:0:
251,183,14964,1,0,0:0:0:0:
251,183,15114,1,2,0:0:0:0:
252,184,15264,1,0,0:0:0:0:
252,184,15414,1,2,0:0:0:0:
252,184,15489,1,2,0:0:0:0:
251,185,15564,1,2,0:0:0:0:
251,185,15714,1,0,0:0:0:0:
251,185,15789,1,0,0:0:0:0:
247,186,15864,1,0,0:0:0:0:
251,183,16014,1,4,0:0:0:0:
252,184,16314,1,2,0:0:0:0:
252,184,16464,1,2,0:0:0:0:
254,183,16614,1,2,0:0:0:0:
251,182,16764,1,0,0:0:0:0:
251,183,16839,1,2,0:0:0:0:
251,185,16914,1,0,0:0:0:0:
252,184,17064,1,2,0:0:0:0:
252,184,17214,1,4,0:0:0:0:
252,184,17364,1,2,0:0:0:0:
252,184,17439,1,2,0:0:0:0:
251,185,17514,1,2,0:0:0:0:
256,182,17664,1,2,0:0:0:0:
262,180,17814,1,4,0:0:0:0:
260,181,18039,1,4,0:0:0:0:
260,181,18264,1,4,0:0:0:0:
260,181,18414,1,4,0:0:0:0:
256,182,18564,1,2,0:0:0:0:
256,182,18639,1,2,0:0:0:0:
262,180,18714,1,2,0:0:0:0:
260,181,18864,1,2,0:0:0:0:
266,176,19014,1,0,0:0:0:0:
265,177,19164,1,0,0:0:0:0:
271,174,19314,1,2,0:0:0:0:
267,175,19464,1,0,0:0:0:0:
267,177,19614,1,4,0:0:0:0:
266,177,19764,1,2,0:0:0:0:
266,177,19839,1,2,0:0:0:0:
266,176,19914,1,0,0:0:0:0:
268,179,19989,1,0,0:0:0:0:
265,177,20064,1,2,0:0:0:0:
266,177,20214,1,2,0:0:0:0:
268,179,20289,1,2,0:0:0:0:
268,179,20364,1,0,0:0:0:0:
267,177,20514,1,0,0:0:0:0:
266,177,20664,1,2,0:0:0:0:
271,181,20814,1,0,0:0:0:0:
269,181,20889,1,0,0:0:0:0:
271,180,20964,1,2,0:0:0:0:
272,180,21039,1,0,0:0:0:0:
275,179,21114,1,2,0:0:0:0:
276,180,21189,1,2,0:0:0:0:
277,179,21264,1,0,0:0:0:0:
276,180,21339,1,2,0:0:0:0:
269,185,21414,1,0,0:0:0:0:
269,185,21489,1,0,0:0:0:0:
267,186,21564,1,2,0:0:0:0:
267,186,21639,1,2,0:0:0:0:
271,181,21714,1,0,0:0:0:0:
271,181,21789,1,2,0:0:0:0:
269,181,21864,1,0,0:0:0:0:
269,185,21939,1,2,0:0:0:0:
271,185,22014,1,0,0:0:0:0:
258,190,22464,1,0,0:0:0:0:
258,190,22514,1,0,0:0:0:0:
258,190,22564,1,0,0:0:0:0:
258,190,22614,1,2,0:0:0:0:
258,190,22764,1,0,0:0:0:0:
258,190,22914,1,6,0:0:0:0:
261,200,23214,5,4,0:0:0:0:
266,202,23364,1,2,0:0:0:0:
266,200,23439,1,2,0:0:0:0:
261,200,23514,1,0,0:0:0:0:
261,200,23664,1,2,0:0:0:0:
261,200,23814,1,0,0:0:0:0:
261,200,23889,1,0,0:0:0:0:
266,199,23964,1,2,0:0:0:0:
268,199,24114,1,0,0:0:0:0:
266,202,24264,1,2,0:0:0:0:
266,200,24414,1,0,0:0:0:0:
266,202,24564,1,2,0:0:0:0:
266,202,24639,1,2,0:0:0:0:
269,202,24714,1,0,0:0:0:0:
266,205,24864,1,2,0:0:0:0:
266,207,25014,1,0,0:0:0:0:
266,207,25089,1,0,0:0:0:0:
263,207,25164,1,2,0:0:0:0:
264,206,25239,1,0,0:0:0:0:
263,207,25314,1,2,0:0:0:0:
266,202,25464,1,2,0:0:0:0:
266,208,25614,1,0,0:0:0:0:
266,205,25764,1,2,0:0:0:0:
266,205,25839,1,2,0:0:0:0:
266,207,25914,1,0,0:0:0:0:
266,207,25989,1,0,0:0:0:0:
266,207,26064,1,2,0:0:0:0:
268,206,26214,1,0,0:0:0:0:
270,206,26289,1,0,0:0:0:0:
270,206,26364,1,2,0:0:0:0:
268,206,26439,1,2,0:0:0:0:
272,203,26514,1,0,0:0:0:0:
272,203,26664,1,2,0:0:0:0:
252,188,26814,1,0,0:0:0:0:
252,188,26889,1,2,0:0:0:0:
252,188,26964,1,0,0:0:0:0:
252,188,27039,1,2,0:0:0:0:
252,188,27114,1,0,0:0:0:0:
258,185,27264,1,2,0:0:0:0:
260,183,27339,1,0,0:0:0:0:
259,182,27414,1,2,0:0:0:0:
260,182,27489,1,0,0:0:0:0:
260,181,27564,1,2,0:0:0:0:
256,181,27714,1,2,0:0:0:0:
255,181,27789,1,2,0:0:0:0:
255,181,27864,1,2,0:0:0:0:
255,182,28014,1,0,0:0:0:0:
258,185,28164,1,2,0:0:0:0:
258,185,28239,1,2,0:0:0:0:
255,181,28314,1,0,0:0:0:0:
255,181,28464,1,2,0:0:0:0:
256,181,28614,1,0,0:0:0:0:
256,181,28689,1,0,0:0:0:0:
255,181,28764,1,2,0:0:0:0:
255,181,28839,1,2,0:0:0:0:
261,180,28914,1,0,0:0:0:0:
258,185,29064,1,2,0:0:0:0:
258,185,29139,1,2,0:0:0:0:
262,183,29214,1,0,0:0:0:0:
262,183,29289,1,0,0:0:0:0:
264,183,29364,1,2,0:0:0:0:
264,183,29439,1,2,0:0:0:0:
266,183,29514,1,0,0:0:0:0:
264,187,29664,1,2,0:0:0:0:
264,187,29739,1,2,0:0:0:0:
266,186,29814,1,0,0:0:0:0:
267,190,29889,1,0,0:0:0:0:
266,187,29964,1,2,0:0:0:0:
266,193,30039,1,0,0:0:0:0:
262,193,30114,1,2,0:0:0:0:
262,193,30189,1,0,0:0:0:0:
262,193,30264,1,2,0:0:0:0:
263,189,30414,1,0,0:0:0:0:
264,187,30564,1,0,0:0:0:0:
264,187,30639,1,0,0:0:0:0:
264,187,30714,1,2,0:0:0:0:
262,187,30864,1,2,0:0:0:0:
266,192,30939,1,0,0:0:0:0:
266,193,31014,1,0,0:0:0:0:
262,193,31164,1,0,0:0:0:0:
263,189,31314,1,2,0:0:0:0:
263,189,31389,1,2,0:0:0:0:
268,198,31464,1,0,0:0:0:0:
268,198,31539,1,0,0:0:0:0:
268,198,31614,1,0,0:0:0:0:
266,198,31764,1,0,0:0:0:0:
263,198,31914,1,2,0:0:0:0:
263,198,32064,1,0,0:0:0:0:
258,196,32364,1,2,0:0:0:0:
258,196,32439,1,2,0:0:0:0:
258,196,32514,1,2,0:0:0:0:
256,190,32814,5,4,0:0:0:0:
256,190,33114,1,6,0:0:0:0:
256,190,33339,1,6,0:0:0:0:
256,190,33564,1,6,0:0:0:0:
256,190,33714,1,6,0:0:0:0:
263,190,34014,1,4,0:0:0:0:
256,190,34314,1,6,0:0:0:0:
256,190,34539,1,6,0:0:0:0:
256,190,34764,1,6,0:0:0:0:
256,190,34914,1,4,0:0:0:0:
263,190,35214,1,4,0:0:0:0:
256,190,35514,1,6,0:0:0:0:
256,190,35739,1,6,0:0:0:0:
256,190,35964,1,6,0:0:0:0:
256,190,36114,1,6,0:0:0:0:
249,188,36264,1,6,0:0:0:0:
251,188,36414,1,4,0:0:0:0:
256,191,36714,1,6,0:0:0:0:
256,191,36864,1,6,0:0:0:0:
52,190,37014,2,4,L|246:188,1,167.999994873047
256,191,37614,1,4,0:0:0:0:
256,191,37914,1,6,0:0:0:0:
256,191,38139,1,6,0:0:0:0:
256,191,38364,1,6,0:0:0:0:
256,191,38589,1,6,0:0:0:0:
256,191,38814,1,6,0:0:0:0:
256,191,39039,1,6,0:0:0:0:
261,189,39264,1,6,0:0:0:0:
263,188,39489,1,6,0:0:0:0:
261,191,39714,1,6,0:0:0:0:
262,189,39864,1,6,0:0:0:0:
262,190,40014,1,6,0:0:0:0:
261,189,40164,1,6,0:0:0:0:
263,188,40314,1,6,0:0:0:0:
263,188,40464,1,6,0:0:0:0:
261,191,40614,1,2,0:0:0:0:
261,191,40689,1,2,0:0:0:0:
262,189,40764,1,2,0:0:0:0:
262,189,40839,1,2,0:0:0:0:
262,190,40914,1,2,0:0:0:0:
262,190,40989,1,2,0:0:0:0:
261,189,41064,1,2,0:0:0:0:
261,189,41139,1,2,0:0:0:0:
263,188,41214,1,0,0:0:0:0:
263,188,41439,1,0,0:0:0:0:
261,185,41664,1,0,0:0:0:0:
261,184,41889,1,0,0:0:0:0:
261,189,42114,1,0,0:0:0:0:
263,188,42264,1,2,0:0:0:0:
263,188,42414,5,4,0:0:0:0:
261,185,42639,1,2,0:0:0:0:
268,183,42714,1,0,0:0:0:0:
270,183,42864,1,2,0:0:0:0:
270,183,43014,1,0,0:0:0:0:
270,183,43089,1,0,0:0:0:0:
271,182,43164,1,2,0:0:0:0:
273,180,43314,1,2,0:0:0:0:
268,178,43464,1,0,0:0:0:0:
269,178,43614,1,0,0:0:0:0:
268,183,43689,1,0,0:0:0:0:
270,183,43764,1,2,0:0:0:0:
270,183,43914,1,2,0:0:0:0:
270,183,44064,1,0,0:0:0:0:
271,182,44139,1,0,0:0:0:0:
265,184,44214,1,2,0:0:0:0:
266,184,44289,1,0,0:0:0:0:
266,183,44364,1,2,0:0:0:0:
271,188,44514,1,2,0:0:0:0:
270,186,44589,1,0,0:0:0:0:
268,183,44664,1,2,0:0:0:0:
270,183,44739,1,2,0:0:0:0:
270,183,44814,1,0,0:0:0:0:
270,183,44964,1,2,0:0:0:0:
270,183,45039,1,2,0:0:0:0:
266,188,45114,1,0,0:0:0:0:
266,184,45264,1,2,0:0:0:0:
271,188,45414,1,0,0:0:0:0:
271,188,45489,1,2,0:0:0:0:
266,190,45564,1,2,0:0:0:0:
266,193,45714,1,0,0:0:0:0:
266,194,45789,1,0,0:0:0:0:
269,192,45864,1,2,0:0:0:0:
269,192,45939,1,2,0:0:0:0:
269,192,46014,1,0,0:0:0:0:
268,195,46089,1,0,0:0:0:0:
267,195,46164,1,0,0:0:0:0:
267,196,46239,1,2,0:0:0:0:
267,196,46314,1,2,0:0:0:0:
271,196,46464,1,2,0:0:0:0:
274,194,46539,1,2,0:0:0:0:
275,194,46614,1,0,0:0:0:0:
276,194,46764,1,2,0:0:0:0:
276,194,46914,1,0,0:0:0:0:
276,194,46989,1,0,0:0:0:0:
279,195,47064,1,2,0:0:0:0:
279,195,47139,1,2,0:0:0:0:
276,197,47214,1,0,0:0:0:0:
262,195,47364,1,2,0:0:0:0:
262,194,47439,1,2,0:0:0:0:
262,193,47514,1,2,0:0:0:0:
261,193,47664,1,2,0:0:0:0:
260,191,47814,1,0,0:0:0:0:
261,190,47889,1,0,0:0:0:0:
262,188,47964,1,2,0:0:0:0:
262,188,48039,1,2,0:0:0:0:
263,188,48114,1,2,0:0:0:0:
263,188,48264,1,2,0:0:0:0:
263,188,48339,1,2,0:0:0:0:
253,195,48414,1,0,0:0:0:0:
253,195,48564,1,2,0:0:0:0:
253,195,48639,1,2,0:0:0:0:
247,198,48714,1,0,0:0:0:0:
253,195,48789,1,0,0:0:0:0:
253,195,48864,1,2,0:0:0:0:
255,188,49014,1,4,0:0:0:0:
248,188,49164,1,6,0:0:0:0:
248,188,49426,1,6,0:0:0:0:
255,188,49614,1,4,0:0:0:0:
252,189,49764,1,0,0:0:0:0:
255,188,49914,1,2,0:0:0:0:
255,188,50064,1,0,0:0:0:0:
248,188,50214,1,2,0:0:0:0:
248,188,50289,1,2,0:0:0:0:
248,188,50364,1,2,0:0:0:0:
255,188,50514,1,0,0:0:0:0:
252,189,50664,1,2,0:0:0:0:
248,190,50814,1,0,0:0:0:0:
248,190,50889,1,0,0:0:0:0:
248,190,50964,1,0,0:0:0:0:
248,188,51114,1,2,0:0:0:0:
248,188,51264,1,0,0:0:0:0:
244,190,51414,1,2,0:0:0:0:
245,190,51489,1,2,0:0:0:0:
244,189,51564,1,0,0:0:0:0:
246,188,51639,1,0,0:0:0:0:
248,190,51714,1,2,0:0:0:0:
256,188,52014,5,4,0:0:0:0:
256,188,52164,1,2,0:0:0:0:
256,188,52239,1,2,0:0:0:0:
261,188,52314,1,0,0:0:0:0:
261,187,52464,1,2,0:0:0:0:
266,186,52614,1,0,0:0:0:0:
266,186,52689,1,0,0:0:0:0:
263,183,52764,1,2,0:0:0:0:
266,185,52914,1,0,0:0:0:0:
268,184,52989,1,0,0:0:0:0:
266,183,53064,1,2,0:0:0:0:
266,183,53139,1,2,0:0:0:0:
270,183,53214,1,0,0:0:0:0:
271,184,53364,1,2,0:0:0:0:
271,184,53439,1,2,0:0:0:0:
271,183,53514,1,2,0:0:0:0:
275,188,53664,1,2,0:0:0:0:
276,183,53814,1,0,0:0:0:0:
274,178,53889,1,0,0:0:0:0:
278,184,53964,1,2,0:0:0:0:
279,185,54014,1,2,0:0:0:0:
279,184,54064,1,2,0:0:0:0:
279,184,54114,1,0,0:0:0:0:
279,185,54264,1,2,0:0:0:0:
285,183,54414,1,0,0:0:0:0:
256,191,54564,1,2,0:0:0:0:
256,191,54714,1,2,0:0:0:0:
257,188,54864,1,0,0:0:0:0:
260,188,55014,1,2,0:0:0:0:
263,187,55164,1,2,0:0:0:0:
256,191,55314,1,0,0:0:0:0:
256,191,55464,1,2,0:0:0:0:
262,189,55614,1,0,0:0:0:0:
261,193,55764,1,2,0:0:0:0:
262,192,55914,1,0,0:0:0:0:
262,193,56064,1,2,0:0:0:0:
264,193,56214,1,0,0:0:0:0:
264,193,56364,1,2,0:0:0:0:
262,193,56514,1,2,0:0:0:0:
261,193,56664,1,0,0:0:0:0:
256,188,56814,1,4,0:0:0:0:
256,188,56964,1,2,0:0:0:0:
256,188,57039,1,2,0:0:0:0:
261,188,57114,1,0,0:0:0:0:
261,187,57264,1,2,0:0:0:0:
266,186,57414,1,0,0:0:0:0:
266,186,57489,1,2,0:0:0:0:
263,183,57564,1,2,0:0:0:0:
266,185,57714,1,0,0:0:0:0:
268,184,57789,1,2,0:0:0:0:
266,183,57864,1,2,0:0:0:0:
266,183,57939,1,0,0:0:0:0:
270,183,58014,1,0,0:0:0:0:
271,184,58164,1,2,0:0:0:0:
271,184,58239,1,2,0:0:0:0:
271,183,58314,1,0,0:0:0:0:
275,188,58464,1,2,0:0:0:0:
276,183,58614,1,0,0:0:0:0:
266,185,58689,1,0,0:0:0:0:
276,183,58764,1,2,0:0:0:0:
280,182,58814,1,2,0:0:0:0:
271,184,58864,1,2,0:0:0:0:
280,182,58914,1,0,0:0:0:0:
280,182,59064,1,2,0:0:0:0:
256,189,59214,1,0,0:0:0:0:
257,189,59364,1,2,0:0:0:0:
259,190,59414,1,2,0:0:0:0:
258,190,59464,1,2,0:0:0:0:
258,190,59514,1,0,0:0:0:0:
257,191,59664,1,2,0:0:0:0:
257,191,59814,1,0,0:0:0:0:
256,192,59889,1,0,0:0:0:0:
255,192,59964,1,2,0:0:0:0:
256,192,60039,1,2,0:0:0:0:
256,189,60114,1,0,0:0:0:0:
256,194,60264,1,2,0:0:0:0:
251,194,60414,1,0,0:0:0:0:
254,196,60564,1,2,0:0:0:0:
257,191,60639,1,2,0:0:0:0:
257,191,60714,1,2,0:0:0:0:
256,192,60864,1,0,0:0:0:0:
256,192,61014,1,2,0:0:0:0:
256,189,61089,1,2,0:0:0:0:
256,194,61164,1,0,0:0:0:0:
256,194,61214,1,0,0:0:0:0:
256,194,61264,1,0,0:0:0:0:
256,190,61314,1,2,0:0:0:0:
257,191,61614,5,4,0:0:0:0:
256,192,61914,1,2,0:0:0:0:
260,192,62064,1,2,0:0:0:0:
256,194,62139,1,2,0:0:0:0:
256,194,62214,1,2,0:0:0:0:
257,191,62364,1,2,0:0:0:0:
257,191,62514,1,2,0:0:0:0:
256,192,62664,1,2,0:0:0:0:
260,192,62964,1,0,0:0:0:0:
256,194,63114,1,2,0:0:0:0:
257,191,63264,1,2,0:0:0:0:
257,191,63414,1,0,0:0:0:0:
260,192,63714,1,2,0:0:0:0:
256,194,64014,1,0,0:0:0:0:
257,191,64314,1,0,0:0:0:0:
253,194,64389,1,0,0:0:0:0:
255,193,64464,1,0,0:0:0:0:
254,194,64539,1,2,0:0:0:0:
256,194,64614,1,2,0:0:0:0:
256,194,64764,1,2,0:0:0:0:
261,195,64914,1,0,0:0:0:0:
261,197,65064,1,2,0:0:0:0:
256,200,65364,1,2,0:0:0:0:
263,197,65514,1,2,0:0:0:0:
261,202,65664,1,2,0:0:0:0:
261,200,65814,1,0,0:0:0:0:
261,197,65964,1,0,0:0:0:0:
266,198,66114,1,2,0:0:0:0:
266,198,66264,1,2,0:0:0:0:
267,198,66414,1,0,0:0:0:0:
269,200,66714,1,0,0:0:0:0:
270,198,66864,1,2,0:0:0:0:
271,197,67014,1,0,0:0:0:0:
275,201,67314,1,0,0:0:0:0:
278,198,67464,1,2,0:0:0:0:
280,198,67614,1,0,0:0:0:0:
280,198,67764,1,0,0:0:0:0:
281,195,67914,1,2,0:0:0:0:
282,194,68064,1,2,0:0:0:0:
284,193,68214,1,0,0:0:0:0:
285,194,68514,1,2,0:0:0:0:
286,194,68664,1,2,0:0:0:0:
289,193,68814,1,0,0:0:0:0:
289,197,68964,1,2,0:0:0:0:
289,197,69039,1,2,0:0:0:0:
290,197,69114,1,0,0:0:0:0:
293,195,69264,1,2,0:0:0:0:
296,197,69414,1,0,0:0:0:0:
296,197,69489,1,0,0:0:0:0:
294,197,69564,1,2,0:0:0:0:
292,199,69714,1,0,0:0:0:0:
289,197,69864,1,2,0:0:0:0:
289,197,70014,1,0,0:0:0:0:
290,197,70089,1,0,0:0:0:0:
291,199,70164,1,0,0:0:0:0:
288,199,70239,1,0,0:0:0:0:
286,201,70314,1,2,0:0:0:0:
286,202,70389,1,2,0:0:0:0:
285,203,70464,1,2,0:0:0:0:
286,203,70539,1,2,0:0:0:0:
287,203,70614,1,0,0:0:0:0:
288,203,70914,1,6,0:0:0:0:
262,193,71214,5,4,0:0:0:0:
250,193,71514,1,0,0:0:0:0:
254,192,71589,1,2,0:0:0:0:
254,192,71664,1,2,0:0:0:0:
255,191,71739,1,2,0:0:0:0:
257,190,71814,1,0,0:0:0:0:
262,193,71889,1,2,0:0:0:0:
262,193,71964,1,0,0:0:0:0:
262,193,72039,1,2,0:0:0:0:
262,193,72114,1,0,0:0:0:0:
262,193,72189,1,0,0:0:0:0:
261,191,72264,1,2,0:0:0:0:
261,191,72339,1,2,0:0:0:0:
259,190,72414,1,0,0:0:0:0:
260,190,72489,1,0,0:0:0:0:
261,189,72564,1,0,0:0:0:0:
263,189,72639,1,2,0:0:0:0:
262,190,72714,1,0,0:0:0:0:
263,190,72789,1,0,0:0:0:0:
265,188,72864,1,2,0:0:0:0:
266,188,72939,1,2,0:0:0:0:
268,187,73014,1,0,0:0:0:0:
268,187,73089,1,2,0:0:0:0:
269,187,73164,1,2,0:0:0:0:
271,187,73239,1,2,0:0:0:0:
268,184,73314,1,0,0:0:0:0:
269,183,73389,1,2,0:0:0:0:
274,183,73464,1,0,0:0:0:0:
274,183,73539,1,2,0:0:0:0:
276,182,73614,1,0,0:0:0:0:
263,178,73914,1,0,0:0:0:0:
263,183,73989,1,2,0:0:0:0:
263,183,74064,1,2,0:0:0:0:
263,180,74139,1,2,0:0:0:0:
266,179,74214,1,0,0:0:0:0:
266,178,74289,1,0,0:0:0:0:
267,177,74364,1,2,0:0:0:0:
268,177,74439,1,2,0:0:0:0:
270,176,74514,1,0,0:0:0:0:
268,176,74589,1,2,0:0:0:0:
269,176,74664,1,0,0:0:0:0:
271,176,74739,1,2,0:0:0:0:
269,182,74814,1,0,0:0:0:0:
269,182,74889,1,0,0:0:0:0:
269,182,74964,1,0,0:0:0:0:
269,182,75039,1,0,0:0:0:0:
271,181,75114,1,2,0:0:0:0:
271,181,75189,1,2,0:0:0:0:
271,181,75264,1,0,0:0:0:0:
271,181,75339,1,0,0:0:0:0:
271,181,75414,1,0,0:0:0:0:
268,176,75564,1,0,0:0:0:0:
271,176,75714,1,6,0:0:0:0:
269,182,76014,1,4,0:0:0:0:
258,183,76314,1,0,0:0:0:0:
257,187,76389,1,0,0:0:0:0:
261,188,76464,1,2,0:0:0:0:
261,189,76539,1,2,0:0:0:0:
261,188,76614,1,0,0:0:0:0:
261,188,76689,1,2,0:0:0:0:
262,188,76764,1,0,0:0:0:0:
266,188,76839,1,2,0:0:0:0:
261,192,76914,1,0,0:0:0:0:
261,192,76989,1,0,0:0:0:0:
262,193,77064,1,2,0:0:0:0:
262,193,77139,1,2,0:0:0:0:
258,189,77214,1,0,0:0:0:0:
258,188,77289,1,2,0:0:0:0:
257,187,77364,1,2,0:0:0:0:
261,188,77439,1,2,0:0:0:0:
261,189,77514,1,0,0:0:0:0:
266,188,77589,1,2,0:0:0:0:
261,188,77664,1,0,0:0:0:0:
262,188,77739,1,2,0:0:0:0:
258,188,77814,1,0,0:0:0:0:
261,192,77889,1,0,0:0:0:0:
261,192,77964,1,2,0:0:0:0:
258,188,78039,1,2,0:0:0:0:
252,189,78114,1,0,0:0:0:0:
252,189,78189,1,2,0:0:0:0:
258,188,78264,1,0,0:0:0:0:
253,190,78339,1,2,0:0:0:0:
251,192,78414,1,0,0:0:0:0:
262,188,78714,1,0,0:0:0:0:
258,188,78789,1,0,0:0:0:0:
266,187,78864,1,2,0:0:0:0:
271,184,79014,1,4,0:0:0:0:
264,182,79314,1,0,0:0:0:0:
264,181,79389,1,2,0:0:0:0:
266,178,79464,1,2,0:0:0:0:
266,180,79539,1,2,0:0:0:0:
262,188,79614,1,0,0:0:0:0:
265,183,79764,1,0,0:0:0:0:
264,182,79914,1,2,0:0:0:0:
264,182,80064,1,2,0:0:0:0:
264,182,80139,1,2,0:0:0:0:
264,181,80214,1,0,0:0:0:0:
264,184,80364,1,0,0:0:0:0:
265,183,80514,1,6,0:0:0:0:
266,186,80814,5,0,0:0:0:0:
265,187,80851,1,0,0:0:0:0:
268,185,80964,1,0,0:0:0:0:
267,185,81001,1,0,0:0:0:0:
270,185,81114,1,2,0:0:0:0:
268,185,81151,1,2,0:0:0:0:
270,185,81264,1,2,0:0:0:0:
270,185,81301,1,2,0:0:0:0:
270,185,81414,1,0,0:0:0:0:
266,186,81714,1,2,0:0:0:0:
270,189,81864,1,0,0:0:0:0:
269,189,81939,1,0,0:0:0:0:
270,185,82014,1,0,0:0:0:0:
270,185,82164,1,0,0:0:0:0:
270,185,82314,1,2,0:0:0:0:
276,185,82389,1,0,0:0:0:0:
276,186,82464,1,2,0:0:0:0:
276,186,82539,1,2,0:0:0:0:
274,186,82614,1,0,0:0:0:0:
276,185,82764,1,0,0:0:0:0:
285,183,82914,1,2,0:0:0:0:
265,187,83214,1,0,0:0:0:0:
266,186,83251,1,0,0:0:0:0:
268,185,83364,1,0,0:0:0:0:
267,185,83401,1,0,0:0:0:0:
270,185,83514,1,2,0:0:0:0:
268,185,83551,1,2,0:0:0:0:
270,185,83664,1,2,0:0:0:0:
270,185,83701,1,2,0:0:0:0:
270,185,83814,1,0,0:0:0:0:
266,186,84114,1,2,0:0:0:0:
270,189,84264,1,0,0:0:0:0:
269,189,84339,1,0,0:0:0:0:
270,185,84414,1,0,0:0:0:0:
270,185,84564,1,0,0:0:0:0:
270,185,84714,1,2,0:0:0:0:
276,185,84789,1,0,0:0:0:0:
276,186,84864,1,2,0:0:0:0:
273,187,84939,1,2,0:0:0:0:
273,185,85014,1,0,0:0:0:0:
273,186,85089,1,2,0:0:0:0:
276,185,85164,1,0,0:0:0:0:
285,183,85314,1,4,0:0:0:0:
263,188,85614,1,0,0:0:0:0:
263,190,85689,1,2,0:0:0:0:
263,190,85764,1,2,0:0:0:0:
265,190,85914,1,0,0:0:0:0:
264,195,86064,1,2,0:0:0:0:
265,194,86214,1,0,0:0:0:0:
265,194,86289,1,2,0:0:0:0:
266,194,86364,1,2,0:0:0:0:
267,194,86514,1,0,0:0:0:0:
271,194,86664,1,2,0:0:0:0:
269,194,86814,1,0,0:0:0:0:
269,194,86889,1,0,0:0:0:0:
271,193,86964,1,2,0:0:0:0:
271,193,87039,1,2,0:0:0:0:
273,193,87114,1,0,0:0:0:0:
274,192,87264,1,2,0:0:0:0:
274,192,87339,1,2,0:0:0:0:
278,190,87414,1,0,0:0:0:0:
278,190,87489,1,0,0:0:0:0:
282,189,87564,1,2,0:0:0:0:
275,192,87639,1,2,0:0:0:0:
285,188,87714,1,0,0:0:0:0:
285,188,87864,1,0,0:0:0:0:
266,189,88014,1,2,0:0:0:0:
266,189,88089,1,0,0:0:0:0:
266,189,88164,1,0,0:0:0:0:
266,189,88239,1,2,0:0:0:0:
266,189,88314,1,0,0:0:0:0:
266,189,88389,1,0,0:0:0:0:
266,189,88464,1,2,0:0:0:0:
266,189,88539,1,0,0:0:0:0:
266,189,88614,1,0,0:0:0:0:
266,189,88689,1,2,0:0:0:0:
266,189,88764,1,0,0:0:0:0:
266,189,88839,1,0,0:0:0:0:
266,189,88914,1,2,0:0:0:0:
271,193,88989,1,0,0:0:0:0:
278,189,89064,1,2,0:0:0:0:
278,189,89139,1,2,0:0:0:0:
272,193,89214,1,0,0:0:0:0:
272,193,89289,1,0,0:0:0:0:
276,193,89364,1,2,0:0:0:0:
275,193,89439,1,0,0:0:0:0:
276,193,89514,1,2,0:0:0:0:
277,191,89589,1,2,0:0:0:0:
277,191,89664,1,0,0:0:0:0:
277,191,89739,1,2,0:0:0:0:
274,197,89814,1,0,0:0:0:0:
274,197,89889,1,2,0:0:0:0:
275,197,89964,1,2,0:0:0:0:
273,197,90039,1,2,0:0:0:0:
272,195,90114,1,0,0:0:0:0:
272,193,90264,1,0,0:0:0:0:
271,195,90414,5,0,0:0:0:0:
276,193,90489,1,0,0:0:0:0:
269,199,90564,1,2,0:0:0:0:
269,199,90639,1,0,0:0:0:0:
270,199,90714,1,2,0:0:0:0:
268,198,90751,1,2,0:0:0:0:
274,197,90864,1,2,0:0:0:0:
275,197,90901,1,2,0:0:0:0:
273,197,91014,1,0,0:0:0:0:
270,203,91164,1,2,0:0:0:0:
271,203,91239,1,2,0:0:0:0:
275,201,91314,1,0,0:0:0:0:
276,201,91464,1,2,0:0:0:0:
279,202,91614,1,0,0:0:0:0:
279,203,91689,1,0,0:0:0:0:
282,202,91764,1,2,0:0:0:0:
287,203,91914,1,0,0:0:0:0:
258,190,91989,1,0,0:0:0:0:
280,203,92064,1,2,0:0:0:0:
281,203,92139,1,2,0:0:0:0:
282,203,92214,1,0,0:0:0:0:
283,203,92364,1,0,0:0:0:0:
288,200,92514,1,6,0:0:0:0:
263,195,92814,1,0,0:0:0:0:
256,195,92889,1,0,0:0:0:0:
261,193,92964,1,0,0:0:0:0:
262,193,93039,1,0,0:0:0:0:
263,192,93114,1,2,0:0:0:0:
264,192,93151,1,2,0:0:0:0:
266,191,93264,1,2,0:0:0:0:
266,189,93301,1,2,0:0:0:0:
267,188,93414,1,0,0:0:0:0:
269,193,93564,1,2,0:0:0:0:
269,193,93639,1,2,0:0:0:0:
272,191,93714,1,0,0:0:0:0:
276,191,93864,1,2,0:0:0:0:
276,190,94014,1,0,0:0:0:0:
276,190,94089,1,0,0:0:0:0:
276,189,94164,1,2,0:0:0:0:
276,189,94239,1,2,0:0:0:0:
276,188,94314,1,0,0:0:0:0:
276,188,94464,1,2,0:0:0:0:
277,190,94539,1,2,0:0:0:0:
280,189,94614,1,0,0:0:0:0:
280,189,94689,1,0,0:0:0:0:
281,189,94764,1,2,0:0:0:0:
276,191,94814,1,0,0:0:0:0:
276,191,94864,1,0,0:0:0:0:
281,193,94914,1,2,0:0:0:0:
281,194,94989,1,2,0:0:0:0:
284,190,95064,1,2,0:0:0:0:
281,194,95139,1,2,0:0:0:0:
272,193,95214,1,0,0:0:0:0:
276,193,95364,1,2,0:0:0:0:
276,193,95439,1,2,0:0:0:0:
277,190,95514,1,0,0:0:0:0:
280,189,95664,1,2,0:0:0:0:
281,191,95814,1,0,0:0:0:0:
281,193,95889,1,2,0:0:0:0:
281,194,95964,1,2,0:0:0:0:
281,194,96114,1,0,0:0:0:0:
279,192,96189,1,0,0:0:0:0:
286,188,96264,1,2,0:0:0:0:
276,193,96339,1,2,0:0:0:0:
285,189,96414,1,0,0:0:0:0:
289,191,96489,1,0,0:0:0:0:
288,190,96564,1,2,0:0:0:0:
290,191,96714,1,0,0:0:0:0:
291,190,96864,1,2,0:0:0:0:
258,192,96939,1,2,0:0:0:0:
291,190,97014,1,0,0:0:0:0:
296,190,97164,1,0,0:0:0:0:
296,190,97314,1,6,0:0:0:0:
258,194,97614,1,0,0:0:0:0:
258,194,97689,1,0,0:0:0:0:
263,193,97764,1,2,0:0:0:0:
265,192,97839,1,0,0:0:0:0:
263,193,97914,1,2,0:0:0:0:
262,191,97989,1,2,0:0:0:0:
263,193,98064,1,0,0:0:0:0:
266,193,98139,1,2,0:0:0:0:
261,188,98214,1,0,0:0:0:0:
261,188,98289,1,0,0:0:0:0:
263,188,98364,1,2,0:0:0:0:
257,185,98439,1,0,0:0:0:0:
263,188,98514,1,2,0:0:0:0:
258,194,98589,1,2,0:0:0:0:
263,188,98664,1,0,0:0:0:0:
263,193,98739,1,0,0:0:0:0:
265,192,98814,1,2,0:0:0:0:
265,192,98864,1,2,0:0:0:0:
259,191,98914,1,0,0:0:0:0:
263,193,98964,1,0,0:0:0:0:
263,193,99039,1,0,0:0:0:0:
266,193,99114,1,2,0:0:0:0:
266,193,99164,1,0,0:0:0:0:
266,189,99214,1,0,0:0:0:0:
262,193,99264,1,2,0:0:0:0:
257,192,99339,1,0,0:0:0:0:
256,191,99414,1,2,0:0:0:0:
263,188,99464,1,2,0:0:0:0:
259,191,99514,1,2,0:0:0:0:
263,188,99564,1,0,0:0:0:0:
263,188,99639,1,0,0:0:0:0:
251,192,99714,1,2,0:0:0:0:
251,192,99789,1,2,0:0:0:0:
251,190,99864,1,0,0:0:0:0:
259,191,100014,5,0,0:0:0:0:
256,187,100164,1,0,0:0:0:0:
256,186,100314,1,2,0:0:0:0:
259,191,100464,1,0,0:0:0:0:
258,186,100614,1,0,0:0:0:0:
263,183,100764,1,2,0:0:0:0:
265,183,100914,1,2,0:0:0:0:
267,184,101064,1,2,0:0:0:0:
264,179,101214,1,0,0:0:0:0:
265,179,101364,1,0,0:0:0:0:
267,178,101514,1,2,0:0:0:0:
263,183,101664,1,0,0:0:0:0:
271,179,101814,1,2,0:0:0:0:
265,183,101889,1,2,0:0:0:0:
274,178,101964,1,0,0:0:0:0:
274,178,102114,1,6,0:0:0:0:
277,178,102414,1,0,0:0:0:0:
279,178,102489,1,0,0:0:0:0:
280,178,102564,1,2,0:0:0:0:
280,178,102639,1,0,0:0:0:0:
280,178,102714,1,0,0:0:0:0:
280,178,102789,1,0,0:0:0:0:
279,178,102864,1,2,0:0:0:0:
280,177,102939,1,0,0:0:0:0:
274,178,103014,1,2,0:0:0:0:
274,178,103089,1,2,0:0:0:0:
277,178,103164,1,0,0:0:0:0:
282,178,103239,1,0,0:0:0:0:
285,181,103314,1,2,0:0:0:0:
277,178,103389,1,2,0:0:0:0:
279,178,103464,1,0,0:0:0:0:
281,184,103614,1,0,0:0:0:0:
282,183,103689,1,0,0:0:0:0:
280,178,103764,1,2,0:0:0:0:
280,178,103814,1,2,0:0:0:0:
279,178,103864,1,2,0:0:0:0:
280,177,103914,1,0,0:0:0:0:
276,182,103989,1,0,0:0:0:0:
281,179,104064,1,2,0:0:0:0:
281,178,104139,1,0,0:0:0:0:
273,182,104214,1,2,0:0:0:0:
275,181,104264,1,2,0:0:0:0:
275,181,104314,1,2,0:0:0:0:
277,178,104364,1,0,0:0:0:0:
279,178,104439,1,0,0:0:0:0:
269,185,104514,1,2,0:0:0:0:
269,185,104564,1,2,0:0:0:0:
269,185,104614,1,2,0:0:0:0:
269,185,104664,1,0,0:0:0:0:
269,185,104714,1,2,0:0:0:0:
269,185,104764,1,2,0:0:0:0:
269,185,104814,1,0,0:0:0:0:
266,188,104964,1,2,0:0:0:0:
266,188,105039,1,2,0:0:0:0:
266,188,105114,1,0,0:0:0:0:
266,188,105264,1,2,0:0:0:0:
266,190,105414,1,0,0:0:0:0:
266,190,105489,1,0,0:0:0:0:
266,191,105564,1,2,0:0:0:0:
265,189,105714,1,0,0:0:0:0:
266,188,105864,1,2,0:0:0:0:
266,188,106014,1,0,0:0:0:0:
266,188,106089,1,0,0:0:0:0:
266,188,106164,1,0,0:0:0:0:
266,188,106239,1,2,0:0:0:0:
266,190,106314,1,0,0:0:0:0:
266,190,106464,1,2,0:0:0:0:
266,191,106539,1,2,0:0:0:0:
265,189,106614,1,0,0:0:0:0:
265,189,106689,1,0,0:0:0:0:
266,188,106764,1,0,0:0:0:0:
260,192,106914,1,6,0:0:0:0:
256,192,107214,1,2,0:0:0:0:
250,174,107289,1,2,0:0:0:0:
256,189,107364,1,0,0:0:0:0:
250,174,107414,1,2,0:0:0:0:
250,174,107464,1,2,0:0:0:0:
261,190,107514,1,0,0:0:0:0:
258,197,107589,1,0,0:0:0:0:
259,197,107664,1,2,0:0:0:0:
261,198,107739,1,0,0:0:0:0:
260,192,107814,1,2,0:0:0:0:
260,192,107864,1,2,0:0:0:0:
260,192,107914,1,2,0:0:0:0:
255,190,107964,1,0,0:0:0:0:
236,213,108039,1,0,0:0:0:0:
249,193,108114,1,2,0:0:0:0:
249,176,108164,1,2,0:0:0:0:
249,176,108214,1,2,0:0:0:0:
249,176,108264,1,0,0:0:0:0:
249,176,108314,1,2,0:0:0:0:
250,174,108364,1,2,0:0:0:0:
261,190,108414,1,0,0:0:0:0:
258,197,108564,1,2,0:0:0:0:
259,197,108639,1,2,0:0:0:0:
264,193,108714,1,0,0:0:0:0:
265,193,108864,1,2,0:0:0:0:
261,193,109014,1,0,0:0:0:0:
261,193,109089,1,2,0:0:0:0:
261,193,109164,1,2,0:0:0:0:
263,192,109314,1,4,0:0:0:0:
259,197,109614,5,0,0:0:0:0:
255,194,109764,1,0,0:0:0:0:
255,194,109839,1,0,0:0:0:0:
261,193,109914,1,2,0:0:0:0:
261,193,110064,1,0,0:0:0:0:
257,196,110139,1,0,0:0:0:0:
263,192,110214,1,0,0:0:0:0:
269,190,110364,1,2,0:0:0:0:
264,191,110514,1,0,0:0:0:0:
260,192,110664,1,2,0:0:0:0:
265,187,110814,1,0,0:0:0:0:
261,193,110964,1,0,0:0:0:0:
261,193,111039,1,0,0:0:0:0:
266,187,111114,1,2,0:0:0:0:
264,191,111264,1,2,0:0:0:0:
264,191,111339,1,2,0:0:0:0:
265,185,111414,1,0,0:0:0:0:
265,187,111564,1,2,0:0:0:0:
266,185,111714,1,4,0:0:0:0:
272,186,112014,1,0,0:0:0:0:
272,186,112164,1,0,0:0:0:0:
276,187,112314,1,2,0:0:0:0:
276,186,112389,1,2,0:0:0:0:
268,184,112464,1,0,0:0:0:0:
279,186,112614,1,0,0:0:0:0:
277,186,112689,1,2,0:0:0:0:
278,185,112764,1,2,0:0:0:0:
284,183,112914,1,0,0:0:0:0:
259,186,113064,1,2,0:0:0:0:
258,185,113214,1,0,0:0:0:0:
258,187,113364,1,0,0:0:0:0:
261,186,113514,1,2,0:0:0:0:
261,186,113589,1,2,0:0:0:0:
267,183,113664,1,0,0:0:0:0:
259,186,113739,1,2,0:0:0:0:
261,186,113814,1,0,0:0:0:0:
258,185,114114,1,0,0:0:0:0:
261,186,114414,1,4,0:0:0:0:
261,186,114714,1,4,0:0:0:0:
258,185,115014,1,4,0:0:0:0:
261,186,115314,1,4,0:0:0:0:
261,186,115464,1,4,0:0:0:0:
258,185,115764,1,4,0:0:0:0:
258,182,116064,1,4,0:0:0:0:
258,182,116214,1,4,0:0:0:0:
258,185,116514,1,0,0:0:0:0:
266,183,116814,1,0,0:0:0:0:
266,183,116889,1,0,0:0:0:0:
267,181,116964,1,0,0:0:0:0:
268,183,117039,1,2,0:0:0:0:
267,183,117114,1,0,0:0:0:0:
267,183,117189,1,0,0:0:0:0:
268,183,117264,1,2,0:0:0:0:
268,182,117339,1,2,0:0:0:0:
261,183,117414,1,0,0:0:0:0:
259,184,117489,1,2,0:0:0:0:
258,184,117564,1,2,0:0:0:0:
258,183,117639,1,2,0:0:0:0:
260,183,117714,1,0,0:0:0:0:
256,186,117789,1,2,0:0:0:0:
260,184,117864,1,0,0:0:0:0:
261,184,117939,1,2,0:0:0:0:
260,184,118014,1,0,0:0:0:0:
254,188,118314,1,4,0:0:0:0:
258,183,118614,1,4,0:0:0:0:
261,184,118914,1,6,0:0:0:0:
254,188,119214,5,4,0:0:0:0:
258,183,119364,1,0,0:0:0:0:
258,183,119439,1,0,0:0:0:0:
258,183,119514,1,2,0:0:0:0:
261,184,119664,1,2,0:0:0:0:
261,184,119739,1,2,0:0:0:0:
261,184,119814,1,0,0:0:0:0:
261,184,119964,1,2,0:0:0:0:
261,183,120039,1,2,0:0:0:0:
261,181,120114,1,0,0:0:0:0:
261,181,120189,1,2,0:0:0:0:
262,180,120264,1,0,0:0:0:0:
266,179,120414,1,2,0:0:0:0:
261,184,120564,1,2,0:0:0:0:
260,178,120639,1,2,0:0:0:0:
266,176,120714,1,2,0:0:0:0:
268,174,120864,1,2,0:0:0:0:
265,179,121014,1,4,0:0:0:0:
263,180,121314,1,6,0:0:0:0:
265,179,121614,1,2,0:0:0:0:
266,176,121689,1,0,0:0:0:0:
266,176,121764,1,0,0:0:0:0:
266,179,121839,1,0,0:0:0:0:
265,179,121914,1,2,0:0:0:0:
265,179,121989,1,2,0:0:0:0:
263,180,122064,1,2,0:0:0:0:
263,180,122139,1,0,0:0:0:0:
263,180,122214,1,0,0:0:0:0:
274,178,122364,1,2,0:0:0:0:
274,178,122439,1,0,0:0:0:0:
274,178,122514,1,0,0:0:0:0:
265,179,122589,1,0,0:0:0:0:
266,176,122664,1,2,0:0:0:0:
274,178,122814,1,4,0:0:0:0:
274,178,123114,1,4,0:0:0:0:
274,178,123414,1,6,0:0:0:0:
274,178,123714,1,6,0:0:0:0:
266,185,124014,1,0,0:0:0:0:
268,183,124089,1,0,0:0:0:0:
266,184,124164,1,2,0:0:0:0:
269,183,124239,1,0,0:0:0:0:
269,183,124314,1,2,0:0:0:0:
271,183,124464,1,2,0:0:0:0:
271,183,124539,1,2,0:0:0:0:
266,185,124614,1,0,0:0:0:0:
268,183,124689,1,0,0:0:0:0:
266,184,124764,1,2,0:0:0:0:
269,183,124839,1,0,0:0:0:0:
269,183,124914,1,2,0:0:0:0:
271,183,125064,1,2,0:0:0:0:
271,183,125139,1,2,0:0:0:0:
269,183,125214,1,0,0:0:0:0:
269,183,125289,1,0,0:0:0:0:
269,183,125364,1,0,0:0:0:0:
271,183,125439,1,0,0:0:0:0:
271,183,125514,1,2,0:0:0:0:
268,183,125664,1,2,0:0:0:0:
266,184,125739,1,2,0:0:0:0:
268,183,125814,1,0,0:0:0:0:
269,183,125889,1,0,0:0:0:0:
269,183,125964,1,0,0:0:0:0:
271,183,126039,1,0,0:0:0:0:
271,183,126114,1,2,0:0:0:0:
269,183,126189,1,2,0:0:0:0:
269,183,126264,1,2,0:0:0:0:
271,183,126414,1,0,0:0:0:0:
271,183,126489,1,0,0:0:0:0:
270,181,126564,1,2,0:0:0:0:
268,183,126639,1,2,0:0:0:0:
266,184,126714,1,0,0:0:0:0:
274,183,126789,1,0,0:0:0:0:
269,183,126864,1,2,0:0:0:0:
269,183,126939,1,2,0:0:0:0:
271,183,127014,1,0,0:0:0:0:
271,183,127089,1,0,0:0:0:0:
269,183,127164,1,2,0:0:0:0:
269,183,127239,1,2,0:0:0:0:
269,183,127314,1,0,0:0:0:0:
271,183,127389,1,0,0:0:0:0:
271,183,127464,1,2,0:0:0:0:
270,181,127539,1,2,0:0:0:0:
268,183,127614,1,0,0:0:0:0:
274,183,127764,1,0,0:0:0:0:
269,183,127914,1,2,0:0:0:0:
271,183,128064,1,2,0:0:0:0:
269,183,128139,1,2,0:0:0:0:
269,183,128214,1,0,0:0:0:0:
269,183,128289,1,0,0:0:0:0:
271,183,128364,1,0,0:0:0:0:
270,181,128514,1,6,0:0:0:0:
256,192,128814,8,2,130014,0:0:0:0:
