osu file format v14

[General]
AudioFilename: Kyuu.mp3
AudioLeadIn: 0
PreviewTime: 79568
Countdown: 0
SampleSet: Soft
StackLeniency: 0.7
Mode: 0
LetterboxInBreaks: 1
WidescreenStoryboard: 1

[Editor]
DistanceSpacing: 1.3
BeatDivisor: 4
GridSize: 8
TimelineZoom: 1.4

[Metadata]
Title:Kyuu Jigoku Kaidou wo Yuku
TitleUnicode:旧地獄街道を行く
Artist:TAMUSIC
ArtistUnicode:TAMUSIC
Creator:Xanandra
Version:Hard
Source:東方地霊殿 ~ Subterranean Animism.
Tags:Tam x Keigo Kanzaki Touhou Project Violin Rock Zun Subterranean Animism TH11 Walking The Streets Of Former Hell Yuugi Hoshiguma
BeatmapID:1265016
BeatmapSetID:315150

[Difficulty]
HPDrainRate:4
CircleSize:3.5
OverallDifficulty:6
ApproachRate:7
SliderMultiplier:1.5
SliderTickRate:1

[Events]
//Background and Video events
0,0,"1.jpg",0,0
//Break Periods
//Storyboard Layer 0 (Background)
//Storyboard Layer 1 (Fail)
//Storyboard Layer 2 (Pass)
//Storyboard Layer 3 (Foreground)
//Storyboard Sound Samples

[TimingPoints]
105,413.793103448276,4,2,1,80,1,0
6518,-100,4,2,1,50,0,0
12518,-100,4,2,1,75,0,0
13346,-100,4,2,1,60,0,0
26380,-100,4,2,1,50,0,0
38173,-100,4,2,1,70,0,0
53070,-100,4,2,1,50,0,0
66311,-100,4,2,1,60,0,0
77898,-100,4,2,1,70,0,0
96105,-100,4,2,1,50,0,0
109346,-133.333333333333,4,2,1,35,0,0
115553,-100,4,2,1,60,0,0
122587,-100,4,2,1,70,0,0
135829,-100,4,2,1,50,0,0
137484,-100,4,2,1,60,0,0
138311,-100,4,2,1,70,0,0
139139,-100,4,2,1,80,0,1
152380,-100,4,2,1,80,0,0
155691,-100,4,2,1,80,0,1
158587,-100,4,2,1,60,0,0
168105,-100,4,2,1,75,0,0
168932,-100,4,2,1,60,0,0
182173,-100,4,2,1,80,0,0
193760,-100,4,2,1,60,0,0
194587,-100,4,2,1,70,0,0

[Colours]
Combo1 : 222,1,254
Combo2 : 255,0,0
Combo3 : 255,217,0

[HitObjects]
141,293,105,6,0,P|96:331|35:361,2,112.5
335,284,1139,2,0,P|328:232|311:190,1,75,0|0,0:0|0:0,0:0:0:0:
297,115,1553,1,0,0:0:0:0:
374,56,1760,6,0,P|446:54|502:43,2,112.5,0|0|0,0:0|0:0|0:0,0:0:0:0:
262,215,2794,2,0,P|210:208|168:191,1,75
110,141,3208,1,0,0:0:0:0:
49,217,3415,6,0,P|47:289|36:345,2,112.5,0|0|0,0:0|0:0|0:0,0:0:0:0:
113,32,4449,2,0,P|165:39|207:56,1,75,0|0,0:0|0:0,0:0:0:0:
270,96,4863,1,0,0:0:0:0:
319,11,5070,6,0,P|391:9|447:-2,2,112.5,0|0|0,0:0|0:0|0:0,0:0:0:0:
143,96,6105,2,0,P|113:135|98:171,1,75
115,258,6518,1,8,0:0:0:0:
211,241,6725,6,0,P|255:275|284:322,1,112.5,4|0,0:3|0:0,0:0:0:0:
332,313,7139,2,0,P|358:263|366:208,1,112.5,4|0,0:3|0:0,0:0:0:0:
372,159,7553,1,4,0:3:0:0:
511,115,7863,1,4,0:3:0:0:
486,72,7967,2,0,P|446:31|421:18,1,75,4|8,0:3|0:0,0:0:0:0:
333,32,8380,6,0,P|310:83|306:138,1,112.5,4|0,0:3|0:0,0:0:0:0:
260,152,8794,2,0,P|213:120|180:75,1,112.5,4|0,0:3|0:0,0:0:0:0:
152,35,9208,1,4,0:3:0:0:
102,172,9518,1,0,0:0:0:0:
77,215,9622,2,0,P|37:256|12:269,1,75,4|8,0:3|0:0,0:0:0:0:
61,354,10036,6,0,P|116:356|168:376,1,112.5,4|0,0:3|0:0,0:0:0:0:
201,341,10449,2,0,P|193:285|166:236,1,112.5,4|0,0:3|0:0,0:0:0:0:
143,193,10863,1,4,0:3:0:0:
7,138,11173,1,4,0:3:0:0:
32,95,11277,2,0,P|72:54|97:41,1,75,4|8,0:3|0:0,0:0:0:0:
183,29,11691,6,0,P|268:46|331:26,1,150
370,218,12518,2,0,L|357:257,3,37.5
326,291,12932,2,0,L|259:276,3,37.5
240,276,13346,6,0,P|175:313|100:313,1,150,4|0,0:0|0:0,0:0:0:0:
28,247,13967,2,0,P|56:139|130:56,1,225,8|0,0:0|0:0,0:0:0:0:
224,81,14794,1,8,0:0:0:0:
293,13,15001,2,0,L|455:19,1,150,0|0,0:0|0:0,0:0:0:0:
512,87,15622,1,8,0:0:0:0:
435,147,15829,2,0,L|273:141,1,150,0|0,0:0|0:0,0:0:0:0:
208,202,16449,1,8,0:0:0:0:
131,142,16656,6,0,P|76:190|51:261,1,150,4|0,0:0|0:0,0:0:0:0:
96,348,17277,2,0,P|207:344|305:290,1,225,8|0,0:0|0:0,0:0:0:0:
399,263,18105,1,8,0:0:0:0:
473,200,18311,2,0,L|478:50,1,150,0|0,0:0|0:0,0:0:0:0:
391,4,18932,1,8,0:0:0:0:
325,76,19139,2,0,L|319:225,1,150
253,298,19760,1,8,0:0:0:0:
155,309,19967,6,0,P|100:260|75:189,1,150,4|0,0:0|0:0,0:0:0:0:
125,104,20587,2,0,P|235:117|328:179,1,225,8|0,0:0|0:0,0:0:0:0:
278,263,21415,1,8,0:0:0:0:
326,347,21622,2,0,L|481:361,1,150,0|0,0:0|0:0,0:0:0:0:
509,268,22242,1,8,0:0:0:0:
444,195,22449,2,0,L|289:181,1,150,0|0,0:0|0:0,0:0:0:0:
232,105,23070,1,8,0:0:0:0:
135,87,23277,6,0,P|80:135|55:206,1,150,4|0,0:0|0:0,0:0:0:0:
93,297,23898,2,0,P|204:298|304:250,1,225,8|0,0:0|0:0,0:0:0:0:
401,237,24725,1,8,0:0:0:0:
442,148,24932,1,8,0:0:0:0:
394,62,25139,1,8,0:0:0:0:
296,63,25346,6,0,L|266:25,5,37.5,4|4|4|4|4|4,0:3|0:3|0:3|0:3|0:3|0:3,0:0:0:0:
223,33,25967,2,0,P|181:77|94:95,1,150,4|12,0:0|0:0,0:0:0:0:
27,164,26587,6,0,P|31:215|51:254,1,75
107,307,27001,2,0,P|153:329|196:331,1,75,0|0,0:0|0:0,0:0:0:0:
272,312,27415,2,0,P|348:294|428:300,1,150,0|0,0:0|0:0,0:0:0:0:
503,248,28036,1,0,0:0:0:0:
452,164,28242,1,4,0:3:0:0:
452,164,28449,2,0,L|476:16,1,150,4|0,0:3|0:0,0:0:0:0:
299,99,29277,2,0,L|275:247,1,150,0|0,0:0|0:0,0:0:0:0:
216,325,29898,6,0,P|146:335|114:324,1,75,4|0,0:3|0:0,0:0:0:0:
50,304,30311,2,0,P|6:248|0:215,1,75,0|0,0:0|0:0,0:0:0:0:
21,148,30725,2,0,P|57:78|54:-1,1,150,0|8,0:0|0:0,0:0:0:0:
154,7,31346,1,0,0:0:0:0:
208,88,31553,1,4,0:3:0:0:
240,280,31967,1,0,0:0:0:0:
433,298,32380,1,0,0:0:0:0:
511,119,32794,1,4,0:3:0:0:
342,21,33208,6,0,P|297:23|259:38,1,75,4|0,0:3|0:0,0:0:0:0:
194,96,33622,2,0,P|173:135|167:176,1,75,0|0,0:3|0:3,0:0:0:0:
137,258,34036,2,0,P|97:280|55:286,2,75,0|0|0,0:0|0:0|0:0,0:0:0:0:
221,306,34656,1,0,0:0:0:0:
258,216,34863,2,0,P|321:179|405:168,1,150,4|0,0:3|0:0,0:0:0:0:
511,325,35691,2,0,P|448:362|364:373,1,150,0|8,0:0|0:0,0:0:0:0:
277,354,36311,1,0,0:0:0:0:
213,279,36518,6,0,P|199:186|225:116,1,150,8|8,0:0|0:0,0:0:0:0:
271,53,37139,1,0,0:0:0:0:
178,21,37346,2,0,P|128:32|96:57,1,75,8|4,0:0|0:3,0:0:0:0:
43,118,37760,2,0,P|27:166|33:207,1,75,4|4,0:3|3:0,0:0:0:0:
91,265,38173,6,0,L|141:274,4,37.5,8|8|8|8|8,0:0|0:0|0:0|0:0|0:0,0:0:0:0:
171,156,38794,2,0,L|221:147,4,37.5,8|8|8|8|8,0:0|0:0|0:0|0:0|0:0,0:0:0:0:
244,265,39415,2,0,L|253:315,3,37.5,8|8|8|8,0:0|0:0|0:0|0:0,0:0:0:0:
293,325,39829,6,0,P|338:323|386:304,1,75,0|8,0:0|0:0,0:0:0:0:
449,263,40242,2,0,P|469:223|477:171,1,75,0|8,2:0|0:0,0:0:0:0:
402,128,40656,2,0,P|318:148|235:126,1,150,2|0,0:0|2:0,0:0:0:0:
201,55,41277,1,8,0:0:0:0:
103,52,41484,1,0,0:0:0:0:
57,138,41691,2,0,L|3:143,2,37.5,8|0|0,0:0|0:0|0:0,0:0:0:0:
93,229,42105,2,0,P|64:308|-8:356,2,150,8|8|8,0:0|0:0|0:0,0:0:0:0:
187,203,43139,6,0,P|232:201|280:182,1,75,0|8,0:0|0:0,0:0:0:0:
335,128,43553,2,0,P|352:96|360:59,1,75,0|8,0:0|0:0,0:0:0:0:
459,50,43967,2,0,P|496:128|491:213,1,150,2|0,0:0|0:0,0:0:0:0:
489,288,44587,1,8,0:0:0:0:
407,342,44794,1,0,0:0:0:0:
311,322,45001,2,0,L|276:366,2,37.5,8|0|0,0:0|0:0|0:0,0:0:0:0:
276,230,45415,1,8,0:0:0:0:
360,181,45622,2,0,L|350:127,3,37.5,4|4|4|4,3:0|3:0|3:0|3:0,0:0:0:0:
307,124,46036,2,0,L|262:142,3,37.5,4|4|4|4,3:0|3:0|3:0|3:0,0:0:0:0:
234,107,46449,6,0,P|189:68|159:57,1,75,4|8,3:0|0:0,0:0:0:0:
77,50,46863,2,0,P|21:69|-3:89,1,75,0|8,0:0|0:0,0:0:0:0:
12,174,47277,2,0,P|11:213|-6:255,2,75,0|8|0,0:0|0:0|0:0,0:0:0:0:
108,154,47898,1,8,0:0:0:0:
148,65,48105,2,0,P|207:68|286:120,1,150,2|0,0:0|0:0,0:0:0:0:
323,306,48932,2,2,P|264:303|185:251,1,150
5,190,49760,6,0,P|33:146|72:121,1,75,4|0,0:0|0:0,0:0:0:0:
141,99,50173,2,0,P|193:97|236:116,1,75,0|0,0:0|0:0,0:0:0:0:
315,5,50587,2,0,P|338:54|339:100,1,75,4|0,0:0|0:0,0:0:0:0:
323,170,51001,2,0,P|296:218|258:245,1,75,0|0,0:0|0:0,0:0:0:0:
232,315,51415,2,0,L|255:375,6,37.5,4|4|4|4|4|4|4,0:0|3:0|3:0|3:0|3:0|3:0|3:0,0:0:0:0:
166,242,52242,2,0,L|189:182,4,37.5,4|4|4|4|4,0:0|3:0|3:0|3:0|3:0,0:0:0:0:
98,313,52863,2,0,L|37:311,1,37.5,4|4,3:0|3:0,0:0:0:0:
23,279,53070,6,0,P|15:215|-1:148,2,112.5,4|0|8,0:0|0:0|0:0,0:0:0:0:
208,339,54105,2,0,P|245:353|289:376,1,75,0|0,0:0|0:0,0:0:0:0:
373,359,54518,1,8,0:0:0:0:
436,285,54725,6,0,P|446:214|470:163,2,112.5,0|0|8,0:0|0:0|0:0,0:0:0:0:
382,96,55760,2,0,P|345:110|301:133,1,75,0|0,0:0|0:0,0:0:0:0:
223,164,56173,1,8,0:0:0:0:
215,212,56277,1,0,3:0:0:0:
211,260,56380,6,0,P|221:331|245:382,2,112.5,0|0|8,0:0|0:0|0:0,0:0:0:0:
18,227,57415,2,0,P|45:201|74:178,1,75,0|0,0:0|0:0,0:0:0:0:
65,81,57829,1,8,0:0:0:0:
145,25,58036,6,0,L|247:41,1,75,0|8,0:0|0:0,0:0:0:0:
249,129,58449,2,0,L|351:145,1,75,0|8,3:0|0:0,0:0:0:0:
348,170,58760,1,0,3:0:0:0:
366,203,58863,2,0,P|372:239|368:277,1,75,0|8,0:0|0:0,0:0:0:0:
270,272,59277,2,0,P|261:309|267:346,1,75,0|8,0:0|0:0,0:0:0:0:
239,365,59587,1,0,3:0:0:0:
208,375,59691,6,0,P|137:365|86:341,2,112.5,4|0|8,0:0|0:0|0:0,0:0:0:0:
242,182,60725,2,0,P|205:196|161:219,1,75,0|0,0:0|0:0,0:0:0:0:
82,247,61139,1,8,0:0:0:0:
49,154,61346,6,0,P|59:83|83:35,2,112.5,0|0|8,0:0|0:0|0:0,0:0:0:0:
229,77,62380,2,0,P|266:91|310:114,1,75,0|0,0:0|0:0,0:0:0:0:
372,169,62794,1,8,0:0:0:0:
376,217,62898,1,0,0:0:0:0:
372,266,63001,6,0,P|362:337|338:388,2,112.5,0|0|8,0:0|0:0|0:0,0:0:0:0:
208,374,64036,2,0,P|180:348|151:325,1,75
63,282,64449,1,8,0:0:0:0:
84,186,64656,6,0,L|173:148,1,75,8|8,0:0|0:0,0:0:0:0:
223,223,65070,2,0,L|278:235,3,37.5,4|4|4|4,3:0|3:0|3:0|3:0,0:0:0:0:
384,59,65898,2,0,L|376:31,2,18.75,0|0|4,0:0|0:0|0:0,0:0:0:0:
485,164,66311,6,0,P|481:215|461:254,1,75,4|0,3:0|0:0,0:0:0:0:
405,307,66725,2,0,P|359:329|316:331,1,75,8|0,0:0|0:0,0:0:0:0:
240,312,67139,2,0,P|164:294|84:300,1,150,4|8,3:0|0:0,0:0:0:0:
9,248,67760,1,0,0:0:0:0:
60,164,67967,2,0,P|57:89|36:16,2,150,4|8|4,3:0|0:0|3:0,0:0:0:0:
236,247,69208,2,0,L|269:213,2,37.5,0|0|0,3:0|3:0|3:0,0:0:0:0:
296,325,69622,6,0,P|366:335|398:324,1,75,4|0,3:0|0:0,0:0:0:0:
462,304,70036,2,0,P|506:248|512:215,1,75,8|0,0:0|0:0,0:0:0:0:
491,148,70449,2,0,P|455:78|458:-1,1,150,4|8,3:0|0:0,0:0:0:0:
358,7,71070,1,0,0:0:0:0:
304,88,71277,1,4,3:0:0:0:
272,280,71691,1,8,0:0:0:0:
175,291,71898,1,8,0:0:0:0:
79,298,72105,1,4,3:0:0:0:
36,208,72311,1,8,0:0:0:0:
1,119,72518,1,4,3:0:0:0:
170,21,72932,6,0,P|215:23|253:38,1,75,0|8,0:0|0:0,0:0:0:0:
318,96,73346,2,0,P|339:135|345:176,1,75,0|0,0:0|0:0,0:0:0:0:
375,258,73760,2,0,P|415:280|457:286,2,75,0|0|8,3:0|0:0|0:0,0:0:0:0:
291,306,74380,1,0,0:0:0:0:
254,216,74587,2,0,P|191:179|107:168,1,150,4|8,3:0|0:0,0:0:0:0:
1,325,75415,2,0,P|64:362|148:373,1,150,8|4,0:0|3:0,0:0:0:0:
235,354,76036,1,4,3:0:0:0:
299,279,76242,2,0,P|313:186|287:116,1,150,8|8,0:0|0:0,0:0:0:0:
241,53,76863,1,0,0:0:0:0:
334,21,77070,6,0,P|384:32|416:57,1,75,8|4,0:0|3:0,0:0:0:0:
469,118,77484,2,0,P|485:166|479:207,1,75,4|4,3:0|3:0,0:0:0:0:
421,265,77898,2,0,L|371:274,4,37.5,8|8|8|8|8,0:0|0:0|0:0|0:0|0:0,0:0:0:0:
315,181,78518,2,0,L|265:172,4,37.5,8|8|8|8|8,0:0|0:0|0:0|0:0|0:0,0:0:0:0:
181,205,79139,2,0,L|172:255,3,37.5,8|8|8|8,2:0|2:0|2:0|2:0,0:0:0:0:
133,269,79553,6,0,P|93:247|58:209,1,75,4|8,0:0|0:0,0:0:0:0:
17,146,79967,2,0,P|16:101|32:51,1,75,0|8,2:0|0:0,0:0:0:0:
109,26,80380,2,0,P|175:80|259:97,1,150,2|0,0:0|2:0,0:0:0:0:
321,144,81001,1,8,0:0:0:0:
329,241,81208,1,0,0:0:0:0:
248,296,81415,2,0,L|195:326,2,37.5,8|0|0,0:0|0:0|0:0,0:0:0:0:
331,347,81829,2,0,P|414:360|493:340,2,150,8|8|8,0:0|0:0|0:0,0:0:0:0:
274,267,82863,6,0,P|254:226|218:189,1,75,0|8,0:0|0:0,0:0:0:0:
153,151,83277,2,0,P|108:148|58:160,1,75,0|8,0:0|0:0,0:0:0:0:
59,57,83691,2,0,P|133:13|217:9,1,150,2|0,0:0|0:0,0:0:0:0:
281,53,84311,1,8,0:0:0:0:
321,141,84518,1,0,0:0:0:0:
294,235,84725,2,0,L|329:279,2,37.5,8|0|0,0:0|0:0|0:0,0:0:0:0:
223,303,85139,1,8,0:0:0:0:
156,231,85346,2,0,L|111:249,3,37.5,4|4|4|4,3:0|3:0|3:0|3:0,0:0:0:0:
87,280,85760,2,0,L|42:262,3,37.5,4|4|4|4,3:0|3:0|3:0|3:0,0:0:0:0:
16,233,86173,6,0,P|22:173|36:145,1,75,4|8,0:0|0:0,0:0:0:0:
88,83,86587,2,0,P|141:58|173:56,1,75,0|8,0:0|0:0,0:0:0:0:
223,129,87001,2,0,P|224:168|241:210,2,75,0|8|0,0:0|0:0|0:0,0:0:0:0:
265,40,87622,1,8,0:0:0:0:
357,8,87829,2,0,P|416:11|495:63,1,150,2|0,0:0|0:0,0:0:0:0:
499,253,88656,2,0,P|440:250|361:198,1,150,2|2,0:0|0:0,0:0:0:0:
491,61,89484,6,0,P|444:36|399:33,1,75,4|0,0:0|0:0,0:0:0:0:
327,46,89898,2,0,P|280:70|250:107,1,75,0|0,0:0|0:0,0:0:0:0:
130,44,90311,2,0,P|133:99|152:140,1,75,4|0,0:0|0:0,0:0:0:0:
200,194,90725,2,0,P|246:225|291:231,1,75,0|0,0:0|0:0,0:0:0:0:
296,364,91139,2,0,P|343:335|368:297,1,75,4|0,0:0|0:0,0:0:0:0:
391,230,91553,2,0,P|395:176|378:133,1,75,0|0,0:0|0:0,0:0:0:0:
464,93,91967,2,0,L|490:55,3,37.5,4|4|4|4,0:0|3:0|3:0|3:0,0:0:0:0:
461,19,92380,2,0,L|412:6,3,37.5,4|4|4|4,3:0|3:0|3:0|3:0,0:0:0:0:
376,15,92794,6,0,P|327:27|286:15,1,75,4|0,0:0|0:0,0:0:0:0:
243,100,93208,2,0,P|208:63|198:22,1,75,0|0,0:0|0:0,0:0:0:0:
108,7,93622,1,4,0:0:0:0:
26,61,93829,1,0,0:0:0:0:
22,158,94036,1,0,0:0:0:0:
87,229,94242,1,0,0:0:0:0:
178,194,94449,2,0,L|218:216,6,37.5,4|4|4|4|4|4|4,0:0|3:0|3:0|3:0|3:0|3:0|3:0,0:0:0:0:
310,143,95277,2,0,L|287:104,4,37.5,4|4|4|4|4,0:0|3:0|3:0|3:0|3:0,0:0:0:0:
414,108,95898,2,0,L|457:70,1,37.5,4|4,3:0|3:0,0:0:0:0:
489,105,96105,6,0,P|497:169|513:236,2,112.5,4|0|8,0:0|0:0|0:0,0:0:0:0:
304,45,97139,2,0,P|267:31|223:8,1,75,0|0,0:0|0:0,0:0:0:0:
139,25,97553,1,8,0:0:0:0:
76,99,97760,6,0,P|66:170|42:221,2,112.5,0|0|8,0:0|0:0|0:0,0:0:0:0:
130,288,98794,2,0,P|167:274|211:251,1,75,0|0,0:0|0:0,0:0:0:0:
289,220,99208,1,8,0:0:0:0:
301,173,99311,1,0,3:0:0:0:
301,124,99415,6,0,P|291:53|267:2,2,112.5,0|0|8,0:0|0:0|0:0,0:0:0:0:
494,157,100449,2,0,P|467:183|438:206,1,75,0|0,0:0|0:0,0:0:0:0:
447,303,100863,1,8,0:0:0:0:
367,359,101070,6,0,L|265:343,1,75,0|8,0:0|0:0,0:0:0:0:
263,255,101484,2,0,L|161:239,1,75,0|8,0:0|0:0,0:0:0:0:
168,212,101794,1,0,0:0:0:0:
146,181,101898,2,0,P|140:145|144:107,1,75,0|8,0:0|0:0,0:0:0:0:
242,112,102311,2,0,P|251:75|245:38,1,75,0|8,0:0|0:0,0:0:0:0:
273,19,102622,1,0,0:0:0:0:
304,9,102725,6,0,P|375:19|426:43,2,112.5,4|0|8,0:0|0:0|0:0,0:0:0:0:
270,202,103760,2,0,P|307:188|351:165,1,75,0|0,0:0|0:0,0:0:0:0:
430,137,104173,1,8,0:0:0:0:
463,230,104380,6,0,P|453:301|429:352,2,112.5,0|0|8,0:0|0:0|0:0,0:0:0:0:
283,307,105415,2,0,P|246:293|202:270,1,75,0|0,0:0|0:0,0:0:0:0:
140,215,105829,1,8,0:0:0:0:
131,167,105932,1,0,3:0:0:0:
140,118,106036,6,0,P|150:47|174:-4,2,112.5,0|0|8,0:0|0:0|0:0,0:0:0:0:
304,10,107070,2,0,P|332:36|361:59,1,75,0|0,0:0|0:0,0:0:0:0:
449,102,107484,1,8,0:0:0:0:
428,198,107691,6,0,L|339:236,1,75,8|8,0:0|0:0,0:0:0:0:
261,223,108105,2,0,L|250:273,6,37.5,4|4|4|4|4|4|4,3:0|3:0|3:0|3:0|3:0|3:0|3:0,0:0:0:0:
278,31,109139,2,0,L|232:15,1,37.5,4|4,3:0|3:0,0:0:0:0:
207,29,109346,6,0,P|158:50|75:47,1,112.500004291535,2|0,0:0|0:0,0:0:0:0:
2,162,110173,1,2,0:0:0:0:
45,301,110587,1,0,0:0:0:0:
105,341,110794,1,0,0:0:0:0:
178,343,111001,2,0,P|277:302|401:319,1,225.000008583069,2|2,0:0|0:0,0:0:0:0:
305,29,112656,6,0,P|354:50|437:47,1,112.500004291535,2|0,0:0|0:0,0:0:0:0:
510,162,113484,1,2,0:0:0:0:
467,301,113898,1,0,0:0:0:0:
407,341,114105,1,0,0:0:0:0:
334,343,114311,2,0,P|235:302|111:319,1,225.000008583069,2|2,0:0|0:0,0:0:0:0:
438,114,115967,6,0,P|407:161|369:193,1,75,0|8,0:0|0:0,0:0:0:0:
314,231,116380,2,0,P|260:243|211:238,1,75,0|8,0:0|0:0,0:0:0:0:
185,324,116794,2,0,P|216:372|254:403,2,75,0|8|0,0:0|0:0|0:0,0:0:0:0:
139,238,117415,1,8,0:0:0:0:
164,143,117622,2,0,P|219:57|287:-1,1,150,2|0,0:0|0:0,0:0:0:0:
332,202,118449,2,0,P|277:288|209:346,1,150,2|2,0:0|0:0,0:0:0:0:
64,245,119277,6,0,P|83:196|116:164,1,75,4|0,0:0|0:0,0:0:0:0:
179,128,119691,2,0,P|230:116|276:125,1,75,0|0,0:0|0:0,0:0:0:0:
329,0,120105,2,0,P|362:44|373:88,1,75,4|0,0:0|0:0,0:0:0:0:
372,160,120518,2,0,P|356:213|325:247,1,75,0|0,0:0|0:0,0:0:0:0:
408,353,120932,2,0,P|353:361|309:348,1,75,4|0,0:0|0:0,0:0:0:0:
248,310,121346,2,0,P|210:271|195:227,1,75,0|0,0:0|0:0,0:0:0:0:
132,184,121760,2,0,L|149:125,3,37.5,4|4|4|4,0:0|3:0|3:0|3:0,0:0:0:0:
183,107,122173,2,0,L|166:48,3,37.5,4|4|4|4,3:0|3:0|3:0|3:0,0:0:0:0:
133,42,122587,6,0,P|83:66|57:99,1,75,4|8,0:0|0:0,0:0:0:0:
20,165,123001,2,0,P|15:221|31:260,1,75,0|8,0:0|0:0,0:0:0:0:
72,321,123415,2,0,P|117:353|159:359,1,75,0|8,0:0|0:0,0:0:0:0:
234,357,123829,2,0,P|284:334|310:300,1,75,0|8,0:0|0:0,0:0:0:0:
394,335,124242,5,0,0:0:0:0:
424,243,124449,1,8,0:0:0:0:
443,247,124553,1,0,0:0:0:0:
463,251,124656,2,0,P|486:207|478:149,1,75,0|8,0:0|0:0,0:0:0:0:
477,84,125070,2,0,P|450:43|396:21,1,75,0|8,0:0|0:0,0:0:0:0:
334,2,125484,2,0,P|284:5|238:41,1,75,0|8,0:0|0:0,0:0:0:0:
184,79,125898,6,0,L|131:67,2,37.5,0|0|8,0:0|0:0|0:0,0:0:0:0:
251,150,126311,2,0,P|275:190|268:244,1,75,0|8,0:0|0:0,0:0:0:0:
251,312,126725,2,0,P|218:346|164:353,1,75,0|8,0:0|0:0,0:0:0:0:
94,353,127139,2,0,P|53:331|32:281,1,75,0|8,0:0|0:0,0:0:0:0:
25,210,127553,5,0,0:0:0:0:
103,152,127760,1,8,0:0:0:0:
130,139,127863,1,0,0:0:0:0:
158,126,127967,2,0,P|154:60|128:35,1,75,0|8,0:0|0:0,0:0:0:0:
239,16,128380,2,0,L|288:4,3,37.5,4|4|4|4,3:0|3:0|3:0|3:0,0:0:0:0:
297,51,128794,2,0,L|346:63,3,37.5,4|4|4|4,3:0|3:0|3:0|3:0,0:0:0:0:
379,42,129208,6,0,P|429:66|455:99,1,75,4|8,0:0|0:0,0:0:0:0:
492,165,129622,2,0,P|497:221|481:260,1,75,0|8,0:0|0:0,0:0:0:0:
440,321,130036,2,0,P|395:353|353:359,1,75,0|8,0:0|0:0,0:0:0:0:
278,357,130449,2,0,P|228:334|202:300,1,75,0|8,0:0|0:0,0:0:0:0:
118,335,130863,5,0,0:0:0:0:
88,243,131070,1,8,0:0:0:0:
69,247,131173,1,0,0:0:0:0:
49,251,131277,2,0,P|26:207|34:149,1,75,0|8,0:0|0:0,0:0:0:0:
38,86,131691,2,0,P|65:45|119:23,1,75,0|8,0:0|0:0,0:0:0:0:
180,3,132105,2,0,P|230:6|276:42,1,75,0|8,0:0|0:0,0:0:0:0:
441,14,132518,6,0,P|466:61|469:106,1,75,4|0,0:0|0:0,0:0:0:0:
456,178,132932,2,0,P|432:225|395:255,1,75,0|0,0:0|0:0,0:0:0:0:
458,375,133346,2,0,P|403:372|362:353,1,75,4|0,0:0|0:0,0:0:0:0:
308,305,133760,2,0,P|277:259|271:214,1,75,0|0,0:0|0:0,0:0:0:0:
137,209,134173,2,0,P|166:162|204:137,1,75,4|0,0:0|0:0,0:0:0:0:
272,114,134587,2,0,P|326:110|369:127,1,75,0|0,0:0|0:0,0:0:0:0:
435,76,135001,2,0,L|459:122,3,37.5,4|4|4|4,0:0|3:0|3:0|3:0,0:0:0:0:
437,156,135415,2,0,L|413:202,3,37.5,4|4|4|4,3:0|3:0|3:0|3:0,0:0:0:0:
457,221,135829,6,0,P|458:304|416:364,1,150,2|0,0:0|0:0,0:0:0:0:
239,293,136656,2,0,P|232:222|208:198,1,75,2|0,0:0|0:0,0:0:0:0:
173,142,137070,2,0,P|108:113|75:122,1,75,0|0,0:0|0:0,0:0:0:0:
35,180,137484,6,0,L|10:224,3,37.5,2|0|0|0,0:0|3:0|3:0|3:0,0:0:0:0:
43,254,137898,2,0,L|68:298,3,37.5,0|0|0|0,3:0|3:0|3:0|3:0,0:0:0:0:
114,353,138311,6,0,L|158:378,3,37.5,4|4|4|4,3:0|3:0|3:0|3:0,0:0:0:0:
209,310,138725,2,0,L|253:285,3,37.5,4|4|4|4,3:0|3:0|3:0|3:0,0:0:0:0:
304,304,139139,5,8,0:0:0:0:
394,340,139346,1,8,0:0:0:0:
485,306,139553,1,0,0:0:0:0:
510,211,139760,1,8,0:0:0:0:
472,121,139966,1,0,0:0:0:0:
377,98,140173,1,8,0:0:0:0:
292,147,140380,1,0,0:0:0:0:
280,243,140587,1,8,0:0:0:0:
204,305,140794,5,8,0:0:0:0:
106,305,141001,1,8,0:0:0:0:
106,305,141105,1,0,0:0:0:0:
106,305,141208,1,0,0:0:0:0:
54,222,141415,1,8,0:0:0:0:
81,128,141622,1,0,0:0:0:0:
170,89,141829,1,8,0:0:0:0:
256,132,142035,1,0,0:0:0:0:
326,199,142242,1,8,0:0:0:0:
422,186,142449,5,8,0:0:0:0:
464,98,142656,1,8,0:0:0:0:
411,16,142863,1,0,0:0:0:0:
313,11,143070,1,8,0:0:0:0:
254,89,143277,1,0,0:0:0:0:
218,179,143484,1,8,0:0:0:0:
127,215,143691,1,0,0:0:0:0:
40,169,143898,1,8,0:0:0:0:
29,71,144105,5,8,0:0:0:0:
104,10,144311,1,8,0:0:0:0:
104,10,144415,1,0,0:0:0:0:
104,10,144518,1,0,0:0:0:0:
201,17,144725,1,8,0:0:0:0:
272,83,144932,6,0,L|334:97,3,37.5,4|4|4|4,3:0|3:0|3:0|3:0,0:0:0:0:
345,59,145346,2,0,L|407:45,3,37.5,4|4|4|4,3:0|3:0|3:0|3:0,0:0:0:0:
428,63,145760,5,8,0:0:0:0:
502,126,145967,1,8,0:0:0:0:
497,222,146173,1,0,0:0:0:0:
407,260,146380,1,8,0:0:0:0:
319,216,146587,1,0,0:0:0:0:
283,125,146794,1,8,0:0:0:0:
204,67,147001,1,0,0:0:0:0:
109,91,147208,1,8,0:0:0:0:
73,181,147415,5,8,0:0:0:0:
116,268,147622,1,8,0:0:0:0:
116,268,147725,1,0,0:0:0:0:
116,268,147829,1,0,0:0:0:0:
212,278,148035,1,8,0:0:0:0:
281,209,148242,1,0,0:0:0:0:
295,113,148449,1,8,0:0:0:0:
368,48,148656,1,0,0:0:0:0:
459,81,148863,1,8,0:0:0:0:
486,174,149070,5,8,0:0:0:0:
407,231,149277,2,0,L|255:219,1,150,0|8,0:0|0:0,0:0:0:0:
165,184,149898,1,8,0:0:0:0:
102,108,150105,1,0,0:0:0:0:
95,86,150208,1,0,0:0:0:0:
87,65,150311,1,0,0:0:0:0:
164,8,150518,1,8,0:0:0:0:
213,92,150725,5,8,0:0:0:0:
277,20,150932,2,0,L|429:32,1,150,0|8,0:0|0:0,0:0:0:0:
475,117,151553,2,0,L|512:112,3,37.5,4|4|4|4,3:0|3:0|3:0|3:0,0:0:0:0:
428,157,151967,2,0,L|390:152,3,37.5,4|4|4|4,3:0|3:0|3:0|3:0,0:0:0:0:
465,212,152380,6,0,P|400:302|287:323,1,225,8|8,0:0|0:0,0:0:0:0:
101,310,153415,1,8,0:0:0:0:
46,123,153829,1,8,0:0:0:0:
130,48,154036,2,0,L|111:5,3,37.5,0|0|0|0,3:0|3:0|3:0|3:0,0:0:0:0:
186,61,154449,2,0,L|232:66,3,37.5,0|0|0|0,3:0|3:0|3:0|3:0,0:0:0:0:
143,99,154863,2,0,L|115:136,3,37.5,0|0|0|0,3:0|3:0|3:0|3:0,0:0:0:0:
319,270,155691,5,4,0:0:0:0:
256,192,155794,12,0,158587,0:0:0:0:
380,141,159001,6,0,P|436:191|461:261,1,150,4|0,0:0|0:0,0:0:0:0:
416,348,159622,2,0,P|304:343|206:289,1,225,8|0,0:0|0:0,0:0:0:0:
113,263,160450,1,8,0:0:0:0:
39,200,160656,2,0,L|34:50,1,150,0|0,0:0|0:0,0:0:0:0:
121,4,161277,1,8,0:0:0:0:
187,76,161484,2,0,L|193:225,1,150
259,298,162105,1,8,0:0:0:0:
357,308,162312,6,0,P|412:259|436:189,1,150,4|0,0:0|0:0,0:0:0:0:
387,104,162932,2,0,P|276:117|183:179,1,225,8|0,0:0|0:0,0:0:0:0:
234,263,163760,1,8,0:0:0:0:
186,347,163967,2,0,L|36:360,1,150,0|0,0:0|0:0,0:0:0:0:
3,268,164587,1,8,0:0:0:0:
68,195,164794,2,0,L|217:181,1,150,0|0,0:0|0:0,0:0:0:0:
280,105,165415,1,8,0:0:0:0:
376,86,165622,6,0,P|432:136|457:206,1,150,4|0,0:0|0:0,0:0:0:0:
418,297,166243,2,0,P|307:297|207:249,1,225,8|0,0:0|0:0,0:0:0:0:
117,287,167070,1,8,0:0:0:0:
59,208,167277,6,0,L|7:221,7,37.5
96,160,168105,2,0,L|148:173,7,37.5,0|0|0|0|0|0|0|0,3:0|3:0|3:0|3:0|3:0|3:0|3:0|3:0,0:0:0:0:
171,126,168932,6,0,P|234:92|315:83,1,150,4|0,0:0|0:0,0:0:0:0:
372,158,169553,2,0,P|349:267|280:354,1,225,8|0,0:0|0:0,0:0:0:0:
189,316,170380,1,8,0:0:0:0:
189,217,170587,2,0,L|39:222,1,150
10,128,171208,1,8,0:0:0:0:
80,60,171415,2,0,L|229:54,1,150
286,133,172035,1,8,0:0:0:0:
377,166,172242,6,0,P|405:234|396:308,1,150,4|0,0:0|0:0,0:0:0:0:
310,354,172863,2,0,P|211:301|147:210,1,225,8|0,0:0|0:0,0:0:0:0:
77,141,173691,1,8,0:0:0:0:
129,59,173897,2,0,L|277:35,1,150
373,55,174518,1,8,0:0:0:0:
336,145,174725,2,0,L|188:169,1,150
114,233,175346,1,8,0:0:0:0:
165,315,175553,6,0,P|219:364|291:381,1,150,4|0,0:0|0:0,0:0:0:0:
371,323,176173,2,0,P|346:213|275:127,1,225,8|0,0:0|0:0,0:0:0:0:
235,38,177001,1,8,0:0:0:0:
165,106,177208,2,0,L|16:119,1,150
1,215,177828,1,8,0:0:0:0:
83,266,178035,2,0,L|233:252,1,150
296,326,178656,1,8,0:0:0:0:
370,263,178863,6,0,P|388:190|370:118,1,150,4|0,0:0|0:0,0:0:0:0:
287,65,179484,2,0,P|194:127|138:222,1,225,8|0,0:0|0:0,0:0:0:0:
235,237,180311,1,8,0:0:0:0:
318,286,180518,1,8,0:0:0:0:
354,376,180725,1,8,0:0:0:0:
445,341,180932,6,0,L|504:349,5,37.5,4|4|4|4|4|4,0:3|0:3|0:3|0:3|0:3|0:3,0:0:0:0:
511,306,181553,2,0,P|493:233|438:183,1,150,4|12,0:0|0:0,0:0:0:0:
344,206,182173,6,0,P|301:246|238:274,2,112.5
149,192,183208,2,0,P|142:140|125:98,1,75
181,32,183621,1,0,0:0:0:0:
270,70,183828,6,0,P|342:68|398:57,2,112.5
420,194,184863,2,0,P|386:234|349:260,1,75
358,345,185276,1,0,0:0:0:0:
260,337,185484,6,0,P|188:339|132:350,2,112.5
69,296,186518,2,0,P|38:253|22:210,1,75
2,138,186931,1,0,0:0:0:0:
81,81,187139,6,0,P|153:79|209:68,2,112.5
262,154,188173,2,0,P|232:193|217:229,1,75
225,313,188586,1,0,0:0:0:0:
133,348,188794,6,0,P|74:355|7:347,2,112.5
8,197,189829,2,0,P|15:145|32:103,1,75
50,29,190242,1,0,0:0:0:0:
140,65,190449,6,0,P|212:63|268:52,2,112.5
327,117,191484,2,0,P|379:124|421:141,1,75
474,194,191897,1,0,0:0:0:0:
401,259,192104,6,0,P|399:331|388:387,2,112.5
232,357,193139,2,0,P|180:350|138:333,1,75
88,274,193552,1,0,0:0:0:0:
142,192,193760,6,0,L|194:179,7,37.5
215,133,194588,2,0,L|267:146,7,37.5
295,187,195415,5,2,0:0:0:0:
