osu file format v14

[General]
AudioFilename: Kyuu.mp3
AudioLeadIn: 0
PreviewTime: 79568
Countdown: 0
SampleSet: Soft
StackLeniency: 0.7
Mode: 0
LetterboxInBreaks: 1
WidescreenStoryboard: 1

[Editor]
DistanceSpacing: 1
BeatDivisor: 4
GridSize: 8
TimelineZoom: 1.4

[Metadata]
Title:Kyuu Jigoku Kaidou wo Yuku
TitleUnicode:旧地獄街道を行く
Artist:TAMUSIC
ArtistUnicode:TAMUSIC
Creator:Xanandra
Version:Normal
Source:東方地霊殿 ~ Subterranean Animism.
Tags:Tam x Keigo Kanzaki Touhou Project Violin Rock Zun Subterranean Animism TH11 Walking The Streets Of Former Hell Yuugi Hoshiguma
BeatmapID:1275091
BeatmapSetID:315150

[Difficulty]
HPDrainRate:4
CircleSize:3
OverallDifficulty:4
ApproachRate:4
SliderMultiplier:1.2
SliderTickRate:1

[Events]
//Background and Video events
0,0,"1.jpg",0,0
//Break Periods
//Storyboard Layer 0 (Background)
//Storyboard Layer 1 (Fail)
//Storyboard Layer 2 (Pass)
//Storyboard Layer 3 (Foreground)
//Storyboard Sound Samples

[TimingPoints]
105,413.793103448276,4,2,1,80,1,0
6518,-100,4,2,1,50,0,0
12518,-100,4,2,1,75,0,0
13346,-100,4,2,1,60,0,0
26380,-100,4,2,1,50,0,0
38173,-100,4,2,1,70,0,0
53070,-100,4,2,1,50,0,0
66311,-100,4,2,1,60,0,0
77898,-100,4,2,1,70,0,0
96105,-100,4,2,1,50,0,0
109346,-133.333333333333,4,2,1,35,0,0
115553,-100,4,2,1,60,0,0
122587,-100,4,2,1,70,0,0
135829,-100,4,2,1,50,0,0
137484,-100,4,2,1,60,0,0
138311,-100,4,2,1,70,0,0
139139,-100,4,2,1,80,0,1
152380,-100,4,2,1,80,0,0
155691,-100,4,2,1,80,0,1
158587,-100,4,2,1,60,0,0
168105,-100,4,2,1,75,0,0
168932,-100,4,2,1,60,0,0
182173,-100,4,2,1,80,0,0
193760,-100,4,2,1,60,0,0
194587,-100,4,2,1,70,0,0

[Colours]
Combo1 : 222,1,254
Combo2 : 255,0,0
Combo3 : 255,217,0

[HitObjects]
200,8,105,6,0,L|296:5,1,90
349,72,725,2,0,P|421:51|465:22,1,120,0|0,0:0|0:0,0:0:0:0:
511,199,1760,6,0,L|394:193,1,90,0|0,0:0|0:0,0:0:0:0:
355,256,2380,2,0,P|356:324|338:382,1,120,0|0,0:0|0:0,0:0:0:0:
163,360,3415,6,0,L|69:348,1,90,0|0,0:0|0:0,0:0:0:0:
45,263,4036,2,0,P|100:211|119:152,1,120,0|0,0:0|0:0,0:0:0:0:
225,28,5070,6,0,P|276:85|284:106,1,90,0|0,0:0|0:0,0:0:0:0:
278,187,5691,2,0,P|245:237|199:276,1,120,0|0,0:0|0:0,0:0:0:0:
83,306,6518,5,8,0:0:0:0:
83,306,6725,1,0,0:0:0:0:
2,218,7139,2,0,L|6:79,1,120,0|0,0:0|0:0,0:0:0:0:
115,50,7967,6,0,P|145:32|167:0,2,60,4|8|0,0:3|0:0|0:0,0:0:0:0:
109,170,8794,2,0,P|157:216|224:232,1,120,0|4,0:0|0:3,0:0:0:0:
276,330,9622,6,0,L|252:387,2,60,4|8|0,0:3|0:0|0:0,0:0:0:0:
393,307,10449,2,0,L|373:154,1,120,0|4,0:0|0:3,0:0:0:0:
428,79,11277,6,0,P|454:49|499:30,2,60,4|8|0,0:3|0:0|0:0,0:0:0:0:
309,98,12105,2,0,P|218:69|184:36,1,120,0|0,0:0|3:0,0:0:0:0:
97,117,12932,6,0,L|88:185,1,60,0|0,3:0|3:0,0:0:0:0:
87,237,13346,2,0,P|115:309|162:350,1,120,4|0,0:0|0:0,0:0:0:0:
201,359,13967,1,8,0:0:0:0:
425,274,14794,5,8,0:0:0:0:
414,216,15001,2,0,P|449:118|524:69,1,180,0|8,0:0|0:0,0:0:0:0:
499,15,15829,2,0,L|290:23,1,180,0|8,0:0|0:0,0:0:0:0:
289,75,16656,6,0,P|223:61|182:17,1,120,8|0,0:0|0:0,0:0:0:0:
126,22,17277,1,8,0:0:0:0:
46,249,18105,1,8,0:0:0:0:
86,294,18311,2,0,L|215:291,1,120,0|0,0:0|0:0,0:0:0:0:
222,173,19139,2,0,L|341:171,1,120,8|0,0:0|0:0,0:0:0:0:
425,258,19967,6,0,P|403:322|348:364,1,120,8|0,0:0|0:0,0:0:0:0:
306,370,20587,1,8,0:0:0:0:
74,307,21415,1,8,0:0:0:0:
92,250,21622,2,0,P|76:171|-14:98,1,180,0|8,0:0|0:0,0:0:0:0:
28,50,22449,2,0,L|230:63,1,180,0|8,0:0|0:0,0:0:0:0:
253,23,23277,6,0,P|331:54|366:101,1,120,8|0,0:0|0:0,0:0:0:0:
394,125,23898,1,8,0:0:0:0:
278,336,24725,1,8,0:0:0:0:
226,305,24932,2,0,P|88:290|-11:341,1,240,8|4,0:0|0:3,0:0:0:0:
80,107,26587,6,0,P|116:48|179:21,1,120,8|0,0:0|0:0,0:0:0:0:
279,11,27415,2,0,P|345:31|387:85,1,120,0|0,0:0|0:0,0:0:0:0:
389,187,28242,2,0,P|299:256|246:377,1,240,4|0,0:3|0:0,0:0:0:0:
93,185,29898,6,0,L|4:86,1,120,4|0,0:3|0:0,0:0:0:0:
124,52,30725,2,0,L|213:151,1,120,0|8,0:0|0:0,0:0:0:0:
201,262,31553,2,0,P|305:262|431:330,1,240,4|0,0:3|0:0,0:0:0:0:
432,84,33208,6,0,L|310:111,1,120,4|0,0:3|0:3,0:0:0:0:
247,10,34036,2,0,L|125:37,1,120
64,136,34863,2,0,P|64:235|134:360,1,240,4|0,0:3|0:0,0:0:0:0:
217,273,36105,1,8,0:0:0:0:
300,359,36518,6,0,L|432:349,1,120,8|8,0:0|0:0,0:0:0:0:
449,234,37346,2,0,L|317:244,1,120,8|4,0:0|0:3,0:0:0:0:
250,153,38173,2,0,P|199:81|87:23,2,180,8|8|8,0:0|0:0|0:0,0:0:0:0:
345,80,39829,5,2,0:0:0:0:
457,122,40242,1,0,2:0:0:0:
473,241,40656,1,2,0:0:0:0:
374,311,41070,1,0,2:0:0:0:
374,311,41484,2,0,P|248:330|143:265,1,240,2|0,0:0|0:0,0:0:0:0:
68,56,43139,5,2,0:0:0:0:
182,18,43553,1,0,0:0:0:0:
278,89,43967,1,2,0:0:0:0:
276,215,44380,1,0,0:0:0:0:
276,215,44794,2,0,P|221:330|122:381,1,240,2|4,0:0|3:0,0:0:0:0:
9,170,46449,5,6,3:0:0:0:
128,186,46863,1,0,0:0:0:0:
228,120,47277,1,2,0:0:0:0:
258,4,47691,1,0,0:0:0:0:
369,48,48105,2,0,L|496:32,1,120,2|0,0:0|0:0,0:0:0:0:
457,150,48932,2,0,L|330:166,1,120,2|0,0:0|0:0,0:0:0:0:
242,92,49760,6,0,P|158:216|105:245,1,180,4|0,0:0|0:0,0:0:0:0:
160,286,50587,2,0,P|248:306|364:292,1,180,4|0,0:0|0:0,0:0:0:0:
394,318,51415,2,0,L|386:61,1,240,4|4,0:0|0:0,0:0:0:0:
194,223,53070,6,0,P|136:213|92:179,1,90,4|0,0:0|0:0,0:0:0:0:
31,239,53691,2,0,P|14:306|26:379,1,120,8|0,0:0|0:0,0:0:0:0:
198,373,54725,6,0,L|298:361,1,90,0|0,0:0|0:0,0:0:0:0:
320,280,55346,2,0,L|282:145,1,120,8|0,0:0|0:0,0:0:0:0:
395,22,56380,6,0,P|314:27|279:34,1,90,0|0,0:0|0:0,0:0:0:0:
229,78,57001,2,0,P|168:22|127:12,1,120,8|0,0:0|0:0,0:0:0:0:
15,150,58036,6,0,L|-2:243,1,90,0|0,0:0|3:0,0:0:0:0:
80,277,58656,2,0,P|62:336|12:379,1,120,8|8,0:0|0:0,0:0:0:0:
200,376,59691,6,0,L|296:379,1,90,4|0,0:0|0:0,0:0:0:0:
349,312,60311,2,0,P|421:333|465:362,1,120,8|0,0:0|0:0,0:0:0:0:
511,185,61346,6,0,L|394:191,1,90,0|0,0:0|0:0,0:0:0:0:
355,128,61967,2,0,P|356:60|338:2,1,120,8|0,0:0|0:0,0:0:0:0:
163,24,63001,6,0,L|69:36,1,90,0|0,3:0|0:0,0:0:0:0:
45,121,63622,2,0,P|100:173|119:232,1,120,8|0,0:0|0:0,0:0:0:0:
225,356,64656,6,0,P|276:299|284:278,1,90,8|0,0:0|0:0,0:0:0:0:
207,236,65277,2,0,P|194:152|231:61,1,180,4|0,3:0|0:0,0:0:0:0:
330,1,66311,5,4,3:0:0:0:
436,58,66725,1,8,0:0:0:0:
438,178,67139,1,4,3:0:0:0:
327,221,67553,1,8,0:0:0:0:
327,221,67967,2,0,P|214:274|166:382,1,240,4|4,3:0|3:0,0:0:0:0:
7,196,69622,5,4,3:0:0:0:
122,227,70036,1,8,0:0:0:0:
188,127,70449,1,4,3:0:0:0:
287,205,70863,1,8,0:0:0:0:
287,205,71277,2,0,P|392:315|503:340,1,240,4|4,3:0|3:0,0:0:0:0:
501,101,72932,5,4,3:0:0:0:
397,161,73346,1,4,3:0:0:0:
285,120,73760,1,0,3:0:0:0:
243,8,74173,1,8,0:0:0:0:
147,79,74587,2,0,L|18:76,1,120,4|8,3:0|0:0,0:0:0:0:
77,186,75415,2,0,L|206:189,1,120,8|4,0:0|3:0,0:0:0:0:
244,299,76242,5,8,0:0:0:0:
364,311,76656,1,8,0:0:0:0:
473,259,77070,1,8,0:0:0:0:
499,141,77484,1,4,3:0:0:0:
435,39,77898,2,0,P|323:21|285:-4,1,120,8|8,0:0|0:0,0:0:0:0:
272,56,78518,2,0,P|241:122|239:206,1,120,8|8,0:0|0:0,0:0:0:0:
180,191,79139,1,8,2:0:0:0:
66,226,79553,5,4,0:0:0:0:
90,343,79967,1,0,2:0:0:0:
205,379,80380,1,2,0:0:0:0:
288,291,80794,1,0,2:0:0:0:
288,291,81001,1,8,0:0:0:0:
288,291,81208,2,0,P|386:209|517:188,1,240,2|0,0:0|0:0,0:0:0:0:
319,22,82863,5,2,0:0:0:0:
413,97,83277,1,0,0:0:0:0:
404,216,83691,1,2,0:0:0:0:
303,279,84105,1,0,0:0:0:0:
303,279,84311,1,8,0:0:0:0:
303,279,84518,2,0,P|136:300|71:356,1,240,2|4,0:0|3:0,0:0:0:0:
56,103,86173,5,6,0:0:0:0:
125,201,86587,1,0,0:0:0:0:
245,213,87001,1,2,0:0:0:0:
331,130,87415,1,0,0:0:0:0:
331,130,87622,1,8,0:0:0:0:
331,130,87829,2,0,L|467:112,1,120,2|0,0:0|0:0,0:0:0:0:
501,223,88656,2,0,L|365:241,1,120,2|0,0:0|0:0,0:0:0:0:
347,353,89484,6,0,P|281:324|221:215,1,180,4|0,0:0|0:0,0:0:0:0:
283,224,90311,2,0,L|320:39,1,180,4|0,0:0|0:0,0:0:0:0:
268,13,91139,1,4,0:0:0:0:
118,200,91967,2,0,P|33:174|-3:138,1,120,4|4,0:0|3:0,0:0:0:0:
5,274,92794,5,4,0:0:0:0:
88,359,93208,1,0,0:0:0:0:
206,342,93622,1,4,0:0:0:0:
269,240,94036,2,0,P|295:224|334:205,2,60,0|0|4,0:0|0:0|0:0,0:0:0:0:
65,368,95277,1,0,0:0:0:0:
302,335,96105,5,4,0:0:0:0:
466,255,96725,2,0,P|366:167|316:48,1,240,8|8,0:0|0:0,0:0:0:0:
263,60,97760,2,0,P|156:112|66:104,1,180,2|8,0:0|0:0,0:0:0:0:
65,162,98587,2,0,P|84:249|155:316,1,180,2|8,0:0|0:0,0:0:0:0:
168,368,99415,2,0,L|379:373,1,180,2|8,0:0|0:0,0:0:0:0:
464,161,100863,5,8,0:0:0:0:
408,140,101070,2,0,P|339:183|295:301,1,180,2|8,0:0|0:0,0:0:0:0:
238,263,101898,2,0,P|189:176|201:82,1,180,2|8,0:0|0:0,0:0:0:0:
215,41,102725,2,0,L|23:21,1,180,6|8,0:0|0:0,0:0:0:0:
39,262,104173,5,8,0:0:0:0:
98,259,104380,2,0,P|187:309|225:390,1,180,2|8,0:0|0:0,0:0:0:0:
282,374,105208,2,0,P|326:276|324:197,1,180,2|8,0:0|0:0,0:0:0:0:
272,176,106036,6,0,P|192:209|92:192,1,180,2|8,0:0|0:0,0:0:0:0:
45,218,106863,2,0,P|63:121|59:36,1,180,2|8,0:0|0:0,0:0:0:0:
106,1,107691,2,0,L|287:26,1,180,10|4,0:0|3:0,0:0:0:0:
311,79,108518,1,6,3:0:0:0:
379,245,109346,5,2,0:0:0:0:
312,305,109760,1,0,0:0:0:0:
225,279,110173,2,0,P|177:255|128:257,1,90.0000034332277,2|0,0:0|0:0,0:0:0:0:
76,191,111001,2,0,P|91:46|66:-3,1,180.000006866455,2|2,0:0|0:0,0:0:0:0:
259,16,112656,5,2,0:0:0:0:
314,86,113070,1,0,0:0:0:0:
310,175,113484,2,0,P|281:216|239:231,1,90.0000034332277,2|0,0:0|0:0,0:0:0:0:
228,318,114311,2,0,P|304:348|414:326,1,180.000006866455,2|2,0:0|0:0,0:0:0:0:
448,98,115967,5,2,0:0:0:0:
328,108,116380,1,0,0:0:0:0:
240,190,116794,1,2,0:0:0:0:
216,307,117208,1,0,0:0:0:0:
120,234,117622,2,0,L|-8:246,1,120,2|0,0:0|0:0,0:0:0:0:
18,126,118449,2,0,L|146:114,1,120,2|0,0:0|0:0,0:0:0:0:
220,27,119277,6,0,P|298:94|411:106,1,180,4|0,0:0|0:0,0:0:0:0:
396,165,120105,2,0,P|358:243|261:296,1,180,4|0,0:0|0:0,0:0:0:0:
271,350,120932,1,4,0:0:0:0:
49,257,121760,2,0,L|40:108,1,120,4|4,0:0|3:0,0:0:0:0:
124,49,122587,5,4,0:0:0:0:
124,49,122794,2,0,P|184:59|277:37,2,120,8|8|8,0:0|0:0|0:0,0:0:0:0:
143,178,124036,1,8,0:0:0:0:
143,178,124242,1,0,0:0:0:0:
143,178,124449,2,0,P|120:263|91:293,2,120,8|8|8,0:0|0:0|0:0,0:0:0:0:
261,154,125691,5,8,0:0:0:0:
261,154,125898,2,0,P|289:184|326:205,1,60,0|8,0:0|0:0,0:0:0:0:
367,92,126518,1,8,0:0:0:0:
367,92,126725,2,0,P|402:71|444:62,1,60,0|8,0:0|0:0,0:0:0:0:
505,150,127346,1,8,0:0:0:0:
505,150,127553,2,0,P|486:186|479:228,1,60,0|8,0:0|0:0,0:0:0:0:
406,296,128173,1,8,0:0:0:0:
406,296,128380,2,0,P|342:352|267:351,1,120,4|4,3:0|3:0,0:0:0:0:
205,298,129208,5,4,0:0:0:0:
205,298,129415,2,0,P|194:230|150:164,2,120,8|8|8,0:0|0:0|0:0,0:0:0:0:
304,230,130656,1,8,0:0:0:0:
304,230,130863,1,0,0:0:0:0:
304,230,131070,2,0,P|266:126|275:67,2,120,8|8|8,0:0|0:0|0:0,0:0:0:0:
423,241,132311,5,8,0:0:0:0:
466,199,132518,2,0,P|457:112|393:22,1,180,4|0,0:0|0:0,0:0:0:0:
349,19,133346,2,0,P|263:46|171:18,1,180,4|0,0:0|0:0,0:0:0:0:
121,6,134173,2,0,L|181:187,1,180,4|0,0:0|0:0,0:0:0:0:
237,167,135001,2,0,L|177:348,1,180,4|4,0:0|3:0,0:0:0:0:
128,368,135829,5,2,0:0:0:0:
28,301,136242,1,0,0:0:0:0:
32,181,136656,1,2,0:0:0:0:
144,139,137070,1,0,0:0:0:0:
144,139,137277,1,0,0:0:0:0:
144,139,137484,6,0,P|236:133|343:74,1,180,2|0,0:0|3:0,0:0:0:0:
366,126,138311,2,4,P|371:218|430:325,1,180,4|4,3:0|3:0,3:3:0:0:
457,330,139139,5,4,0:0:0:0:
457,330,139346,1,8,0:0:0:0:
346,376,139760,1,8,0:0:0:0:
235,329,140173,1,8,0:0:0:0:
222,209,140587,5,8,0:0:0:0:
222,209,140794,1,8,0:0:0:0:
222,209,141001,1,8,0:0:0:0:
109,250,141415,1,8,0:0:0:0:
12,179,141829,1,8,0:0:0:0:
57,74,142242,5,8,0:0:0:0:
57,74,142449,1,8,0:0:0:0:
57,74,142656,1,8,0:0:0:0:
175,57,143070,1,8,0:0:0:0:
239,158,143484,1,8,0:0:0:0:
357,137,143898,5,8,0:0:0:0:
357,137,144105,1,8,0:0:0:0:
357,137,144311,1,8,0:0:0:0:
462,194,144725,2,0,L|473:333,1,120,8|8,0:0|0:0,0:0:0:0:
363,367,145553,5,4,3:0:0:0:
363,367,145760,1,8,0:0:0:0:
363,367,145967,1,8,0:0:0:0:
258,308,146380,1,8,0:0:0:0:
150,360,146794,1,8,0:0:0:0:
48,295,147208,5,8,0:0:0:0:
48,295,147415,1,8,0:0:0:0:
48,295,147622,1,8,0:0:0:0:
52,175,148036,1,8,0:0:0:0:
164,134,148449,1,8,0:0:0:0:
242,42,148863,5,8,0:0:0:0:
296,66,149070,2,0,P|434:55|486:25,1,180,8|8,0:0|0:0,0:0:0:0:
506,83,149898,2,0,P|498:179|449:262,1,180,8|8,0:0|0:0,0:0:0:0:
474,309,150725,2,0,L|277:268,1,180,8|8,0:0|0:0,0:0:0:0:
255,314,151553,2,4,P|208:218|141:168,1,180,4|0,3:0|0:0,3:3:0:0:
117,124,152380,6,0,P|186:62|272:43,1,180,8|8,0:0|0:0,0:0:0:0:
389,53,153415,1,8,0:0:0:0:
456,152,153829,1,8,0:0:0:0:
476,208,154036,2,0,P|442:314|356:379,1,180,2|0,3:0|3:0,0:0:0:0:
356,313,154863,2,0,L|154:295,1,180,0|0,3:0|0:0,0:0:0:0:
126,330,155691,5,4,0:0:0:0:
256,192,155898,12,0,158587,0:0:0:0:
388,64,159415,5,0,0:0:0:0:
388,64,159622,1,8,0:0:0:0:
189,196,160450,1,8,0:0:0:0:
189,196,160656,2,0,L|60:199,1,120
2,98,161484,2,0,L|121:96,1,120,8|0,0:0|0:0,0:0:0:0:
209,13,162312,6,0,P|266:48|294:111,1,120,8|0,0:0|0:0,0:0:0:0:
294,153,162932,1,8,0:0:0:0:
127,322,163760,1,8,0:0:0:0:
69,303,163967,2,0,P|30:232|52:118,1,180,0|8,0:0|0:0,0:0:0:0:
26,78,164794,2,0,L|228:91,1,180,0|8,0:0|0:0,0:0:0:0:
249,47,165622,6,0,P|297:115|301:173,1,120,8|0,0:0|0:0,0:0:0:0:
312,209,166243,1,8,0:0:0:0:
142,379,167070,1,8,0:0:0:0:
183,335,167277,2,0,P|321:320|420:371,1,240,8|4,0:0|0:3,0:0:0:0:
337,132,168932,6,0,P|365:60|412:19,1,120,4|0,0:0|0:0,0:0:0:0:
451,11,169553,1,8,0:0:0:0:
225,93,170380,5,8,0:0:0:0:
166,104,170587,2,0,P|66:74|13:2,1,180,0|8,0:0|0:0,0:0:0:0:
6,76,171415,2,0,L|39:282,1,180,0|8,0:0|0:0,0:0:0:0:
45,312,172242,6,0,P|111:298|152:254,1,120,8|0,0:0|0:0,0:0:0:0:
200,233,172863,1,8,0:0:0:0:
389,380,173691,1,8,0:0:0:0:
427,334,173897,2,0,L|415:205,1,120
308,160,174725,2,0,L|319:288,1,120,8|0,0:0|0:0,0:0:0:0:
213,337,175553,6,0,P|152:307|117:247,1,120,8|0,0:0|0:0,0:0:0:0:
90,214,176173,1,8,0:0:0:0:
227,17,177001,1,8,0:0:0:0:
285,31,177208,2,0,P|352:73|460:55,1,180,0|8,0:0|0:0,0:0:0:0:
461,120,178035,2,0,L|409:323,1,180,0|8,0:0|0:0,0:0:0:0:
356,298,178863,6,0,P|278:329|243:376,1,120,8|0,0:0|0:0,0:0:0:0:
196,339,179484,1,8,0:0:0:0:
41,155,180311,1,8,0:0:0:0:
85,114,180518,2,0,P|223:99|322:150,1,240,8|4,0:0|0:3,0:0:0:0:
169,334,182173,6,0,L|73:331,1,90
25,258,182794,2,0,P|68:196|110:164,1,120
199,16,183828,6,0,L|316:10,1,90
348,79,184449,2,0,P|349:147|330:204,1,120
160,243,185483,6,0,L|102:168,1,90
136,86,186104,2,0,P|211:88|266:59,1,120
424,21,187138,6,0,P|475:78|483:99,1,90,0|0,0:0|0:0,0:0:0:0:
477,180,187759,2,0,P|444:230|398:269,1,120,0|0,0:0|0:0,0:0:0:0:
246,365,188794,6,0,L|150:362,1,90
159,272,189415,2,0,P|87:251|42:222,1,120
135,68,190449,6,0,L|252:62,1,90
292,122,191070,2,0,P|293:190|276:246,1,120
406,367,192104,6,0,P|445:335|496:309,1,90
489,226,192725,2,0,P|444:161|431:105,1,120
296,19,193759,6,0,P|228:22|179:42,1,120
99,130,194587,2,0,P|89:189|96:248,1,120
163,347,195415,5,2,0:0:0:0:
