osu file format v14

[General]
AudioFilename: audio.mp3
AudioLeadIn: 0
PreviewTime: 11592
Countdown: 0
SampleSet: Normal
StackLeniency: 0.7
Mode: 1
LetterboxInBreaks: 0
WidescreenStoryboard: 0

[Editor]
Bookmarks: 26592,39937,53075,66316,79454,92799,96006,109351,115972,122592,135834,139041,152385,155696,168937,182178,195420
DistanceSpacing: 2.4
BeatDivisor: 4
GridSize: 32
TimelineZoom: 1.4

[Metadata]
Title:Kyuu Jigoku Kaidou wo Yuku
TitleUnicode:旧地獄街道を行く
Artist:TAMUSIC
ArtistUnicode:TAMUSIC
Creator:Nao Tomori
Version:Former Hell Oni
Source:東方Project
Tags:touhou 地霊殿 Chireiden subterranean animism th11 walking the streets of former hell yuugi hoshiguma tam x keigo kanzaki violin rock zun
BeatmapID:1554703
BeatmapSetID:736688

[Difficulty]
HPDrainRate:6
CircleSize:2
OverallDifficulty:6
ApproachRate:6
SliderMultiplier:1.4
SliderTickRate:1

[Events]
//Background and Video events
0,0,"63062872_p0.jpg",0,0
//Break Periods
//Storyboard Layer 0 (Background)
//Storyboard Layer 1 (Fail)
//Storyboard Layer 2 (Pass)
//Storyboard Layer 3 (Foreground)
//Storyboard Sound Samples

[TimingPoints]
110,413.793103448276,4,1,0,70,1,0
11696,-100,4,1,0,89,0,0
26592,-100,4,1,0,59,0,0
38178,-100,4,1,0,71,0,0
39834,-100,4,1,0,85,0,0
53075,-100,4,1,0,60,0,0
66316,-100,4,1,0,70,0,0
79454,-100,4,1,0,86,0,0
96110,-100,4,1,0,86,0,0
96316,-100,4,1,0,66,0,0
109454,-100,4,1,0,46,0,0
115972,-100,4,1,0,76,0,0
122592,-100,4,1,0,86,0,0
137489,-100,4,1,0,97,0,1
137592,-98.5221674876847,4,1,0,97,0,1
137696,-97.0873786407767,4,1,0,97,0,1
137799,-95.6937799043062,4,1,0,97,0,1
137903,-94.3396226415094,4,1,0,97,0,1
138006,-93.0232558139535,4,1,0,97,0,1
138110,-91.743119266055,4,1,0,97,0,1
138523,-91.743119266055,4,1,0,97,0,1
155696,-89.2857142857143,4,1,0,97,0,1
155903,-100,4,1,0,80,0,0
182282,-100,4,1,0,60,0,0
193765,-100,4,1,0,80,0,0
195420,-100,4,1,0,50,0,0

[HitObjects]
230,287,110,5,0,0:0:0:0:
256,192,420,1,0,0:0:0:0:
256,192,730,1,0,0:0:0:0:
256,192,1144,1,0,0:0:0:0:
256,192,1351,1,0,0:0:0:0:
256,192,1558,1,0,0:0:0:0:
256,192,1765,1,0,0:0:0:0:
256,192,2075,1,0,0:0:0:0:
256,192,2385,1,0,0:0:0:0:
256,192,2799,1,0,0:0:0:0:
256,192,3006,1,0,0:0:0:0:
256,192,3213,1,0,0:0:0:0:
256,192,3420,1,0,0:0:0:0:
256,192,3730,1,0,0:0:0:0:
256,192,4041,1,0,0:0:0:0:
256,192,4454,1,0,0:0:0:0:
256,192,4661,1,0,0:0:0:0:
256,192,4868,1,0,0:0:0:0:
256,192,5075,1,0,0:0:0:0:
256,192,5385,1,0,0:0:0:0:
256,192,5696,1,0,0:0:0:0:
256,192,6110,1,0,0:0:0:0:
256,192,6316,1,0,0:0:0:0:
256,192,6523,1,8,0:0:0:0:
256,192,6730,1,0,0:0:0:0:
256,192,7144,1,0,0:0:0:0:
256,192,7247,1,0,0:0:0:0:
256,192,7351,1,0,0:0:0:0:
256,192,7558,1,0,0:0:0:0:
256,192,7972,1,0,0:0:0:0:
256,192,8075,1,0,0:0:0:0:
256,192,8178,1,8,0:0:0:0:
256,192,8385,1,0,0:0:0:0:
256,192,8799,1,0,0:0:0:0:
256,192,8903,1,0,0:0:0:0:
256,192,9006,1,0,0:0:0:0:
256,192,9213,1,0,0:0:0:0:
256,192,9523,1,0,0:0:0:0:
256,192,9627,1,0,0:0:0:0:
256,192,9834,1,8,0:0:0:0:
256,192,10041,1,0,0:0:0:0:
256,192,10454,1,0,0:0:0:0:
256,192,10558,1,0,0:0:0:0:
256,192,10661,1,0,0:0:0:0:
256,192,10868,1,0,0:0:0:0:
256,192,11282,1,0,0:0:0:0:
256,192,11385,1,0,0:0:0:0:
256,192,11489,1,0,0:0:0:0:
256,192,11696,1,8,0:0:0:0:
256,192,11799,1,8,0:0:0:0:
256,192,11903,1,0,0:0:0:0:
256,192,12006,1,0,0:0:0:0:
256,192,12110,1,8,0:0:0:0:
256,192,12213,1,8,0:0:0:0:
256,192,12316,1,0,0:0:0:0:
256,192,12420,1,0,0:0:0:0:
256,192,12523,1,8,0:0:0:0:
256,192,12627,1,0,0:0:0:0:
256,192,12730,1,0,0:0:0:0:
256,192,12834,1,0,0:0:0:0:
256,192,12937,1,8,0:0:0:0:
256,192,13041,1,8,0:0:0:0:
256,192,13144,1,0,0:0:0:0:
256,192,13247,1,0,0:0:0:0:
256,192,13351,1,12,0:0:0:0:
256,192,13765,1,8,0:0:0:0:
256,192,13972,1,0,0:0:0:0:
256,192,14178,1,8,0:0:0:0:
256,192,14385,1,0,0:0:0:0:
256,192,14592,1,8,0:0:0:0:
256,192,14799,1,0,0:0:0:0:
256,192,14903,1,0,0:0:0:0:
256,192,15006,1,8,0:0:0:0:
256,192,15420,1,8,0:0:0:0:
256,192,15627,1,8,0:0:0:0:
256,192,15834,1,0,0:0:0:0:
256,192,15937,1,0,0:0:0:0:
256,192,16041,1,8,0:0:0:0:
256,192,16247,1,0,0:0:0:0:
256,192,16454,1,8,0:0:0:0:
256,192,16558,1,8,0:0:0:0:
256,192,16661,1,0,0:0:0:0:
256,192,17075,1,8,0:0:0:0:
256,192,17282,1,0,0:0:0:0:
256,192,17489,1,8,0:0:0:0:
256,192,17592,1,8,0:0:0:0:
256,192,17696,1,0,0:0:0:0:
256,192,17903,1,0,0:0:0:0:
256,192,18110,1,8,0:0:0:0:
256,192,18316,1,8,0:0:0:0:
258,171,18523,1,8,0:0:0:0:
256,192,18730,1,0,0:0:0:0:
256,192,18937,1,0,0:0:0:0:
256,192,19041,1,0,0:0:0:0:
256,192,19144,1,8,0:0:0:0:
256,192,19351,1,8,0:0:0:0:
256,192,19558,1,0,0:0:0:0:
256,192,19765,1,8,0:0:0:0:
256,192,19868,1,8,0:0:0:0:
256,192,19972,1,0,0:0:0:0:
256,192,20385,1,8,0:0:0:0:
256,192,20592,1,0,0:0:0:0:
256,192,20799,1,8,0:0:0:0:
256,192,21006,1,8,0:0:0:0:
256,192,21110,1,0,0:0:0:0:
256,192,21213,1,0,0:0:0:0:
256,192,21420,1,8,0:0:0:0:
256,192,21627,1,0,0:0:0:0:
256,192,22041,1,0,0:0:0:0:
256,192,22247,1,8,0:0:0:0:
256,192,22351,1,0,0:0:0:0:
256,192,22454,1,8,0:0:0:0:
256,192,22661,1,8,0:0:0:0:
256,192,22868,1,0,0:0:0:0:
256,192,23075,1,8,0:0:0:0:
256,192,23178,1,8,0:0:0:0:
256,192,23282,1,0,0:0:0:0:
256,192,23489,1,0,0:0:0:0:
256,192,23696,1,8,0:0:0:0:
256,192,23903,1,0,0:0:0:0:
256,192,24110,1,8,0:0:0:0:
256,192,24316,1,0,0:0:0:0:
256,192,24523,1,8,0:0:0:0:
256,192,24730,1,0,0:0:0:0:
256,192,24937,1,8,0:0:0:0:
256,192,25041,1,8,0:0:0:0:
256,192,25144,1,0,0:0:0:0:
256,192,25247,1,8,0:0:0:0:
256,192,25351,1,0,0:0:0:0:
256,192,25558,1,0,0:0:0:0:
256,192,25661,1,0,0:0:0:0:
256,192,25765,1,0,0:0:0:0:
256,192,25868,1,0,0:0:0:0:
256,192,25972,1,8,0:0:0:0:
256,192,26178,1,0,0:0:0:0:
256,192,26385,1,0,0:0:0:0:
256,192,26489,1,0,0:0:0:0:
256,192,26592,1,0,0:0:0:0:
256,160,27420,1,0,0:0:0:0:
256,160,28247,1,0,0:0:0:0:
256,160,28454,1,0,0:0:0:0:
256,160,29075,1,8,0:0:0:0:
256,160,29903,1,0,0:0:0:0:
256,160,31144,1,0,0:0:0:0:
256,160,31558,1,0,0:0:0:0:
256,192,32385,1,8,0:0:0:0:
256,192,32799,1,0,0:0:0:0:
256,192,33213,1,0,0:0:0:0:
256,192,34041,1,0,0:0:0:0:
256,192,34868,1,0,0:0:0:0:
256,192,35075,1,0,0:0:0:0:
256,192,35282,1,8,0:0:0:0:
256,192,36110,1,0,0:0:0:0:
256,192,36316,1,8,0:0:0:0:
256,192,36523,1,0,0:0:0:0:
256,192,36937,1,0,0:0:0:0:
256,192,37144,1,8,0:0:0:0:
256,192,37351,1,8,0:0:0:0:
256,192,37558,1,0,0:0:0:0:
256,192,37765,1,0,0:0:0:0:
256,192,37972,1,8,0:0:0:0:
256,192,38178,1,8,0:0:0:0:
256,192,38282,1,8,0:0:0:0:
256,192,38385,1,8,0:0:0:0:
256,192,38489,1,8,0:0:0:0:
256,192,38592,1,8,0:0:0:0:
256,192,38799,1,8,0:0:0:0:
256,192,38903,1,8,0:0:0:0:
256,192,39006,1,8,0:0:0:0:
256,192,39110,1,8,0:0:0:0:
256,192,39213,1,8,0:0:0:0:
256,192,39420,1,0,0:0:0:0:
256,192,39523,1,0,0:0:0:0:
256,192,39627,1,8,0:0:0:0:
256,192,39730,1,8,0:0:0:0:
256,192,39834,1,0,0:0:0:0:
256,192,40041,1,8,0:0:0:0:
256,192,40247,1,0,0:0:0:0:
256,192,40351,1,0,0:0:0:0:
256,192,40454,1,8,0:0:0:0:
256,192,40661,1,0,0:0:0:0:
256,192,41075,1,8,0:0:0:0:
256,192,41178,1,0,0:0:0:0:
256,192,41282,1,0,0:0:0:0:
256,192,41489,1,8,0:0:0:0:
256,192,41696,1,0,0:0:0:0:
256,192,41799,1,0,0:0:0:0:
256,192,41903,1,8,0:0:0:0:
256,192,42110,1,0,0:0:0:0:
256,192,42316,1,8,0:0:0:0:
256,192,42730,1,8,0:0:0:0:
256,192,42937,1,8,0:0:0:0:
256,192,43144,1,0,0:0:0:0:
256,192,43247,1,0,0:0:0:0:
256,192,43351,1,0,0:0:0:0:
256,192,43558,1,8,0:0:0:0:
256,192,43765,1,8,0:0:0:0:
256,192,43972,1,0,0:0:0:0:
256,192,44178,1,8,0:0:0:0:
249,197,44385,1,8,0:0:0:0:
256,192,44592,1,0,0:0:0:0:
256,192,44799,1,0,0:0:0:0:
256,192,45006,1,8,0:0:0:0:
256,192,45110,1,0,0:0:0:0:
256,192,45213,1,0,0:0:0:0:
288,192,45420,1,0,0:0:0:0:
256,160,45627,1,8,0:0:0:0:
256,192,45730,1,0,0:0:0:0:
256,192,45834,1,0,0:0:0:0:
256,160,45937,1,0,0:0:0:0:
256,160,46041,1,8,0:0:0:0:
256,192,46144,1,0,0:0:0:0:
256,160,46247,1,0,0:0:0:0:
256,160,46351,1,0,0:0:0:0:
256,224,46454,1,12,0:0:0:0:
249,175,46661,1,0,0:0:0:0:
256,192,46868,1,0,0:0:0:0:
256,192,46972,1,0,0:0:0:0:
256,192,47075,1,8,0:0:0:0:
256,192,47282,1,0,0:0:0:0:
256,192,47489,1,0,0:0:0:0:
256,192,47696,1,8,0:0:0:0:
256,192,47903,1,0,0:0:0:0:
256,192,48110,1,8,0:0:0:0:
256,192,48316,1,0,0:0:0:0:
256,192,48420,1,0,0:0:0:0:
256,192,48523,1,8,0:0:0:0:
256,224,48730,1,8,0:0:0:0:
256,224,48937,1,0,0:0:0:0:
256,224,49144,1,0,0:0:0:0:
256,224,49247,1,8,0:0:0:0:
256,224,49351,1,0,0:0:0:0:
256,224,49558,1,8,0:0:0:0:
256,224,49765,1,0,0:0:0:0:
256,224,49972,1,0,0:0:0:0:
256,224,50178,1,8,0:0:0:0:
256,224,50385,1,8,0:0:0:0:
256,224,50592,1,0,0:0:0:0:
256,224,50799,1,8,0:0:0:0:
256,224,50903,1,0,0:0:0:0:
256,224,51006,1,0,0:0:0:0:
256,224,51213,1,8,0:0:0:0:
256,224,51420,1,8,0:0:0:0:
256,224,51523,1,8,0:0:0:0:
256,224,51627,1,8,0:0:0:0:
256,224,51730,1,8,0:0:0:0:
256,224,51834,1,0,0:0:0:0:
256,224,51937,1,0,0:0:0:0:
256,224,52041,1,8,0:0:0:0:
256,192,52247,5,8,0:0:0:0:
256,192,52351,1,0,0:0:0:0:
256,192,52454,1,0,0:0:0:0:
256,192,52558,1,0,0:0:0:0:
256,192,52661,1,8,0:0:0:0:
256,192,52868,1,8,0:0:0:0:
256,192,52937,1,8,0:0:0:0:
256,192,53006,1,8,0:0:0:0:
256,192,53075,1,4,0:0:0:0:
256,192,53385,1,0,0:0:0:0:
256,192,53696,1,0,0:0:0:0:
256,192,54110,1,0,0:0:0:0:
256,192,54316,1,0,0:0:0:0:
256,192,54523,1,8,0:0:0:0:
256,192,54730,1,0,0:0:0:0:
224,224,55041,1,0,0:0:0:0:
224,224,55144,1,0,0:0:0:0:
224,224,55351,1,8,0:0:0:0:
224,224,55765,1,0,0:0:0:0:
224,224,55972,1,0,0:0:0:0:
224,224,56178,1,8,0:0:0:0:
224,224,56282,1,8,0:0:0:0:
224,224,56385,1,0,0:0:0:0:
224,224,56696,1,0,0:0:0:0:
224,224,56799,1,0,0:0:0:0:
224,224,57006,1,8,0:0:0:0:
256,224,57420,1,0,0:0:0:0:
256,224,57627,1,0,0:0:0:0:
256,224,57834,1,8,0:0:0:0:
256,224,58041,1,0,0:0:0:0:
256,224,58247,1,8,0:0:0:0:
256,224,58351,1,0,0:0:0:0:
256,224,58661,1,8,0:0:0:0:
256,224,58765,1,0,0:0:0:0:
256,224,58868,1,0,0:0:0:0:
256,224,59075,1,8,0:0:0:0:
256,224,59282,1,0,0:0:0:0:
256,224,59489,1,0,0:0:0:0:
256,224,59592,1,0,0:0:0:0:
256,192,59696,1,12,0:0:0:0:
256,192,60006,1,0,0:0:0:0:
256,192,60316,1,0,0:0:0:0:
256,192,60730,1,0,0:0:0:0:
256,192,60937,1,0,0:0:0:0:
256,192,61144,1,8,0:0:0:0:
256,192,61351,1,0,0:0:0:0:
224,224,61661,1,0,0:0:0:0:
224,224,61765,1,0,0:0:0:0:
224,224,61972,1,8,0:0:0:0:
224,224,62385,1,0,0:0:0:0:
224,224,62592,1,0,0:0:0:0:
224,224,62799,1,8,0:0:0:0:
224,224,62903,1,8,0:0:0:0:
224,224,63006,1,0,0:0:0:0:
224,224,63316,1,0,0:0:0:0:
224,224,63420,1,0,0:0:0:0:
224,224,63627,1,8,0:0:0:0:
256,224,64041,1,0,0:0:0:0:
256,224,64247,1,0,0:0:0:0:
256,224,64454,1,8,0:0:0:0:
256,192,64661,1,0,0:0:0:0:
256,160,64868,1,8,0:0:0:0:
256,160,65075,1,8,0:0:0:0:
256,160,65178,1,8,0:0:0:0:
256,160,65282,1,0,0:0:0:0:
256,160,65385,1,0,0:0:0:0:
256,192,65903,1,0,0:0:0:0:
256,192,65954,1,0,0:0:0:0:
256,192,66006,1,8,0:0:0:0:
256,192,66316,1,0,0:0:0:0:
256,192,66523,1,0,0:0:0:0:
256,192,66730,1,8,0:0:0:0:
256,192,66937,1,8,0:0:0:0:
256,192,67144,1,0,0:0:0:0:
256,192,67558,1,8,0:0:0:0:
256,192,67765,1,0,0:0:0:0:
256,192,67972,1,8,0:0:0:0:
256,160,68385,1,8,0:0:0:0:
256,192,68592,1,8,0:0:0:0:
256,192,68799,1,0,0:0:0:0:
256,192,69213,1,8,0:0:0:0:
256,160,69316,1,8,0:0:0:0:
256,160,69420,1,8,0:0:0:0:
256,192,69627,1,0,0:0:0:0:
256,192,69834,1,0,0:0:0:0:
256,192,70041,1,8,0:0:0:0:
256,192,70247,1,8,0:0:0:0:
256,128,70454,1,0,0:0:0:0:
256,128,70868,1,8,0:0:0:0:
256,128,70972,1,0,0:0:0:0:
256,128,71075,1,0,0:0:0:0:
256,128,71282,1,0,0:0:0:0:
256,128,71696,1,8,0:0:0:0:
256,128,71903,1,8,0:0:0:0:
256,96,72110,1,0,0:0:0:0:
256,96,72213,1,0,0:0:0:0:
256,96,72316,1,8,0:0:0:0:
256,64,72523,1,0,0:0:0:0:
256,192,72937,1,0,0:0:0:0:
256,192,73144,1,8,0:0:0:0:
256,192,73351,1,0,0:0:0:0:
256,192,73558,1,0,0:0:0:0:
256,224,73765,1,8,0:0:0:0:
256,224,73972,1,0,0:0:0:0:
256,224,74178,1,8,0:0:0:0:
256,224,74282,1,0,0:0:0:0:
256,224,74385,1,0,0:0:0:0:
256,224,74592,1,0,0:0:0:0:
256,224,75006,1,8,0:0:0:0:
256,224,75420,1,8,0:0:0:0:
256,224,75627,1,0,0:0:0:0:
256,224,75834,1,0,0:0:0:0:
270,218,75937,1,0,0:0:0:0:
256,224,76041,1,8,0:0:0:0:
256,224,76247,1,0,0:0:0:0:
256,192,76454,1,0,0:0:0:0:
256,192,76558,1,0,0:0:0:0:
256,192,76661,1,8,0:0:0:0:
256,192,76868,1,8,0:0:0:0:
256,160,77075,1,0,0:0:0:0:
256,160,77282,1,0,0:0:0:0:
256,192,77385,1,8,0:0:0:0:
256,192,77489,1,0,0:0:0:0:
256,192,77696,1,8,0:0:0:0:
256,192,77903,1,8,0:0:0:0:
256,192,78006,1,8,0:0:0:0:
256,192,78110,1,8,0:0:0:0:
256,192,78213,1,8,0:0:0:0:
256,192,78316,1,8,0:0:0:0:
256,192,78523,1,8,0:0:0:0:
256,192,78627,1,8,0:0:0:0:
256,192,78730,1,8,0:0:0:0:
256,192,78834,1,8,0:0:0:0:
256,192,78937,1,8,0:0:0:0:
256,160,79144,1,8,0:0:0:0:
256,160,79213,1,8,0:0:0:0:
256,160,79282,1,8,0:0:0:0:
256,192,79351,1,0,0:0:0:0:
256,192,79454,1,0,0:0:0:0:
256,192,79558,1,8,0:0:0:0:
256,192,79765,1,0,0:0:0:0:
256,192,79972,1,8,0:0:0:0:
256,192,80075,1,8,0:0:0:0:
256,192,80178,1,8,0:0:0:0:
256,192,80385,1,0,0:0:0:0:
256,192,80592,1,8,0:0:0:0:
256,192,80799,1,0,0:0:0:0:
256,192,80903,1,0,0:0:0:0:
256,192,81006,1,0,0:0:0:0:
256,192,81213,1,8,0:0:0:0:
256,192,81420,1,8,0:0:0:0:
256,192,81523,1,8,0:0:0:0:
256,224,81627,1,0,0:0:0:0:
256,224,81834,1,8,0:0:0:0:
256,224,82041,1,0,0:0:0:0:
256,224,82247,1,0,0:0:0:0:
256,224,82454,1,8,0:0:0:0:
256,224,82661,1,8,0:0:0:0:
256,224,82868,1,0,0:0:0:0:
256,224,83075,1,0,0:0:0:0:
256,224,83178,1,0,0:0:0:0:
256,224,83282,1,8,0:0:0:0:
256,224,83489,1,8,0:0:0:0:
256,224,83696,1,0,0:0:0:0:
256,224,83799,1,0,0:0:0:0:
256,224,83903,1,0,0:0:0:0:
256,224,84110,1,8,0:0:0:0:
256,224,84316,1,0,0:0:0:0:
256,224,84420,1,8,0:0:0:0:
224,224,84523,1,0,0:0:0:0:
224,192,84730,1,8,0:0:0:0:
256,224,84937,1,0,0:0:0:0:
256,224,85041,1,0,0:0:0:0:
256,224,85144,1,0,0:0:0:0:
256,224,85351,1,0,0:0:0:0:
256,224,85454,1,0,0:0:0:0:
256,224,85558,1,8,0:0:0:0:
256,224,85661,1,0,0:0:0:0:
256,224,85765,1,0,0:0:0:0:
256,224,85868,1,0,0:0:0:0:
256,224,85972,1,8,0:0:0:0:
256,224,86075,1,0,0:0:0:0:
256,224,86178,1,8,0:0:0:0:
256,192,86385,1,0,0:0:0:0:
256,192,86592,1,8,0:0:0:0:
256,192,86696,1,8,0:0:0:0:
256,192,86799,1,8,0:0:0:0:
256,192,87006,1,0,0:0:0:0:
256,192,87213,1,0,0:0:0:0:
256,192,87316,1,0,0:0:0:0:
256,192,87420,1,0,0:0:0:0:
256,192,87627,1,8,0:0:0:0:
256,192,87834,1,8,0:0:0:0:
256,192,88041,1,0,0:0:0:0:
256,192,88247,1,8,0:0:0:0:
256,192,88454,1,0,0:0:0:0:
256,192,88558,1,0,0:0:0:0:
256,192,88661,1,0,0:0:0:0:
256,192,88868,1,8,0:0:0:0:
256,192,89075,1,0,0:0:0:0:
256,192,89282,1,8,0:0:0:0:
288,192,89489,1,8,0:0:0:0:
288,192,89696,1,0,0:0:0:0:
288,192,89903,1,8,0:0:0:0:
288,192,90006,1,8,0:0:0:0:
288,192,90110,1,8,0:0:0:0:
288,192,90316,1,8,0:0:0:0:
288,192,90420,1,8,0:0:0:0:
288,192,90523,1,0,0:0:0:0:
288,160,90627,1,0,0:0:0:0:
288,160,90730,1,0,0:0:0:0:
288,160,90937,1,8,0:0:0:0:
288,160,91144,1,8,0:0:0:0:
288,224,91351,1,0,0:0:0:0:
288,224,91765,1,0,0:0:0:0:
288,224,91972,1,8,0:0:0:0:
288,224,92075,1,8,0:0:0:0:
288,224,92178,1,8,0:0:0:0:
288,224,92282,1,8,0:0:0:0:
288,224,92385,1,0,0:0:0:0:
288,224,92489,1,0,0:0:0:0:
288,224,92592,1,0,0:0:0:0:
288,224,92696,1,0,0:0:0:0:
288,224,92799,1,12,0:0:0:0:
288,224,93006,1,0,0:0:0:0:
288,224,93213,1,8,0:0:0:0:
288,224,93420,1,8,0:0:0:0:
288,224,93627,1,0,0:0:0:0:
288,224,93834,1,0,0:0:0:0:
288,224,93937,1,0,0:0:0:0:
288,224,94041,1,8,0:0:0:0:
288,224,94247,1,8,0:0:0:0:
288,224,94454,1,8,0:0:0:0:
288,224,94558,1,8,0:0:0:0:
288,224,94661,1,8,0:0:0:0:
288,224,94765,1,8,0:0:0:0:
288,192,94868,1,8,0:0:0:0:
288,224,95075,1,0,0:0:0:0:
288,192,95282,1,8,0:0:0:0:
288,192,95385,1,8,0:0:0:0:
288,192,95489,1,0,0:0:0:0:
288,192,95592,1,8,0:0:0:0:
288,192,95696,1,0,0:0:0:0:
288,192,95903,1,0,0:0:0:0:
288,192,95972,1,0,0:0:0:0:
288,192,96041,1,0,0:0:0:0:
288,192,96110,1,12,0:0:0:0:
256,192,96420,1,0,0:0:0:0:
256,192,96730,1,0,0:0:0:0:
256,192,97144,1,0,0:0:0:0:
256,192,97351,1,0,0:0:0:0:
256,192,97558,1,8,0:0:0:0:
256,192,97765,1,0,0:0:0:0:
224,224,98075,1,8,0:0:0:0:
224,224,98178,1,0,0:0:0:0:
224,224,98385,1,8,0:0:0:0:
224,224,98799,1,0,0:0:0:0:
224,224,99006,1,0,0:0:0:0:
224,224,99213,1,8,0:0:0:0:
224,224,99316,1,8,0:0:0:0:
224,224,99420,1,0,0:0:0:0:
224,224,99730,1,8,0:0:0:0:
224,224,99834,1,0,0:0:0:0:
224,224,100041,1,8,0:0:0:0:
256,224,100454,1,0,0:0:0:0:
256,224,100661,1,0,0:0:0:0:
256,224,100868,1,8,0:0:0:0:
256,224,101075,1,0,0:0:0:0:
256,224,101282,1,8,0:0:0:0:
256,224,101385,1,0,0:0:0:0:
256,224,101696,1,8,0:0:0:0:
256,224,101799,1,0,0:0:0:0:
256,224,101903,1,0,0:0:0:0:
256,224,102110,1,8,0:0:0:0:
256,224,102316,1,0,0:0:0:0:
256,224,102523,1,8,0:0:0:0:
256,224,102627,1,8,0:0:0:0:
256,192,102730,1,4,0:0:0:0:
256,192,103041,1,0,0:0:0:0:
256,192,103351,1,0,0:0:0:0:
256,192,103765,1,0,0:0:0:0:
256,192,103972,1,0,0:0:0:0:
256,192,104178,1,8,0:0:0:0:
256,192,104385,1,0,0:0:0:0:
224,224,104696,1,8,0:0:0:0:
224,224,104799,1,0,0:0:0:0:
224,224,105006,1,8,0:0:0:0:
224,224,105420,1,0,0:0:0:0:
224,224,105627,1,0,0:0:0:0:
224,224,105834,1,8,0:0:0:0:
224,224,105937,1,8,0:0:0:0:
224,224,106041,1,0,0:0:0:0:
224,224,106351,1,8,0:0:0:0:
224,224,106454,1,0,0:0:0:0:
224,224,106661,1,8,0:0:0:0:
256,224,107075,1,0,0:0:0:0:
256,224,107282,1,0,0:0:0:0:
256,224,107489,1,8,0:0:0:0:
256,192,107696,1,0,0:0:0:0:
256,160,107903,1,8,0:0:0:0:
256,160,108110,1,8,0:0:0:0:
256,160,108213,1,8,0:0:0:0:
256,160,108316,1,0,0:0:0:0:
256,160,108420,1,0,0:0:0:0:
256,160,108523,1,0,0:0:0:0:
256,160,108627,1,8,0:0:0:0:
256,160,108730,1,0,0:0:0:0:
256,192,108937,1,8,0:0:0:0:
256,192,109144,1,8,0:0:0:0:
256,192,109247,1,0,0:0:0:0:
256,192,109351,1,0,0:0:0:0:
256,192,110178,1,0,0:0:0:0:
256,192,111006,1,8,0:0:0:0:
256,192,111834,1,8,0:0:0:0:
256,192,112661,1,0,0:0:0:0:
256,192,113489,1,0,0:0:0:0:
256,192,114316,1,0,0:0:0:0:
256,192,115144,1,8,0:0:0:0:
256,192,115972,1,0,0:0:0:0:
256,192,116178,1,0,0:0:0:0:
256,192,116385,1,8,0:0:0:0:
256,192,116489,1,0,0:0:0:0:
256,192,116592,1,8,0:0:0:0:
256,192,116799,1,0,0:0:0:0:
256,192,117006,1,8,0:0:0:0:
256,192,117213,1,0,0:0:0:0:
256,192,117316,1,0,0:0:0:0:
256,192,117420,1,8,0:0:0:0:
256,192,117627,1,8,0:0:0:0:
256,192,117834,1,8,0:0:0:0:
256,256,117937,1,8,0:0:0:0:
256,256,118041,1,0,0:0:0:0:
256,224,118144,1,0,0:0:0:0:
256,256,118247,1,8,0:0:0:0:
256,256,118454,1,0,0:0:0:0:
256,256,118661,1,8,0:0:0:0:
256,224,118868,1,0,0:0:0:0:
256,224,119075,1,8,0:0:0:0:
256,224,119178,1,0,0:0:0:0:
256,224,119282,1,8,0:0:0:0:
256,224,119489,1,0,0:0:0:0:
256,224,119592,1,0,0:0:0:0:
256,224,119696,1,8,0:0:0:0:
256,224,119903,1,8,0:0:0:0:
256,256,120110,1,0,0:0:0:0:
256,256,120316,1,0,0:0:0:0:
224,256,120420,1,8,0:0:0:0:
224,256,120523,1,0,0:0:0:0:
224,256,120730,1,0,0:0:0:0:
256,224,120937,1,8,0:0:0:0:
256,224,121144,1,0,0:0:0:0:
256,224,121558,1,0,0:0:0:0:
224,256,121765,1,8,0:0:0:0:
224,256,121868,1,0,0:0:0:0:
224,256,121972,1,8,0:0:0:0:
224,256,122075,1,8,0:0:0:0:
224,256,122178,1,0,0:0:0:0:
224,256,122282,1,0,0:0:0:0:
224,256,122385,1,0,0:0:0:0:
224,256,122489,1,0,0:0:0:0:
224,256,122592,1,8,0:0:0:0:
224,256,122799,1,8,0:0:0:0:
224,256,123006,1,0,0:0:0:0:
224,256,123110,1,0,0:0:0:0:
224,256,123213,1,8,0:0:0:0:
224,256,123420,1,0,0:0:0:0:
224,256,123627,1,8,0:0:0:0:
224,256,123834,1,0,0:0:0:0:
224,256,123937,1,0,0:0:0:0:
224,256,124041,1,8,0:0:0:0:
192,256,124247,1,0,0:0:0:0:
192,256,124454,1,8,0:0:0:0:
192,256,124558,1,8,0:0:0:0:
192,256,124661,1,0,0:0:0:0:
192,256,124868,1,8,0:0:0:0:
192,256,125075,1,0,0:0:0:0:
192,256,125282,1,8,0:0:0:0:
192,256,125489,1,0,0:0:0:0:
192,256,125696,1,8,0:0:0:0:
192,256,125903,1,0,0:0:0:0:
192,256,126006,1,0,0:0:0:0:
192,256,126110,1,8,0:0:0:0:
192,256,126316,1,0,0:0:0:0:
192,256,126523,1,8,0:0:0:0:
192,256,126730,1,0,0:0:0:0:
192,256,126937,1,8,0:0:0:0:
192,256,127041,1,8,0:0:0:0:
192,256,127144,1,0,0:0:0:0:
192,256,127351,1,8,0:0:0:0:
192,256,127558,1,0,0:0:0:0:
192,256,127765,1,8,0:0:0:0:
192,256,127868,1,0,0:0:0:0:
192,256,127972,1,0,0:0:0:0:
192,256,128178,1,8,0:0:0:0:
192,256,128385,1,0,0:0:0:0:
192,256,128489,1,0,0:0:0:0:
192,256,128592,1,8,0:0:0:0:
192,256,128696,1,8,0:0:0:0:
192,256,128799,1,0,0:0:0:0:
192,256,128903,1,0,0:0:0:0:
192,256,129006,1,8,0:0:0:0:
192,256,129110,1,0,0:0:0:0:
192,256,129213,1,0,0:0:0:0:
192,256,129420,1,8,0:0:0:0:
192,256,129627,1,0,0:0:0:0:
192,256,129730,1,0,0:0:0:0:
192,256,129834,1,8,0:0:0:0:
192,256,130041,1,0,0:0:0:0:
192,256,130247,1,8,0:0:0:0:
192,256,130454,1,0,0:0:0:0:
192,256,130661,1,8,0:0:0:0:
192,256,130765,1,8,0:0:0:0:
192,256,130868,1,0,0:0:0:0:
192,256,131075,1,8,0:0:0:0:
192,256,131282,1,0,0:0:0:0:
192,256,131385,1,0,0:0:0:0:
192,256,131489,1,8,0:0:0:0:
192,256,131696,1,0,0:0:0:0:
192,256,131903,1,8,0:0:0:0:
192,256,132110,1,0,0:0:0:0:
192,256,132213,1,0,0:0:0:0:
192,256,132316,1,8,0:0:0:0:
192,256,132420,1,8,0:0:0:0:
192,256,132523,1,0,0:0:0:0:
192,256,132730,1,0,0:0:0:0:
192,256,132937,1,8,0:0:0:0:
192,256,133144,1,0,0:0:0:0:
192,256,133351,1,0,0:0:0:0:
192,256,133558,1,0,0:0:0:0:
192,256,133661,1,0,0:0:0:0:
192,256,133765,1,8,0:0:0:0:
192,256,133972,1,0,0:0:0:0:
192,256,134178,1,8,0:0:0:0:
192,256,134385,1,0,0:0:0:0:
192,256,134799,1,0,0:0:0:0:
192,256,135006,1,8,0:0:0:0:
192,256,135110,1,8,0:0:0:0:
192,256,135213,1,0,0:0:0:0:
192,256,135316,1,8,0:0:0:0:
189,249,135420,1,8,0:0:0:0:
192,256,135523,1,0,0:0:0:0:
192,256,135627,1,8,0:0:0:0:
189,249,135730,1,0,0:0:0:0:
256,192,137489,1,0,0:0:0:0:
288,160,137558,1,0,0:0:0:0:
288,160,137627,1,0,0:0:0:0:
288,192,137696,1,8,0:0:0:0:
288,160,137799,1,8,0:0:0:0:
288,160,137903,1,0,0:0:0:0:
288,160,137972,1,0,0:0:0:0:
288,160,138041,1,0,0:0:0:0:
288,160,138110,1,8,0:0:0:0:
288,160,138213,1,8,0:0:0:0:
288,160,138316,1,0,0:0:0:0:
288,160,138420,1,0,0:3:0:0:
288,160,138523,1,0,0:3:0:0:
288,160,138627,1,0,0:0:0:0:
288,160,138730,1,8,0:0:0:0:
288,160,138834,1,8,0:0:0:0:
288,160,138937,1,0,0:0:0:0:
288,160,139041,1,0,0:0:0:0:
288,160,139144,1,8,0:0:0:0:
288,160,139351,1,0,0:0:0:0:
288,160,139454,1,0,0:0:0:0:
288,160,139558,1,8,0:0:0:0:
288,160,139661,1,0,0:0:0:0:
288,160,139765,1,8,0:0:0:0:
288,160,139868,1,0,0:0:0:0:
288,160,139972,1,0,0:0:0:0:
288,160,140075,1,0,0:0:0:0:
288,160,140178,1,8,0:0:0:0:
288,160,140282,1,8,0:0:0:0:
288,160,140385,1,0,0:0:0:0:
288,160,140489,1,0,0:0:0:0:
288,160,140592,1,8,0:0:0:0:
288,160,140696,1,0,0:0:0:0:
288,160,140799,1,8,0:0:0:0:
288,160,141006,1,0,0:0:0:0:
288,160,141110,1,0,0:0:0:0:
288,160,141213,1,8,0:0:0:0:
288,160,141316,1,0,0:0:0:0:
288,160,141420,1,8,0:0:0:0:
288,160,141523,1,8,0:0:0:0:
288,160,141627,1,0,0:0:0:0:
288,160,141730,1,0,0:0:0:0:
288,160,141834,1,8,0:0:0:0:
288,160,141937,1,0,0:0:0:0:
288,160,142041,1,0,0:0:0:0:
288,160,142144,1,0,0:0:0:0:
288,160,142247,1,8,0:0:0:0:
288,160,142351,1,0,0:0:0:0:
288,160,142454,1,8,0:0:0:0:
288,160,142661,1,8,0:0:0:0:
288,160,142765,1,0,0:0:0:0:
288,160,142868,1,8,0:0:0:0:
288,160,142972,1,0,0:0:0:0:
288,160,143075,1,8,0:0:0:0:
288,160,143178,1,8,0:0:0:0:
288,160,143282,1,0,0:0:0:0:
288,160,143385,1,0,0:0:0:0:
288,160,143489,1,8,0:0:0:0:
288,160,143592,1,0,0:0:0:0:
288,160,143696,1,0,0:0:0:0:
288,160,143799,1,0,0:0:0:0:
288,160,143903,1,8,0:0:0:0:
288,160,144006,1,0,0:0:0:0:
288,160,144110,1,8,0:0:0:0:
288,160,144213,1,8,0:0:0:0:
288,160,144316,1,8,0:0:0:0:
288,160,144420,1,8,0:0:0:0:
288,160,144523,1,8,0:0:0:0:
288,160,144627,1,8,0:0:0:0:
288,160,144730,1,0,0:0:0:0:
288,160,144937,1,0,0:0:0:0:
288,160,145041,1,0,0:0:0:0:
288,160,145144,1,8,0:0:0:0:
288,160,145247,1,8,0:0:0:0:
288,160,145351,1,0,0:0:0:0:
288,160,145454,1,8,0:0:0:0:
288,160,145558,1,8,0:0:0:0:
288,160,145661,1,0,0:0:0:0:
288,160,145765,1,8,0:0:0:0:
288,160,145972,1,0,0:0:0:0:
288,160,146075,1,0,0:0:0:0:
288,160,146178,1,8,0:0:0:0:
288,160,146282,1,0,0:0:0:0:
288,160,146385,1,0,0:0:0:0:
288,160,146489,1,0,0:0:0:0:
288,160,146592,1,8,0:0:0:0:
288,160,146696,1,8,0:0:0:0:
288,160,146799,1,0,0:0:0:0:
288,160,146903,1,0,0:0:0:0:
288,160,147006,1,8,0:0:0:0:
288,160,147110,1,0,0:0:0:0:
288,160,147213,1,0,0:0:0:0:
288,128,147316,1,0,0:0:0:0:
288,128,147420,1,8,0:0:0:0:
288,128,147523,1,0,0:0:0:0:
288,128,147627,1,8,0:0:0:0:
288,128,147730,1,8,0:0:0:0:
288,128,147834,1,0,0:0:0:0:
288,128,147937,1,0,0:0:0:0:
288,128,148041,1,8,0:0:0:0:
288,128,148144,1,0,0:0:0:0:
288,128,148247,1,8,0:0:0:0:
288,128,148351,1,8,0:0:0:0:
288,128,148454,1,8,0:0:0:0:
288,128,148558,1,8,0:0:0:0:
288,128,148661,1,0,0:0:0:0:
288,128,148765,1,0,0:0:0:0:
288,128,148868,1,8,0:0:0:0:
288,128,148972,1,0,0:0:0:0:
288,128,149075,1,8,0:0:0:0:
288,128,149178,1,8,0:0:0:0:
288,160,149282,1,8,0:0:0:0:
288,160,149385,1,8,0:0:0:0:
320,128,149489,1,0,0:0:0:0:
320,128,149592,1,0,0:0:0:0:
320,128,149696,1,8,0:0:0:0:
320,128,149799,1,0,0:0:0:0:
320,128,149903,1,8,0:0:0:0:
320,128,150006,1,8,0:0:0:0:
320,128,150110,1,8,0:0:0:0:
320,128,150213,1,8,0:0:0:0:
320,128,150316,1,0,0:0:0:0:
320,128,150420,1,0,0:0:0:0:
320,128,150523,1,8,0:0:0:0:
320,128,150627,1,8,0:0:0:0:
320,128,150730,1,0,0:0:0:0:
320,128,150834,1,0,0:0:0:0:
320,128,150937,1,8,0:0:0:0:
320,128,151041,1,8,0:0:0:0:
320,128,151144,1,0,0:0:0:0:
320,128,151247,1,0,0:0:0:0:
320,128,151351,1,8,0:0:0:0:
320,128,151454,1,0,0:0:0:0:
320,96,151558,1,8,0:0:0:0:
320,96,151661,1,8,0:0:0:0:
320,96,151765,1,8,0:0:0:0:
320,128,151868,1,8,0:0:0:0:
320,128,151972,1,8,0:0:0:0:
320,128,152075,1,8,0:0:0:0:
320,128,152178,1,0,0:0:0:0:
320,128,152282,1,0,0:0:0:0:
320,128,152385,1,8,0:0:0:0:
320,128,152489,1,8,0:0:0:0:
320,128,152592,1,0,0:0:0:0:
320,128,153006,1,0,0:0:0:0:
320,128,153213,1,8,0:0:0:0:
320,128,153420,1,0,0:0:0:0:
320,128,153523,1,0,0:0:0:0:
320,128,153627,1,8,0:0:0:0:
320,128,153834,1,8,0:0:0:0:
320,128,153937,1,0,0:0:0:0:
320,96,154041,1,8,0:0:0:0:
320,96,154144,1,8,0:0:0:0:
320,96,154247,1,8,0:0:0:0:
320,128,154351,1,8,0:0:0:0:
320,128,154454,1,0,0:0:0:0:
320,128,154661,1,0,0:0:0:0:
320,128,154868,1,8,0:0:0:0:
320,128,154972,1,8,0:0:0:0:
320,128,155075,1,0,0:0:0:0:
320,128,155178,1,0,0:0:0:0:
320,128,155385,1,0,0:0:0:0:
320,128,155489,1,0,1:1:0:0:
320,128,155696,1,12,0:0:0:0:
256,192,156110,1,8,0:0:0:0:
256,192,156316,1,8,0:0:0:0:
256,192,156523,1,0,0:0:0:0:
256,192,156730,1,0,0:0:0:0:
256,192,156937,1,8,0:0:0:0:
256,192,157041,1,0,0:0:0:0:
256,192,157144,1,8,0:0:0:0:
256,192,157351,1,0,0:0:0:0:
256,192,157765,1,0,0:0:0:0:
256,192,157972,1,8,0:0:0:0:
256,192,158178,1,0,0:0:0:0:
256,192,158282,1,0,0:0:0:0:
256,192,158385,1,8,0:0:0:0:
256,192,158592,1,0,0:0:0:0:
256,192,158799,1,8,0:0:0:0:
256,192,158903,1,8,0:0:0:0:
256,192,159006,1,0,0:0:0:0:
256,192,159420,1,0,0:0:0:0:
256,192,159627,1,8,0:0:0:0:
256,192,159834,1,0,0:0:0:0:
256,192,159937,1,0,0:0:0:0:
256,192,160041,1,0,0:0:0:0:
256,192,160247,1,8,0:0:0:0:
256,192,160351,1,0,0:0:0:0:
256,192,160454,1,8,0:0:0:0:
256,192,160661,1,0,0:0:0:0:
256,224,160868,1,8,0:0:0:0:
256,192,160972,1,0,0:0:0:0:
256,192,161075,1,0,0:0:0:0:
256,192,161282,1,8,0:0:0:0:
256,192,161385,1,8,0:0:0:0:
256,160,161489,1,0,0:0:0:0:
256,192,161696,1,8,0:0:0:0:
256,192,161903,1,0,0:0:0:0:
256,192,162110,1,8,0:0:0:0:
256,192,162213,1,8,0:0:0:0:
256,192,162316,1,4,0:0:0:0:
256,192,162730,1,8,0:0:0:0:
256,192,162937,1,0,0:0:0:0:
256,192,163041,1,0,0:0:0:0:
256,192,163144,1,8,0:0:0:0:
256,192,163351,1,8,0:0:0:0:
256,192,163558,1,0,0:0:0:0:
256,192,163765,1,8,0:0:0:0:
256,192,163972,1,0,0:0:0:0:
256,192,164385,1,0,0:0:0:0:
256,192,164592,1,8,0:0:0:0:
256,192,164799,1,0,0:0:0:0:
256,192,164903,1,0,0:0:0:0:
256,192,165006,1,0,0:0:0:0:
256,192,165213,1,8,0:0:0:0:
256,192,165420,1,8,0:0:0:0:
256,192,165523,1,8,0:0:0:0:
256,192,165627,1,0,0:0:0:0:
256,224,165834,1,0,0:0:0:0:
256,224,166041,1,8,0:0:0:0:
256,224,166247,1,8,0:0:0:0:
256,224,166454,1,0,0:0:0:0:
256,224,166661,1,0,0:0:0:0:
256,224,166765,1,0,0:0:0:0:
256,224,166868,1,8,0:0:0:0:
256,224,166972,1,0,0:0:0:0:
256,224,167075,1,8,0:0:0:0:
256,224,167282,1,8,0:0:0:0:
256,224,167385,1,8,0:0:0:0:
256,224,167489,1,0,0:0:0:0:
256,224,167592,1,0,0:0:0:0:
256,224,167696,1,8,0:0:0:0:
256,224,167799,1,0,0:0:0:0:
256,224,167903,1,0,0:0:0:0:
256,224,168006,1,0,0:0:0:0:
256,224,168110,1,8,0:0:0:0:
256,224,168213,1,8,0:0:0:0:
256,224,168316,1,8,0:0:0:0:
224,192,168420,1,8,0:0:0:0:
224,192,168523,1,0,0:0:0:0:
256,192,168627,1,8,0:0:0:0:
256,192,168730,1,0,0:0:0:0:
256,224,168834,1,0,0:0:0:0:
256,192,168937,1,12,0:0:0:0:
256,192,169351,1,8,0:0:0:0:
256,192,169558,1,0,0:0:0:0:
256,192,169765,1,8,0:0:0:0:
256,192,169868,1,0,0:0:0:0:
256,192,169972,1,0,0:0:0:0:
256,192,170178,1,8,0:0:0:0:
256,192,170385,1,8,0:0:0:0:
256,192,170489,1,8,0:0:0:0:
256,192,170592,1,0,0:0:0:0:
256,192,171006,1,8,0:0:0:0:
256,192,171213,1,8,0:0:0:0:
256,192,171420,1,0,0:0:0:0:
256,192,171523,1,0,0:0:0:0:
256,192,171627,1,0,0:0:0:0:
256,192,171834,1,0,0:0:0:0:
256,192,172041,1,8,0:0:0:0:
256,192,172144,1,8,0:0:0:0:
256,192,172247,1,0,0:0:0:0:
256,192,172661,1,8,0:0:0:0:
256,192,172868,1,0,0:0:0:0:
256,192,173075,1,8,0:0:0:0:
256,192,173178,1,0,0:0:0:0:
256,192,173282,1,8,0:0:0:0:
256,192,173489,1,0,0:0:0:0:
256,192,173696,1,8,0:0:0:0:
256,192,173903,1,0,0:0:0:0:
260,184,174110,1,8,0:0:0:0:
256,192,174316,1,8,0:0:0:0:
256,192,174523,1,0,0:0:0:0:
256,192,174627,1,0,0:0:0:0:
256,192,174730,1,8,0:0:0:0:
256,192,174937,1,8,0:0:0:0:
256,192,175144,1,0,0:0:0:0:
256,192,175351,1,8,0:0:0:0:
256,192,175454,1,8,0:0:0:0:
256,192,175558,1,0,0:0:0:0:
256,192,175972,1,8,0:0:0:0:
256,192,176178,1,0,0:0:0:0:
256,192,176385,1,0,0:0:0:0:
256,192,176592,1,8,0:0:0:0:
256,192,176696,1,0,0:0:0:0:
256,192,176799,1,8,0:0:0:0:
256,192,177006,1,8,0:0:0:0:
256,192,177213,1,0,0:0:0:0:
256,192,177627,1,0,0:0:0:0:
256,192,177834,1,8,0:0:0:0:
256,192,177937,1,0,0:0:0:0:
256,192,178041,1,8,0:0:0:0:
256,192,178247,1,8,0:0:0:0:
256,192,178454,1,0,0:0:0:0:
256,192,178661,1,8,0:0:0:0:
256,192,178765,1,8,0:0:0:0:
256,192,178868,1,0,0:0:0:0:
256,192,179282,1,0,0:0:0:0:
256,192,179489,1,8,0:0:0:0:
256,192,179696,1,0,0:0:0:0:
256,192,179799,1,0,0:0:0:0:
256,192,179903,1,8,0:0:0:0:
256,192,180110,1,0,0:0:0:0:
256,192,180316,1,8,0:0:0:0:
256,192,180523,1,8,0:0:0:0:
256,192,180627,1,0,0:0:0:0:
256,192,180730,1,0,0:0:0:0:
256,192,180834,1,0,0:0:0:0:
256,192,180937,1,8,0:0:0:0:
256,192,181144,1,0,0:0:0:0:
256,192,181247,1,0,0:0:0:0:
256,192,181351,1,0,0:0:0:0:
256,192,181454,1,0,0:0:0:0:
256,192,181558,1,8,0:0:0:0:
256,192,181765,1,0,0:0:0:0:
256,192,181972,1,0,0:0:0:0:
256,192,182075,1,0,0:0:0:0:
230,287,182178,5,0,0:0:0:0:
256,192,182489,1,0,0:0:0:0:
256,192,182799,1,8,0:0:0:0:
256,192,183213,1,0,0:0:0:0:
256,192,183420,1,8,0:0:0:0:
256,192,183627,1,8,0:0:0:0:
256,192,183834,1,0,0:0:0:0:
256,192,184144,1,0,0:0:0:0:
256,192,184454,1,8,0:0:0:0:
256,192,184868,1,0,0:0:0:0:
256,192,185075,1,0,0:0:0:0:
256,192,185282,1,8,0:0:0:0:
256,192,185489,1,0,0:0:0:0:
256,192,185799,1,0,0:0:0:0:
256,192,186110,1,8,0:0:0:0:
256,192,186523,1,8,0:0:0:0:
256,192,186730,1,8,0:0:0:0:
256,192,186937,1,0,0:0:0:0:
230,287,187144,5,0,0:0:0:0:
256,192,187454,1,0,0:0:0:0:
256,192,187765,1,8,0:0:0:0:
256,192,188178,1,0,0:0:0:0:
256,192,188385,1,8,0:0:0:0:
256,192,188592,1,0,0:0:0:0:
256,192,188799,1,8,0:0:0:0:
256,192,189110,1,0,0:0:0:0:
256,192,189420,1,8,0:0:0:0:
256,192,189834,1,0,0:0:0:0:
256,192,190041,1,0,0:0:0:0:
256,192,190247,1,8,0:0:0:0:
256,192,190454,1,8,0:0:0:0:
256,192,190765,1,0,0:0:0:0:
256,192,191075,1,8,0:0:0:0:
256,192,191489,1,8,0:1:0:0:
256,192,191696,1,0,0:0:0:0:
256,192,191903,1,0,0:0:0:0:
230,287,192110,5,8,0:1:0:0:
256,192,192420,1,0,0:0:0:0:
256,192,192730,1,8,0:0:0:0:
256,192,193144,1,0,0:0:0:0:
256,192,193351,1,0,0:0:0:0:
256,192,193558,1,0,0:0:0:0:
256,192,193765,1,8,0:0:0:0:
256,192,193868,1,8,0:0:0:0:
256,192,193972,1,8,0:0:0:0:
256,160,194075,1,8,0:0:0:0:
256,160,194178,1,0,0:0:0:0:
256,160,194282,1,0,0:0:0:0:
256,160,194385,1,8,0:0:0:0:
256,160,194489,1,0,0:0:0:0:
256,160,194592,1,8,0:0:0:0:
256,160,194696,1,8,0:0:0:0:
256,160,194799,1,0,0:0:0:0:
256,160,194903,1,8,0:0:0:0:
256,160,195006,1,0,0:0:0:0:
256,160,195110,1,0,0:0:0:0:
256,160,195420,1,0,0:0:0:0:
