osu file format v14

[General]
AudioFilename: audio.ogg
AudioLeadIn: 0
PreviewTime: 65658
Countdown: 0
SampleSet: Normal
StackLeniency: 0.7
Mode: 1
LetterboxInBreaks: 0
WidescreenStoryboard: 0

[Editor]
Bookmarks: 885,13857,26035,26845,29886,33129,36372,72251,77116,77927,78737,84818,85224,90089,90899,94751,97994,99210,99818,101237,102454,103062,103872,130629,137116,143602,150089,154954,155764,182521,189008,192251,193872,194683,195494,198737,201981,205224,206845,208467,214954,221440,227927,232791,233602,234413,236035,237656,238467,239278,240899,244143,247386,250427,252048,253062,253670,254886,255494,256913,258129,258737,259548
DistanceSpacing: 0.1
BeatDivisor: 4
GridSize: 32
TimelineZoom: 0.9288009

[Metadata]
Title:Witches' Night (ShinRa-Bansho Ver.)
TitleUnicode:Witches' Night (森羅万象 Ver.)
Artist:TAMAONSEN
ArtistUnicode:魂音泉
Creator:paz08
Version:Fragile Magic
Source:妖精大戦争 ~ 東方三月精
Tags:video game videogame japanese Shinra Bansho Shinrabansho 東方Project Touhou Project toho Team Shanghai Alice 上海アリス幻樂団 霧雨 魔理沙 霧雨魔理沙 kirisame marisa theme c96 c90 Comiket 96 90 Comic Market メイガスナイト 魔女達の舞踏会 ~ Magus Majotachi no Butoukai ~ Magus Night 12.8 Fairy Wars Yousei Daisensou Sangetsusei Extra stage boss theme ZUN 東方歌ってみた Utattemita Cover Version kaztora かめ kame Hedonist あやぽんず* あよ Ayaponzu* Ayo シンソウダイバー Shinso Diver lily-an Liz Triangle gaston_2199 rap electronic dance music edm
BeatmapID:2791865
BeatmapSetID:1348239

[Difficulty]
HPDrainRate:6
CircleSize:4
OverallDifficulty:6
ApproachRate:10
SliderMultiplier:1.4
SliderTickRate:1

[Events]
//Background and Video events
0,0,"BG.jpg",0,50
//Break Periods
//Storyboard Layer 0 (Background)
//Storyboard Layer 1 (Fail)
//Storyboard Layer 2 (Pass)
//Storyboard Layer 3 (Foreground)
//Storyboard Layer 4 (Overlay)
//Storyboard Sound Samples

[TimingPoints]
946,405.405405405405,4,1,0,50,1,0
946,-125,4,1,0,50,0,0
7219,-119.405182567727,4,1,0,57,0,0
7422,-117.647058823529,4,1,0,60,0,0
13098,-114.803445295503,4,1,0,64,0,0
13901,-62.5,4,1,0,90,0,0
14213,-111.111111111111,4,1,0,70,0,0
20192,-107.844085501499,4,1,0,70,0,0
20388,-60.6060606060606,4,1,0,90,0,0
20699,-105.263157894737,4,1,0,70,0,0
26071,-100.556811290589,4,1,0,74,0,0
26476,-98.3606557377049,4,1,0,76,0,0
26881,-58.8235294117647,4,1,0,90,0,0
27084,-95.2380952380952,4,1,0,80,0,0
29922,-58.8235294117647,4,1,0,90,0,0
30125,-95.2380952380952,4,1,0,80,0,0
33165,-58.8235294117647,4,1,0,90,0,0
33368,-95.2380952380952,4,1,0,80,0,0
36408,-58.8235294117647,4,1,0,90,0,0
36611,-95.2380952380952,4,1,0,80,0,0
39652,-100.012347203358,4,1,0,74,0,0
39753,-102.570596429024,4,1,0,72,0,0
39854,-105.263157894737,4,1,0,70,0,0
49381,-66.6666666666667,4,1,0,90,0,0
49584,-105.263157894737,4,1,0,70,0,0
52118,-104.044264445839,4,1,0,70,0,0
52219,-103.448275862069,4,1,0,70,0,0
52321,-102.853276192624,4,1,0,70,0,0
52422,-102.270815811606,4,1,0,70,0,0
52625,-58.8235294117647,4,1,0,90,0,0
52827,-100,4,1,0,70,0,0
59111,-58.8235294117647,4,1,0,90,0,0
59314,-100,4,1,0,70,0,0
65000,-98.0392156862745,4,1,0,70,0,0
65395,-95.2380952380952,4,1,0,70,0,0
65810,-50,4,1,0,100,0,1
66003,-90.9090909090909,4,1,0,90,0,1
72084,-88.231025975911,4,1,0,90,0,1
72185,-86.95652173913,4,1,0,90,0,1
72287,-50,4,1,0,100,0,1
72490,-90.9090909090909,4,1,0,90,0,1
77973,-90.909090909091,4,1,0,90,0,0
78165,-89.746835443038,4,1,0,90,0,0
78368,-88.608385927639,4,1,0,90,0,0
78469,-88.052657724789,4,1,0,90,0,0
78571,-87.498457361471,4,1,0,90,0,0
78672,-86.95652173913,4,1,0,90,0,0
78783,-50,4,1,0,100,0,1
78976,-90.9090909090909,4,1,0,90,0,1
84753,-89.550040503719,4,1,0,90,0,1
84854,-88.888888888889,4,1,0,90,0,1
84956,-88.231025975911,4,1,0,90,0,1
85057,-87.589137794425,4,1,0,90,0,1
85158,-86.95652173913,4,1,0,90,0,1
85260,-50,4,1,0,100,0,1
85463,-90.9090909090909,4,1,0,90,0,1
90125,-48.780487804878,4,1,0,100,0,1
90327,-90.9090909090909,4,1,0,90,0,1
90935,-47.6190476190476,4,1,0,90,0,1
91138,-90.9090909090909,4,1,0,90,0,1
91240,-91.9605397437351,4,1,0,88,0,1
91341,-93.0259233769213,4,1,0,87,0,1
91442,-94.116281768597,4,1,0,86,0,1
91544,-95.2436876100998,4,1,0,84,0,1
91645,-96.386974090801,4,1,0,83,0,1
91756,-46.5116279069767,4,1,0,90,0,0
91949,-100,4,1,0,80,0,0
94787,-55.5555555555556,4,1,0,90,0,0
94990,-100,4,1,0,80,0,0
98030,-55.5555555555556,4,1,0,90,0,0
98233,-100,4,1,0,80,0,0
99246,-55.5555555555556,4,1,0,90,0,0
99449,-100,4,1,0,80,0,0
99854,-55.5555555555556,4,1,0,90,0,0
100057,-100,4,1,0,80,0,0
101273,-55.5555555555556,4,1,0,90,0,0
101476,-100,4,1,0,80,0,0
102490,-55.5555555555556,4,1,0,90,0,0
102692,-100,4,1,0,80,0,0
103098,-55.5555555555556,4,1,0,90,0,0
103300,-100,4,1,0,80,0,0
103908,-55.5555555555556,4,1,0,90,0,0
104111,-108.690987124464,4,1,0,76,0,0
104314,-113.6414628674,4,1,0,73,0,0
104415,-116.276400367309,4,1,0,73,0,0
104517,-119.06440996709,4,1,0,71,0,0
104618,-121.960028894775,4,1,0,70,0,0
104719,-125,4,1,0,70,0,0
109584,-123.458293997625,4,1,0,70,0,0
109787,-122.699757869249,4,1,0,70,0,0
109990,-121.950485816563,4,1,0,70,0,0
110192,-121.213933323367,4,1,0,70,0,0
110395,-120.48264384213,4,1,0,70,0,0
110800,-119.049716618213,4,1,0,70,0,0
111206,-117.647058823529,4,1,0,70,0,0
117692,-100,4,1,0,80,0,0
130260,-95.2380952380952,4,1,0,80,0,0
130675,-48.780487804878,4,1,0,100,0,1
130868,-90.9090909090909,4,1,0,90,0,1
136949,-88.231025975911,4,1,0,90,0,1
137050,-86.95652173913,4,1,0,90,0,1
137152,-48.780487804878,4,1,0,100,0,1
137354,-90.9090909090909,4,1,0,90,0,1
142837,-90.9090909090909,4,1,0,90,0,0
143030,-89.746835443038,4,1,0,90,0,0
143233,-88.608385927639,4,1,0,90,0,0
143334,-88.052657724789,4,1,0,90,0,0
143436,-87.498457361471,4,1,0,90,0,0
143537,-86.95652173913,4,1,0,90,0,0
143648,-48.780487804878,4,1,0,100,0,1
143841,-90.9090909090909,4,1,0,90,0,1
149618,-89.550040503719,4,1,0,90,0,1
149719,-88.888888888889,4,1,0,90,0,1
149821,-88.231025975911,4,1,0,90,0,1
149922,-87.589137794425,4,1,0,90,0,1
150023,-86.95652173913,4,1,0,90,0,1
150125,-48.780487804878,4,1,0,100,0,1
150327,-90.9090909090909,4,1,0,90,0,1
154990,-47.6190476190476,4,1,0,100,0,1
155192,-90.9090909090909,4,1,0,90,0,1
155800,-46.5116279069767,4,1,0,90,0,1
156003,-90.9090909090909,4,1,0,90,0,1
156105,-92.6027397260274,4,1,0,87,0,1
156206,-94.3431336062523,4,1,0,85,0,1
156307,-96.1501991276313,4,1,0,84,0,1
156409,-98.0467994585186,4,1,0,81,0,1
156510,-100,4,1,0,80,0,1
156621,-45.4545454545455,4,1,0,90,0,0
156814,-111.111111111111,4,1,0,70,0,0
169179,-108.695652173913,4,1,0,70,0,0
169584,-105.263157894737,4,1,0,70,0,0
182557,-52.6315789473684,4,1,0,90,0,0
182760,-100,4,1,0,70,0,0
189044,-52.6315789473684,4,1,0,90,0,0
189246,-100,4,1,0,70,0,0
192287,-52.6315789473684,4,1,0,90,0,0
192489,-100,4,1,0,70,0,0
193908,-52.6315789473684,4,1,0,90,0,0
194111,-100,4,1,0,70,0,0
194719,-52.6315789473684,4,1,0,90,0,0
194921,-100,4,1,0,70,0,0
195530,-52.6315789473684,4,1,0,90,0,0
195732,-100,4,1,0,70,0,0
198773,-52.6315789473684,4,1,0,90,0,0
198975,-100,4,1,0,70,0,0
202017,-52.6315789473684,4,1,0,90,0,0
202219,-100,4,1,0,70,0,0
205260,-52.6315789473684,4,1,0,90,0,0
205463,-100,4,1,0,70,0,0
206881,-52.6315789473684,4,1,0,90,0,0
207083,-100,4,1,0,70,0,0
208098,-95.2380952380952,4,1,0,90,0,0
208513,-47.6190476190476,4,1,0,100,0,1
208706,-90.9090909090909,4,1,0,90,0,1
214179,-89.998519761188,4,1,0,90,0,1
214280,-89.55223880597,4,1,0,90,0,1
214381,-89.110362010846,4,1,0,90,0,1
214483,-88.668513927373,4,1,0,90,0,1
214584,-88.235294117647,4,1,0,90,0,1
214685,-87.806287007173,4,1,0,90,0,1
214787,-87.377245508982,4,1,0,90,0,1
214888,-86.95652173913,4,1,0,90,0,1
214990,-47.6190476190476,4,1,0,100,0,1
215192,-90.9090909090909,4,1,0,90,0,1
220675,-90.909090909091,4,1,0,90,0,0
220868,-89.742779498199,4,1,0,90,0,0
220969,-89.173574478774,4,1,0,90,0,0
221071,-88.606015225259,4,1,0,90,0,0
221172,-88.051094437899,4,1,0,90,0,0
221273,-87.503081094405,4,1,0,90,0,0
221375,-86.95652173913,4,1,0,90,0,0
221486,-47.6190476190476,4,1,0,100,0,1
221679,-90.9090909090909,4,1,0,90,0,1
227152,-89.998519761188,4,1,0,90,0,1
227253,-89.55223880597,4,1,0,90,0,1
227354,-89.110362010846,4,1,0,90,0,1
227456,-88.668513927373,4,1,0,90,0,1
227557,-88.235294117647,4,1,0,90,0,1
227658,-87.806287007173,4,1,0,90,0,1
227760,-87.377245508982,4,1,0,90,0,1
227861,-86.95652173913,4,1,0,90,0,1
227963,-47.6190476190476,4,1,0,100,0,1
228165,-90.9090909090909,4,1,0,90,0,1
232827,-46.5116279069767,4,1,0,100,0,1
233030,-90.9090909090909,4,1,0,90,0,1
233638,-45.4545454545455,4,1,0,100,0,1
233841,-89.742779498199,4,1,0,90,0,1
233942,-89.173574478774,4,1,0,90,0,1
234044,-88.606015225259,4,1,0,90,0,1
234145,-88.051094437899,4,1,0,90,0,1
234246,-87.503081094405,4,1,0,90,0,1
234348,-86.95652173913,4,1,0,90,0,1
234449,-44.4444444444445,4,1,0,100,0,1
234651,-90.9090909090909,4,1,0,90,0,1
236071,-47.6190476190476,4,1,0,100,0,1
236273,-90.9090909090909,4,1,0,90,0,1
237692,-46.5116279069767,4,1,0,100,0,1
237894,-90.9090909090909,4,1,0,90,0,1
238503,-45.4545454545455,4,1,0,100,0,1
238705,-90.9090909090909,4,1,0,90,0,1
239314,-44.4444444444445,4,1,0,100,0,1
239516,-90.9090909090909,4,1,0,90,0,1
239922,-94.9757602468047,4,1,0,85,0,1
240125,-97.1486532176265,4,1,0,82,0,1
240226,-98.2672138622891,4,1,0,81,0,1
240327,-99.4118325452658,4,1,0,80,0,1
240429,-100.595168631112,4,1,0,79,0,1
240530,-101.794992914502,4,1,0,78,0,1
240631,-103.023783912992,4,1,0,77,0,1
240733,-104.295220810647,4,1,0,75,0,1
240834,-105.585497305243,4,1,0,74,0,1
240945,-43.4782608695652,4,1,0,90,0,0
241240,-111.111111111111,4,1,0,70,0,0
244179,-117.647058823529,4,1,0,60,0,0
247017,-111.111111111111,4,1,0,73,0,0
247422,-68.9655172413793,4,1,0,90,0,0
247625,-100,4,1,0,80,0,0
250463,-66.6666666666667,4,1,0,90,0,0
250665,-100,4,1,0,80,0,0
252084,-64.5161290322581,4,1,0,90,0,0
252287,-100,4,1,0,80,0,0
253098,-62.5,4,1,0,90,0,0
253300,-100,4,1,0,80,0,0
253706,-60.6060606060606,4,1,0,90,0,0
253908,-100,4,1,0,80,0,0
254922,-58.8235294117647,4,1,0,90,0,0
255125,-100,4,1,0,80,0,0
255530,-57.1428571428571,4,1,0,90,0,0
255733,-100,4,1,0,80,0,0
256949,-55.5555555555556,4,1,0,90,0,0
257152,-100,4,1,0,80,0,0
258165,-54.054054054054,4,1,0,90,0,0
258368,-100,4,1,0,80,0,0
258773,-52.6315789473684,4,1,0,90,0,0
258976,-100,4,1,0,80,0,0
259584,-50,4,1,0,90,0,0
259685,-28.5714285714286,4,1,0,80,0,0
260395,-100,4,1,0,80,0,0

[HitObjects]
256,192,946,5,0,0:0:0:0:
256,192,1250,1,0,0:0:0:0:
256,192,1554,1,8,0:0:0:0:
256,192,1756,1,0,0:0:0:0:
256,192,2060,1,0,0:0:0:0:
256,192,2364,1,8,0:0:0:0:
256,192,2567,1,0,0:0:0:0:
256,192,2871,1,0,0:0:0:0:
256,192,3175,1,8,0:0:0:0:
256,192,3378,1,8,0:0:0:0:
256,192,3581,1,0,0:0:0:0:
256,192,3783,1,0,0:0:0:0:
256,192,4189,1,8,0:0:0:0:
256,192,4493,1,0,0:0:0:0:
256,192,4797,1,0,0:0:0:0:
256,192,4898,1,0,0:0:0:0:
256,192,5000,1,8,0:0:0:0:
256,192,5202,1,8,0:0:0:0:
256,192,5405,1,0,0:0:0:0:
256,192,5608,1,0,0:0:0:0:
256,192,5810,1,8,0:0:0:0:
256,192,6114,1,0,0:0:0:0:
256,192,6418,1,0,0:0:0:0:
256,192,6520,1,0,0:0:0:0:
256,192,6621,1,8,0:0:0:0:
256,192,7229,1,0,0:0:0:0:
256,192,7432,1,8,0:0:0:0:
256,192,7736,1,0,0:0:0:0:
256,192,8040,1,0,0:0:0:0:
256,192,8243,1,8,0:0:0:0:
256,192,8547,1,0,0:0:0:0:
256,192,8851,1,8,0:0:0:0:
256,192,9054,1,0,0:0:0:0:
256,192,9256,1,0,0:0:0:0:
256,192,9459,1,8,0:0:0:0:
256,192,9662,1,0,0:0:0:0:
256,192,9864,1,8,0:0:0:0:
256,192,10067,1,0,0:0:0:0:
256,192,10270,1,8,0:0:0:0:
256,192,10473,1,8,0:0:0:0:
256,192,10675,1,0,0:0:0:0:
256,192,10979,1,0,0:0:0:0:
256,192,11283,1,0,0:0:0:0:
256,192,11486,1,8,0:0:0:0:
256,192,11790,1,0,0:0:0:0:
256,192,12094,1,8,0:0:0:0:
256,192,12297,1,0,0:0:0:0:
256,192,13108,1,8,0:0:0:0:
256,192,13918,1,4,0:0:0:0:
256,192,14223,1,0,0:0:0:0:
256,192,14527,1,8,0:0:0:0:
256,192,14729,1,0,0:0:0:0:
256,192,15033,1,0,0:0:0:0:
256,192,15337,1,8,0:0:0:0:
256,192,15540,1,0,0:0:0:0:
256,192,15844,1,0,0:0:0:0:
256,192,16148,1,8,0:0:0:0:
256,192,16351,1,8,0:0:0:0:
256,192,16554,1,0,0:0:0:0:
256,192,16756,1,0,0:0:0:0:
256,192,17162,1,8,0:0:0:0:
256,192,17466,1,0,0:0:0:0:
256,192,17770,1,0,0:0:0:0:
256,192,17871,1,0,0:0:0:0:
256,192,17973,1,8,0:0:0:0:
256,192,18175,1,8,0:0:0:0:
256,192,18378,1,0,0:0:0:0:
256,192,18581,1,0,0:0:0:0:
256,192,18783,1,8,0:0:0:0:
256,192,19087,1,0,0:0:0:0:
256,192,19391,1,0,0:0:0:0:
256,192,19493,1,0,0:0:0:0:
256,192,19594,1,8,0:0:0:0:
256,192,20202,1,0,0:0:0:0:
256,192,20405,1,12,0:0:0:0:
256,192,20709,1,0,0:0:0:0:
256,192,21013,1,8,0:0:0:0:
256,192,21216,1,0,0:0:0:0:
256,192,21520,1,0,0:0:0:0:
256,192,21824,1,8,0:0:0:0:
256,192,22027,1,0,0:0:0:0:
256,192,22229,1,0,0:0:0:0:
256,192,22432,1,8,0:0:0:0:
256,192,22635,1,0,0:0:0:0:
256,192,22837,1,8,0:0:0:0:
256,192,23040,1,0,0:0:0:0:
256,192,23243,1,8,0:0:0:0:
256,192,23445,1,8,0:0:0:0:
256,192,23648,1,0,0:0:0:0:
256,192,23952,1,0,0:0:0:0:
256,192,24256,1,0,0:0:0:0:
256,192,24459,1,8,0:0:0:0:
256,192,24763,1,0,0:0:0:0:
256,192,25067,1,8,0:0:0:0:
256,192,25270,1,0,0:0:0:0:
256,192,26081,1,8,0:0:0:0:
256,192,26486,1,8,0:0:0:0:
256,192,26891,1,4,0:0:0:0:
256,192,27094,1,8,0:0:0:0:
256,192,27195,1,0,0:0:0:0:
256,192,27297,1,8,0:0:0:0:
256,192,27500,1,0,0:0:0:0:
256,192,27601,1,0,0:0:0:0:
256,192,27702,1,8,0:0:0:0:
256,192,27905,1,0,0:0:0:0:
256,192,28108,1,8,0:0:0:0:
256,192,28209,1,0,0:0:0:0:
256,192,28310,1,8,0:0:0:0:
256,192,28412,1,8,0:0:0:0:
256,192,28513,1,0,0:0:0:0:
256,192,28716,1,8,0:0:0:0:
256,192,28918,1,0,0:0:0:0:
256,192,29020,1,8,0:0:0:0:
256,192,29121,1,8,0:0:0:0:
256,192,29223,1,0,0:0:0:0:
256,192,29324,1,0,0:0:0:0:
256,192,29527,1,0,0:0:0:0:
256,192,29628,1,0,0:0:0:0:
256,192,29729,1,8,0:0:0:0:
256,192,29932,1,12,0:0:0:0:
256,192,30135,1,0,0:0:0:0:
256,192,30337,1,0,0:0:0:0:
256,192,30439,1,0,0:0:0:0:
256,192,30540,1,8,0:0:0:0:
256,192,30743,1,0,0:0:0:0:
256,192,30844,1,8,0:0:0:0:
256,192,30945,1,0,0:0:0:0:
256,192,31148,1,8,0:0:0:0:
256,192,31351,1,0,0:0:0:0:
256,192,31452,1,0,0:0:0:0:
256,192,31554,1,8,0:0:0:0:
256,192,31655,1,8,0:0:0:0:
256,192,31756,1,0,0:0:0:0:
256,192,31959,1,0,0:0:0:0:
256,192,32162,1,8,0:0:0:0:
256,192,32263,1,8,0:0:0:0:
256,192,32364,1,0,0:0:0:0:
256,192,32466,1,0,0:0:0:0:
256,192,32567,1,8,0:0:0:0:
256,192,32770,1,0,0:0:0:0:
256,192,32871,1,0,0:0:0:0:
256,192,32973,1,8,0:0:0:0:
256,192,33175,1,12,0:0:0:0:
256,192,33378,1,0,0:0:0:0:
256,192,33479,1,0,0:0:0:0:
256,192,33581,1,8,0:0:0:0:
256,192,33682,1,0,0:0:0:0:
256,192,33783,1,8,0:0:0:0:
256,192,33986,1,0,0:0:0:0:
256,192,34087,1,0,0:0:0:0:
256,192,34189,1,8,0:0:0:0:
256,192,34391,1,0,0:0:0:0:
256,192,34594,1,8,0:0:0:0:
256,192,34797,1,8,0:0:0:0:
256,192,34898,1,8,0:0:0:0:
256,192,35000,1,0,0:0:0:0:
256,192,35202,1,0,0:0:0:0:
256,192,35304,1,0,0:0:0:0:
256,192,35405,1,8,0:0:0:0:
256,192,35506,1,0,0:0:0:0:
256,192,35608,1,8,0:0:0:0:
256,192,35810,1,0,0:0:0:0:
256,192,36013,1,0,0:0:0:0:
256,192,36114,1,0,0:0:0:0:
256,192,36216,1,8,0:0:0:0:
256,192,36418,1,12,0:0:0:0:
256,192,36621,1,0,0:0:0:0:
256,192,36824,1,0,0:0:0:0:
256,192,36925,1,0,0:0:0:0:
256,192,37027,1,8,0:0:0:0:
256,192,37128,1,0,0:0:0:0:
256,192,37229,1,8,0:0:0:0:
256,192,37331,1,8,0:0:0:0:
256,192,37432,1,0,0:0:0:0:
256,192,37635,1,0,0:0:0:0:
256,192,37837,1,8,0:0:0:0:
256,192,37939,1,0,0:0:0:0:
256,192,38040,1,0,0:0:0:0:
256,192,38141,1,0,0:0:0:0:
256,192,38243,1,8,0:0:0:0:
256,192,38445,1,0,0:0:0:0:
256,192,38648,1,8,0:0:0:0:
256,192,38750,1,8,0:0:0:0:
256,192,38851,1,0,0:0:0:0:
256,192,38952,1,0,0:0:0:0:
256,192,39054,1,8,0:0:0:0:
256,192,39256,1,0,0:0:0:0:
256,192,39459,1,8,0:0:0:0:
256,192,39662,1,8,0:0:0:0:
256,192,39763,1,8,0:0:0:0:
256,192,39864,1,4,0:0:0:0:
256,192,40067,1,0,0:0:0:0:
256,192,40270,1,8,0:0:0:0:
256,192,40371,1,8,0:0:0:0:
256,192,40574,1,0,0:0:0:0:
256,192,40675,1,8,0:0:0:0:
256,192,40878,1,0,0:0:0:0:
256,192,41081,1,8,0:0:0:0:
256,192,41283,1,8,0:0:0:0:
256,192,41385,1,0,0:0:0:0:
256,192,41486,1,8,0:0:0:0:
256,192,41587,1,8,0:0:0:0:
256,192,41689,1,0,0:0:0:0:
256,192,41790,1,0,0:0:0:0:
256,192,41891,1,8,0:0:0:0:
256,192,42094,1,0,0:0:0:0:
256,192,42297,1,8,0:0:0:0:
256,192,42398,1,8,0:0:0:0:
256,192,42500,1,0,0:0:0:0:
256,192,42702,1,8,0:0:0:0:
256,192,42905,1,0,0:0:0:0:
256,192,43006,1,0,0:0:0:0:
256,192,43108,1,8,0:0:0:0:
256,192,43310,1,0,0:0:0:0:
256,192,43513,1,8,0:0:0:0:
256,192,43716,1,0,0:0:0:0:
256,192,43817,1,0,0:0:0:0:
256,192,43918,1,8,0:0:0:0:
256,192,44121,1,0,0:0:0:0:
256,192,44223,1,8,0:0:0:0:
256,192,44324,1,0,0:0:0:0:
256,192,44425,1,0,0:0:0:0:
256,192,44527,1,8,0:0:0:0:
256,192,44628,1,0,0:0:0:0:
256,192,44729,1,8,0:0:0:0:
256,192,44932,1,8,0:0:0:0:
256,192,45033,1,0,0:0:0:0:
256,192,45135,1,8,0:0:0:0:
256,192,45337,1,0,0:0:0:0:
256,192,45540,1,8,0:0:0:0:
256,192,45641,1,8,0:0:0:0:
256,192,45743,1,0,0:0:0:0:
256,192,45844,1,0,0:0:0:0:
256,192,45945,1,8,0:0:0:0:
256,192,46148,1,0,0:0:0:0:
256,192,46351,1,8,0:0:0:0:
256,192,46554,1,0,0:0:0:0:
256,192,46655,1,0,0:0:0:0:
256,192,46756,1,8,0:0:0:0:
256,192,46959,1,8,0:0:0:0:
256,192,47162,1,0,0:0:0:0:
256,192,47263,1,8,0:0:0:0:
256,192,47364,1,0,0:0:0:0:
256,192,47466,1,0,0:0:0:0:
256,192,47567,1,8,0:0:0:0:
256,192,47770,1,0,0:0:0:0:
256,192,47973,1,8,0:0:0:0:
256,192,48074,1,8,0:0:0:0:
256,192,48175,1,0,0:0:0:0:
256,192,48277,1,0,0:0:0:0:
256,192,48378,1,8,0:0:0:0:
256,192,48479,1,0,0:0:0:0:
256,192,48581,1,0,0:0:0:0:
256,192,48682,1,8,0:0:0:0:
256,192,48783,1,0,0:0:0:0:
256,192,48986,1,0,0:0:0:0:
256,192,49087,1,0,0:0:0:0:
256,192,49189,1,8,0:0:0:0:
256,192,49391,1,8,0:0:0:0:
256,192,49594,1,0,0:0:0:0:
256,192,49797,1,0,0:0:0:0:
256,192,49898,1,0,0:0:0:0:
256,192,50000,1,8,0:0:0:0:
256,192,50202,1,0,0:0:0:0:
256,192,50405,1,8,0:0:0:0:
256,192,50608,1,0,0:0:0:0:
256,192,50709,1,8,0:0:0:0:
256,192,50810,1,8,0:0:0:0:
256,192,50912,1,0,0:0:0:0:
256,192,51013,1,8,0:0:0:0:
256,192,51216,1,8,0:0:0:0:
256,192,51317,1,0,0:0:0:0:
256,192,51418,1,0,0:0:0:0:
256,192,51621,1,8,0:0:0:0:
256,192,51824,1,0,0:0:0:0:
256,192,51925,1,8,0:0:0:0:
256,192,52128,1,0,0:0:0:0:
256,192,52229,1,0,0:0:0:0:
256,192,52331,1,8,0:0:0:0:
256,192,52432,1,8,0:0:0:0:
256,192,52635,1,8,0:0:0:0:
256,192,52837,1,4,0:0:0:0:
256,192,53040,1,0,0:0:0:0:
256,192,53141,1,0,0:0:0:0:
256,192,53243,1,8,0:0:0:0:
256,192,53445,1,8,0:0:0:0:
256,192,53547,1,8,0:0:0:0:
256,192,53648,1,0,0:0:0:0:
256,192,53750,1,8,0:0:0:0:
256,192,53851,1,0,0:0:0:0:
256,192,53952,1,0,0:0:0:0:
256,192,54054,1,8,0:0:0:0:
256,192,54256,1,8,0:0:0:0:
256,192,54459,1,0,0:0:0:0:
256,192,54662,1,8,0:0:0:0:
256,192,54763,1,0,0:0:0:0:
256,192,54864,1,8,0:0:0:0:
256,192,54966,1,8,0:0:0:0:
256,192,55067,1,0,0:0:0:0:
256,192,55270,1,8,0:0:0:0:
256,192,55473,1,8,0:0:0:0:
256,192,55574,1,0,0:0:0:0:
256,192,55675,1,0,0:0:0:0:
256,192,55878,1,8,0:0:0:0:
256,192,56081,1,0,0:0:0:0:
256,192,56283,1,8,0:0:0:0:
256,192,56385,1,0,0:0:0:0:
256,192,56486,1,8,0:0:0:0:
256,192,56587,1,0,0:0:0:0:
256,192,56689,1,0,0:0:0:0:
256,192,56790,1,8,0:0:0:0:
256,192,56993,1,0,0:0:0:0:
256,192,57094,1,8,0:0:0:0:
256,192,57297,1,8,0:0:0:0:
256,192,57398,1,0,0:0:0:0:
256,192,57500,1,0,0:0:0:0:
256,192,57601,1,8,0:0:0:0:
256,192,57702,1,0,0:0:0:0:
256,192,57905,1,0,0:0:0:0:
256,192,58108,1,8,0:0:0:0:
256,192,58209,1,0,0:0:0:0:
256,192,58310,1,8,0:0:0:0:
256,192,58412,1,8,0:0:0:0:
256,192,58513,1,0,0:0:0:0:
256,192,58716,1,0,0:0:0:0:
256,192,58817,1,0,0:0:0:0:
256,192,58918,1,8,0:0:0:0:
256,192,59121,1,8,0:0:0:0:
256,192,59324,1,0,0:0:0:0:
256,192,59527,1,0,0:0:0:0:
256,192,59628,1,0,0:0:0:0:
256,192,59729,1,8,0:0:0:0:
256,192,59831,1,8,0:0:0:0:
256,192,59932,1,0,0:0:0:0:
256,192,60033,1,8,0:0:0:0:
256,192,60236,1,0,0:0:0:0:
256,192,60337,1,0,0:0:0:0:
256,192,60439,1,0,0:0:0:0:
256,192,60540,1,8,0:0:0:0:
256,192,60743,1,8,0:0:0:0:
256,192,60945,1,0,0:0:0:0:
256,192,61047,1,0,0:0:0:0:
256,192,61148,1,8,0:0:0:0:
256,192,61351,1,8,0:0:0:0:
256,192,61452,1,0,0:0:0:0:
256,192,61554,1,0,0:0:0:0:
256,192,61655,1,8,0:0:0:0:
256,192,61858,1,8,0:0:0:0:
256,192,61959,1,0,0:0:0:0:
256,192,62162,1,8,0:0:0:0:
256,192,62364,1,0,0:0:0:0:
256,192,62466,1,0,0:0:0:0:
256,192,62567,1,8,0:0:0:0:
256,192,62770,1,8,0:0:0:0:
256,192,62871,1,0,0:0:0:0:
256,192,62973,1,8,0:0:0:0:
256,192,63175,1,0,0:0:0:0:
256,192,63277,1,0,0:0:0:0:
256,192,63378,1,8,0:0:0:0:
256,192,63581,1,8,0:0:0:0:
256,192,63682,1,0,0:0:0:0:
256,192,63783,1,8,0:0:0:0:
256,192,63986,1,8,0:0:0:0:
256,192,64087,1,0,0:0:0:0:
256,192,64189,1,8,0:0:0:0:
256,192,64290,1,8,0:0:0:0:
256,192,64391,1,0,0:0:0:0:
256,192,64493,1,0,0:0:0:0:
256,192,64594,1,8,0:0:0:0:
256,192,64797,1,0,0:0:0:0:
256,192,65000,1,8,0:0:0:0:
256,192,65405,1,8,0:0:0:0:
256,192,65810,1,4,0:0:0:0:
256,192,66013,1,0,0:0:0:0:
256,192,66114,1,0,0:0:0:0:
256,192,66216,1,8,0:0:0:0:
256,192,66418,1,8,0:0:0:0:
256,192,66621,1,0,0:0:0:0:
256,192,66723,1,8,0:0:0:0:
256,192,66824,1,0,0:0:0:0:
256,192,66925,1,0,0:0:0:0:
256,192,67027,1,8,0:0:0:0:
256,192,67229,1,0,0:0:0:0:
256,192,67432,1,8,0:0:0:0:
256,192,67533,1,8,0:0:0:0:
256,192,67635,1,0,0:0:0:0:
256,192,67736,1,0,0:0:0:0:
256,192,67837,1,8,0:0:0:0:
256,192,68040,1,0,0:0:0:0:
256,192,68141,1,8,0:0:0:0:
256,192,68243,1,0,0:0:0:0:
256,192,68344,1,0,0:0:0:0:
256,192,68445,1,8,0:0:0:0:
256,192,68547,1,0,0:0:0:0:
256,192,68648,1,8,0:0:0:0:
256,192,68851,1,8,0:0:0:0:
256,192,69054,1,0,0:0:0:0:
256,192,69155,1,8,0:0:0:0:
256,192,69256,1,0,0:0:0:0:
256,192,69358,1,0,0:0:0:0:
256,192,69459,1,8,0:0:0:0:
256,192,69662,1,8,0:0:0:0:
256,192,69763,1,0,0:0:0:0:
256,192,69864,1,8,0:0:0:0:
256,192,69966,1,8,0:0:0:0:
256,192,70067,1,0,0:0:0:0:
256,192,70168,1,0,0:0:0:0:
256,192,70270,1,8,0:0:0:0:
256,192,70473,1,0,0:0:0:0:
256,192,70675,1,8,0:0:0:0:
256,192,70777,1,8,0:0:0:0:
256,192,70878,1,0,0:0:0:0:
256,192,70979,1,0,0:0:0:0:
256,192,71081,1,8,0:0:0:0:
256,192,71283,1,0,0:0:0:0:
256,192,71486,1,8,0:0:0:0:
256,192,71587,1,0,0:0:0:0:
256,192,71790,1,0,0:0:0:0:
256,192,71891,1,8,0:0:0:0:
256,192,72094,1,8,0:0:0:0:
256,192,72195,1,8,0:0:0:0:
256,192,72297,1,4,0:0:0:0:
256,192,72500,1,0,0:0:0:0:
256,192,72601,1,8,0:0:0:0:
256,192,72804,1,8,0:0:0:0:
256,192,72905,1,0,0:0:0:0:
256,192,73006,1,0,0:0:0:0:
256,192,73108,1,8,0:0:0:0:
256,192,73310,1,0,0:0:0:0:
256,192,73412,1,0,0:0:0:0:
256,192,73513,1,8,0:0:0:0:
256,192,73716,1,8,0:0:0:0:
256,192,73817,1,0,0:0:0:0:
256,192,73918,1,8,0:0:0:0:
256,192,74020,1,8,0:0:0:0:
256,192,74121,1,0,0:0:0:0:
256,192,74223,1,0,0:0:0:0:
256,192,74324,1,8,0:0:0:0:
256,192,74527,1,0,0:0:0:0:
256,192,74729,1,8,0:0:0:0:
256,192,74831,1,8,0:0:0:0:
256,192,74932,1,0,0:0:0:0:
256,192,75033,1,0,0:0:0:0:
256,192,75135,1,8,0:0:0:0:
256,192,75337,1,8,0:0:0:0:
256,192,75540,1,0,0:0:0:0:
256,192,75641,1,8,0:0:0:0:
256,192,75743,1,0,0:0:0:0:
256,192,75844,1,0,0:0:0:0:
256,192,75945,1,8,0:0:0:0:
256,192,76148,1,8,0:0:0:0:
256,192,76250,1,0,0:0:0:0:
256,192,76351,1,8,0:0:0:0:
256,192,76452,1,8,0:0:0:0:
256,192,76554,1,0,0:0:0:0:
256,192,76655,1,0,0:0:0:0:
256,192,76756,1,8,0:0:0:0:
256,192,76959,1,8,0:0:0:0:
256,192,77162,1,0,0:0:0:0:
256,192,77263,1,8,0:0:0:0:
256,192,77364,1,0,0:0:0:0:
256,192,77466,1,0,0:0:0:0:
256,192,77567,1,8,0:0:0:0:
256,192,77770,1,0,0:0:0:0:
256,192,77871,1,0,0:0:0:0:
256,192,77973,1,8,0:0:0:0:
256,192,78175,1,0,0:0:0:0:
256,192,78378,1,8,0:0:0:0:
256,192,78479,1,0,0:0:0:0:
256,192,78581,1,8,0:0:0:0:
256,192,78682,1,8,0:0:0:0:
256,192,78783,1,4,0:0:0:0:
256,192,78986,1,8,0:0:0:0:
256,192,79087,1,0,0:0:0:0:
256,192,79189,1,8,0:0:0:0:
256,192,79391,1,8,0:0:0:0:
256,192,79493,1,8,0:0:0:0:
256,192,79594,1,0,0:0:0:0:
256,192,79695,1,8,0:0:0:0:
256,192,79797,1,0,0:0:0:0:
256,192,79898,1,0,0:0:0:0:
256,192,80000,1,8,0:0:0:0:
256,192,80202,1,8,0:0:0:0:
256,192,80304,1,0,0:0:0:0:
256,192,80405,1,0,0:0:0:0:
256,192,80506,1,8,0:0:0:0:
256,192,80608,1,8,0:0:0:0:
256,192,80709,1,0,0:0:0:0:
256,192,80810,1,8,0:0:0:0:
256,192,81013,1,0,0:0:0:0:
256,192,81216,1,8,0:0:0:0:
256,192,81317,1,8,0:0:0:0:
256,192,81418,1,0,0:0:0:0:
256,192,81520,1,0,0:0:0:0:
256,192,81621,1,8,0:0:0:0:
256,192,81824,1,0,0:0:0:0:
256,192,82027,1,0,0:0:0:0:
256,192,82128,1,8,0:0:0:0:
256,192,82229,1,0,0:0:0:0:
256,192,82331,1,0,0:0:0:0:
256,192,82432,1,8,0:0:0:0:
256,192,82635,1,0,0:0:0:0:
256,192,82837,1,8,0:0:0:0:
256,192,82939,1,8,0:0:0:0:
256,192,83040,1,0,0:0:0:0:
256,192,83141,1,0,0:0:0:0:
256,192,83243,1,8,0:0:0:0:
256,192,83344,1,0,0:0:0:0:
256,192,83445,1,8,0:0:0:0:
256,192,83648,1,0,0:0:0:0:
256,192,83851,1,0,0:0:0:0:
256,192,83952,1,8,0:0:0:0:
256,192,84054,1,8,0:0:0:0:
256,192,84155,1,0,0:0:0:0:
256,192,84256,1,8,0:0:0:0:
256,192,84459,1,8,0:0:0:0:
256,192,84560,1,0,0:0:0:0:
256,192,84763,1,0,0:0:0:0:
256,192,84864,1,8,0:0:0:0:
256,192,84966,1,0,0:0:0:0:
256,192,85067,1,0,0:0:0:0:
256,192,85168,1,0,0:0:0:0:
256,192,85270,1,12,0:0:0:0:
256,192,85473,1,0,0:0:0:0:
256,192,85574,1,0,0:0:0:0:
256,192,85675,1,8,0:0:0:0:
256,192,85878,1,8,0:0:0:0:
256,192,85979,1,0,0:0:0:0:
256,192,86081,1,8,0:0:0:0:
256,192,86182,1,8,0:0:0:0:
256,192,86283,1,0,0:0:0:0:
256,192,86385,1,0,0:0:0:0:
256,192,86486,1,8,0:0:0:0:
256,192,86689,1,8,0:0:0:0:
256,192,86790,1,8,0:0:0:0:
256,192,86891,1,0,0:0:0:0:
256,192,86993,1,8,0:0:0:0:
256,192,87094,1,0,0:0:0:0:
256,192,87195,1,0,0:0:0:0:
256,192,87297,1,8,0:0:0:0:
256,192,87500,1,0,0:0:0:0:
256,192,87702,1,8,0:0:0:0:
256,192,87804,1,8,0:0:0:0:
256,192,87905,1,0,0:0:0:0:
256,192,88006,1,0,0:0:0:0:
256,192,88108,1,8,0:0:0:0:
256,192,88209,1,0,0:0:0:0:
256,192,88310,1,8,0:0:0:0:
256,192,88513,1,0,0:0:0:0:
256,192,88716,1,8,0:0:0:0:
256,192,88817,1,0,0:0:0:0:
256,192,88918,1,8,0:0:0:0:
256,192,89020,1,8,0:0:0:0:
256,192,89121,1,0,0:0:0:0:
256,192,89324,1,8,0:0:0:0:
256,192,89527,1,0,0:0:0:0:
256,192,89628,1,0,0:0:0:0:
256,192,89729,1,8,0:0:0:0:
256,192,89932,1,8,0:0:0:0:
256,192,90135,1,4,0:0:0:0:
256,192,90337,1,0,0:0:0:0:
256,192,90439,1,0,0:0:0:0:
256,192,90540,1,8,0:0:0:0:
256,192,90641,1,8,0:0:0:0:
256,192,90743,1,0,0:0:0:0:
256,192,90945,1,12,0:0:0:0:
256,192,91148,1,0,0:0:0:0:
256,192,91250,1,8,0:0:0:0:
256,192,91351,1,0,0:0:0:0:
256,192,91452,1,0,0:0:0:0:
256,192,91554,1,8,0:0:0:0:
256,192,91655,1,8,0:0:0:0:
256,192,91756,1,4,0:0:0:0:
256,192,91959,1,0,0:0:0:0:
256,192,92060,1,0,0:0:0:0:
256,192,92162,1,8,0:0:0:0:
256,192,92364,1,0,0:0:0:0:
256,192,92567,1,8,0:0:0:0:
256,192,92668,1,8,0:0:0:0:
256,192,92770,1,0,0:0:0:0:
256,192,92871,1,0,0:0:0:0:
256,192,92973,1,8,0:0:0:0:
256,192,93175,1,0,0:0:0:0:
256,192,93277,1,0,0:0:0:0:
256,192,93378,1,8,0:0:0:0:
256,192,93581,1,0,0:0:0:0:
256,192,93682,1,0,0:0:0:0:
256,192,93783,1,8,0:0:0:0:
256,192,93885,1,0,0:0:0:0:
256,192,93986,1,8,0:0:0:0:
256,192,94087,1,8,0:0:0:0:
256,192,94189,1,0,0:0:0:0:
256,192,94391,1,0,0:0:0:0:
256,192,94493,1,0,0:0:0:0:
256,192,94594,1,8,0:0:0:0:
256,192,94797,1,4,0:0:0:0:
256,192,95000,1,8,0:0:0:0:
256,192,95202,1,0,0:0:0:0:
256,192,95405,1,8,0:0:0:0:
256,192,95506,1,8,0:0:0:0:
256,192,95608,1,0,0:0:0:0:
256,192,95709,1,0,0:0:0:0:
256,192,95810,1,8,0:0:0:0:
256,192,96013,1,8,0:0:0:0:
256,192,96114,1,0,0:0:0:0:
256,192,96216,1,8,0:0:0:0:
256,192,96418,1,0,0:0:0:0:
256,192,96621,1,0,0:0:0:0:
256,192,96723,1,8,0:0:0:0:
256,192,96824,1,0,0:0:0:0:
256,192,96925,1,0,0:0:0:0:
256,192,97027,1,8,0:0:0:0:
256,192,97229,1,8,0:0:0:0:
256,192,97331,1,0,0:0:0:0:
256,192,97432,1,0,0:0:0:0:
256,192,97635,1,0,0:0:0:0:
256,192,97837,1,8,0:0:0:0:
256,192,98040,1,4,0:0:0:0:
256,192,98243,1,0,0:0:0:0:
256,192,98344,1,8,0:0:0:0:
256,192,98445,1,8,0:0:0:0:
256,192,98547,1,0,0:0:0:0:
256,192,98648,1,8,0:0:0:0:
256,192,98750,1,0,0:0:0:0:
256,192,98851,1,0,0:0:0:0:
256,192,98952,1,0,0:0:0:0:
256,192,99054,1,8,0:0:0:0:
256,192,99256,1,12,0:0:0:0:
256,192,99459,1,0,0:0:0:0:
256,192,99560,1,0,0:0:0:0:
256,192,99662,1,8,0:0:0:0:
256,192,99864,1,4,0:0:0:0:
256,192,100067,1,8,0:0:0:0:
256,192,100168,1,8,0:0:0:0:
256,192,100270,1,0,0:0:0:0:
256,192,100371,1,0,0:0:0:0:
256,192,100473,1,8,0:0:0:0:
256,192,100574,1,0,0:0:0:0:
256,192,100675,1,8,0:0:0:0:
256,192,100878,1,0,0:0:0:0:
256,192,100979,1,0,0:0:0:0:
256,192,101081,1,8,0:0:0:0:
256,192,101283,1,12,0:0:0:0:
256,192,101486,1,0,0:0:0:0:
256,192,101587,1,8,0:0:0:0:
256,192,101689,1,0,0:0:0:0:
256,192,101790,1,0,0:0:0:0:
256,192,101891,1,8,0:0:0:0:
256,192,101993,1,8,0:0:0:0:
256,192,102094,1,0,0:0:0:0:
256,192,102195,1,0,0:0:0:0:
256,192,102297,1,8,0:0:0:0:
256,192,102500,1,4,0:0:0:0:
256,192,102702,1,0,0:0:0:0:
256,192,102804,1,0,0:0:0:0:
256,192,102905,1,8,0:0:0:0:
256,192,103108,1,12,0:0:0:0:
256,192,103310,1,0,0:0:0:0:
256,192,103513,1,0,0:0:0:0:
256,192,103614,1,0,0:0:0:0:
256,192,103716,1,8,0:0:0:0:
256,192,103918,1,12,0:0:0:0:
256,192,104121,1,0,0:0:0:0:
256,192,104324,1,8,0:0:0:0:
256,192,104425,1,0,0:0:0:0:
256,192,104527,1,8,0:0:0:0:
256,192,104628,1,8,0:0:0:0:
256,192,104729,1,0,0:0:0:0:
256,192,105135,1,0,0:0:0:0:
256,192,105540,1,8,0:0:0:0:
256,192,105945,1,8,0:0:0:0:
256,192,106351,1,0,0:0:0:0:
256,192,106756,1,0,0:0:0:0:
256,192,107162,1,8,0:0:0:0:
256,192,107567,1,8,0:0:0:0:
256,192,107973,1,0,0:0:0:0:
256,192,108378,1,8,0:0:0:0:
256,192,108783,1,0,0:0:0:0:
256,192,109189,1,8,0:0:0:0:
256,192,109594,1,8,0:0:0:0:
256,192,109797,1,0,0:0:0:0:
256,192,110000,1,0,0:0:0:0:
256,192,110202,1,8,0:0:0:0:
256,192,110405,1,8,0:0:0:0:
256,192,110810,1,0,0:0:0:0:
256,192,111216,1,8,0:0:0:0:
256,192,111621,1,0,0:0:0:0:
256,192,111824,1,0,0:0:0:0:
256,192,112027,1,8,0:0:0:0:
256,192,112432,1,0,0:0:0:0:
256,192,112837,1,8,0:0:0:0:
256,192,113243,1,0,0:0:0:0:
256,192,113445,1,0,0:0:0:0:
256,192,113648,1,8,0:0:0:0:
256,192,114054,1,0,0:0:0:0:
256,192,114459,1,8,0:0:0:0:
256,192,114662,1,8,0:0:0:0:
256,192,114864,1,0,0:0:0:0:
256,192,115067,1,0,0:0:0:0:
256,192,115270,1,8,0:0:0:0:
256,192,115675,1,0,0:0:0:0:
256,192,116081,1,8,0:0:0:0:
256,192,116283,1,8,0:0:0:0:
256,192,116486,1,0,0:0:0:0:
256,192,116891,1,8,0:0:0:0:
256,192,117297,1,0,0:0:0:0:
256,192,117702,1,12,0:0:0:0:
256,192,117905,1,0,0:0:0:0:
256,192,118108,1,8,0:0:0:0:
256,192,118310,1,8,0:0:0:0:
256,192,118412,1,8,0:0:0:0:
256,192,118513,1,0,0:0:0:0:
256,192,118716,1,8,0:0:0:0:
256,192,118918,1,8,0:0:0:0:
256,192,119020,1,0,0:0:0:0:
256,192,119121,1,8,0:0:0:0:
256,192,119223,1,8,0:0:0:0:
256,192,119324,1,0,0:0:0:0:
256,192,119527,1,0,0:0:0:0:
256,192,119729,1,8,0:0:0:0:
256,192,119831,1,0,0:0:0:0:
256,192,119932,1,0,0:0:0:0:
256,192,120033,1,8,0:0:0:0:
256,192,120135,1,0,0:0:0:0:
256,192,120337,1,8,0:0:0:0:
256,192,120439,1,0,0:0:0:0:
256,192,120540,1,8,0:0:0:0:
256,192,120743,1,0,0:0:0:0:
256,192,120945,1,8,0:0:0:0:
256,192,121047,1,8,0:0:0:0:
256,192,121148,1,0,0:0:0:0:
256,192,121250,1,0,0:0:0:0:
256,192,121351,1,8,0:0:0:0:
256,192,121554,1,0,0:0:0:0:
256,192,121655,1,0,0:0:0:0:
256,192,121756,1,8,0:0:0:0:
256,192,121959,1,0,0:0:0:0:
256,192,122162,1,8,0:0:0:0:
256,192,122263,1,0,0:0:0:0:
256,192,122364,1,8,0:0:0:0:
256,192,122466,1,8,0:0:0:0:
256,192,122567,1,0,0:0:0:0:
256,192,122770,1,8,0:0:0:0:
256,192,122871,1,0,0:0:0:0:
256,192,122973,1,8,0:0:0:0:
256,192,123175,1,0,0:0:0:0:
256,192,123378,1,8,0:0:0:0:
256,192,123479,1,0,0:0:0:0:
256,192,123581,1,0,0:0:0:0:
256,192,123682,1,8,0:0:0:0:
256,192,123783,1,8,0:0:0:0:
256,192,123986,1,0,0:0:0:0:
256,192,124189,1,8,0:0:0:0:
256,192,124391,1,0,0:0:0:0:
256,192,124493,1,0,0:0:0:0:
256,192,124594,1,8,0:0:0:0:
256,192,124797,1,8,0:0:0:0:
256,192,125000,1,0,0:0:0:0:
256,192,125101,1,8,0:0:0:0:
256,192,125202,1,0,0:0:0:0:
256,192,125304,1,0,0:0:0:0:
256,192,125405,1,8,0:0:0:0:
256,192,125608,1,0,0:0:0:0:
256,192,125810,1,8,0:0:0:0:
256,192,126013,1,0,0:0:0:0:
256,192,126114,1,0,0:0:0:0:
256,192,126216,1,8,0:0:0:0:
256,192,126418,1,0,0:0:0:0:
256,192,126621,1,8,0:0:0:0:
256,192,126723,1,8,0:0:0:0:
256,192,126824,1,0,0:0:0:0:
256,192,126925,1,0,0:0:0:0:
256,192,127027,1,8,0:0:0:0:
256,192,127229,1,8,0:0:0:0:
256,192,127432,1,0,0:0:0:0:
256,192,127635,1,0,0:0:0:0:
256,192,127736,1,0,0:0:0:0:
256,192,127837,1,8,0:0:0:0:
256,192,128040,1,8,0:0:0:0:
256,192,128243,1,0,0:0:0:0:
256,192,128344,1,8,0:0:0:0:
256,192,128445,1,0,0:0:0:0:
256,192,128547,1,0,0:0:0:0:
256,192,128648,1,8,0:0:0:0:
256,192,128851,1,0,0:0:0:0:
256,192,129054,1,8,0:0:0:0:
256,192,129155,1,8,0:0:0:0:
256,192,129256,1,0,0:0:0:0:
256,192,129459,1,8,0:0:0:0:
256,192,129662,1,0,0:0:0:0:
256,192,129864,1,8,0:0:0:0:
256,192,130270,1,8,0:0:0:0:
256,192,130675,1,4,0:0:0:0:
256,192,130878,1,0,0:0:0:0:
256,192,130979,1,0,0:0:0:0:
256,192,131081,1,8,0:0:0:0:
256,192,131283,1,8,0:0:0:0:
256,192,131486,1,0,0:0:0:0:
256,192,131587,1,8,0:0:0:0:
256,192,131689,1,0,0:0:0:0:
256,192,131790,1,0,0:0:0:0:
256,192,131891,1,8,0:0:0:0:
256,192,132094,1,0,0:0:0:0:
256,192,132297,1,8,0:0:0:0:
256,192,132398,1,8,0:0:0:0:
256,192,132500,1,0,0:0:0:0:
256,192,132601,1,0,0:0:0:0:
256,192,132702,1,8,0:0:0:0:
256,192,132905,1,0,0:0:0:0:
256,192,133006,1,8,0:0:0:0:
256,192,133108,1,0,0:0:0:0:
256,192,133209,1,0,0:0:0:0:
256,192,133310,1,8,0:0:0:0:
256,192,133412,1,0,0:0:0:0:
256,192,133513,1,8,0:0:0:0:
256,192,133716,1,8,0:0:0:0:
256,192,133918,1,0,0:0:0:0:
256,192,134020,1,8,0:0:0:0:
256,192,134121,1,0,0:0:0:0:
256,192,134223,1,0,0:0:0:0:
256,192,134324,1,8,0:0:0:0:
256,192,134527,1,8,0:0:0:0:
256,192,134628,1,0,0:0:0:0:
256,192,134729,1,8,0:0:0:0:
256,192,134831,1,8,0:0:0:0:
256,192,134932,1,0,0:0:0:0:
256,192,135033,1,0,0:0:0:0:
256,192,135135,1,8,0:0:0:0:
256,192,135337,1,0,0:0:0:0:
256,192,135540,1,8,0:0:0:0:
256,192,135641,1,8,0:0:0:0:
256,192,135743,1,0,0:0:0:0:
256,192,135844,1,0,0:0:0:0:
256,192,135945,1,8,0:0:0:0:
256,192,136148,1,0,0:0:0:0:
256,192,136351,1,8,0:0:0:0:
256,192,136452,1,0,0:0:0:0:
256,192,136655,1,0,0:0:0:0:
256,192,136756,1,8,0:0:0:0:
256,192,136959,1,8,0:0:0:0:
256,192,137060,1,8,0:0:0:0:
256,192,137162,1,4,0:0:0:0:
256,192,137364,1,0,0:0:0:0:
256,192,137466,1,8,0:0:0:0:
256,192,137668,1,8,0:0:0:0:
256,192,137770,1,0,0:0:0:0:
256,192,137871,1,0,0:0:0:0:
256,192,137973,1,8,0:0:0:0:
256,192,138175,1,0,0:0:0:0:
256,192,138277,1,0,0:0:0:0:
256,192,138378,1,8,0:0:0:0:
256,192,138581,1,8,0:0:0:0:
256,192,138682,1,0,0:0:0:0:
256,192,138783,1,8,0:0:0:0:
256,192,138885,1,8,0:0:0:0:
256,192,138986,1,0,0:0:0:0:
256,192,139087,1,0,0:0:0:0:
256,192,139189,1,8,0:0:0:0:
256,192,139391,1,0,0:0:0:0:
256,192,139594,1,8,0:0:0:0:
256,192,139695,1,8,0:0:0:0:
256,192,139797,1,0,0:0:0:0:
256,192,139898,1,0,0:0:0:0:
256,192,140000,1,8,0:0:0:0:
256,192,140202,1,8,0:0:0:0:
256,192,140405,1,0,0:0:0:0:
256,192,140506,1,8,0:0:0:0:
256,192,140608,1,0,0:0:0:0:
256,192,140709,1,0,0:0:0:0:
256,192,140810,1,8,0:0:0:0:
256,192,141013,1,8,0:0:0:0:
256,192,141114,1,0,0:0:0:0:
256,192,141216,1,8,0:0:0:0:
256,192,141317,1,8,0:0:0:0:
256,192,141418,1,0,0:0:0:0:
256,192,141520,1,0,0:0:0:0:
256,192,141621,1,8,0:0:0:0:
256,192,141824,1,8,0:0:0:0:
256,192,142027,1,0,0:0:0:0:
256,192,142128,1,8,0:0:0:0:
256,192,142229,1,0,0:0:0:0:
256,192,142331,1,0,0:0:0:0:
256,192,142432,1,8,0:0:0:0:
256,192,142635,1,0,0:0:0:0:
256,192,142736,1,0,0:0:0:0:
256,192,142837,1,8,0:0:0:0:
256,192,143040,1,0,0:0:0:0:
256,192,143243,1,8,0:0:0:0:
256,192,143344,1,0,0:0:0:0:
256,192,143445,1,8,0:0:0:0:
256,192,143547,1,8,0:0:0:0:
256,192,143648,1,4,0:0:0:0:
256,192,143851,1,8,0:0:0:0:
256,192,143952,1,0,0:0:0:0:
256,192,144054,1,8,0:0:0:0:
256,192,144256,1,8,0:0:0:0:
256,192,144358,1,8,0:0:0:0:
256,192,144459,1,0,0:0:0:0:
256,192,144560,1,8,0:0:0:0:
256,192,144662,1,0,0:0:0:0:
256,192,144763,1,0,0:0:0:0:
256,192,144864,1,8,0:0:0:0:
256,192,145067,1,8,0:0:0:0:
256,192,145168,1,0,0:0:0:0:
256,192,145270,1,0,0:0:0:0:
256,192,145371,1,8,0:0:0:0:
256,192,145473,1,8,0:0:0:0:
256,192,145574,1,0,0:0:0:0:
256,192,145675,1,8,0:0:0:0:
256,192,145878,1,0,0:0:0:0:
256,192,146081,1,8,0:0:0:0:
256,192,146182,1,8,0:0:0:0:
256,192,146283,1,0,0:0:0:0:
256,192,146385,1,0,0:0:0:0:
256,192,146486,1,8,0:0:0:0:
256,192,146689,1,0,0:0:0:0:
256,192,146891,1,0,0:0:0:0:
256,192,146993,1,8,0:0:0:0:
256,192,147094,1,0,0:0:0:0:
256,192,147195,1,0,0:0:0:0:
256,192,147297,1,8,0:0:0:0:
256,192,147500,1,0,0:0:0:0:
256,192,147702,1,8,0:0:0:0:
256,192,147804,1,8,0:0:0:0:
256,192,147905,1,0,0:0:0:0:
256,192,148006,1,0,0:0:0:0:
256,192,148108,1,8,0:0:0:0:
256,192,148209,1,0,0:0:0:0:
256,192,148310,1,8,0:0:0:0:
256,192,148513,1,0,0:0:0:0:
256,192,148716,1,0,0:0:0:0:
256,192,148817,1,8,0:0:0:0:
256,192,148918,1,8,0:0:0:0:
256,192,149020,1,0,0:0:0:0:
256,192,149121,1,8,0:0:0:0:
256,192,149324,1,8,0:0:0:0:
256,192,149425,1,0,0:0:0:0:
256,192,149628,1,0,0:0:0:0:
256,192,149729,1,8,0:0:0:0:
256,192,149831,1,0,0:0:0:0:
256,192,149932,1,0,0:0:0:0:
256,192,150033,1,0,0:0:0:0:
256,192,150135,1,12,0:0:0:0:
256,192,150337,1,0,0:0:0:0:
256,192,150439,1,0,0:0:0:0:
256,192,150540,1,8,0:0:0:0:
256,192,150743,1,8,0:0:0:0:
256,192,150844,1,0,0:0:0:0:
256,192,150945,1,8,0:0:0:0:
256,192,151047,1,8,0:0:0:0:
256,192,151148,1,0,0:0:0:0:
256,192,151250,1,0,0:0:0:0:
256,192,151351,1,8,0:0:0:0:
256,192,151554,1,8,0:0:0:0:
256,192,151655,1,8,0:0:0:0:
256,192,151756,1,0,0:0:0:0:
256,192,151858,1,8,0:0:0:0:
256,192,151959,1,0,0:0:0:0:
256,192,152060,1,0,0:0:0:0:
256,192,152162,1,8,0:0:0:0:
256,192,152364,1,0,0:0:0:0:
256,192,152567,1,8,0:0:0:0:
256,192,152668,1,8,0:0:0:0:
256,192,152770,1,0,0:0:0:0:
256,192,152871,1,0,0:0:0:0:
256,192,152973,1,8,0:0:0:0:
256,192,153074,1,0,0:0:0:0:
256,192,153175,1,8,0:0:0:0:
256,192,153378,1,0,0:0:0:0:
256,192,153581,1,8,0:0:0:0:
256,192,153682,1,0,0:0:0:0:
256,192,153783,1,8,0:0:0:0:
256,192,153885,1,8,0:0:0:0:
256,192,153986,1,0,0:0:0:0:
256,192,154189,1,8,0:0:0:0:
256,192,154391,1,0,0:0:0:0:
256,192,154493,1,0,0:0:0:0:
256,192,154594,1,8,0:0:0:0:
256,192,154797,1,8,0:0:0:0:
256,192,155000,1,4,0:0:0:0:
256,192,155202,1,0,0:0:0:0:
256,192,155304,1,0,0:0:0:0:
256,192,155405,1,8,0:0:0:0:
256,192,155506,1,8,0:0:0:0:
256,192,155608,1,0,0:0:0:0:
256,192,155810,1,12,0:0:0:0:
256,192,156013,1,0,0:0:0:0:
256,192,156114,1,8,0:0:0:0:
256,192,156216,1,0,0:0:0:0:
256,192,156317,1,0,0:0:0:0:
256,192,156418,1,8,0:0:0:0:
256,192,156520,1,8,0:0:0:0:
256,192,156621,1,4,0:0:0:0:
256,192,156824,1,8,0:0:0:0:
256,192,157027,1,0,0:0:0:0:
256,192,157229,1,8,0:0:0:0:
256,192,157432,1,8,0:0:0:0:
256,192,157635,1,0,0:0:0:0:
256,192,157837,1,8,0:0:0:0:
256,192,158040,1,8,0:0:0:0:
256,192,158141,1,8,0:0:0:0:
256,192,158243,1,0,0:0:0:0:
256,192,158445,1,0,0:0:0:0:
256,192,158648,1,8,0:0:0:0:
256,192,158851,1,8,0:0:0:0:
256,192,159054,1,0,0:0:0:0:
256,192,159459,1,8,0:0:0:0:
256,192,159662,1,8,0:0:0:0:
256,192,159864,1,0,0:0:0:0:
256,192,160270,1,0,0:0:0:0:
256,192,160473,1,0,0:0:0:0:
256,192,160675,1,8,0:0:0:0:
256,192,161081,1,0,0:0:0:0:
256,192,161283,1,8,0:0:0:0:
256,192,161486,1,0,0:0:0:0:
256,192,161891,1,8,0:0:0:0:
256,192,162094,1,0,0:0:0:0:
256,192,162297,1,8,0:0:0:0:
256,192,162905,1,8,0:0:0:0:
256,192,163108,1,8,0:0:0:0:
256,192,163412,1,0,0:0:0:0:
256,192,163716,1,8,0:0:0:0:
256,192,163918,1,0,0:0:0:0:
256,192,164223,1,8,0:0:0:0:
256,192,164527,1,0,0:0:0:0:
256,192,164729,1,8,0:0:0:0:
256,192,165033,1,8,0:0:0:0:
256,192,165337,1,8,0:0:0:0:
256,192,165540,1,0,0:0:0:0:
256,192,165844,1,8,0:0:0:0:
256,192,166148,1,0,0:0:0:0:
256,192,166351,1,8,0:0:0:0:
256,192,166655,1,8,0:0:0:0:
256,192,166959,1,0,0:0:0:0:
256,192,167162,1,8,0:0:0:0:
256,192,167567,1,0,0:0:0:0:
256,192,167770,1,0,0:0:0:0:
256,192,167973,1,8,0:0:0:0:
256,192,168277,1,8,0:0:0:0:
256,192,168581,1,0,0:0:0:0:
256,192,168783,1,8,0:0:0:0:
256,192,169189,1,8,0:0:0:0:
256,192,169594,1,4,0:0:0:0:
256,192,169797,1,8,0:0:0:0:
256,192,170000,1,8,0:0:0:0:
256,192,170101,1,0,0:0:0:0:
256,192,170202,1,8,0:0:0:0:
256,192,170304,1,8,0:0:0:0:
256,192,170405,1,0,0:0:0:0:
256,192,170506,1,8,0:0:0:0:
256,192,170608,1,0,0:0:0:0:
256,192,170810,1,8,0:0:0:0:
256,192,171013,1,0,0:0:0:0:
256,192,171216,1,0,0:0:0:0:
256,192,171317,1,8,0:0:0:0:
256,192,171418,1,0,0:0:0:0:
256,192,171520,1,0,0:0:0:0:
256,192,171621,1,8,0:0:0:0:
256,192,171824,1,0,0:0:0:0:
256,192,171925,1,0,0:0:0:0:
256,192,172027,1,8,0:0:0:0:
256,192,172128,1,8,0:0:0:0:
256,192,172229,1,0,0:0:0:0:
256,192,172432,1,8,0:0:0:0:
256,192,172635,1,0,0:0:0:0:
256,192,172736,1,0,0:0:0:0:
256,192,172837,1,8,0:0:0:0:
256,192,173040,1,0,0:0:0:0:
256,192,173243,1,8,0:0:0:0:
256,192,173445,1,0,0:0:0:0:
256,192,173547,1,8,0:0:0:0:
256,192,173648,1,8,0:0:0:0:
256,192,173750,1,0,0:0:0:0:
256,192,173851,1,0,0:0:0:0:
256,192,174054,1,8,0:0:0:0:
256,192,174256,1,8,0:0:0:0:
256,192,174358,1,8,0:0:0:0:
256,192,174459,1,0,0:0:0:0:
256,192,174662,1,0,0:0:0:0:
256,192,174763,1,8,0:0:0:0:
256,192,174864,1,8,0:0:0:0:
256,192,174966,1,0,0:0:0:0:
256,192,175067,1,8,0:0:0:0:
256,192,175270,1,8,0:0:0:0:
256,192,175371,1,0,0:0:0:0:
256,192,175473,1,8,0:0:0:0:
256,192,175675,1,0,0:0:0:0:
256,192,175878,1,8,0:0:0:0:
256,192,176081,1,8,0:0:0:0:
256,192,176182,1,0,0:0:0:0:
256,192,176283,1,8,0:0:0:0:
256,192,176486,1,8,0:0:0:0:
256,192,176587,1,8,0:0:0:0:
256,192,176689,1,0,0:0:0:0:
256,192,176891,1,8,0:0:0:0:
256,192,177094,1,0,0:0:0:0:
256,192,177195,1,0,0:0:0:0:
256,192,177297,1,8,0:0:0:0:
256,192,177500,1,0,0:0:0:0:
256,192,177601,1,8,0:0:0:0:
256,192,177804,1,0,0:0:0:0:
256,192,177905,1,8,0:0:0:0:
256,192,178108,1,8,0:0:0:0:
256,192,178209,1,0,0:0:0:0:
256,192,178310,1,8,0:0:0:0:
256,192,178412,1,8,0:0:0:0:
256,192,178614,1,8,0:0:0:0:
256,192,178716,1,0,0:0:0:0:
256,192,178918,1,8,0:0:0:0:
256,192,179121,1,0,0:0:0:0:
256,192,179324,1,0,0:0:0:0:
256,192,179425,1,0,0:0:0:0:
256,192,179527,1,8,0:0:0:0:
256,192,179628,1,0,0:0:0:0:
256,192,179729,1,8,0:0:0:0:
256,192,179932,1,0,0:0:0:0:
256,192,180033,1,8,0:0:0:0:
256,192,180236,1,8,0:0:0:0:
256,192,180337,1,0,0:0:0:0:
256,192,180540,1,8,0:0:0:0:
256,192,180743,1,0,0:0:0:0:
256,192,180945,1,0,0:0:0:0:
256,192,181047,1,8,0:0:0:0:
256,192,181148,1,0,0:0:0:0:
256,192,181250,1,0,0:0:0:0:
256,192,181351,1,8,0:0:0:0:
256,192,181554,1,0,0:0:0:0:
256,192,181655,1,8,0:0:0:0:
256,192,181858,1,0,0:0:0:0:
256,192,181959,1,8,0:0:0:0:
256,192,182162,1,8,0:0:0:0:
256,192,182364,1,8,0:0:0:0:
256,192,182466,1,8,0:0:0:0:
256,192,182567,1,4,0:0:0:0:
256,192,182770,1,0,0:0:0:0:
256,192,182973,1,8,0:0:0:0:
256,192,183175,1,8,0:0:0:0:
256,192,183277,1,8,0:0:0:0:
256,192,183378,1,0,0:0:0:0:
256,192,183479,1,8,0:0:0:0:
256,192,183581,1,0,0:0:0:0:
256,192,183783,1,8,0:0:0:0:
256,192,183986,1,0,0:0:0:0:
256,192,184189,1,0,0:0:0:0:
256,192,184290,1,8,0:0:0:0:
256,192,184391,1,8,0:0:0:0:
256,192,184493,1,0,0:0:0:0:
256,192,184594,1,8,0:0:0:0:
256,192,184797,1,0,0:0:0:0:
256,192,185000,1,8,0:0:0:0:
256,192,185101,1,8,0:0:0:0:
256,192,185202,1,0,0:0:0:0:
256,192,185304,1,0,0:0:0:0:
256,192,185405,1,8,0:0:0:0:
256,192,185608,1,8,0:0:0:0:
256,192,185810,1,0,0:0:0:0:
256,192,186013,1,0,0:0:0:0:
256,192,186114,1,0,0:0:0:0:
256,192,186216,1,8,0:0:0:0:
256,192,186317,1,0,0:0:0:0:
256,192,186418,1,8,0:0:0:0:
256,192,186621,1,0,0:0:0:0:
256,192,186723,1,8,0:0:0:0:
256,192,186824,1,0,0:0:0:0:
256,192,186925,1,0,0:0:0:0:
256,192,187027,1,8,0:0:0:0:
256,192,187229,1,0,0:0:0:0:
256,192,187432,1,8,0:0:0:0:
256,192,187533,1,0,0:0:0:0:
256,192,187736,1,0,0:0:0:0:
256,192,187837,1,8,0:0:0:0:
256,192,188040,1,8,0:0:0:0:
256,192,188141,1,0,0:0:0:0:
256,192,188243,1,8,0:0:0:0:
256,192,188344,1,0,0:0:0:0:
256,192,188547,1,0,0:0:0:0:
256,192,188648,1,8,0:0:0:0:
256,192,188851,1,0,0:0:0:0:
256,192,189054,1,12,0:0:0:0:
256,192,189256,1,0,0:0:0:0:
256,192,189358,1,0,0:0:0:0:
256,192,189459,1,8,0:0:0:0:
256,192,189662,1,0,0:0:0:0:
256,192,189763,1,8,0:0:0:0:
256,192,189864,1,8,0:0:0:0:
256,192,189966,1,0,0:0:0:0:
256,192,190067,1,0,0:0:0:0:
256,192,190168,1,8,0:0:0:0:
256,192,190371,1,0,0:0:0:0:
256,192,190473,1,8,0:0:0:0:
256,192,190574,1,8,0:0:0:0:
256,192,190675,1,0,0:0:0:0:
256,192,190878,1,0,0:0:0:0:
256,192,190979,1,0,0:0:0:0:
256,192,191081,1,8,0:0:0:0:
256,192,191283,1,0,0:0:0:0:
256,192,191486,1,8,0:0:0:0:
256,192,191587,1,8,0:0:0:0:
256,192,191689,1,0,0:0:0:0:
256,192,191790,1,0,0:0:0:0:
256,192,191891,1,8,0:0:0:0:
256,192,192094,1,8,0:0:0:0:
256,192,192297,1,4,0:0:0:0:
256,192,192500,1,0,0:0:0:0:
256,192,192601,1,8,0:0:0:0:
256,192,192804,1,8,0:0:0:0:
256,192,192905,1,0,0:0:0:0:
256,192,193006,1,0,0:0:0:0:
256,192,193108,1,8,0:0:0:0:
256,192,193310,1,0,0:0:0:0:
256,192,193412,1,0,0:0:0:0:
256,192,193513,1,8,0:0:0:0:
256,192,193716,1,0,0:0:0:0:
256,192,193918,1,12,0:0:0:0:
256,192,194121,1,0,0:0:0:0:
256,192,194223,1,0,0:0:0:0:
256,192,194324,1,8,0:0:0:0:
256,192,194527,1,8,0:0:0:0:
256,192,194729,1,4,0:0:0:0:
256,192,194932,1,0,0:0:0:0:
256,192,195033,1,0,0:0:0:0:
256,192,195135,1,8,0:0:0:0:
256,192,195337,1,0,0:0:0:0:
256,192,195540,1,12,0:0:0:0:
256,192,195743,1,0,0:0:0:0:
256,192,195945,1,8,0:0:0:0:
256,192,196047,1,0,0:0:0:0:
256,192,196148,1,8,0:0:0:0:
256,192,196250,1,8,0:0:0:0:
256,192,196351,1,8,0:0:0:0:
256,192,196452,1,0,0:0:0:0:
256,192,196554,1,8,0:0:0:0:
256,192,196655,1,0,0:0:0:0:
256,192,196756,1,8,0:0:0:0:
256,192,196959,1,8,0:0:0:0:
256,192,197060,1,8,0:0:0:0:
256,192,197162,1,0,0:0:0:0:
256,192,197364,1,0,0:0:0:0:
256,192,197466,1,0,0:0:0:0:
256,192,197567,1,8,0:0:0:0:
256,192,197770,1,0,0:0:0:0:
256,192,197973,1,8,0:0:0:0:
256,192,198074,1,0,0:0:0:0:
256,192,198175,1,8,0:0:0:0:
256,192,198277,1,0,0:0:0:0:
256,192,198378,1,8,0:0:0:0:
256,192,198581,1,8,0:0:0:0:
256,192,198783,1,4,0:0:0:0:
256,192,198986,1,8,0:0:0:0:
256,192,199087,1,0,0:0:0:0:
256,192,199189,1,8,0:0:0:0:
256,192,199391,1,0,0:0:0:0:
256,192,199594,1,8,0:0:0:0:
256,192,199695,1,8,0:0:0:0:
256,192,199797,1,0,0:0:0:0:
256,192,199898,1,0,0:0:0:0:
256,192,200000,1,8,0:0:0:0:
256,192,200202,1,0,0:0:0:0:
256,192,200405,1,0,0:0:0:0:
256,192,200506,1,0,0:0:0:0:
256,192,200608,1,8,0:0:0:0:
256,192,200709,1,0,0:0:0:0:
256,192,200810,1,8,0:0:0:0:
256,192,201013,1,8,0:0:0:0:
256,192,201216,1,0,0:0:0:0:
256,192,201317,1,0,0:0:0:0:
256,192,201418,1,8,0:0:0:0:
256,192,201520,1,8,0:0:0:0:
256,192,201621,1,0,0:0:0:0:
256,192,201824,1,8,0:0:0:0:
256,192,202027,1,4,0:0:0:0:
256,192,202229,1,8,0:0:0:0:
256,192,202331,1,8,0:0:0:0:
256,192,202432,1,0,0:0:0:0:
256,192,202533,1,0,0:0:0:0:
256,192,202635,1,8,0:0:0:0:
256,192,202837,1,8,0:0:0:0:
256,192,202939,1,0,0:0:0:0:
256,192,203040,1,0,0:0:0:0:
256,192,203141,1,8,0:0:0:0:
256,192,203243,1,0,0:0:0:0:
256,192,203344,1,8,0:0:0:0:
256,192,203445,1,8,0:0:0:0:
256,192,203648,1,0,0:0:0:0:
256,192,203750,1,8,0:0:0:0:
256,192,203851,1,0,0:0:0:0:
256,192,203952,1,0,0:0:0:0:
256,192,204054,1,8,0:0:0:0:
256,192,204256,1,0,0:0:0:0:
256,192,204459,1,8,0:0:0:0:
256,192,204560,1,8,0:0:0:0:
256,192,204662,1,0,0:0:0:0:
256,192,204763,1,0,0:0:0:0:
256,192,204864,1,8,0:0:0:0:
256,192,205067,1,0,0:0:0:0:
256,192,205270,1,12,0:0:0:0:
256,192,205473,1,0,0:0:0:0:
256,192,205574,1,0,0:0:0:0:
256,192,205675,1,8,0:0:0:0:
256,192,205777,1,8,0:0:0:0:
256,192,205878,1,0,0:0:0:0:
256,192,205979,1,0,0:0:0:0:
256,192,206081,1,8,0:0:0:0:
256,192,206283,1,8,0:0:0:0:
256,192,206385,1,0,0:0:0:0:
256,192,206486,1,8,0:0:0:0:
256,192,206689,1,0,0:0:0:0:
256,192,206790,1,0,0:0:0:0:
256,192,206891,1,12,0:0:0:0:
256,192,207094,1,0,0:0:0:0:
256,192,207195,1,0,0:0:0:0:
256,192,207297,1,8,0:0:0:0:
256,192,207500,1,0,0:0:0:0:
256,192,207702,1,8,0:0:0:0:
256,192,207804,1,0,0:0:0:0:
256,192,207905,1,0,0:0:0:0:
256,192,208108,1,8,0:0:0:0:
256,192,208513,1,4,0:0:0:0:
256,192,208716,1,0,0:0:0:0:
256,192,208817,1,0,0:0:0:0:
256,192,208918,1,8,0:0:0:0:
256,192,209121,1,8,0:0:0:0:
256,192,209324,1,0,0:0:0:0:
256,192,209425,1,8,0:0:0:0:
256,192,209527,1,0,0:0:0:0:
256,192,209628,1,0,0:0:0:0:
256,192,209729,1,8,0:0:0:0:
256,192,209932,1,0,0:0:0:0:
256,192,210135,1,8,0:0:0:0:
256,192,210236,1,8,0:0:0:0:
256,192,210337,1,0,0:0:0:0:
256,192,210439,1,0,0:0:0:0:
256,192,210540,1,8,0:0:0:0:
256,192,210743,1,0,0:0:0:0:
256,192,210844,1,8,0:0:0:0:
256,192,210945,1,0,0:0:0:0:
256,192,211047,1,0,0:0:0:0:
256,192,211148,1,8,0:0:0:0:
256,192,211250,1,0,0:0:0:0:
256,192,211351,1,8,0:0:0:0:
256,192,211554,1,8,0:0:0:0:
256,192,211756,1,0,0:0:0:0:
256,192,211858,1,8,0:0:0:0:
256,192,211959,1,0,0:0:0:0:
256,192,212060,1,0,0:0:0:0:
256,192,212162,1,8,0:0:0:0:
256,192,212364,1,8,0:0:0:0:
256,192,212466,1,0,0:0:0:0:
256,192,212567,1,8,0:0:0:0:
256,192,212668,1,8,0:0:0:0:
256,192,212770,1,0,0:0:0:0:
256,192,212871,1,0,0:0:0:0:
256,192,212973,1,8,0:0:0:0:
256,192,213175,1,0,0:0:0:0:
256,192,213378,1,8,0:0:0:0:
256,192,213479,1,8,0:0:0:0:
256,192,213581,1,0,0:0:0:0:
256,192,213682,1,0,0:0:0:0:
256,192,213783,1,8,0:0:0:0:
256,192,213986,1,0,0:0:0:0:
256,192,214189,1,8,0:0:0:0:
256,192,214290,1,0,0:0:0:0:
256,192,214391,1,0,0:0:0:0:
256,192,214493,1,8,0:0:0:0:
256,192,214594,1,0,0:0:0:0:
256,192,214695,1,0,0:0:0:0:
256,192,214797,1,8,0:0:0:0:
256,192,214898,1,0,0:0:0:0:
256,192,215000,1,12,0:0:0:0:
256,192,215202,1,0,0:0:0:0:
256,192,215304,1,0,0:0:0:0:
256,192,215405,1,8,0:0:0:0:
256,192,215608,1,8,0:0:0:0:
256,192,215709,1,8,0:0:0:0:
256,192,215810,1,0,0:0:0:0:
256,192,215912,1,8,0:0:0:0:
256,192,216013,1,0,0:0:0:0:
256,192,216114,1,0,0:0:0:0:
256,192,216216,1,8,0:0:0:0:
256,192,216418,1,8,0:0:0:0:
256,192,216520,1,0,0:0:0:0:
256,192,216621,1,8,0:0:0:0:
256,192,216723,1,8,0:0:0:0:
256,192,216824,1,0,0:0:0:0:
256,192,216925,1,0,0:0:0:0:
256,192,217027,1,8,0:0:0:0:
256,192,217128,1,0,0:0:0:0:
256,192,217229,1,8,0:0:0:0:
256,192,217331,1,8,0:0:0:0:
256,192,217432,1,0,0:0:0:0:
256,192,217533,1,8,0:0:0:0:
256,192,217635,1,0,0:0:0:0:
256,192,217736,1,0,0:0:0:0:
256,192,217837,1,8,0:0:0:0:
256,192,218040,1,8,0:0:0:0:
256,192,218243,1,0,0:0:0:0:
256,192,218344,1,8,0:0:0:0:
256,192,218445,1,0,0:0:0:0:
256,192,218547,1,0,0:0:0:0:
256,192,218648,1,8,0:0:0:0:
256,192,218851,1,8,0:0:0:0:
256,192,218952,1,0,0:0:0:0:
256,192,219054,1,8,0:0:0:0:
256,192,219155,1,8,0:0:0:0:
256,192,219256,1,0,0:0:0:0:
256,192,219358,1,0,0:0:0:0:
256,192,219459,1,8,0:0:0:0:
256,192,219662,1,8,0:0:0:0:
256,192,219864,1,0,0:0:0:0:
256,192,219966,1,8,0:0:0:0:
256,192,220067,1,0,0:0:0:0:
256,192,220168,1,0,0:0:0:0:
256,192,220270,1,8,0:0:0:0:
256,192,220473,1,0,0:0:0:0:
256,192,220574,1,0,0:0:0:0:
256,192,220675,1,8,0:0:0:0:
256,192,220878,1,0,0:0:0:0:
256,192,220979,1,0,0:0:0:0:
256,192,221081,1,8,0:0:0:0:
256,192,221182,1,0,0:0:0:0:
256,192,221283,1,8,0:0:0:0:
256,192,221385,1,8,0:0:0:0:
256,192,221486,1,4,0:0:0:0:
256,192,221689,1,8,0:0:0:0:
256,192,221790,1,0,0:0:0:0:
256,192,221891,1,8,0:0:0:0:
256,192,222094,1,8,0:0:0:0:
256,192,222195,1,8,0:0:0:0:
256,192,222297,1,0,0:0:0:0:
256,192,222398,1,8,0:0:0:0:
256,192,222500,1,0,0:0:0:0:
256,192,222601,1,0,0:0:0:0:
256,192,222702,1,8,0:0:0:0:
256,192,222905,1,8,0:0:0:0:
256,192,223006,1,0,0:0:0:0:
256,192,223108,1,0,0:0:0:0:
256,192,223209,1,8,0:0:0:0:
256,192,223310,1,8,0:0:0:0:
256,192,223412,1,0,0:0:0:0:
256,192,223513,1,8,0:0:0:0:
256,192,223716,1,0,0:0:0:0:
256,192,223817,1,0,0:0:0:0:
256,192,223918,1,8,0:0:0:0:
256,192,224020,1,8,0:0:0:0:
256,192,224121,1,0,0:0:0:0:
256,192,224223,1,0,0:0:0:0:
256,192,224324,1,8,0:0:0:0:
256,192,224527,1,0,0:0:0:0:
256,192,224729,1,0,0:0:0:0:
256,192,224831,1,8,0:0:0:0:
256,192,224932,1,0,0:0:0:0:
256,192,225033,1,0,0:0:0:0:
256,192,225135,1,8,0:0:0:0:
256,192,225337,1,0,0:0:0:0:
256,192,225540,1,8,0:0:0:0:
256,192,225641,1,8,0:0:0:0:
256,192,225743,1,0,0:0:0:0:
256,192,225844,1,0,0:0:0:0:
256,192,225945,1,8,0:0:0:0:
256,192,226047,1,0,0:0:0:0:
256,192,226148,1,8,0:0:0:0:
256,192,226250,1,8,0:0:0:0:
256,192,226351,1,0,0:0:0:0:
256,192,226554,1,0,0:0:0:0:
256,192,226655,1,8,0:0:0:0:
256,192,226756,1,8,0:0:0:0:
256,192,226858,1,0,0:0:0:0:
256,192,226959,1,8,0:0:0:0:
256,192,227162,1,8,0:0:0:0:
256,192,227263,1,0,0:0:0:0:
256,192,227364,1,0,0:0:0:0:
256,192,227466,1,8,0:0:0:0:
256,192,227567,1,8,0:0:0:0:
256,192,227668,1,0,0:0:0:0:
256,192,227770,1,0,0:0:0:0:
256,192,227871,1,0,0:0:0:0:
256,192,227973,1,12,0:0:0:0:
256,192,228175,1,0,0:0:0:0:
256,192,228277,1,0,0:0:0:0:
256,192,228378,1,8,0:0:0:0:
256,192,228581,1,8,0:0:0:0:
256,192,228682,1,0,0:0:0:0:
256,192,228783,1,8,0:0:0:0:
256,192,228885,1,8,0:0:0:0:
256,192,228986,1,0,0:0:0:0:
256,192,229087,1,0,0:0:0:0:
256,192,229189,1,8,0:0:0:0:
256,192,229391,1,8,0:0:0:0:
256,192,229493,1,0,0:0:0:0:
256,192,229594,1,8,0:0:0:0:
256,192,229695,1,8,0:0:0:0:
256,192,229797,1,0,0:0:0:0:
256,192,229898,1,0,0:0:0:0:
256,192,230000,1,8,0:0:0:0:
256,192,230101,1,0,0:0:0:0:
256,192,230202,1,8,0:0:0:0:
256,192,230304,1,0,0:0:0:0:
256,192,230405,1,8,0:0:0:0:
256,192,230506,1,8,0:0:0:0:
256,192,230608,1,0,0:0:0:0:
256,192,230709,1,0,0:0:0:0:
256,192,230810,1,8,0:0:0:0:
256,192,231013,1,8,0:0:0:0:
256,192,231216,1,0,0:0:0:0:
256,192,231317,1,0,0:0:0:0:
256,192,231418,1,8,0:0:0:0:
256,192,231520,1,0,0:0:0:0:
256,192,231621,1,8,0:0:0:0:
256,192,231723,1,8,0:0:0:0:
256,192,231824,1,0,0:0:0:0:
256,192,232027,1,8,0:0:0:0:
256,192,232128,1,8,0:0:0:0:
256,192,232229,1,0,0:0:0:0:
256,192,232331,1,0,0:0:0:0:
256,192,232432,1,8,0:0:0:0:
256,192,232533,1,0,0:0:0:0:
256,192,232635,1,8,0:0:0:0:
256,192,232736,1,8,0:0:0:0:
256,192,232837,1,4,0:0:0:0:
256,192,233040,1,0,0:0:0:0:
256,192,233141,1,0,0:0:0:0:
256,192,233243,1,8,0:0:0:0:
256,192,233344,1,0,0:0:0:0:
256,192,233445,1,0,0:0:0:0:
256,192,233547,1,0,0:0:0:0:
256,192,233648,1,12,0:0:0:0:
256,192,233851,1,0,0:0:0:0:
256,192,233952,1,8,0:0:0:0:
256,192,234054,1,0,0:0:0:0:
256,192,234155,1,0,0:0:0:0:
256,192,234256,1,8,0:0:0:0:
256,192,234358,1,8,0:0:0:0:
256,192,234459,1,4,0:0:0:0:
256,192,234662,1,0,0:0:0:0:
256,192,234763,1,0,0:0:0:0:
256,192,234864,1,8,0:0:0:0:
256,192,235067,1,8,0:0:0:0:
256,192,235168,1,0,0:0:0:0:
256,192,235270,1,8,0:0:0:0:
256,192,235371,1,0,0:0:0:0:
256,192,235473,1,0,0:0:0:0:
256,192,235574,1,0,0:0:0:0:
256,192,235675,1,8,0:0:0:0:
256,192,235878,1,0,0:0:0:0:
256,192,235979,1,0,0:0:0:0:
256,192,236081,1,12,0:0:0:0:
256,192,236283,1,0,0:0:0:0:
256,192,236385,1,8,0:0:0:0:
256,192,236486,1,8,0:0:0:0:
256,192,236587,1,0,0:0:0:0:
256,192,236689,1,0,0:0:0:0:
256,192,236790,1,8,0:0:0:0:
256,192,236891,1,0,0:0:0:0:
256,192,237094,1,8,0:0:0:0:
256,192,237195,1,0,0:0:0:0:
256,192,237297,1,8,0:0:0:0:
256,192,237398,1,8,0:0:0:0:
256,192,237500,1,0,0:0:0:0:
256,192,237601,1,8,0:0:0:0:
256,192,237702,1,4,0:0:0:0:
256,192,237905,1,0,0:0:0:0:
256,192,238006,1,0,0:0:0:0:
256,192,238108,1,8,0:0:0:0:
256,192,238209,1,8,0:0:0:0:
256,192,238310,1,0,0:0:0:0:
256,192,238412,1,0,0:0:0:0:
256,192,238513,1,12,0:0:0:0:
256,192,238716,1,8,0:0:0:0:
256,192,238817,1,0,0:0:0:0:
256,192,238918,1,8,0:0:0:0:
256,192,239121,1,0,0:0:0:0:
256,192,239223,1,0,0:0:0:0:
256,192,239324,1,12,0:0:0:0:
256,192,239527,1,0,0:0:0:0:
256,192,239628,1,0,0:0:0:0:
256,192,239729,1,8,0:0:0:0:
256,192,239932,1,0,0:0:0:0:
256,192,240135,1,8,0:0:0:0:
256,192,240236,1,8,0:0:0:0:
256,192,240337,1,0,0:0:0:0:
256,192,240439,1,0,0:0:0:0:
256,192,240540,1,8,0:0:0:0:
256,192,240641,1,0,0:0:0:0:
256,192,240743,1,8,0:0:0:0:
256,192,240844,1,8,0:0:0:0:
256,192,240945,1,4,0:0:0:0:
256,192,241250,1,8,0:0:0:0:
256,192,241554,1,0,0:0:0:0:
256,192,241756,1,8,0:0:0:0:
256,192,242060,1,8,0:0:0:0:
256,192,242364,1,0,0:0:0:0:
256,192,242567,1,8,0:0:0:0:
256,192,242770,1,0,0:0:0:0:
256,192,242973,1,8,0:0:0:0:
256,192,243175,1,8,0:0:0:0:
256,192,243378,1,0,0:0:0:0:
256,192,244189,1,4,0:0:0:0:
256,192,244493,1,8,0:0:0:0:
256,192,244797,1,0,0:0:0:0:
256,192,245000,1,8,0:0:0:0:
256,192,245304,1,8,0:0:0:0:
256,192,245608,1,0,0:0:0:0:
256,192,245810,1,8,0:0:0:0:
256,192,246621,1,0,0:0:0:0:
256,192,247027,1,8,0:0:0:0:
256,192,247432,1,4,0:0:0:0:
256,192,247635,1,0,0:0:0:0:
256,192,247736,1,0,0:0:0:0:
256,192,247837,1,8,0:0:0:0:
256,192,248040,1,8,0:0:0:0:
256,192,248141,1,8,0:0:0:0:
256,192,248243,1,0,0:0:0:0:
256,192,248344,1,0,0:0:0:0:
256,192,248445,1,0,0:0:0:0:
256,192,248648,1,8,0:0:0:0:
256,192,248851,1,0,0:0:0:0:
256,192,249054,1,8,0:0:0:0:
256,192,249155,1,0,0:0:0:0:
256,192,249256,1,8,0:0:0:0:
256,192,249358,1,8,0:0:0:0:
256,192,249459,1,0,0:0:0:0:
256,192,249662,1,8,0:0:0:0:
256,192,249864,1,0,0:0:0:0:
256,192,249966,1,8,0:0:0:0:
256,192,250067,1,0,0:0:0:0:
256,192,250168,1,0,0:0:0:0:
256,192,250270,1,8,0:0:0:0:
256,192,250473,1,12,0:0:0:0:
256,192,250675,1,0,0:0:0:0:
256,192,250878,1,0,0:0:0:0:
256,192,250979,1,0,0:0:0:0:
256,192,251081,1,8,0:0:0:0:
256,192,251283,1,8,0:0:0:0:
256,192,251385,1,0,0:0:0:0:
256,192,251486,1,8,0:0:0:0:
256,192,251587,1,8,0:0:0:0:
256,192,251689,1,0,0:0:0:0:
256,192,251790,1,0,0:0:0:0:
256,192,251891,1,8,0:0:0:0:
256,192,252094,1,12,0:0:0:0:
256,192,252297,1,0,0:0:0:0:
256,192,252398,1,0,0:0:0:0:
256,192,252500,1,8,0:0:0:0:
256,192,252601,1,0,0:0:0:0:
256,192,252702,1,8,0:0:0:0:
256,192,252804,1,8,0:0:0:0:
256,192,252905,1,0,0:0:0:0:
256,192,253108,1,12,0:0:0:0:
256,192,253310,1,0,0:0:0:0:
256,192,253412,1,8,0:0:0:0:
256,192,253614,1,8,0:0:0:0:
256,192,253716,1,4,0:0:0:0:
256,192,253918,1,8,0:0:0:0:
256,192,254121,1,0,0:0:0:0:
256,192,254223,1,0,0:0:0:0:
256,192,254324,1,8,0:0:0:0:
256,192,254527,1,0,0:0:0:0:
256,192,254628,1,0,0:0:0:0:
256,192,254729,1,8,0:0:0:0:
256,192,254831,1,8,0:0:0:0:
256,192,254932,1,4,0:0:0:0:
256,192,255135,1,8,0:0:0:0:
256,192,255236,1,8,0:0:0:0:
256,192,255337,1,0,0:0:0:0:
256,192,255439,1,0,0:0:0:0:
256,192,255540,1,12,0:0:0:0:
256,192,255743,1,0,0:0:0:0:
256,192,255844,1,0,0:0:0:0:
256,192,255945,1,8,0:0:0:0:
256,192,256148,1,8,0:0:0:0:
256,192,256351,1,0,0:0:0:0:
256,192,256452,1,8,0:0:0:0:
256,192,256554,1,0,0:0:0:0:
256,192,256655,1,0,0:0:0:0:
256,192,256756,1,8,0:0:0:0:
256,192,256858,1,8,0:0:0:0:
256,192,256959,1,4,0:0:0:0:
256,192,257162,1,0,0:0:0:0:
256,192,257364,1,8,0:0:0:0:
256,192,257466,1,0,0:0:0:0:
256,192,257567,1,8,0:0:0:0:
256,192,257668,1,8,0:0:0:0:
256,192,257770,1,0,0:0:0:0:
256,192,257871,1,8,0:0:0:0:
256,192,257973,1,0,0:0:0:0:
256,192,258074,1,0,0:0:0:0:
256,192,258175,1,12,0:0:0:0:
256,192,258378,1,8,0:0:0:0:
256,192,258479,1,8,0:0:0:0:
256,192,258581,1,0,0:0:0:0:
256,192,258682,1,8,0:0:0:0:
256,192,258783,1,4,0:0:0:0:
256,192,258986,1,8,0:0:0:0:
256,192,259087,1,0,0:0:0:0:
256,192,259189,1,8,0:0:0:0:
256,192,259290,1,8,0:0:0:0:
256,192,259391,1,0,0:0:0:0:
256,192,259493,1,0,0:0:0:0:
256,192,259594,1,12,0:0:0:0:
256,192,259695,8,0,260405,0:0:0:0:
