osu file format v14

[General]
AudioFilename: audio.ogg
AudioLeadIn: 0
PreviewTime: 65658
Countdown: 0
SampleSet: Normal
StackLeniency: 0.7
Mode: 1
LetterboxInBreaks: 0
WidescreenStoryboard: 1

[Editor]
Bookmarks: 885,13857,26830,39803,52776,59263,65749,78722,91695,98182,104668,117641,130614,156560,169533,182506,188993,195479,208452,221425,234398,247371
DistanceSpacing: 0.1
BeatDivisor: 1
GridSize: 4
TimelineZoom: 1.300005

[Metadata]
Title:Witches' Night (ShinRa-Bansho Ver.)
TitleUnicode:Witches' Night (森羅万象 Ver.)
Artist:TAMAONSEN
ArtistUnicode:魂音泉
Creator:paz08
Version:2199's Oni
Source:妖精大戦争 ~ 東方三月精
Tags:video game videogame japanese Shinra Bansho Shinrabansho 東方Project Touhou Project toho Team Shanghai Alice 上海アリス幻樂団 霧雨 魔理沙 霧雨魔理沙 kirisame marisa theme c96 c90 Comiket 96 90 Comic Market メイガスナイト 魔女達の舞踏会 ~ Magus Majotachi no Butoukai ~ Magus Night 12.8 Fairy Wars Yousei Daisensou Sangetsusei Extra stage boss theme ZUN 東方歌ってみた Utattemita Cover Version kaztora かめ kame Hedonist あやぽんず* あよ Ayaponzu* Ayo シンソウダイバー Shinso Diver lily-an Liz Triangle gaston_2199 rap electronic dance music edm
BeatmapID:3459953
BeatmapSetID:1348239

[Difficulty]
HPDrainRate:5
CircleSize:2
OverallDifficulty:5
ApproachRate:10
SliderMultiplier:1.4
SliderTickRate:1

[Events]
//Background and Video events
0,0,"BG.jpg",0,50
//Break Periods
//Storyboard Layer 0 (Background)
//Storyboard Layer 1 (Fail)
//Storyboard Layer 2 (Pass)
//Storyboard Layer 3 (Foreground)
//Storyboard Layer 4 (Overlay)
//Storyboard Sound Samples

[TimingPoints]
946,405.405405405405,4,1,0,50,1,0
946,-125,4,1,0,50,0,0
7422,-125,4,1,0,60,0,0
13901,-111.111111111111,4,1,0,80,0,0
14213,-111.111111111111,4,1,0,70,0,0
20388,-125,4,1,0,80,0,0
20699,-111.111111111111,4,1,0,70,0,0
26881,-100,4,1,0,80,0,0
39854,-105.263157894737,4,1,0,70,0,0
52827,-100,4,1,0,80,0,0
65810,-83.3333333333333,4,1,0,100,0,1
66003,-90.9090909090909,4,1,0,90,0,1
72287,-83.3333333333333,4,1,0,100,0,1
72490,-90.9090909090909,4,1,0,90,0,1
77973,-90.9090909090909,4,1,0,90,0,0
78783,-83.3333333333333,4,1,0,100,0,1
78976,-90.9090909090909,4,1,0,90,0,1
85260,-83.3333333333333,4,1,0,100,0,1
85463,-90.9090909090909,4,1,0,90,0,1
90125,-83.3333333333333,4,1,0,100,0,1
90327,-90.9090909090909,4,1,0,90,0,1
90935,-83.3333333333333,4,1,0,90,0,1
91138,-90.9090909090909,4,1,0,90,0,1
91756,-83.3333333333333,4,1,0,90,0,0
91959,-100,4,1,0,80,0,0
104719,-100,4,1,0,70,0,0
105135,-111.111111111111,4,1,0,70,0,0
117692,-100,4,1,0,80,0,0
130675,-83.3333333333333,4,1,0,100,0,1
130868,-90.9090909090909,4,1,0,90,0,1
137152,-83.3333333333333,4,1,0,100,0,1
137354,-90.9090909090909,4,1,0,90,0,1
142837,-90.9090909090909,4,1,0,90,0,0
143648,-83.3333333333333,4,1,0,100,0,1
143841,-90.9090909090909,4,1,0,90,0,1
150125,-83.3333333333333,4,1,0,100,0,1
150327,-90.9090909090909,4,1,0,90,0,1
154990,-83.3333333333333,4,1,0,100,0,1
155192,-90.9090909090909,4,1,0,90,0,1
155800,-83.3333333333333,4,1,0,90,0,1
156003,-90.9090909090909,4,1,0,90,0,1
156621,-83.3333333333333,4,1,0,90,0,0
156814,-111.111111111111,4,1,0,70,0,0
169584,-100,4,1,0,80,0,0
182557,-95.2380952380952,4,1,0,85,0,0
208513,-83.3333333333333,4,1,0,100,0,1
208706,-90.9090909090909,4,1,0,90,0,1
214990,-83.3333333333333,4,1,0,100,0,1
215192,-90.9090909090909,4,1,0,90,0,1
220675,-90.909090909091,4,1,0,90,0,0
221486,-83.3333333333333,4,1,0,100,0,1
221679,-90.9090909090909,4,1,0,90,0,1
227963,-83.3333333333333,4,1,0,100,0,1
228165,-90.9090909090909,4,1,0,90,0,1
232827,-83.3333333333333,4,1,0,100,0,1
233030,-90.9090909090909,4,1,0,90,0,1
233638,-83.3333333333333,4,1,0,100,0,1
233851,-90.9090909090909,4,1,0,90,0,1
234449,-83.3333333333333,4,1,0,100,0,1
234651,-90.9090909090909,4,1,0,90,0,1
236071,-83.3333333333333,4,1,0,100,0,1
236273,-90.9090909090909,4,1,0,90,0,1
237692,-83.3333333333333,4,1,0,100,0,1
237894,-90.9090909090909,4,1,0,90,0,1
238503,-83.3333333333333,4,1,0,100,0,1
238705,-90.9090909090909,4,1,0,90,0,1
239314,-83.3333333333333,4,1,0,100,0,1
239516,-90.9090909090909,4,1,0,90,0,1
240945,-83.3333333333333,4,1,0,90,0,0
241240,-111.111111111111,4,1,0,70,0,0
244179,-117.647058823529,4,1,0,60,0,0
247017,-111.111111111111,4,1,0,73,0,0
247422,-100,4,1,0,80,0,0
259594,-83.3333333333333,4,1,0,80,0,0

[HitObjects]
256,192,946,5,0,0:0:0:0:
256,192,1554,1,0,0:0:0:0:
256,192,1756,1,8,0:0:0:0:
256,192,2364,1,8,0:0:0:0:
256,192,2567,1,0,0:0:0:0:
256,192,3175,1,8,0:0:0:0:
256,192,3378,1,8,0:0:0:0:
256,192,3581,1,0,0:0:0:0:
256,192,3783,1,0,0:0:0:0:
256,192,4189,1,8,0:0:0:0:
256,192,4797,1,0,0:0:0:0:
256,192,5000,1,8,0:0:0:0:
256,192,5202,1,8,0:0:0:0:
256,192,5405,1,0,0:0:0:0:
256,192,5608,1,0,0:0:0:0:
256,192,5810,1,8,0:0:0:0:
256,192,6418,1,8,0:0:0:0:
256,192,6621,1,0,0:0:0:0:
256,192,7229,1,0,0:0:0:0:
256,192,7432,1,8,0:0:0:0:
256,192,8040,1,0,0:0:0:0:
256,192,8243,1,8,0:0:0:0:
256,192,8851,1,0,0:0:0:0:
256,192,9054,1,8,0:0:0:0:
256,192,9459,1,8,0:0:0:0:
256,192,9662,1,8,0:0:0:0:
256,192,9864,1,0,0:0:0:0:
256,192,10067,1,0,0:0:0:0:
256,192,10270,1,8,0:0:0:0:
256,192,10675,1,0,0:0:0:0:
256,192,11283,1,8,0:0:0:0:
256,192,11486,1,0,0:0:0:0:
256,192,12094,1,0,0:0:0:0:
256,192,12297,1,8,0:0:0:0:
256,192,13108,1,8,0:0:0:0:
256,192,13918,5,4,0:0:0:0:
256,192,14527,1,0,0:0:0:0:
256,192,14729,1,8,0:0:0:0:
256,192,15337,1,8,0:0:0:0:
256,192,15540,1,0,0:0:0:0:
256,192,16148,1,8,0:0:0:0:
256,192,16351,1,8,0:0:0:0:
256,192,16554,1,0,0:0:0:0:
256,192,16756,1,0,0:0:0:0:
256,192,17162,1,8,0:0:0:0:
256,192,17770,1,0,0:0:0:0:
256,192,17973,1,8,0:0:0:0:
256,192,18175,1,8,0:0:0:0:
256,192,18378,1,0,0:0:0:0:
256,192,18581,1,0,0:0:0:0:
256,192,18783,1,8,0:0:0:0:
256,192,19391,1,8,0:0:0:0:
256,192,19594,1,0,0:0:0:0:
256,192,20202,1,0,0:0:0:0:
256,192,20405,1,12,0:0:0:0:
256,192,21013,1,0,0:0:0:0:
256,192,21216,1,8,0:0:0:0:
256,192,21824,1,0,0:0:0:0:
256,192,22027,1,8,0:0:0:0:
256,192,22432,1,8,0:0:0:0:
256,192,22635,1,0,0:0:0:0:
256,192,22837,1,8,0:0:0:0:
256,192,23040,1,8,0:0:0:0:
256,192,23243,1,0,0:0:0:0:
256,192,23648,1,0,0:0:0:0:
256,192,24256,1,8,0:0:0:0:
256,192,24459,1,0,0:0:0:0:
256,192,25067,1,0,0:0:0:0:
256,192,25270,1,8,0:0:0:0:
256,192,26081,1,8,0:0:0:0:
256,192,26486,1,8,0:0:0:0:
256,192,26891,1,4,0:0:0:0:
256,192,27297,1,8,0:0:0:0:
256,192,27500,1,0,0:0:0:0:
256,192,27601,1,8,0:0:0:0:
256,192,27702,1,0,0:0:0:0:
256,192,27905,1,0,0:0:0:0:
256,192,28108,1,8,0:0:0:0:
256,192,28310,1,8,0:0:0:0:
256,192,28513,1,0,0:0:0:0:
256,192,28716,1,0,0:0:0:0:
256,192,28817,1,0,0:0:0:0:
256,192,28918,1,8,0:0:0:0:
256,192,29121,1,0,0:0:0:0:
256,192,29324,1,8,0:0:0:0:
256,192,29425,1,0,0:0:0:0:
256,192,29527,1,0,0:0:0:0:
256,192,29628,1,0,0:0:0:0:
256,192,29729,1,8,0:0:0:0:
256,192,29932,1,8,0:0:0:0:
256,192,30135,1,4,0:0:0:0:
256,192,30540,1,8,0:0:0:0:
256,192,30945,1,0,0:0:0:0:
256,192,31148,1,0,0:0:0:0:
256,192,31351,1,8,0:0:0:0:
256,192,31452,1,0,0:0:0:0:
256,192,31655,1,0,0:0:0:0:
256,192,31756,1,8,0:0:0:0:
256,192,31959,1,0,0:0:0:0:
256,192,32162,1,8,0:0:0:0:
256,192,32263,1,8,0:0:0:0:
256,192,32364,1,0,0:0:0:0:
256,192,32567,1,8,0:0:0:0:
256,192,32770,1,0,0:0:0:0:
256,192,32973,1,8,0:0:0:0:
256,192,33175,1,8,0:0:0:0:
256,192,33378,1,4,0:0:0:0:
256,192,33581,1,8,0:0:0:0:
256,192,33682,1,0,0:0:0:0:
256,192,33885,1,0,0:0:0:0:
256,192,33986,1,8,0:0:0:0:
256,192,34189,1,8,0:0:0:0:
256,192,34391,1,0,0:0:0:0:
256,192,34797,1,8,0:0:0:0:
256,192,35000,1,0,0:0:0:0:
256,192,35202,1,8,0:0:0:0:
256,192,35304,1,0,0:0:0:0:
256,192,35506,1,8,0:0:0:0:
256,192,35608,1,8,0:0:0:0:
256,192,35810,1,0,0:0:0:0:
256,192,36013,1,0,0:0:0:0:
256,192,36216,1,8,0:0:0:0:
256,192,36418,1,8,0:0:0:0:
256,192,36621,1,4,0:0:0:0:
256,192,37027,1,8,0:0:0:0:
256,192,37432,1,0,0:0:0:0:
256,192,37635,1,0,0:0:0:0:
256,192,37837,1,8,0:0:0:0:
256,192,37939,1,0,0:0:0:0:
256,192,38141,1,0,0:0:0:0:
256,192,38243,1,8,0:0:0:0:
256,192,38445,1,0,0:0:0:0:
256,192,38648,1,8,0:0:0:0:
256,192,38750,1,8,0:0:0:0:
256,192,38851,1,0,0:0:0:0:
256,192,38952,1,0,0:0:0:0:
256,192,39054,1,8,0:0:0:0:
256,192,39256,1,0,0:0:0:0:
256,192,39459,1,8,0:0:0:0:
256,192,39864,1,8,0:0:0:0:
256,192,40067,1,0,0:0:0:0:
256,192,40270,1,8,0:0:0:0:
256,192,40371,1,8,0:0:0:0:
256,192,40574,1,8,0:0:0:0:
256,192,40675,1,0,0:0:0:0:
256,192,40878,1,8,0:0:0:0:
256,192,41081,1,0,0:0:0:0:
256,192,41283,1,0,0:0:0:0:
256,192,41385,1,0,0:0:0:0:
256,192,41486,1,8,0:0:0:0:
256,192,41587,1,8,0:0:0:0:
256,192,41689,1,0,0:0:0:0:
256,192,41891,1,8,0:0:0:0:
256,192,42094,1,8,0:0:0:0:
256,192,42195,1,0,0:0:0:0:
256,192,42297,1,8,0:0:0:0:
256,192,42500,1,0,0:0:0:0:
256,192,42702,1,8,0:0:0:0:
256,192,43108,1,0,0:0:0:0:
256,192,43310,1,8,0:0:0:0:
256,192,43513,1,0,0:0:0:0:
256,192,43716,1,0,0:0:0:0:
256,192,43817,1,0,0:0:0:0:
256,192,43918,1,8,0:0:0:0:
256,192,44121,1,8,0:0:0:0:
256,192,44223,1,0,0:0:0:0:
256,192,44324,1,8,0:0:0:0:
256,192,44527,1,0,0:0:0:0:
256,192,44729,1,8,0:0:0:0:
256,192,44932,1,0,0:0:0:0:
256,192,45135,1,8,0:0:0:0:
151,57,45236,1,0,0:0:0:0:
256,192,45337,1,0,0:0:0:0:
256,192,45540,1,8,0:0:0:0:
256,192,45743,1,0,0:0:0:0:
256,192,45844,1,0,0:0:0:0:
256,192,45945,1,8,0:0:0:0:
256,192,46351,1,0,0:0:0:0:
256,192,46554,1,8,0:0:0:0:
256,192,46756,1,8,0:0:0:0:
256,192,46858,1,0,0:0:0:0:
256,192,46959,1,0,0:0:0:0:
256,192,47162,1,8,0:0:0:0:
256,192,47364,1,0,0:0:0:0:
256,192,47466,1,8,0:0:0:0:
256,192,47770,1,8,0:0:0:0:
256,192,47973,1,0,0:0:0:0:
256,192,48175,1,8,0:0:0:0:
256,192,48378,1,8,0:0:0:0:
256,192,48479,1,8,0:0:0:0:
256,192,48581,1,0,0:0:0:0:
256,192,48783,1,8,0:0:0:0:
256,192,48986,1,0,0:0:0:0:
256,192,49087,1,8,0:0:0:0:
186,48,49391,1,8,0:0:0:0:
256,192,49594,1,0,0:0:0:0:
256,192,49797,1,0,0:0:0:0:
256,192,49898,1,0,0:0:0:0:
256,192,50000,1,8,0:0:0:0:
256,192,50202,1,8,0:0:0:0:
256,192,50405,1,0,0:0:0:0:
256,192,50608,1,8,0:0:0:0:
256,192,50709,1,0,0:0:0:0:
256,192,50912,1,0,0:0:0:0:
256,192,51013,1,8,0:0:0:0:
256,192,51216,1,0,0:0:0:0:
256,192,51418,1,8,0:0:0:0:
256,192,51621,1,0,0:0:0:0:
256,192,51723,1,0,0:0:0:0:
256,192,51824,1,0,0:0:0:0:
256,192,51925,1,8,0:0:0:0:
256,192,52128,1,0,0:0:0:0:
256,192,52229,1,8,0:0:0:0:
256,192,52432,1,8,0:0:0:0:
256,192,52837,1,4,0:0:0:0:
256,192,53040,1,8,0:0:0:0:
256,192,53243,1,0,0:0:0:0:
256,192,53445,1,8,0:0:0:0:
256,192,53547,1,0,0:0:0:0:
256,192,53648,1,8,0:0:0:0:
256,192,53750,1,8,0:0:0:0:
256,192,53851,1,0,0:0:0:0:
256,192,54054,1,8,0:0:0:0:
256,192,54256,1,8,0:0:0:0:
256,192,54459,1,0,0:0:0:0:
256,192,54662,1,0,0:0:0:0:
256,192,54763,1,0,0:0:0:0:
256,192,54864,1,8,0:0:0:0:
256,192,55067,1,0,0:0:0:0:
256,192,55270,1,8,0:0:0:0:
256,192,55473,1,8,0:0:0:0:
256,192,55574,1,8,0:0:0:0:
256,192,55675,1,0,0:0:0:0:
256,192,55878,1,8,0:0:0:0:
256,192,56081,1,0,0:0:0:0:
256,192,56283,1,8,0:0:0:0:
256,192,56486,1,8,0:0:0:0:
265,166,56587,1,0,0:0:0:0:
256,192,56689,1,0,0:0:0:0:
256,192,56790,1,8,0:0:0:0:
256,192,56993,1,8,0:0:0:0:
256,192,57094,1,0,0:0:0:0:
256,192,57297,1,8,0:0:0:0:
256,192,57500,1,0,0:0:0:0:
224,160,57702,1,8,0:0:0:0:
224,160,58108,1,0,0:0:0:0:
224,160,58209,1,8,0:0:0:0:
224,160,58310,1,8,0:0:0:0:
224,160,58412,1,0,0:0:0:0:
224,160,58614,1,8,0:0:0:0:
224,160,58716,1,0,0:0:0:0:
224,160,58918,1,8,0:0:0:0:
224,160,59324,1,0,0:0:0:0:
224,160,59527,1,8,0:0:0:0:
224,160,59729,1,8,0:0:0:0:
224,160,59831,1,0,0:0:0:0:
224,160,60033,1,8,0:0:0:0:
224,160,60236,1,0,0:0:0:0:
224,160,60337,1,8,0:0:0:0:
224,160,60540,1,0,0:0:0:0:
224,160,60743,1,8,0:0:0:0:
224,160,60945,1,0,0:0:0:0:
224,160,61148,1,8,0:0:0:0:
224,160,61351,1,8,0:0:0:0:
224,160,61452,1,0,0:0:0:0:
224,160,61554,1,0,0:0:0:0:
224,160,61655,1,8,0:0:0:0:
224,160,61858,1,0,0:0:0:0:
224,160,61959,1,0,0:0:0:0:
224,160,62162,1,8,0:0:0:0:
224,160,62567,1,0,0:0:0:0:
224,160,62770,1,8,0:0:0:0:
224,160,62871,1,0,0:0:0:0:
224,160,63175,1,8,0:0:0:0:
224,160,63378,1,0,0:0:0:0:
224,160,63581,1,8,0:0:0:0:
224,160,63682,1,0,0:0:0:0:
224,160,63986,1,8,0:0:0:0:
224,160,64087,1,8,0:0:0:0:
224,160,64189,1,0,0:0:0:0:
228,99,64290,1,0,0:0:0:0:
224,160,64391,1,8,0:0:0:0:
224,160,64594,1,0,0:0:0:0:
224,160,64695,1,8,0:0:0:0:
224,160,64797,1,0,0:0:0:0:
224,160,65000,1,8,0:0:0:0:
224,160,65202,1,0,0:0:0:0:
224,160,65405,1,8,0:0:0:0:
224,160,65810,1,4,0:0:0:0:
224,160,66114,1,0,0:0:0:0:
224,160,66216,1,8,0:0:0:0:
224,160,66418,1,0,0:0:0:0:
224,160,66621,1,8,0:0:0:0:
224,160,66824,1,0,0:0:0:0:
256,160,66925,1,0,0:0:0:0:
224,160,67027,1,8,0:0:0:0:
224,160,67229,1,0,0:0:0:0:
224,160,67432,1,8,0:0:0:0:
224,160,67533,1,0,0:0:0:0:
224,160,67736,1,0,0:0:0:0:
224,160,67837,1,8,0:0:0:0:
224,160,68040,1,0,0:0:0:0:
224,160,68141,1,0,0:0:0:0:
224,160,68243,1,8,0:0:0:0:
224,160,68445,1,0,0:0:0:0:
224,160,68648,1,8,0:0:0:0:
224,160,69054,1,8,0:0:0:0:
224,160,69155,1,0,0:0:0:0:
224,160,69358,1,0,0:0:0:0:
224,160,69459,1,8,0:0:0:0:
224,160,69662,1,8,0:0:0:0:
224,160,69763,1,0,0:0:0:0:
224,160,69864,1,8,0:0:0:0:
224,160,70067,1,0,0:0:0:0:
224,160,70270,1,8,0:0:0:0:
224,160,70473,1,8,0:0:0:0:
224,160,70675,1,0,0:0:0:0:
224,160,70878,1,0,0:0:0:0:
224,160,70979,1,8,0:0:0:0:
224,160,71081,1,0,0:0:0:0:
224,160,71283,1,8,0:0:0:0:
224,160,71486,1,8,0:0:0:0:
224,160,71587,1,8,0:0:0:0:
224,160,71689,1,0,0:0:0:0:
224,160,71790,1,0,0:0:0:0:
224,160,71891,1,8,0:0:0:0:
224,160,72297,1,4,0:0:0:0:
224,160,72601,1,0,0:0:0:0:
224,160,72702,1,8,0:0:0:0:
224,160,72905,1,0,0:0:0:0:
224,160,73108,1,8,0:0:0:0:
150,67,73209,1,0,0:0:0:0:
224,160,73412,1,0,0:0:0:0:
224,160,73513,1,8,0:0:0:0:
224,160,73716,1,8,0:0:0:0:
224,160,73918,1,0,0:0:0:0:
224,160,74121,1,0,0:0:0:0:
224,160,74324,1,8,0:0:0:0:
224,160,74527,1,0,0:0:0:0:
224,160,74628,1,0,0:0:0:0:
224,160,74729,1,8,0:0:0:0:
224,160,74932,1,0,0:0:0:0:
224,160,75135,1,8,0:0:0:0:
224,160,75236,1,0,0:0:0:0:
224,160,75337,1,8,0:0:0:0:
224,160,75540,1,0,0:0:0:0:
224,160,75844,1,0,0:0:0:0:
211,120,75945,1,8,0:0:0:0:
224,160,76148,1,0,0:0:0:0:
224,160,76351,1,8,0:0:0:0:
211,120,76554,1,0,0:0:0:0:
224,160,76655,1,0,0:0:0:0:
211,120,76756,1,8,0:0:0:0:
224,160,76959,1,0,0:0:0:0:
224,160,77162,1,8,0:0:0:0:
224,160,77263,1,8,0:0:0:0:
224,160,77364,1,0,0:0:0:0:
224,160,77466,1,0,0:0:0:0:
224,160,77567,1,8,0:0:0:0:
224,160,77770,1,8,0:0:0:0:
224,160,77973,1,0,0:0:0:0:
224,160,78378,1,8,0:0:0:0:
224,160,78479,1,8,0:0:0:0:
224,160,78581,1,8,0:0:0:0:
224,160,78783,1,4,0:0:0:0:
224,160,79087,1,0,0:0:0:0:
224,160,79189,1,8,0:0:0:0:
224,160,79391,1,0,0:0:0:0:
224,160,79594,1,8,0:0:0:0:
224,160,79695,1,8,0:0:0:0:
224,160,79797,1,0,0:0:0:0:
224,160,80000,1,8,0:0:0:0:
224,160,80202,1,0,0:0:0:0:
224,160,80405,1,8,0:0:0:0:
224,160,80506,1,0,0:0:0:0:
224,160,80709,1,0,0:0:0:0:
224,160,80810,1,8,0:0:0:0:
224,160,81013,1,8,0:0:0:0:
224,160,81114,1,0,0:0:0:0:
224,160,81216,1,8,0:0:0:0:
224,160,81418,1,0,0:0:0:0:
224,160,81621,1,8,0:0:0:0:
224,160,82027,1,8,0:0:0:0:
224,160,82128,1,8,0:0:0:0:
224,160,82331,1,0,0:0:0:0:
224,160,82432,1,8,0:0:0:0:
224,160,82635,1,0,0:0:0:0:
224,160,82736,1,0,0:0:0:0:
224,160,82837,1,8,0:0:0:0:
224,160,83040,1,0,0:0:0:0:
224,160,83243,1,8,0:0:0:0:
224,160,83445,1,8,0:0:0:0:
224,160,83648,1,0,0:0:0:0:
224,160,83851,1,0,0:0:0:0:
224,160,83952,1,8,0:0:0:0:
224,160,84054,1,0,0:0:0:0:
224,160,84256,1,8,0:0:0:0:
224,160,84459,1,8,0:0:0:0:
224,160,84560,1,0,0:0:0:0:
224,160,84662,1,0,0:0:0:0:
224,160,84763,1,0,0:0:0:0:
224,160,84864,1,8,0:0:0:0:
224,160,85270,1,4,0:0:0:0:
224,160,85574,1,0,0:0:0:0:
224,160,85675,1,8,0:0:0:0:
224,160,85878,1,0,0:0:0:0:
224,160,86081,1,8,0:0:0:0:
239,150,86182,1,0,0:0:0:0:
224,160,86385,1,8,0:0:0:0:
224,160,86486,1,8,0:0:0:0:
224,160,86689,1,0,0:0:0:0:
224,160,86891,1,8,0:0:0:0:
224,160,87094,1,8,0:0:0:0:
224,160,87297,1,0,0:0:0:0:
224,160,87398,1,0,0:0:0:0:
224,160,87500,1,8,0:0:0:0:
224,160,87702,1,0,0:0:0:0:
224,160,87905,1,0,0:0:0:0:
224,160,88108,1,8,0:0:0:0:
224,160,88209,1,0,0:0:0:0:
224,160,88310,1,8,0:0:0:0:
224,160,88513,1,0,0:0:0:0:
224,160,88817,1,0,0:0:0:0:
239,150,88918,1,8,0:0:0:0:
224,160,89121,1,0,0:0:0:0:
224,160,89324,1,8,0:0:0:0:
228,121,89527,1,0,0:0:0:0:
224,160,89628,1,0,0:0:0:0:
228,121,89729,1,8,0:0:0:0:
224,160,89932,1,0,0:0:0:0:
224,160,90135,1,12,0:0:0:0:
222,132,90337,1,0,0:0:0:0:
224,96,90439,1,0,0:0:0:0:
224,160,90540,1,8,0:0:0:0:
224,160,90743,1,8,0:0:0:0:
224,160,90945,1,4,0:0:0:0:
224,160,91351,1,0,0:0:0:0:
224,160,91452,1,0,0:0:0:0:
224,160,91554,1,0,0:0:0:0:
224,160,91756,1,12,0:0:0:0:
224,160,92162,1,8,0:0:0:0:
224,160,92364,1,0,0:0:0:0:
224,160,92567,1,8,0:0:0:0:
224,128,92668,1,0,0:0:0:0:
224,160,92770,1,8,0:0:0:0:
224,160,92973,1,0,0:0:0:0:
224,160,93378,1,0,0:0:0:0:
224,160,93581,1,0,0:0:0:0:
224,160,93783,1,8,0:0:0:0:
224,160,93986,1,8,0:0:0:0:
224,160,94189,1,0,0:0:0:0:
224,160,94290,1,0,0:0:0:0:
224,160,94391,1,0,0:0:0:0:
224,160,94594,1,8,0:0:0:0:
224,160,94797,1,4,0:0:0:0:
128,0,95202,1,0,0:0:0:0:
160,64,95405,1,8,0:0:0:0:
160,160,95608,1,0,0:0:0:0:
160,64,95709,1,0,0:0:0:0:
160,160,95810,1,8,0:0:0:0:
160,160,96013,1,0,0:0:0:0:
160,160,96216,1,8,0:0:0:0:
160,160,96317,1,8,0:0:0:0:
160,160,96418,1,8,0:0:0:0:
160,160,96621,1,0,0:0:0:0:
160,160,96824,1,0,0:0:0:0:
160,160,97027,1,8,0:0:0:0:
160,160,97229,1,8,0:0:0:0:
160,160,97331,1,0,0:0:0:0:
160,160,97432,1,8,0:0:0:0:
160,160,97635,1,0,0:0:0:0:
160,160,97837,1,8,0:0:0:0:
160,160,98040,1,8,0:0:0:0:
160,160,98243,1,4,0:0:0:0:
262,73,98445,1,8,0:0:0:0:
160,160,98547,1,0,0:0:0:0:
165,154,98750,1,8,0:0:0:0:
160,160,98851,1,0,0:0:0:0:
160,160,98952,1,0,0:0:0:0:
160,160,99054,1,8,0:0:0:0:
160,160,99256,1,4,0:0:0:0:
160,160,99459,1,8,0:0:0:0:
160,160,99864,1,12,0:0:0:0:
160,160,100067,1,8,0:0:0:0:
160,160,100270,1,0,0:0:0:0:
160,160,100473,1,0,0:0:0:0:
160,160,100574,1,0,0:0:0:0:
160,160,100675,1,8,0:0:0:0:
160,160,100878,1,0,0:0:0:0:
160,160,101081,1,8,0:0:0:0:
160,160,101283,1,4,0:0:0:0:
160,160,101689,1,0,0:0:0:0:
160,160,101790,1,8,0:0:0:0:
160,160,101891,1,0,0:0:0:0:
160,160,102094,1,8,0:0:0:0:
160,160,102297,1,8,0:0:0:0:
160,160,102500,1,4,0:0:0:0:
256,128,102702,1,8,0:0:0:0:
160,160,102804,1,0,0:0:0:0:
256,128,102905,1,0,0:0:0:0:
160,160,103108,1,12,0:0:0:0:
160,160,103310,1,0,0:0:0:0:
160,160,103513,1,8,0:0:0:0:
229,105,103614,1,8,0:0:0:0:
245,106,103716,1,0,0:0:0:0:
160,160,103918,1,12,0:0:0:0:
160,160,104324,1,8,0:0:0:0:
160,160,104425,1,8,0:0:0:0:
160,160,104527,1,8,0:0:0:0:
160,160,104729,1,0,0:0:0:0:
192,160,105540,1,8,0:0:0:0:
192,160,105945,1,8,0:0:0:0:
224,160,106351,1,0,0:0:0:0:
256,160,107162,1,8,0:0:0:0:
256,160,107567,1,8,0:0:0:0:
256,160,107973,1,0,0:0:0:0:
256,160,108783,1,8,0:0:0:0:
256,160,109189,1,8,0:0:0:0:
256,160,109594,1,0,0:0:0:0:
256,160,109797,1,0,0:0:0:0:
256,160,110000,1,8,0:0:0:0:
256,160,110202,1,8,0:0:0:0:
256,160,111216,1,0,0:0:0:0:
256,160,112027,5,8,0:0:0:0:
256,160,112432,1,8,0:0:0:0:
256,160,112837,1,0,0:0:0:0:
256,160,113648,1,8,0:0:0:0:
256,160,114054,1,8,0:0:0:0:
256,160,114459,1,0,0:0:0:0:
256,160,115067,1,0,0:0:0:0:
256,160,115270,1,8,0:0:0:0:
256,160,115675,1,8,0:0:0:0:
256,160,116081,1,0,0:0:0:0:
256,160,116486,1,0,0:0:0:0:
256,160,116891,1,8,0:0:0:0:
256,128,117702,1,4,0:0:0:0:
256,128,117905,1,0,0:0:0:0:
256,128,118108,1,8,0:0:0:0:
256,128,118209,1,8,0:0:0:0:
256,128,118310,1,0,0:0:0:0:
256,128,118513,1,8,0:0:0:0:
256,128,118716,1,0,0:0:0:0:
256,128,118918,1,8,0:0:0:0:
256,128,119121,1,0,0:0:0:0:
256,128,119223,1,0,0:0:0:0:
256,128,119324,1,8,0:0:0:0:
256,128,119527,1,0,0:0:0:0:
256,128,119729,1,8,0:0:0:0:
256,128,119932,1,0,0:0:0:0:
256,128,120135,1,8,0:0:0:0:
256,128,120236,1,0,0:0:0:0:
256,128,120337,1,8,0:0:0:0:
256,128,120439,1,0,0:0:0:0:
256,128,120540,1,8,0:0:0:0:
256,128,120945,1,8,0:0:0:0:
256,128,121047,1,0,0:0:0:0:
256,128,121250,1,0,0:0:0:0:
256,128,121351,1,8,0:0:0:0:
256,128,121554,1,0,0:0:0:0:
256,128,121756,1,8,0:0:0:0:
256,128,121858,1,8,0:0:0:0:
256,128,121959,1,0,0:0:0:0:
256,128,122162,1,8,0:0:0:0:
256,128,122364,1,0,0:0:0:0:
256,128,122466,1,8,0:0:0:0:
256,128,122567,1,0,0:0:0:0:
256,128,122770,1,0,0:0:0:0:
256,128,122973,1,8,0:0:0:0:
256,128,123175,1,0,0:0:0:0:
256,128,123277,1,0,0:0:0:0:
256,128,123378,1,8,0:0:0:0:
256,128,123479,1,8,0:0:0:0:
256,128,123581,1,0,0:0:0:0:
256,128,123783,1,8,0:0:0:0:
256,128,124189,1,8,0:0:0:0:
256,128,124391,1,0,0:0:0:0:
256,128,124493,1,0,0:0:0:0:
256,128,124594,1,8,0:0:0:0:
256,128,124797,1,0,0:0:0:0:
256,128,125000,1,8,0:0:0:0:
256,128,125101,1,0,0:0:0:0:
256,128,125202,1,0,0:0:0:0:
256,128,125405,1,8,0:0:0:0:
256,128,125608,1,0,0:0:0:0:
256,128,125810,1,8,0:0:0:0:
256,128,125912,1,8,0:0:0:0:
256,128,126013,1,0,0:0:0:0:
256,128,126216,1,8,0:0:0:0:
256,128,126418,1,0,0:0:0:0:
256,128,126520,1,0,0:0:0:0:
256,128,126621,1,8,0:0:0:0:
256,128,126723,1,0,0:0:0:0:
256,128,126824,1,0,0:0:0:0:
256,128,127027,1,8,0:0:0:0:
256,128,127432,1,8,0:0:0:0:
256,128,127635,1,0,0:0:0:0:
256,128,127837,1,8,0:0:0:0:
256,128,128040,1,0,0:0:0:0:
256,128,128141,1,8,0:0:0:0:
256,128,128243,1,0,0:0:0:0:
256,128,128445,1,0,0:0:0:0:
256,128,128648,1,8,0:0:0:0:
256,128,128851,1,0,0:0:0:0:
256,128,128952,1,0,0:0:0:0:
256,128,129054,1,8,0:0:0:0:
256,128,129155,1,8,0:0:0:0:
256,128,129256,1,0,0:0:0:0:
256,128,129459,1,8,0:0:0:0:
256,128,129662,1,0,0:0:0:0:
256,128,129864,1,8,0:0:0:0:
256,128,130270,1,8,0:0:0:0:
224,160,130675,1,4,0:0:0:0:
224,160,130979,1,0,0:0:0:0:
224,160,131081,1,8,0:0:0:0:
224,160,131283,1,0,0:0:0:0:
224,160,131486,1,8,0:0:0:0:
224,160,131689,1,0,0:0:0:0:
256,160,131790,1,0,0:0:0:0:
224,160,131891,1,8,0:0:0:0:
224,160,132094,1,0,0:0:0:0:
224,160,132297,1,8,0:0:0:0:
224,160,132398,1,0,0:0:0:0:
224,160,132601,1,0,0:0:0:0:
224,160,132702,1,8,0:0:0:0:
224,160,132905,1,0,0:0:0:0:
224,160,133006,1,0,0:0:0:0:
224,160,133108,1,8,0:0:0:0:
224,160,133310,1,0,0:0:0:0:
224,160,133513,1,8,0:0:0:0:
224,160,133918,1,8,0:0:0:0:
224,160,134020,1,0,0:0:0:0:
224,160,134223,1,0,0:0:0:0:
224,160,134324,1,8,0:0:0:0:
224,160,134527,1,8,0:0:0:0:
224,160,134628,1,0,0:0:0:0:
224,160,134729,1,8,0:0:0:0:
224,160,134932,1,0,0:0:0:0:
224,160,135135,1,8,0:0:0:0:
224,160,135337,1,8,0:0:0:0:
224,160,135540,1,0,0:0:0:0:
224,160,135743,1,0,0:0:0:0:
224,160,135844,1,8,0:0:0:0:
224,160,135945,1,0,0:0:0:0:
224,160,136148,1,8,0:0:0:0:
224,160,136351,1,8,0:0:0:0:
224,160,136452,1,8,0:0:0:0:
224,160,136554,1,0,0:0:0:0:
224,160,136655,1,0,0:0:0:0:
224,160,136756,1,8,0:0:0:0:
224,160,137162,1,4,0:0:0:0:
224,160,137466,1,0,0:0:0:0:
224,160,137567,1,8,0:0:0:0:
224,160,137770,1,0,0:0:0:0:
224,160,137973,1,8,0:0:0:0:
150,67,138074,1,0,0:0:0:0:
224,160,138277,1,0,0:0:0:0:
224,160,138378,1,8,0:0:0:0:
224,160,138581,1,8,0:0:0:0:
224,160,138783,1,0,0:0:0:0:
224,160,138986,1,0,0:0:0:0:
224,160,139189,1,8,0:0:0:0:
224,160,139391,1,0,0:0:0:0:
224,160,139493,1,0,0:0:0:0:
224,160,139594,1,8,0:0:0:0:
224,160,139797,1,0,0:0:0:0:
224,160,140000,1,8,0:0:0:0:
224,160,140101,1,0,0:0:0:0:
224,160,140202,1,8,0:0:0:0:
224,160,140405,1,0,0:0:0:0:
224,160,140709,1,0,0:0:0:0:
211,120,140810,1,8,0:0:0:0:
224,160,141013,1,0,0:0:0:0:
224,160,141216,1,8,0:0:0:0:
211,120,141418,1,0,0:0:0:0:
224,160,141520,1,0,0:0:0:0:
211,120,141621,1,8,0:0:0:0:
224,160,141824,1,0,0:0:0:0:
224,160,142027,1,8,0:0:0:0:
224,160,142128,1,8,0:0:0:0:
224,160,142229,1,0,0:0:0:0:
224,160,142331,1,0,0:0:0:0:
224,160,142432,1,8,0:0:0:0:
224,160,142635,1,8,0:0:0:0:
224,160,142837,1,0,0:0:0:0:
224,160,143243,1,8,0:0:0:0:
224,160,143344,1,8,0:0:0:0:
224,160,143445,1,8,0:0:0:0:
224,160,143648,1,4,0:0:0:0:
224,160,143952,1,0,0:0:0:0:
224,160,144054,1,8,0:0:0:0:
224,160,144256,1,0,0:0:0:0:
224,160,144459,1,8,0:0:0:0:
224,160,144560,1,8,0:0:0:0:
224,160,144662,1,0,0:0:0:0:
224,160,144864,1,8,0:0:0:0:
224,160,145067,1,0,0:0:0:0:
224,160,145270,1,8,0:0:0:0:
224,160,145371,1,0,0:0:0:0:
224,160,145574,1,0,0:0:0:0:
224,160,145675,1,8,0:0:0:0:
224,160,145878,1,8,0:0:0:0:
224,160,145979,1,0,0:0:0:0:
224,160,146081,1,8,0:0:0:0:
224,160,146283,1,0,0:0:0:0:
224,160,146486,1,8,0:0:0:0:
224,160,146891,1,8,0:0:0:0:
224,160,146993,1,8,0:0:0:0:
224,160,147195,1,0,0:0:0:0:
224,160,147297,1,8,0:0:0:0:
224,160,147500,1,0,0:0:0:0:
224,160,147601,1,0,0:0:0:0:
224,160,147702,1,8,0:0:0:0:
224,160,147905,1,0,0:0:0:0:
224,160,148108,1,8,0:0:0:0:
224,160,148310,1,8,0:0:0:0:
224,160,148513,1,0,0:0:0:0:
224,160,148716,1,0,0:0:0:0:
224,160,148817,1,8,0:0:0:0:
224,160,148918,1,0,0:0:0:0:
224,160,149121,1,8,0:0:0:0:
224,160,149324,1,8,0:0:0:0:
224,160,149425,1,0,0:0:0:0:
224,160,149527,1,0,0:0:0:0:
224,160,149628,1,0,0:0:0:0:
224,160,149729,1,8,0:0:0:0:
224,160,150135,1,4,0:0:0:0:
224,160,150439,1,0,0:0:0:0:
224,160,150540,1,8,0:0:0:0:
224,160,150743,1,0,0:0:0:0:
224,160,150945,1,8,0:0:0:0:
239,150,151047,1,0,0:0:0:0:
224,160,151250,1,8,0:0:0:0:
224,160,151351,1,8,0:0:0:0:
224,160,151554,1,0,0:0:0:0:
224,160,151756,1,8,0:0:0:0:
224,160,151959,1,8,0:0:0:0:
224,160,152162,1,0,0:0:0:0:
224,160,152263,1,0,0:0:0:0:
224,160,152364,1,8,0:0:0:0:
224,160,152567,1,0,0:0:0:0:
224,160,152770,1,0,0:0:0:0:
224,160,152973,1,8,0:0:0:0:
224,160,153074,1,0,0:0:0:0:
224,160,153175,1,8,0:0:0:0:
224,160,153378,1,0,0:0:0:0:
224,160,153682,1,0,0:0:0:0:
239,150,153783,1,8,0:0:0:0:
224,160,153986,1,0,0:0:0:0:
224,160,154189,1,8,0:0:0:0:
228,121,154391,1,0,0:0:0:0:
224,160,154493,1,0,0:0:0:0:
228,121,154594,1,8,0:0:0:0:
224,160,154797,1,0,0:0:0:0:
224,160,155000,1,12,0:0:0:0:
222,132,155202,1,0,0:0:0:0:
224,96,155304,1,0,0:0:0:0:
224,160,155405,1,8,0:0:0:0:
224,160,155608,1,8,0:0:0:0:
224,160,155810,1,4,0:0:0:0:
224,160,156216,1,0,0:0:0:0:
224,160,156317,1,0,0:0:0:0:
224,160,156418,1,0,0:0:0:0:
224,160,156621,5,12,0:0:0:0:
256,192,157027,5,0,0:0:0:0:
256,192,157229,1,0,0:0:0:0:
256,192,157432,1,8,0:0:0:0:
256,192,157635,1,8,0:0:0:0:
256,192,157837,1,0,0:0:0:0:
256,192,158040,1,0,0:0:0:0:
256,192,158243,1,8,0:0:0:0:
256,192,158648,1,8,0:0:0:0:
256,192,158851,1,8,0:0:0:0:
256,192,159054,1,0,0:0:0:0:
256,192,159459,1,0,0:0:0:0:
256,192,159662,1,8,0:0:0:0:
256,192,159864,1,0,0:0:0:0:
256,192,160270,1,8,0:0:0:0:
256,192,160473,1,0,0:0:0:0:
256,192,160675,1,8,0:0:0:0:
256,192,161081,1,0,0:0:0:0:
256,192,161283,1,0,0:0:0:0:
256,192,161486,1,8,0:0:0:0:
256,192,161891,1,8,0:0:0:0:
256,192,162094,1,8,0:0:0:0:
256,192,162297,1,0,0:0:0:0:
256,192,163108,1,8,0:0:0:0:
240,157,163412,1,0,0:0:0:0:
256,192,163716,1,8,0:0:0:0:
256,192,163918,1,8,0:0:0:0:
240,157,164223,1,0,0:0:0:0:
256,192,164527,1,8,0:0:0:0:
256,192,164729,1,8,0:0:0:0:
256,192,165033,1,0,0:0:0:0:
256,192,165337,1,0,0:0:0:0:
256,192,165540,1,8,0:0:0:0:
256,192,166351,1,8,0:0:0:0:
256,192,166655,1,8,0:0:0:0:
256,192,166959,1,0,0:0:0:0:
256,192,167162,1,8,0:0:0:0:
256,192,167567,1,8,0:0:0:0:
256,192,167770,1,8,0:0:0:0:
256,192,167973,1,0,0:0:0:0:
192,96,168277,1,0,0:0:0:0:
192,96,168581,1,8,0:0:0:0:
192,96,168783,1,0,0:0:0:0:
192,96,169189,1,8,0:0:0:0:
192,96,169594,1,4,0:0:0:0:
224,192,169797,1,8,0:0:0:0:
224,192,170000,1,0,0:0:0:0:
224,192,170101,1,0,0:0:0:0:
224,192,170202,1,0,0:0:0:0:
224,192,170304,1,8,0:0:0:0:
224,192,170506,1,0,0:0:0:0:
224,192,170608,1,8,0:0:0:0:
224,160,170810,1,0,0:0:0:0:
224,160,171013,1,8,0:0:0:0:
224,160,171216,1,0,0:0:0:0:
224,160,171317,1,8,0:0:0:0:
224,160,171418,1,0,0:0:0:0:
224,160,171621,1,8,0:0:0:0:
224,160,171824,1,0,0:0:0:0:
224,160,171925,1,8,0:0:0:0:
224,160,172128,1,8,0:0:0:0:
224,160,172229,1,0,0:0:0:0:
224,160,172432,1,8,0:0:0:0:
256,160,172837,1,8,0:0:0:0:
256,160,173040,1,0,0:0:0:0:
256,160,173243,1,8,0:0:0:0:
224,160,173344,1,0,0:0:0:0:
224,160,173445,1,0,0:0:0:0:
224,160,173547,1,8,0:0:0:0:
224,160,173750,1,0,0:0:0:0:
224,160,173851,1,8,0:0:0:0:
224,160,174054,1,0,0:0:0:0:
224,160,174256,1,8,0:0:0:0:
224,160,174459,1,0,0:0:0:0:
247,146,174560,1,0,0:0:0:0:
224,160,174662,1,8,0:0:0:0:
224,160,174864,1,8,0:0:0:0:
224,160,174966,1,0,0:0:0:0:
224,160,175067,1,8,0:0:0:0:
224,160,175270,1,0,0:0:0:0:
224,160,175473,1,0,0:0:0:0:
224,160,175574,1,0,0:0:0:0:
224,160,175675,1,8,0:0:0:0:
224,160,176081,1,0,0:0:0:0:
224,160,176283,1,8,0:0:0:0:
224,160,176486,1,8,0:0:0:0:
224,160,176587,1,0,0:0:0:0:
224,160,176689,1,8,0:0:0:0:
224,160,176891,1,0,0:0:0:0:
224,160,177094,1,0,0:0:0:0:
224,160,177195,1,0,0:0:0:0:
231,60,177297,1,8,0:0:0:0:
256,160,177500,1,8,0:0:0:0:
224,160,177601,1,0,0:0:0:0:
224,160,177804,1,0,0:0:0:0:
224,160,177905,1,8,0:0:0:0:
224,128,178108,1,0,0:0:0:0:
238,129,178209,1,0,0:0:0:0:
224,128,178310,1,8,0:0:0:0:
224,128,178412,1,8,0:0:0:0:
224,128,178513,1,8,0:0:0:0:
224,128,178716,1,8,0:0:0:0:
224,128,178918,1,0,0:0:0:0:
224,128,179324,1,0,0:0:0:0:
224,128,179425,1,0,0:0:0:0:
224,128,179527,1,0,0:0:0:0:
224,128,179729,1,8,0:0:0:0:
224,128,179932,1,0,0:0:0:0:
224,128,180033,1,8,0:0:0:0:
224,128,180236,1,0,0:0:0:0:
224,128,180337,1,8,0:0:0:0:
224,128,180540,1,0,0:0:0:0:
224,128,180743,1,0,0:0:0:0:
224,128,180945,1,8,0:0:0:0:
224,128,181148,1,0,0:0:0:0:
224,128,181351,1,8,0:0:0:0:
224,128,181452,1,0,0:0:0:0:
224,128,181554,1,8,0:0:0:0:
224,128,181655,1,8,0:0:0:0:
224,128,181756,1,0,0:0:0:0:
224,128,181959,1,8,0:0:0:0:
224,128,182162,1,8,0:0:0:0:
224,128,182567,1,4,0:0:0:0:
224,96,182770,1,0,0:0:0:0:
224,96,182973,1,8,0:0:0:0:
224,96,183175,1,0,0:0:0:0:
224,96,183277,1,0,0:0:0:0:
224,96,183378,1,8,0:0:0:0:
224,96,183581,1,0,0:0:0:0:
224,96,183783,1,8,0:0:0:0:
237,77,183885,1,0,0:0:0:0:
224,96,183986,1,8,0:0:0:0:
224,96,184189,1,0,0:0:0:0:
224,96,184290,1,8,0:0:0:0:
224,96,184391,1,0,0:0:0:0:
224,96,184594,1,8,0:0:0:0:
224,96,184797,1,8,0:0:0:0:
224,96,185000,1,0,0:0:0:0:
224,96,185101,1,8,0:0:0:0:
224,96,185202,1,0,0:0:0:0:
224,96,185304,1,0,0:0:0:0:
224,96,185405,1,8,0:0:0:0:
224,96,185608,1,8,0:0:0:0:
224,96,185810,1,0,0:0:0:0:
224,96,186216,1,8,0:0:0:0:
224,96,186317,1,0,0:0:0:0:
224,96,186520,1,0,0:0:0:0:
224,96,186621,1,8,0:0:0:0:
224,96,186723,1,8,0:0:0:0:
224,96,186824,1,0,0:0:0:0:
224,96,187027,1,8,0:0:0:0:
224,96,187229,1,0,0:0:0:0:
224,96,187432,1,8,0:0:0:0:
224,96,187635,1,0,0:0:0:0:
224,96,187736,1,0,0:0:0:0:
224,96,187837,1,8,0:0:0:0:
224,96,188040,1,0,0:0:0:0:
224,96,188141,1,8,0:0:0:0:
224,96,188344,1,8,0:0:0:0:
224,96,188547,1,0,0:0:0:0:
224,96,188648,1,8,0:0:0:0:
224,96,189054,1,12,0:0:0:0:
224,96,189256,1,0,0:0:0:0:
224,64,189358,1,0,0:0:0:0:
224,64,189459,1,8,0:0:0:0:
224,64,189662,1,0,0:0:0:0:
192,64,189864,1,8,0:0:0:0:
238,72,189966,1,0,0:0:0:0:
224,64,190067,1,0,0:0:0:0:
192,64,190168,1,8,0:0:0:0:
192,64,190371,1,0,0:0:0:0:
215,53,190574,1,8,0:0:0:0:
192,64,190675,1,0,0:0:0:0:
192,64,190878,1,0,0:0:0:0:
224,32,190979,1,0,0:0:0:0:
192,64,191081,1,8,0:0:0:0:
192,32,191283,1,0,0:0:0:0:
192,32,191486,1,8,0:0:0:0:
192,64,191689,1,8,0:0:0:0:
192,64,191790,1,0,0:0:0:0:
192,32,191891,1,8,0:0:0:0:
192,64,192297,1,4,0:0:0:0:
192,64,192500,1,8,0:0:0:0:
192,64,192601,1,0,0:0:0:0:
192,64,192804,1,0,0:0:0:0:
192,64,192905,1,8,0:0:0:0:
221,67,193006,1,8,0:0:0:0:
224,64,193108,1,0,0:0:0:0:
224,64,193310,1,0,0:0:0:0:
224,64,193513,1,8,0:0:0:0:
224,64,193716,1,8,0:0:0:0:
224,64,193918,1,4,0:0:0:0:
224,64,194121,1,0,0:0:0:0:
224,64,194223,1,0,0:0:0:0:
224,64,194324,1,8,0:0:0:0:
224,64,194527,1,0,0:0:0:0:
224,64,194729,1,12,0:0:0:0:
224,64,194932,1,0,0:0:0:0:
224,64,195135,1,8,0:0:0:0:
224,64,195236,1,0,0:0:0:0:
224,64,195337,1,8,0:0:0:0:
224,128,195540,1,4,0:0:0:0:
224,96,195743,1,8,0:0:0:0:
224,96,195945,1,0,0:0:0:0:
206,75,196047,1,0,0:0:0:0:
224,96,196148,1,0,0:0:0:0:
224,96,196351,1,8,0:0:0:0:
224,96,196554,1,0,0:0:0:0:
236,100,196655,1,0,0:0:0:0:
224,96,196756,1,8,0:0:0:0:
224,96,196959,1,0,0:0:0:0:
224,96,197162,1,8,0:0:0:0:
224,96,197263,1,0,0:0:0:0:
224,96,197364,1,8,0:0:0:0:
224,96,197567,1,0,0:0:0:0:
224,96,197770,1,8,0:0:0:0:
224,96,197973,1,8,0:0:0:0:
224,96,198074,1,8,0:0:0:0:
224,96,198175,1,0,0:0:0:0:
224,96,198277,1,0,0:0:0:0:
224,96,198378,1,8,0:0:0:0:
224,96,198783,1,12,0:0:0:0:
224,64,198986,1,0,0:0:0:0:
224,96,199189,1,8,0:0:0:0:
224,96,199290,1,0,0:0:0:0:
224,64,199391,1,8,0:0:0:0:
224,96,199594,1,0,0:0:0:0:
224,96,199797,1,0,0:0:0:0:
224,96,200000,1,8,0:0:0:0:
224,64,200101,1,8,0:0:0:0:
224,96,200202,1,8,0:0:0:0:
224,96,200405,1,0,0:0:0:0:
224,64,200506,1,0,0:0:0:0:
224,96,200608,1,0,0:0:0:0:
224,96,200709,1,0,0:0:0:0:
224,96,200810,1,8,0:0:0:0:
224,96,201013,1,8,0:0:0:0:
224,64,201216,1,0,0:0:0:0:
224,96,201317,1,8,0:0:0:0:
224,64,201418,1,0,0:0:0:0:
224,96,201621,1,8,0:0:0:0:
224,96,202027,1,12,0:0:0:0:
224,96,202229,1,0,0:0:0:0:
224,64,202331,1,0,0:0:0:0:
224,64,202432,1,8,0:0:0:0:
224,64,202635,1,0,0:0:0:0:
192,64,202837,1,8,0:0:0:0:
224,64,202939,1,0,0:0:0:0:
224,64,203040,1,0,0:0:0:0:
192,64,203141,1,8,0:0:0:0:
192,64,203344,1,0,0:0:0:0:
192,64,203445,1,8,0:0:0:0:
192,64,203648,1,0,0:0:0:0:
192,64,203851,1,0,0:0:0:0:
192,64,204054,1,8,0:0:0:0:
192,32,204256,1,0,0:0:0:0:
224,64,204358,1,0,0:0:0:0:
192,32,204459,1,8,0:0:0:0:
192,32,204560,1,8,0:0:0:0:
192,64,204662,1,0,0:0:0:0:
192,64,204864,1,8,0:0:0:0:
192,64,205270,1,4,0:0:0:0:
192,64,205473,1,8,0:0:0:0:
192,64,205675,1,0,0:0:0:0:
192,64,205777,1,8,0:0:0:0:
192,64,205878,1,0,0:0:0:0:
224,64,206081,1,8,0:0:0:0:
224,64,206283,1,0,0:0:0:0:
224,64,206385,1,0,0:0:0:0:
224,64,206486,1,8,0:0:0:0:
224,64,206689,1,0,0:0:0:0:
224,64,206891,1,12,0:0:0:0:
224,64,207094,1,0,0:0:0:0:
224,64,207195,1,0,0:0:0:0:
224,64,207297,1,8,0:0:0:0:
224,64,207500,1,8,0:0:0:0:
224,64,207702,1,0,0:0:0:0:
224,64,207804,1,0,0:0:0:0:
224,64,207905,1,0,0:0:0:0:
224,64,208108,1,12,0:0:0:0:
224,160,208513,1,4,0:0:0:0:
224,160,208817,1,0,0:0:0:0:
224,160,208918,1,8,0:0:0:0:
224,160,209121,1,0,0:0:0:0:
224,160,209324,1,8,0:0:0:0:
224,160,209527,1,0,0:0:0:0:
256,160,209628,1,0,0:0:0:0:
224,160,209729,1,8,0:0:0:0:
224,160,209932,1,0,0:0:0:0:
224,160,210135,1,8,0:0:0:0:
224,160,210236,1,0,0:0:0:0:
224,160,210439,1,0,0:0:0:0:
224,160,210540,1,8,0:0:0:0:
224,160,210743,1,0,0:0:0:0:
224,160,210844,1,0,0:0:0:0:
224,160,210945,1,8,0:0:0:0:
224,160,211148,1,0,0:0:0:0:
224,160,211351,1,8,0:0:0:0:
224,160,211756,1,8,0:0:0:0:
224,160,211858,1,0,0:0:0:0:
224,160,212060,1,0,0:0:0:0:
224,160,212162,1,8,0:0:0:0:
224,160,212364,1,8,0:0:0:0:
224,160,212466,1,0,0:0:0:0:
224,160,212567,1,8,0:0:0:0:
224,160,212770,1,0,0:0:0:0:
224,160,212973,1,8,0:0:0:0:
224,160,213175,1,8,0:0:0:0:
224,160,213378,1,0,0:0:0:0:
224,160,213581,1,0,0:0:0:0:
224,160,213682,1,8,0:0:0:0:
224,160,213783,1,0,0:0:0:0:
224,160,213986,1,8,0:0:0:0:
224,160,214189,1,8,0:0:0:0:
224,160,214290,1,8,0:0:0:0:
224,160,214391,1,0,0:0:0:0:
224,160,214493,1,0,0:0:0:0:
224,160,214594,1,8,0:0:0:0:
224,160,215000,1,4,0:0:0:0:
224,160,215304,1,0,0:0:0:0:
224,160,215405,1,8,0:0:0:0:
224,160,215608,1,0,0:0:0:0:
224,160,215810,1,8,0:0:0:0:
150,67,215912,1,0,0:0:0:0:
224,160,216114,1,0,0:0:0:0:
224,160,216216,1,8,0:0:0:0:
224,160,216418,1,8,0:0:0:0:
224,160,216621,1,0,0:0:0:0:
224,160,216824,1,0,0:0:0:0:
224,160,217027,1,8,0:0:0:0:
224,160,217229,1,0,0:0:0:0:
224,160,217331,1,0,0:0:0:0:
224,160,217432,1,8,0:0:0:0:
224,160,217635,1,0,0:0:0:0:
224,160,217837,1,8,0:0:0:0:
224,160,217939,1,0,0:0:0:0:
224,160,218040,1,8,0:0:0:0:
224,160,218243,1,0,0:0:0:0:
224,160,218547,1,0,0:0:0:0:
211,120,218648,1,8,0:0:0:0:
224,160,218851,1,0,0:0:0:0:
224,160,219054,1,8,0:0:0:0:
211,120,219256,1,0,0:0:0:0:
224,160,219358,1,0,0:0:0:0:
211,120,219459,1,8,0:0:0:0:
224,160,219662,1,0,0:0:0:0:
224,160,219864,1,8,0:0:0:0:
224,160,219966,1,8,0:0:0:0:
224,160,220067,1,0,0:0:0:0:
224,160,220168,1,0,0:0:0:0:
224,160,220270,1,8,0:0:0:0:
224,160,220473,1,8,0:0:0:0:
224,160,220675,1,0,0:0:0:0:
224,160,221081,1,8,0:0:0:0:
224,160,221182,1,8,0:0:0:0:
224,160,221283,1,8,0:0:0:0:
224,160,221486,1,4,0:0:0:0:
224,160,221790,1,0,0:0:0:0:
224,160,221891,1,8,0:0:0:0:
224,160,222094,1,0,0:0:0:0:
224,160,222297,1,8,0:0:0:0:
224,160,222398,1,8,0:0:0:0:
224,160,222500,1,0,0:0:0:0:
224,160,222702,1,8,0:0:0:0:
224,160,222905,1,0,0:0:0:0:
224,160,223108,1,8,0:0:0:0:
224,160,223209,1,0,0:0:0:0:
224,160,223412,1,0,0:0:0:0:
224,160,223513,1,8,0:0:0:0:
224,160,223716,1,8,0:0:0:0:
224,160,223817,1,0,0:0:0:0:
224,160,223918,1,8,0:0:0:0:
224,160,224121,1,0,0:0:0:0:
224,160,224324,1,8,0:0:0:0:
224,160,224729,1,8,0:0:0:0:
224,160,224831,1,8,0:0:0:0:
224,160,225033,1,0,0:0:0:0:
224,160,225135,1,8,0:0:0:0:
224,160,225337,1,0,0:0:0:0:
224,160,225439,1,0,0:0:0:0:
224,160,225540,1,8,0:0:0:0:
224,160,225743,1,0,0:0:0:0:
224,160,225945,1,8,0:0:0:0:
224,160,226148,1,8,0:0:0:0:
224,160,226351,1,0,0:0:0:0:
224,160,226554,1,0,0:0:0:0:
224,160,226655,1,8,0:0:0:0:
224,160,226756,1,0,0:0:0:0:
224,160,226959,1,8,0:0:0:0:
224,160,227162,1,8,0:0:0:0:
224,160,227263,1,0,0:0:0:0:
224,160,227364,1,0,0:0:0:0:
224,160,227466,1,0,0:0:0:0:
224,160,227567,1,8,0:0:0:0:
224,160,227973,1,4,0:0:0:0:
224,160,228277,1,0,0:0:0:0:
224,160,228378,1,8,0:0:0:0:
224,160,228581,1,0,0:0:0:0:
224,160,228783,1,8,0:0:0:0:
239,150,228885,1,0,0:0:0:0:
224,160,229087,1,8,0:0:0:0:
224,160,229189,1,8,0:0:0:0:
224,160,229391,1,0,0:0:0:0:
224,160,229594,1,8,0:0:0:0:
224,160,229797,1,8,0:0:0:0:
224,160,230000,1,0,0:0:0:0:
224,160,230101,1,0,0:0:0:0:
224,160,230202,1,8,0:0:0:0:
224,160,230405,1,0,0:0:0:0:
224,160,230608,1,0,0:0:0:0:
224,160,230810,1,8,0:0:0:0:
224,160,230912,1,0,0:0:0:0:
224,160,231013,1,8,0:0:0:0:
224,160,231216,1,0,0:0:0:0:
224,160,231520,1,0,0:0:0:0:
239,150,231621,1,8,0:0:0:0:
224,160,231824,1,0,0:0:0:0:
224,160,232027,1,8,0:0:0:0:
228,121,232229,1,0,0:0:0:0:
224,160,232331,1,0,0:0:0:0:
228,121,232432,1,8,0:0:0:0:
224,160,232635,1,0,0:0:0:0:
224,160,232837,1,12,0:0:0:0:
222,132,233040,1,0,0:0:0:0:
224,96,233141,1,0,0:0:0:0:
224,160,233243,1,8,0:0:0:0:
224,160,233445,1,8,0:0:0:0:
224,160,233648,1,4,0:0:0:0:
224,160,234054,1,0,0:0:0:0:
224,160,234155,1,0,0:0:0:0:
224,160,234256,1,0,0:0:0:0:
224,160,234459,5,12,0:0:0:0:
224,160,234763,1,0,0:0:0:0:
224,160,234864,1,8,0:0:0:0:
224,160,235067,1,0,0:0:0:0:
224,160,235270,1,8,0:0:0:0:
160,96,235473,1,0,0:0:0:0:
224,160,235574,1,0,0:0:0:0:
224,160,235675,1,8,0:0:0:0:
224,160,235878,1,0,0:0:0:0:
224,160,236081,1,12,0:0:0:0:
224,160,236283,1,0,0:0:0:0:
224,160,236486,1,8,0:0:0:0:
224,160,236587,1,0,0:0:0:0:
224,160,236689,1,8,0:0:0:0:
224,160,236891,1,0,0:0:0:0:
224,160,237094,1,0,0:0:0:0:
224,160,237297,1,8,0:0:0:0:
224,160,237398,1,8,0:0:0:0:
224,160,237500,1,8,0:0:0:0:
224,160,237702,1,4,0:0:0:0:
224,160,238006,1,0,0:0:0:0:
224,128,238108,1,8,0:0:0:0:
224,160,238310,1,0,0:0:0:0:
224,160,238513,1,12,0:0:0:0:
225,120,238716,1,0,0:0:0:0:
224,160,238817,1,0,0:0:0:0:
256,128,238918,1,8,0:0:0:0:
224,160,239121,1,8,0:0:0:0:
224,160,239324,1,4,0:0:0:0:
224,160,239628,1,8,0:0:0:0:
224,160,239729,1,0,0:0:0:0:
224,160,239932,1,8,0:0:0:0:
224,160,240135,1,0,0:0:0:0:
224,160,240337,1,0,0:0:0:0:
224,160,240540,1,8,0:0:0:0:
224,160,240641,1,8,0:0:0:0:
224,160,240743,1,8,0:0:0:0:
224,160,240945,1,4,0:0:0:0:
256,192,241148,12,0,243986,0:0:0:0:
256,192,244189,5,12,0:0:0:0:
256,192,247027,1,8,0:0:0:0:
256,192,247432,1,4,0:0:0:0:
256,192,247837,1,8,0:0:0:0:
256,192,248040,1,0,0:0:0:0:
256,192,248141,1,8,0:0:0:0:
256,192,248243,1,0,0:0:0:0:
256,192,248445,1,0,0:0:0:0:
256,192,248648,1,8,0:0:0:0:
256,192,248851,1,0,0:0:0:0:
256,192,248952,1,0,0:0:0:0:
256,192,249054,1,8,0:0:0:0:
256,192,249256,1,0,0:0:0:0:
256,192,249459,1,8,0:0:0:0:
256,192,249662,1,8,0:0:0:0:
256,192,249763,1,0,0:0:0:0:
256,192,249864,1,8,0:0:0:0:
256,192,249966,1,8,0:0:0:0:
256,192,250067,1,0,0:0:0:0:
256,192,250270,1,8,0:0:0:0:
256,192,250473,1,4,0:0:0:0:
256,192,250878,1,0,0:0:0:0:
256,192,251081,1,8,0:0:0:0:
271,130,251182,1,8,0:0:0:0:
256,192,251283,1,0,0:0:0:0:
256,192,251486,1,8,0:0:0:0:
256,192,251689,1,8,0:0:0:0:
256,192,251790,1,8,0:0:0:0:
256,192,251891,1,8,0:0:0:0:
256,192,252094,1,0,0:0:0:0:
256,192,252297,1,8,0:0:0:0:
256,192,252500,1,0,0:0:0:0:
256,192,252601,1,0,0:0:0:0:
256,192,252702,1,8,0:0:0:0:
256,192,252905,1,0,0:0:0:0:
256,192,253108,1,8,0:0:0:0:
256,192,253310,1,8,0:0:0:0:
256,192,253412,1,0,0:0:0:0:
250,182,253614,1,0,0:0:0:0:
256,160,253716,1,8,0:0:0:0:
256,160,253918,1,4,0:0:0:0:
256,128,254324,1,8,0:0:0:0:
256,128,254527,1,0,0:0:0:0:
256,128,254628,1,8,0:0:0:0:
288,160,254729,1,0,0:0:0:0:
288,160,254932,1,0,0:0:0:0:
288,160,255135,1,8,0:0:0:0:
256,128,255337,1,0,0:0:0:0:
271,128,255439,1,0,0:0:0:0:
256,128,255540,1,8,0:0:0:0:
288,128,255743,1,0,0:0:0:0:
288,128,255945,1,8,0:0:0:0:
288,128,256148,1,8,0:0:0:0:
288,128,256250,1,0,0:0:0:0:
288,128,256351,1,8,0:0:0:0:
288,128,256554,1,0,0:0:0:0:
288,128,256756,1,8,0:0:0:0:
288,128,256959,1,4,0:0:0:0:
288,128,257364,1,0,0:0:0:0:
288,128,257567,1,8,0:0:0:0:
288,128,257770,1,0,0:0:0:0:
256,128,257871,1,8,0:0:0:0:
288,128,257973,1,0,0:0:0:0:
256,128,258175,1,0,0:0:0:0:
242,98,258378,1,8,0:0:0:0:
256,128,258581,1,0,0:0:0:0:
240,71,258682,1,0,0:0:0:0:
256,128,258783,1,8,0:0:0:0:
256,128,258986,1,0,0:0:0:0:
256,128,259189,1,8,0:0:0:0:
256,128,259391,1,8,0:0:0:0:
160,64,259594,1,4,0:0:0:0:
256,192,259797,12,0,260405,0:0:0:0:
