osu file format v14

[General]
AudioFilename: audio.mp3
AudioLeadIn: 0
PreviewTime: 65714
Countdown: 0
SampleSet: Soft
StackLeniency: 0.7
Mode: 0
LetterboxInBreaks: 0
WidescreenStoryboard: 0

[Editor]
Bookmarks: 39818,45899,52791,74683,77927,110359,138129,202285
DistanceSpacing: 0.3
BeatDivisor: 4
GridSize: 32
TimelineZoom: 2.999999

[Metadata]
Title:Witches' Night (ShinRa-Bansho Ver.)
TitleUnicode:Witches' Night (森羅万象 Ver.)
Artist:TAMAONSEN
ArtistUnicode:魂音泉
Creator:Dafiely
Version:Magic
Source:妖精大戦争 ~ 東方三月精
Tags:videogame halloween 東方Project Team Shanghai Alice 上海アリス幻樂団 霧雨 魔理沙 japanese c96 メイガスナイト xen xenon- xenon xehn toho 12.8 Fairy Wars Extra boss theme ZUN Magus kirisame marisa misoni comi touhou 東方歌ってみた Comiket 96 kaztora Hedonist あやぽんず*,あよ Ayaponzu* Ayo danbkaa Denil25 girl
BeatmapID:2153932
BeatmapSetID:1030100

[Difficulty]
HPDrainRate:5.5
CircleSize:4
OverallDifficulty:8
ApproachRate:9.2
SliderMultiplier:3
SliderTickRate:1

[Events]
//Background and Video events
0,0,"BG.jpg",0,0
//Break Periods
//Storyboard Layer 0 (Background)
//Storyboard Layer 1 (Fail)
//Storyboard Layer 2 (Pass)
//Storyboard Layer 3 (Foreground)
//Storyboard Layer 4 (Overlay)
//Storyboard Sound Samples

[TimingPoints]
900,405.405405405405,4,2,47,35,1,0
900,-666.666666666667,4,2,47,35,0,0
1305,-666.666666666667,4,2,47,5,0,0
1508,-666.666666666667,4,2,47,35,0,0
2116,-666.666666666667,4,2,47,5,0,0
2318,-666.666666666667,4,2,47,35,0,0
2927,-666.666666666667,4,2,47,5,0,0
3129,-666.666666666667,4,2,47,35,0,0
12656,-666.666666666667,4,2,47,5,0,0
12859,-666.666666666667,4,2,47,35,0,0
13467,-666.666666666667,4,2,47,5,0,0
13670,-666.666666666667,4,2,47,35,0,0
13872,-333.333333333333,4,2,47,50,0,0
14278,-333.333333333333,4,2,47,5,0,0
14481,-333.333333333333,4,2,47,50,0,0
15089,-333.333333333333,4,2,47,5,0,0
15291,-333.333333333333,4,2,47,50,0,0
15899,-333.333333333333,4,2,47,5,0,0
16102,-333.333333333333,4,2,47,50,0,0
25629,-333.333333333333,4,2,47,5,0,0
25832,-333.333333333333,4,2,47,50,0,0
26440,-142.857142857143,4,2,47,70,0,0
29886,-66.6666666666667,4,2,47,70,0,0
30089,-142.857142857143,4,2,47,70,0,0
33129,-66.6666666666667,4,2,47,70,0,0
33332,-142.857142857143,4,2,47,70,0,0
36372,-66.6666666666667,4,2,47,70,0,0
36575,-142.857142857143,4,2,47,70,0,0
39818,-200,4,2,47,60,0,0
42656,-285.714285714286,4,2,47,60,0,0
43062,-200,4,2,47,60,0,0
45899,-285.714285714286,4,2,47,60,0,0
46305,-200,4,2,47,60,0,0
52791,-153.846153846154,4,2,47,65,0,0
65764,-66.6666666666667,4,2,47,90,0,1
68399,-76.9230769230769,4,2,47,90,0,1
68602,-100,4,2,47,90,0,1
69008,-66.6666666666667,4,2,47,90,0,1
69818,-55.5555555555556,4,2,47,90,0,1
70629,-76.9230769230769,4,2,47,90,0,1
72251,-50,4,2,47,90,0,1
72656,-52.6315789473684,4,2,47,90,0,1
74683,-71.4285714285714,4,2,47,90,0,1
75089,-76.9230769230769,4,2,47,90,0,1
77116,-83.3333333333333,4,2,47,90,0,1
78737,-66.6666666666667,4,2,47,90,0,1
81372,-76.9230769230769,4,2,47,90,0,1
81575,-100,4,2,47,90,0,1
81981,-66.6666666666667,4,2,47,90,0,1
82791,-55.5555555555556,4,2,47,90,0,1
83602,-76.9230769230769,4,2,47,90,0,1
85224,-50,4,2,47,90,0,1
85629,-52.6315789473684,4,2,47,90,0,1
87656,-66.6666666666667,4,2,47,90,0,1
88062,-76.9230769230769,4,2,47,90,0,1
90089,-83.3333333333333,4,2,47,90,0,1
91710,-76.9230769230769,4,2,47,75,0,0
92116,-100,4,2,47,75,0,0
94751,-76.9230769230769,4,2,47,75,0,0
95359,-100,4,2,47,75,0,0
97994,-76.9230769230769,4,2,47,75,0,0
98197,-100,4,2,47,75,0,0
99210,-76.9230769230769,4,2,47,75,0,0
99514,-100,4,2,47,75,0,0
99818,-76.9230769230769,4,2,47,75,0,0
100224,-100,4,2,47,75,0,0
101237,-76.9230769230769,4,2,47,75,0,0
101643,-100,4,2,47,75,0,0
102454,-76.9230769230769,4,2,47,75,0,0
102859,-100,4,2,47,75,0,0
103062,-76.9230769230769,4,2,47,75,0,0
103467,-100,4,2,47,75,0,0
103872,-76.9230769230769,4,2,47,75,0,0
104278,-100,4,2,47,75,0,0
104683,-500,4,2,47,40,0,0
117656,-100,4,2,47,70,0,0
130629,-66.6666666666667,4,2,47,90,0,1
133264,-76.9230769230769,4,2,47,90,0,1
133467,-100,4,2,47,90,0,1
133872,-66.6666666666667,4,2,47,90,0,1
134683,-55.5555555555556,4,2,47,90,0,1
135494,-76.9230769230769,4,2,47,90,0,1
137116,-50,4,2,47,90,0,1
137521,-52.6315789473684,4,2,47,90,0,1
139548,-71.4285714285714,4,2,47,90,0,1
139954,-76.9230769230769,4,2,47,90,0,1
141981,-83.3333333333333,4,2,47,90,0,1
143602,-66.6666666666667,4,2,47,90,0,1
146237,-76.9230769230769,4,2,47,90,0,1
146440,-100,4,2,47,90,0,1
146845,-66.6666666666667,4,2,47,90,0,1
147656,-55.5555555555556,4,2,47,90,0,1
148467,-76.9230769230769,4,2,47,90,0,1
150089,-50,4,2,47,90,0,1
150494,-52.6315789473684,4,2,47,90,0,1
152521,-66.6666666666667,4,2,47,90,0,1
152927,-76.9230769230769,4,2,47,90,0,1
154954,-83.3333333333333,4,2,47,90,0,1
156575,-200,4,2,47,45,0,0
169548,-125,4,2,47,60,0,0
176035,-117.647058823529,4,2,47,60,0,0
182521,-100,4,2,47,65,0,0
189008,-71.4285714285714,4,2,47,68,0,0
189312,-95.2380952380952,4,2,47,68,0,0
192251,-71.4285714285714,4,2,47,71,0,0
192555,-90.9090909090909,4,2,47,71,0,0
193872,-71.4285714285714,4,2,47,74,0,0
194177,-86.9565217391304,4,2,47,74,0,0
194683,-71.4285714285714,4,2,47,77,0,0
195494,-71.4285714285714,4,2,47,80,0,0
195798,-83.3333333333333,4,2,47,80,0,0
198737,-71.4285714285714,4,2,47,82,0,0
199041,-80,4,2,47,82,0,0
201981,-71.4285714285714,4,2,47,84,0,0
202285,-76.9230769230769,4,2,47,84,0,0
205224,-71.4285714285714,4,2,47,85,0,0
205528,-74.0740740740741,4,2,47,85,0,0
206845,-71.4285714285714,4,2,47,86,0,0
208062,-200,4,2,47,86,0,0
208467,-66.6666666666667,4,2,47,90,0,1
211102,-76.9230769230769,4,2,47,90,0,1
211305,-100,4,2,47,90,0,1
211710,-66.6666666666667,4,2,47,90,0,1
212521,-55.5555555555556,4,2,47,90,0,1
213332,-76.9230769230769,4,2,47,90,0,1
214954,-50,4,2,47,90,0,1
215359,-52.6315789473684,4,2,47,90,0,1
217386,-71.4285714285714,4,2,47,90,0,1
217791,-76.9230769230769,4,2,47,90,0,1
221440,-66.6666666666667,4,2,47,90,0,1
224075,-76.9230769230769,4,2,47,90,0,1
224278,-100,4,2,47,90,0,1
224683,-66.6666666666667,4,2,47,90,0,1
225494,-55.5555555555556,4,2,47,90,0,1
226305,-76.9230769230769,4,2,47,90,0,1
227927,-50,4,2,47,90,0,1
228332,-52.6315789473684,4,2,47,90,0,1
230359,-66.6666666666667,4,2,47,90,0,1
230764,-76.9230769230769,4,2,47,90,0,1
232791,-52.6315789473684,4,2,47,90,0,1
233197,-76.9230769230769,4,2,47,90,0,1
233602,-52.6315789473684,4,2,47,90,0,1
234008,-76.9230769230769,4,2,47,90,0,1
234413,-50,4,2,47,90,0,1
234818,-52.6315789473684,4,2,47,90,0,1
236845,-66.6666666666667,4,2,47,90,0,1
237251,-76.9230769230769,4,2,47,90,0,1
237656,-52.6315789473684,4,2,47,90,0,1
238062,-76.9230769230769,4,2,47,90,0,1
238467,-52.6315789473684,4,2,47,90,0,1
238771,-76.9230769230769,4,2,47,90,0,1
240899,-142.857142857143,4,2,47,55,0,0
244143,-333.333333333334,4,2,47,30,0,0
246981,-125,4,2,47,60,0,0
247386,-76.9230769230769,4,2,47,75,0,0
247690,-100,4,2,47,75,0,0
250427,-76.9230769230769,4,2,47,75,0,0
250832,-100,4,2,47,75,0,0
252048,-76.9230769230769,4,2,47,75,0,0
252454,-100,4,2,47,75,0,0
253062,-76.9230769230769,4,2,47,75,0,0
254278,-100,4,2,47,75,0,0
254886,-76.9230769230769,4,2,47,75,0,0
255291,-100,4,2,47,75,0,0
255494,-76.9230769230769,4,2,47,75,0,0
255899,-100,4,2,47,75,0,0
256913,-76.9230769230769,4,2,47,75,0,0
257318,-100,4,2,47,75,0,0
258129,-76.9230769230769,4,2,47,75,0,0
258535,-100,4,2,47,75,0,0
258737,-76.9230769230769,4,2,47,75,0,0
259143,-100,4,2,47,75,0,0
259548,-76.9230769230769,4,2,47,75,0,0
260359,-76.9230769230769,4,2,47,5,0,0

[Colours]
Combo1 : 192,192,192
Combo2 : 255,255,89
Combo3 : 255,128,64
Combo4 : 136,196,255

[HitObjects]
100,186,900,6,0,L|139:179,2,33.7499989700318,2|2|2,0:0|0:0|0:0,0:0:0:0:
193,231,1710,2,0,L|226:236,2,33.7499989700318,2|2|2,0:0|0:0|0:0,0:0:0:0:
281,178,2521,2,0,L|314:172,2,33.7499989700318,2|2|2,0:0|0:0|0:0,0:0:0:0:
377,232,3332,2,0,L|375:262,2,22.4999993133545,2|2|2,0:0|0:0|0:0,0:0:0:0:
330,29,4143,6,0,L|332:64,1,33.7499989700318,2|2,0:0|0:0,0:0:0:0:
261,142,4751,1,2,0:0:0:0:
261,142,4852,1,2,0:0:0:0:
261,142,4954,2,0,L|258:170,1,22.4999993133545,2|2,0:0|0:0,0:0:0:0:
313,214,5359,2,0,L|316:242,1,22.4999993133545,2|2,0:0|0:0,0:0:0:0:
271,302,5764,2,0,L|231:295,1,33.7499989700318,2|2,0:0|0:0,0:0:0:0:
150,342,6372,1,2,0:0:0:0:
150,342,6474,1,2,0:0:0:0:
150,342,6575,2,0,L|97:347,1,44.999998626709,2|0,0:0|0:0,0:0:0:0:
40,309,7183,1,2,0:0:0:0:
140,102,7386,6,0,L|143:143,2,33.7499989700318,2|2|2,0:0|0:0|0:0,0:0:0:0:
205,190,8197,2,0,L|202:231,2,33.7499989700318,2|2|2,0:0|0:0|0:0,0:0:0:0:
271,146,9008,2,0,L|298:142,1,22.4999993133545,2|2,0:0|0:0,0:0:0:0:
353,193,9413,2,0,L|380:197,1,22.4999993133545,2|2,0:0|0:0,0:0:0:0:
441,141,9818,2,0,L|444:171,1,22.4999993133545,2|2,0:0|0:0,0:0:0:0:
475,234,10224,2,0,L|472:264,1,22.4999993133545,2|2,0:0|0:0,0:0:0:0:
345,343,10629,6,0,L|387:348,1,33.7499989700318,2|2,0:0|0:0,0:0:0:0:
262,281,11237,1,2,0:0:0:0:
262,281,11440,2,0,L|228:284,1,33.7499989700318,2|2,0:0|0:0,0:0:0:0:
356,171,12048,1,0,0:0:0:0:
356,171,12251,2,0,L|363:240,1,67.4999979400635,2|0,0:0|0:0,0:0:0:0:
414,299,13062,2,0,L|407:368,1,67.4999979400635,2|0,0:0|0:0,0:0:0:0:
292,88,13872,6,0,P|274:133|292:165,2,67.4999979400635,6|2|2,0:0|0:0|0:0,0:0:0:0:
314,252,14683,2,0,P|292:230|238:230,2,67.4999979400635,2|2|2,0:0|0:0|0:0,0:0:0:0:
240,312,15494,2,0,P|218:334|170:333,2,67.4999979400635,2|2|2,0:0|0:0|0:0,0:0:0:0:
116,291,16305,2,0,L|111:238,2,44.999998626709,2|2|2,0:0|0:0|0:0,0:0:0:0:
162,43,17116,6,0,P|183:72|176:113,1,67.4999979400635,2|2,0:0|0:0,0:0:0:0:
117,186,17724,1,2,0:0:0:0:
117,186,17825,1,2,0:0:0:0:
117,186,17927,2,0,P|92:172|65:179,1,44.999998626709,2|2,0:0|0:0,0:0:0:0:
173,241,18332,2,0,P|195:240|213:228,1,44.999998626709,2|2,0:0|0:0,0:0:0:0:
247,159,18737,2,0,P|274:141|319:165,1,67.4999979400635,2|2,0:0|0:0,0:0:0:0:
381,233,19345,1,2,0:0:0:0:
381,233,19447,1,2,0:0:0:0:
381,233,19548,2,0,L|382:329,1,89.9999972534181,2|0,0:0|0:0,0:0:0:0:
316,361,20156,1,2,0:0:0:0:
445,154,20359,6,0,P|416:139|372:147,2,67.4999979400635,6|2|2,0:0|0:0|0:0,0:0:0:0:
315,211,21170,2,0,P|286:226|242:218,2,67.4999979400635,2|2|2,0:0|0:0|0:0,0:0:0:0:
181,153,21981,2,0,P|164:145|133:147,1,44.999998626709,2|2,0:0|0:0,0:0:0:0:
91,205,22386,2,0,P|74:213|43:211,1,44.999998626709,2|2,0:0|0:0,0:0:0:0:
5,148,22791,2,0,L|0:94,1,44.999998626709,2|2,0:0|0:0,0:0:0:0:
61,52,23197,2,0,L|66:-2,1,44.999998626709,2|2,0:0|0:0,0:0:0:0:
192,184,23602,6,0,P|219:198|265:187,1,67.4999979400635,2|2,0:0|0:0,0:0:0:0:
327,126,24210,1,2,0:0:0:0:
327,126,24413,2,0,P|354:112|401:122,1,67.4999979400635,2|2,0:0|0:0,0:0:0:0:
458,189,25021,1,2,0:0:0:0:
458,189,25224,2,0,P|482:253|458:321,1,134.999995880127,2|0,0:0|0:0,0:0:0:0:
400,356,26035,2,0,L|354:351,1,44.999998626709,2|0,0:0|0:0,0:0:0:0:
146,230,26440,6,0,L|320:213,1,157.499995193482,2|0,0:0|0:0,0:0:0:0:
363,259,26845,1,14,0:0:0:0:
280,110,27048,1,2,0:0:0:0:
280,110,27149,1,2,0:0:0:0:
280,110,27251,1,2,0:0:0:0:
166,243,27454,1,2,0:0:0:0:
157,255,27555,1,2,0:0:0:0:
148,268,27656,2,0,L|259:253,1,104.999996795654,2|8,0:0|0:0,0:0:0:0:
129,145,28062,2,0,L|18:130,1,104.999996795654,2|2,0:0|0:0,0:0:0:0:
250,11,28467,6,0,P|275:60|253:122,1,104.999996795654,10|0,0:0|0:0,0:0:0:0:
215,164,28771,1,0,0:0:0:0:
202,153,28872,2,0,P|177:198|187:248,1,104.999996795654,2|0,0:0|0:0,0:0:0:0:
253,289,29177,1,2,0:0:0:0:
266,278,29278,2,0,P|290:323|280:373,1,104.999996795654,2|8,0:0|0:0,0:0:0:0:
135,308,29683,1,2,0:0:0:0:
281,137,29886,6,0,B|273:173|273:173|283:216|283:216|269:307,1,112.500004291535,6|0,0:0|0:0,0:0:0:0:
343,287,30089,6,0,P|299:232|146:262,1,209.999993591309,10|0,0:0|0:0,0:0:0:0:
109,317,30697,1,0,0:0:0:0:
109,317,30798,1,0,0:0:0:0:
109,317,30899,1,0,0:0:0:0:
57,100,31102,1,8,0:2:0:0:
10,251,31305,1,2,0:0:0:0:
7,266,31406,2,0,P|43:246|74:250,1,52.4999983978272,8|0,0:0|0:0,0:0:0:0:
106,189,31609,1,0,0:0:0:0:
113,202,31710,6,0,P|152:213|171:238,1,52.4999983978272,10|0,0:0|0:0,0:0:0:0:
224,173,31913,2,0,P|244:209|240:240,1,52.4999983978272,8|0,0:0|0:0,0:0:0:0:
299,277,32116,2,0,L|435:257,1,104.999996795654,2|0,0:0|0:0,0:0:0:0:
466,306,32420,1,0,0:0:0:0:
461,321,32521,2,0,P|424:274|435:212,2,104.999996795654,2|8|0,0:0|0:0|0:0,0:0:0:0:
497,87,33129,6,0,B|489:127|489:127|501:168|501:168|489:212,1,112.500004291535,6|0,0:0|0:0,0:0:0:0:
425,231,33332,6,0,L|346:216,1,52.4999983978272,10|0,0:0|0:0,0:0:0:0:
319,167,33535,1,2,0:0:0:0:
330,155,33636,2,0,L|251:170,1,52.4999983978272,2|0,0:0|0:0,0:0:0:0:
228,225,33839,1,2,0:0:0:0:
239,237,33940,2,0,L|160:222,1,52.4999983978272,2|0,0:0|0:0,0:0:0:0:
137,168,34143,2,0,L|133:46,2,104.999996795654,2|8|0,0:0|0:2|0:0,0:0:0:0:
200,26,34751,1,2,0:0:0:0:
78,243,34954,6,0,P|112:259|139:254,1,52.4999983978272,10|0,0:0|0:0,0:0:0:0:
193,221,35156,1,2,0:0:0:0:
195,236,35258,2,0,P|230:223|245:200,1,52.4999983978272,2|0,0:0|0:0,0:0:0:0:
301,169,35460,1,2,0:0:0:0:
313,178,35562,2,0,P|328:144|324:117,1,52.4999983978272,2|0,0:0|0:0,0:0:0:0:
281,69,35764,2,0,P|336:100|386:77,1,104.999996795654,2|8,0:0|0:0,0:0:0:0:
497,7,36170,1,2,0:0:0:0:
411,182,36372,6,0,B|440:219|440:219|412:323,1,112.500004291535,4|0,0:0|0:0,0:0:0:0:
472,338,36575,6,0,L|247:318,1,209.999993591309,10|0,0:0|0:0,0:0:0:0:
171,360,37183,1,0,0:0:0:0:
171,360,37285,1,0,0:0:0:0:
171,360,37386,1,0,0:0:0:0:
216,142,37589,1,8,0:0:0:0:
292,286,37791,1,2,0:0:0:0:
306,279,37893,2,0,L|230:270,1,52.4999983978272,8|0,0:0|0:0,0:0:0:0:
182,217,38095,1,0,0:0:0:0:
194,227,38197,6,0,L|118:236,1,52.4999983978272,10|0,0:0|0:0,0:0:0:0:
80,189,38399,2,0,L|4:180,1,52.4999983978272,10|0,0:0|0:0,0:0:0:0:
0,107,38602,2,0,L|126:96,1,104.999996795654,2|0,0:0|0:0,0:0:0:0:
168,49,38906,1,0,0:0:0:0:
179,37,39008,2,0,P|214:88|198:140,2,104.999996795654,2|8|0,0:0|0:0|0:0,0:0:0:0:
260,182,39616,1,0,0:0:0:0:
378,41,39818,6,0,L|288:27,1,75,2|2,0:0|0:0,0:0:0:0:
184,178,40224,1,2,0:0:0:0:
174,189,40325,2,0,L|226:180,1,37.5,2|0,0:0|0:0,0:0:0:0:
298,244,40528,1,2,0:0:0:0:
308,255,40629,2,0,L|256:246,1,37.5,2|0,0:0|0:0,0:0:0:0:
212,294,40832,1,10,0:0:0:0:
303,164,41035,1,2,0:0:0:0:
131,58,41237,1,2,0:0:0:0:
144,51,41339,1,2,0:0:0:0:
157,44,41440,6,0,L|152:109,1,37.5,2|2,0:0|0:0,0:0:0:0:
99,138,41643,2,0,L|104:203,1,37.5,2|2,0:0|0:0,0:0:0:0:
160,226,41845,2,0,L|154:321,1,75,2|0,0:0|0:0,0:0:0:0:
95,348,42149,1,2,0:0:0:0:
104,336,42251,2,0,P|137:328|167:341,1,37.5,2|0,0:0|0:0,0:0:0:0:
203,370,42454,1,10,0:0:0:0:
325,239,42656,6,0,P|297:222|264:227,1,52.4999983978272,2|0,0:0|0:0,0:0:0:0:
448,349,43062,6,0,L|452:244,1,75,8|2,0:0|0:0,0:0:0:0:
459,94,43467,1,2,0:0:0:0:
320,181,43670,1,2,0:0:0:0:
324,195,43771,1,2,0:0:0:0:
329,209,43872,2,0,L|389:222,1,37.5,2|0,0:0|0:0,0:0:0:0:
259,143,44075,1,10,0:0:0:0:
263,129,44176,1,2,0:0:0:0:
267,114,44277,2,0,L|327:101,1,37.5,2|8,0:0|0:0,0:0:0:0:
360,61,44481,1,2,0:0:0:0:
164,0,44683,5,10,0:0:0:0:
228,220,44886,1,10,0:0:0:0:
113,102,45089,2,0,L|179:85,1,37.5,2|0,0:0|0:0,0:0:0:0:
249,146,45291,2,0,L|183:129,1,37.5,2|0,0:0|0:0,0:0:0:0:
318,76,45494,2,0,P|351:111|346:157,1,75,2|8,0:0|0:0,0:0:0:0:
388,203,45798,1,2,0:0:0:0:
400,194,45899,6,0,P|398:242|382:262,1,52.4999983978272,2|0,0:0|0:0,0:0:0:0:
186,314,46305,6,0,L|291:325,1,75,8|2,0:0|0:0,0:0:0:0:
128,204,46710,1,2,0:0:0:0:
138,214,46812,2,0,L|77:222,1,37.5,2|0,0:0|0:0,0:0:0:0:
43,173,47014,1,0,0:0:0:0:
43,173,47116,1,2,0:0:0:0:
231,75,47318,1,10,0:0:0:0:
221,62,47420,2,0,L|227:190,1,112.5,2|2,0:0|0:0,0:0:0:0:
294,338,47927,5,2,0:0:0:0:
295,323,48028,1,2,0:0:0:0:
296,308,48129,1,2,0:0:0:0:
297,293,48231,1,2,0:0:0:0:
355,244,48332,1,2,0:0:0:0:
354,229,48433,1,2,0:0:0:0:
353,214,48534,1,2,0:0:0:0:
352,199,48636,1,2,0:0:0:0:
293,145,48737,2,0,L|247:140,1,37.5,0|0,0:0|0:0,0:0:0:0:
355,99,48940,2,0,L|401:94,1,37.5,10|2,0:0|0:0,0:0:0:0:
287,37,49143,1,2,0:0:0:0:
282,20,49345,6,0,P|275:43|278:69,1,37.5,2|0,0:0|0:0,0:0:0:0:
355,99,49548,5,10,0:0:0:0:
148,204,49751,1,2,0:0:0:0:
136,194,49852,1,2,0:0:0:0:
124,184,49954,2,0,L|185:189,1,37.5,2|0,0:0|0:0,0:0:0:0:
240,190,50156,2,0,L|301:195,1,37.5,2|0,0:0|0:0,0:0:0:0:
200,272,50359,2,0,L|200:320,1,37.5,2|0,0:0|0:0,0:0:0:0:
259,357,50562,1,10,0:0:0:0:
250,370,50663,2,0,L|304:367,1,37.5,2|0,0:0|0:0,0:0:0:0:
340,307,50866,1,10,0:0:0:0:
351,316,50967,2,0,L|352:249,1,37.5,2|0,0:0|0:0,0:0:0:0:
298,222,51170,5,10,0:0:0:0:
100,313,51372,1,10,0:0:0:0:
109,324,51474,1,2,0:0:0:0:
118,335,51575,2,0,L|114:228,1,75,2|2,0:0|0:0,0:0:0:0:
62,207,51879,2,0,L|65:151,1,37.5,2|0,0:0|0:0,0:0:0:0:
126,102,52082,1,2,0:0:0:0:
121,115,52183,2,0,L|186:109,1,37.5,10|0,0:0|0:0,0:0:0:0:
221,153,52386,1,6,0:0:0:0:
234,169,52589,6,0,P|257:174|294:154,1,37.5,2|0,0:0|0:0,0:0:0:0:
364,81,52791,6,0,L|368:199,1,97.4999955368044,8|2,0:0|0:0,0:0:0:0:
440,358,53197,2,0,L|443:260,1,97.4999955368044,2|2,0:0|0:0,0:0:0:0:
480,201,53501,1,2,0:0:0:0:
461,245,53602,1,2,0:0:0:0:
419,268,53703,1,2,0:0:0:0:
370,257,53805,1,10,0:0:0:0:
343,216,53906,1,2,0:0:0:0:
337,167,54008,2,0,L|337:106,1,48.7499977684022,2|0,0:0|0:0,0:0:0:0:
371,49,54210,1,2,0:0:0:0:
256,206,54413,5,10,0:0:0:0:
152,40,54616,1,2,0:0:0:0:
152,40,54717,1,2,0:0:0:0:
152,40,54818,2,0,L|257:72,1,97.4999955368044,2|2,0:0|0:0,0:0:0:0:
319,96,55122,1,0,0:0:0:0:
319,96,55224,2,0,L|214:128,1,97.4999955368044,2|10,0:0|0:0,0:0:0:0:
186,187,55528,1,2,0:0:0:0:
186,187,55629,2,0,L|183:256,1,48.7499977684022,2|0,0:0|0:0,0:0:0:0:
236,290,55832,1,2,0:0:0:0:
38,359,56035,6,0,L|152:368,1,97.4999955368044,10|2,0:0|0:0,0:0:0:0:
189,308,56339,1,2,0:0:0:0:
154,273,56440,1,2,0:0:0:0:
137,228,56541,1,2,0:0:0:0:
140,180,56643,1,2,0:0:0:0:
162,137,56744,2,0,L|223:147,1,48.7499977684022,2|0,0:0|0:0,0:0:0:0:
271,96,56947,1,0,0:0:0:0:
271,96,57048,1,10,0:0:0:0:
430,195,57251,1,2,0:0:0:0:
430,195,57352,1,8,0:0:0:0:
430,195,57454,2,0,L|367:203,1,48.7499977684022,2|0,0:0|0:0,0:0:0:0:
315,245,57656,6,0,L|312:360,1,97.4999955368044,10|8,0:0|0:0,0:0:0:0:
302,201,58062,1,2,0:0:0:0:
272,162,58163,1,2,0:0:0:0:
228,141,58264,1,2,0:0:0:0:
180,140,58366,2,0,L|185:243,1,97.4999955368044,2|0,0:0|0:0,0:0:0:0:
129,292,58670,1,10,0:0:0:0:
230,90,58872,2,0,L|224:195,1,97.4999955368044,2|2,0:0|0:0,0:0:0:0:
57,48,59278,6,0,P|94:23|165:41,1,97.4999955368044,8|2,0:0|0:0,0:0:0:0:
261,139,59683,2,0,P|298:164|369:146,1,97.4999955368044,2|0,0:0|0:0,0:0:0:0:
404,106,59987,1,2,0:0:0:0:
404,106,60089,2,0,L|461:98,1,48.7499977684022,0|2,0:0|0:0,0:0:0:0:
507,151,60291,1,10,0:0:0:0:
361,20,60494,1,0,0:0:0:0:
322,244,60697,1,2,0:0:0:0:
202,113,60899,6,0,L|263:91,1,48.7499977684022,10|2,0:0|0:0,0:0:0:0:
357,159,61102,2,0,L|296:137,1,48.7499977684022,2|2,0:0|0:0,0:0:0:0:
242,179,61305,1,2,0:0:0:0:
244,227,61406,1,2,0:0:0:0:
247,276,61507,1,2,0:0:0:0:
250,324,61609,1,2,0:0:0:0:
253,373,61710,2,0,L|188:350,1,48.7499977684022,2|0,0:0|0:0,0:0:0:0:
134,374,61913,1,10,0:0:0:0:
339,257,62116,2,0,L|209:272,1,97.4999955368044,2|0,0:0|0:0,0:0:0:0:
0,189,62521,6,0,L|35:311,1,97.4999955368044,10|0,0:0|0:0,0:0:0:0:
90,332,62825,1,2,0:0:0:0:
90,332,62927,2,0,L|209:315,1,97.4999955368044,0|2,0:0|0:0,0:0:0:0:
228,254,63231,1,0,0:0:0:0:
228,254,63332,2,0,P|284:216|337:241,1,97.4999955368044,2|8,0:0|0:0,0:0:0:0:
372,267,63636,1,2,0:0:0:0:
372,267,63737,2,0,P|397:278|439:261,1,48.7499977684022,0|2,0:0|0:0,0:0:0:0:
381,186,63940,2,0,L|375:115,1,48.7499977684022
506,197,64143,5,10,0:0:0:0:
465,223,64244,1,2,0:0:0:0:
440,264,64345,1,10,0:0:0:0:
434,312,64447,1,2,0:0:0:0:
451,357,64548,2,0,L|442:254,1,97.4999955368044,2|2,0:0|0:0,0:0:0:0:
432,24,64954,5,10,0:0:0:0:
46,331,65359,5,10,0:0:0:0:
219,81,65764,6,0,L|232:320,1,225.000008583069,14|0,0:0|0:0,0:0:0:0:
163,346,66068,1,2,0:0:0:0:
145,355,66170,2,0,P|226:268|243:274,1,112.500004291535,0|0,1:0|0:0,0:0:0:0:
411,292,66372,2,0,L|289:276,1,112.500004291535,2|0,0:0|0:0,0:0:0:0:
206,167,66575,2,0,B|346:119|275:276|488:153,1,225.000008583069,10|0,0:0|0:0,0:0:0:0:
460,125,66879,1,2,0:0:0:0:
445,111,66981,2,0,P|389:220|443:330,1,225.000008583069,0|2,1:0|0:0,0:0:0:0:
84,99,67386,6,0,B|162:137|162:137|328:70,1,225.000008583069,10|0,0:0|0:0,0:0:0:0:
334,26,67690,1,2,0:0:0:0:
314,39,67791,2,0,P|299:113|327:182,1,112.500004291535,0|0,1:0|0:0,0:0:0:0:
219,266,67994,2,0,P|227:210|212:157,1,112.500004291535,2|0,0:0|0:0,0:0:0:0:
136,105,68197,2,0,L|-5:97,1,112.500004291535,10|0,0:0|0:0,0:0:0:0:
212,157,68399,2,0,P|233:105|184:43,1,97.4999955368044,2|0,0:0|0:0,0:0:0:0:
102,219,68602,2,0,L|115:393,1,150,2|0,1:0|0:0,0:0:0:0:
357,62,69008,6,0,L|350:324,1,225.000008583069,10|0,0:0|0:0,0:0:0:0:
400,346,69312,1,0,0:0:0:0:
424,360,69413,2,0,P|358:308|310:321,1,112.500004291535,0|0,1:0|0:0,0:0:0:0:
162,357,69616,2,0,L|308:374,1,112.500004291535,2|0,0:0|0:0,0:0:0:0:
108,243,69818,6,0,P|81:289|127:259,1,134.999995880127,10|0,0:0|0:0,0:0:0:0:
259,185,70021,2,0,P|308:169|280:213,1,134.999995880127,2|0,0:0|0:0,0:0:0:0:
179,141,70224,6,0,P|133:114|163:160,1,134.999995880127,2|0,1:0|0:0,0:0:0:0:
237,292,70427,2,0,P|253:341|209:313,1,134.999995880127,2|0,0:0|0:0,0:0:0:0:
192,226,70629,6,0,P|207:123|319:122,1,194.999991073609,10|0,0:0|0:0,0:0:0:0:
325,161,70933,1,2,0:0:0:0:
316,178,71035,2,0,L|438:169,1,97.4999955368044,0|0,1:0|0:0,0:0:0:0:
467,241,71237,1,10,0:0:0:0:
467,241,71440,2,0,L|231:205,1,194.999991073609,10|0,0:0|0:0,0:0:0:0:
23,147,71845,1,10,0:0:0:0:
285,97,72048,1,10,0:0:0:0:
286,116,72149,1,8,0:0:0:0:
287,135,72251,6,0,B|199:115|208:25|208:25|321:-7|357:66,1,300,14|0,0:0|0:0,0:0:0:0:
404,97,72555,1,2,0:0:0:0:
403,117,72656,2,0,B|366:156|366:156|406:275,1,142.49999619484,0|0,1:0|0:0,0:0:0:0:
294,342,72859,2,0,L|445:360,1,142.49999619484,2|0,0:0|0:0,0:0:0:0:
306,219,73062,2,0,B|152:238|249:351|58:350,1,284.999992389679,10|0,0:0|0:0,0:0:0:0:
17,294,73366,1,2,0:0:0:0:
0,309,73467,2,0,P|60:211|-15:134,1,142.49999619484,0|0,1:0|0:0,0:0:0:0:
112,141,73670,2,0,P|60:94|56:25,1,142.49999619484,2|0,0:0|0:0,0:0:0:0:
225,120,73872,6,0,L|230:277,1,142.49999619484,10|0,0:0|0:0,0:0:0:0:
244,305,74075,2,0,L|239:162,1,142.49999619484,2|0,0:0|0:0,0:0:0:0:
312,358,74278,6,0,P|365:375|453:313,1,142.49999619484,2|0,1:0|0:0,0:0:0:0:
436,322,74481,2,0,P|376:357|308:341,1,142.49999619484,2|0,0:0|0:0,0:0:0:0:
402,222,74683,6,0,L|532:242,1,104.999996795654,10|0,0:0|0:0,0:0:0:0:
381,140,74886,2,0,L|511:160,1,104.999996795654,2|0,0:0|0:0,0:0:0:0:
308,96,75089,6,0,L|180:115,1,97.4999955368044,2|0,1:0|0:0,0:0:0:0:
329,14,75292,2,0,L|205:33,1,97.4999955368044,2|0,0:0|0:0,0:0:0:0:
411,63,75494,6,0,B|384:123|384:123|428:261,1,194.999991073609,10|0,0:0|0:0,0:0:0:0:
372,302,75798,1,2,0:0:0:0:
384,319,75899,2,0,P|335:280|260:303,1,97.4999955368044,0|0,1:0|0:0,0:0:0:0:
251,336,76102,2,0,P|202:375|127:352,1,97.4999955368044,2|0,0:0|0:0,0:0:0:0:
34,276,76305,2,0,P|96:172|166:261,1,194.999991073609,10|0,0:0|0:0,0:0:0:0:
163,262,76609,1,2,0:0:0:0:
177,279,76710,2,0,L|393:299,1,194.999991073609,0|2,1:0|0:0,0:0:0:0:
512,167,77116,5,10,0:0:0:0:
467,171,77217,1,0,0:0:0:0:
422,175,77318,1,0,0:0:0:0:
377,179,77420,1,8,0:0:0:0:
332,183,77521,1,0,1:0:0:0:
146,29,77724,1,8,0:0:0:0:
25,286,77927,2,0,L|148:266,1,89.9999972534181,10|8,0:0|0:0,0:0:0:0:
188,254,78129,1,8,0:0:0:0:
297,25,78332,1,12,0:2:0:0:
255,88,78433,1,8,0:0:0:0:
303,147,78535,1,8,0:0:0:0:
259,209,78636,1,8,0:0:0:0:
310,266,78737,6,0,B|359:235|359:235|516:317,1,225.000008583069,14|0,0:0|0:0,0:0:0:0:
466,374,79041,1,2,0:0:0:0:
433,365,79143,2,0,P|413:301|465:241,1,112.500004291535,0|0,1:0|0:0,0:0:0:0:
502,113,79345,2,0,L|507:253,1,112.500004291535,2|0,0:0|0:0,0:0:0:0:
349,86,79548,2,0,P|411:23|436:136,1,225.000008583069,10|0,0:0|0:0,0:0:0:0:
420,178,79852,1,2,0:0:0:0:
402,191,79954,2,0,B|265:125|302:261|163:162,1,225.000008583069,0|2,1:0|0:0,0:0:0:0:
34,330,80359,6,0,L|266:286,1,225.000008583069,10|0,0:0|0:0,0:0:0:0:
310,336,80663,1,2,0:0:0:0:
280,317,80764,2,0,P|252:252|295:190,1,112.500004291535,0|0,1:0|0:0,0:0:0:0:
149,100,80967,2,0,P|162:153|135:201,1,112.500004291535,2|0,0:0|0:0,0:0:0:0:
62,226,81170,2,0,L|179:236,1,112.500004291535,10|0,0:0|0:0,0:0:0:0:
234,182,81372,2,0,L|342:171,1,97.4999955368044,2|0,0:0|0:0,0:0:0:0:
390,222,81575,2,0,L|551:238,1,150,2|0,1:0|0:0,0:0:0:0:
287,41,81981,6,0,P|239:120|275:255,1,225.000008583069,10|0,0:0|0:0,0:0:0:0:
331,280,82285,1,0,0:0:0:0:
342,262,82386,2,0,P|369:308|363:388,1,112.500004291535,0|0,1:0|0:0,0:0:0:0:
154,341,82589,2,0,L|281:331,1,112.500004291535,2|0,0:0|0:0,0:0:0:0:
475,223,82791,6,0,B|507:205|507:205|392:180,1,134.999995880127,10|0,0:0|0:0,0:0:0:0:
204,121,82994,2,0,B|172:139|172:139|287:164,1,134.999995880127,2|0,0:0|0:0,0:0:0:0:
289,309,83197,6,0,B|307:341|307:341|332:226,1,134.999995880127,2|0,1:0|0:0,0:0:0:0:
391,38,83400,2,0,B|373:6|373:6|348:121,1,134.999995880127,2|0,0:0|0:0,0:0:0:0:
339,173,83602,6,0,P|257:233|144:166,1,194.999991073609,10|0,0:0|0:0,0:0:0:0:
150,137,83906,1,2,0:0:0:0:
137,119,84008,2,0,L|126:255,1,97.4999955368044,0|0,1:0|0:0,0:0:0:0:
86,280,84210,1,10,0:0:0:0:
86,280,84413,2,0,L|80:70,1,194.999991073609,10|0,0:0|0:0,0:0:0:0:
322,218,84818,1,10,0:0:0:0:
10,276,85021,1,10,0:0:0:0:
9,256,85122,1,8,0:0:0:0:
9,236,85224,6,0,B|79:148|188:215|188:215|168:284|100:275,1,300,14|0,0:0|0:0,0:0:0:0:
64,331,85528,1,2,0:0:0:0:
84,352,85629,2,0,B|110:306|110:306|96:193,1,142.49999619484,0|0,1:0|0:0,0:0:0:0:
20,71,85832,2,0,L|10:234,1,142.49999619484,2|0,0:0|0:0,0:0:0:0:
192,54,86035,2,0,P|138:13|152:145,1,284.999992389679,10|0,0:0|0:0,0:0:0:0:
194,137,86339,1,2,0:0:0:0:
210,153,86440,2,0,P|273:121|341:138,1,142.49999619484,0|0,1:0|0:0,0:0:0:0:
502,223,86643,2,0,P|439:254|371:237,1,142.49999619484,2|0,0:0|0:0,0:0:0:0:
403,0,86845,6,0,L|413:154,1,142.49999619484,10|0,0:0|0:0,0:0:0:0:
430,171,87048,2,0,L|420:28,1,142.49999619484,2|0,0:0|0:0,0:0:0:0:
262,130,87251,6,0,P|236:211|274:290,1,142.49999619484,2|0,1:0|0:0,0:0:0:0:
232,265,87454,2,0,P|215:196|241:131,1,142.49999619484,2|0,0:0|0:0,0:0:0:0:
376,267,87656,6,0,L|531:251,1,112.500004291535,10|0,0:0|0:0,0:0:0:0:
330,351,87859,2,0,L|485:335,1,112.500004291535,2|0,0:0|0:0,0:0:0:0:
241,181,88062,6,0,L|103:166,1,97.4999955368044,2|0,1:0|0:0,0:0:0:0:
272,264,88264,2,0,L|129:248,1,97.4999955368044,2|0,0:0|0:0,0:0:0:0:
330,193,88467,6,0,B|302:137|302:137|348:7,1,194.999991073609,10|0,0:0|0:0,0:0:0:0:
267,17,88771,1,2,0:0:0:0:
274,44,88872,2,0,P|308:78|410:61,1,97.4999955368044,0|0,1:0|0:0,0:0:0:0:
424,57,89075,2,0,P|458:23|560:40,1,97.4999955368044,2|0,0:0|0:0,0:0:0:0:
428,177,89278,2,0,B|374:202|374:202|173:144,1,194.999991073609,10|0,0:0|0:0,0:0:0:0:
182,209,89582,1,2,0:0:0:0:
172,239,89683,2,0,P|197:138|97:106,1,194.999991073609,0|2,1:0|0:0,0:0:0:0:
26,361,90089,6,0,L|255:331,1,179.999994506836,14|0,0:0|0:0,0:0:0:0:
264,292,90393,1,8,0:0:0:0:
264,292,90494,1,0,1:0:0:0:
342,43,90697,1,8,0:0:0:0:
465,199,90899,2,0,L|334:211,1,89.9999972534181,14|0,0:0|0:0,0:0:0:0:
301,216,91102,1,8,0:0:0:0:
497,71,91305,1,8,0:2:0:0:
438,20,91406,1,8,0:0:0:0:
373,61,91508,1,8,0:0:0:0:
317,11,91609,1,8,0:0:0:0:
255,53,91710,6,0,B|213:24|213:24|46:87,1,194.999991073609,14|0,0:0|0:0,0:0:0:0:
158,304,92116,1,2,0:0:0:0:
158,304,92318,1,2,0:0:0:0:
191,115,92521,1,2,0:0:0:0:
191,115,92724,1,10,0:0:0:0:
295,359,92927,2,0,P|338:372|436:281,1,150,2|0,0:0|0:0,0:0:0:0:
170,339,93332,6,0,P|127:352|29:261,1,150,2|0,0:0|0:0,0:0:0:0:
233,115,93737,2,0,L|238:317,1,150,2|2,0:0|0:0,0:0:0:0:
285,323,94041,1,0,0:0:0:0:
268,306,94143,2,0,P|321:249|423:282,1,150,2|8,0:0|0:0,0:0:0:0:
493,326,94548,1,0,0:0:0:0:
400,58,94751,6,0,B|368:115|368:115|420:269,1,194.999991073609,6|8,0:0|0:0,0:0:0:0:
368,348,95156,1,0,0:0:0:0:
498,195,95359,2,0,P|445:138|343:171,1,150,2|2,0:0|0:0,0:0:0:0:
324,194,95663,1,0,0:0:0:0:
307,179,95764,2,0,L|135:191,1,150,2|10,0:0|0:0,0:0:0:0:
8,97,96170,1,2,0:0:0:0:
28,87,96271,1,8,0:0:0:0:
48,77,96372,2,0,L|38:192,1,75,0|0,0:0|0:0,0:0:0:0:
80,226,96575,5,10,0:0:0:0:
80,226,96778,1,10,0:0:0:0:
259,45,96981,2,0,P|306:86|281:181,1,150,2|2,0:0|0:0,0:0:0:0:
247,222,97285,1,0,0:0:0:0:
227,233,97386,2,0,P|212:303|263:354,2,150,2|8|0,0:0|0:0|0:0,0:0:0:0:
432,255,97994,2,0,B|402:277|402:277|301:256,1,97.4999955368044,6|0,0:0|0:0,0:0:0:0:
445,229,98197,6,0,L|448:61,1,150,10|0,0:0|0:0,0:0:0:0:
395,24,98501,2,0,P|360:9|296:37,1,75,2|0,0:0|0:0,0:0:0:0:
267,62,98704,1,2,0:0:0:0:
277,81,98805,2,0,L|170:83,1,75,2|0,0:0|0:0,0:0:0:0:
260,154,99008,2,0,L|255:244,1,75,2|0,0:0|0:0,0:0:0:0:
199,279,99210,2,0,B|159:251|159:251|-8:324,1,194.999991073609,14|2,0:0|0:0,0:0:0:0:
93,347,99514,2,0,P|102:311|65:240,2,75,0|2|2,0:0|0:0|0:0,0:0:0:0:
8,239,99818,6,0,B|48:267|48:267|181:208,1,194.999991073609,14|0,0:0|0:0,0:0:0:0:
322,27,100224,2,0,L|326:121,2,75,2|2|2,0:0|0:0|0:0,0:0:0:0:
310,119,100528,1,0,0:0:0:0:
295,136,100629,2,0,P|224:144|168:55,1,150,2|8,0:0|0:0,0:0:0:0:
302,262,101035,2,0,L|395:235,1,75,2|0,0:0|0:0,0:0:0:0:
481,64,101237,6,0,B|453:123|453:123|504:260,1,194.999991073609,6|8,0:0|0:0,0:0:0:0:
220,346,101643,2,0,L|225:239,1,75,2|2,0:0|0:0,0:0:0:0:
177,209,101845,1,2,0:0:0:0:
156,217,101947,1,2,0:0:0:0:
135,226,102048,2,0,L|130:119,1,75,2|0,0:0|0:0,0:0:0:0:
68,106,102251,2,0,L|73:-1,1,75,2|0,0:0|0:0,0:0:0:0:
12,178,102454,2,0,B|58:202|58:202|238:123,1,194.999991073609,12|2,0:0|0:0,0:0:0:0:
254,178,102758,1,8,0:0:0:0:
242,197,102859,2,0,L|339:209,1,75,2|0,0:0|0:0,0:0:0:0:
371,148,103062,6,0,B|341:199|341:199|388:333,1,194.999991073609,14|8,0:0|0:0,0:0:0:0:
422,93,103467,2,0,P|352:71|301:172,1,150,2|2,0:0|0:0,0:0:0:0:
75,334,103872,2,0,B|27:283|27:283|82:145,1,194.999991073609,6|8,0:0|0:0,0:0:0:0:
218,84,104278,2,0,L|223:251,1,150
291,269,104582,1,0,0:0:0:0:
291,269,104683,5,2,0:0:0:0:
230,318,105089,1,2,0:0:0:0:
159,284,105494,1,2,0:0:0:0:
142,207,105899,2,0,L|145:171,1,30,2|0,0:0|0:0,0:0:0:0:
57,61,106305,5,2,0:0:0:0:
55,138,106710,1,2,0:0:0:0:
122,177,107116,1,2,0:0:0:0:
185,132,107521,2,0,L|188:90,1,30,2|0,0:0|0:0,0:0:0:0:
272,226,107927,5,2,0:0:0:0:
334,272,108332,1,2,0:0:0:0:
404,239,108737,1,2,0:0:0:0:
400,160,109143,2,0,L|394:118,1,30,2|0,0:0|0:0,0:0:0:0:
247,56,109548,6,0,L|246:88,2,30,2|2|2,0:0|0:0|0:0,0:0:0:0:
191,142,110156,2,0,L|192:174,2,30,2|2|0,0:0|0:0|0:0,0:0:0:0:
252,228,110764,2,0,L|251:260,1,30,2|0,0:0|0:0,0:0:0:0:
399,363,111170,5,2,0:0:0:0:
343,307,111575,1,2,0:0:0:0:
267,325,111981,1,2,0:0:0:0:
210,270,112386,2,0,L|174:277,1,30,2|0,0:0|0:0,0:0:0:0:
21,189,112791,5,2,0:0:0:0:
77,133,113196,1,2,0:0:0:0:
153,151,113602,1,2,0:0:0:0:
210,96,114007,2,0,L|246:103,1,30,2|0,0:0|0:0,0:0:0:0:
330,210,114413,6,0,L|296:214,1,30,2|0,0:0|0:0,0:0:0:0:
392,263,114717,1,0,0:0:0:0:
392,263,114818,2,0,L|426:267,1,30,2|2,0:0|0:0,0:0:0:0:
341,325,115224,1,2,0:0:0:0:
272,288,115629,2,0,L|273:246,1,30,2|0,0:0|0:0,0:0:0:0:
176,82,116035,5,2,0:0:0:0:
181,159,116440,1,2,0:0:0:0:
184,236,116845,2,0,L|185:269,1,30,2|0,0:0|0:0,0:0:0:0:
174,294,117251,2,0,L|173:264,1,30,2|0,0:0|0:0,0:0:0:0:
280,125,117656,6,0,P|316:91|413:111,1,150,14|2,0:0|0:0,0:0:0:0:
508,275,118062,2,0,L|346:250,1,150,2|0,0:0|0:0,0:0:0:0:
301,320,118366,1,2,0:0:0:0:
311,308,118467,2,0,L|149:333,1,150,2|10,0:0|0:0,0:0:0:0:
23,179,118872,2,0,P|71:266|18:315,1,150,2|2,0:0|0:0,0:0:0:0:
88,364,119177,1,2,0:0:0:0:
100,371,119278,6,0,L|108:192,1,150,10|2,0:0|0:0,0:0:0:0:
207,53,119683,2,0,L|213:202,1,150,2|2,0:0|0:0,0:0:0:0:
275,246,119987,1,0,0:0:0:0:
284,258,120089,2,0,P|213:209|138:248,1,150,2|10,0:0|0:0,0:0:0:0:
278,76,120494,2,0,P|349:27|424:66,1,150,2|0,0:0|0:0,0:0:0:0:
109,6,120899,6,0,L|114:175,1,150,10|0,0:0|0:0,0:0:0:0:
59,210,121204,1,2,0:0:0:0:
48,199,121305,2,0,L|44:289,1,75,0|0,0:0|0:0,0:0:0:0:
103,324,121508,2,0,L|181:316,1,75,2|0,0:0|0:0,0:0:0:0:
243,361,121710,2,0,P|199:302|242:214,1,150,2|8,0:0|0:0,0:0:0:0:
419,277,122116,2,0,L|331:290,1,75,2|8,0:0|0:0,0:0:0:0:
437,289,122318,2,0,L|525:276,1,75,2|0,0:0|0:0,0:0:0:0:
502,192,122521,6,0,L|302:167,1,150,10|10,0:0|0:0,0:0:0:0:
296,118,122825,1,2,0:0:0:0:
303,105,122927,2,0,L|305:210,1,75,2|0,0:0|0:0,0:0:0:0:
250,235,123129,2,0,L|248:340,1,75,2|0,0:0|0:0,0:0:0:0:
186,358,123332,2,0,P|138:381|64:307,1,150,2|10,0:0|0:0,0:0:0:0:
203,137,123737,2,0,L|422:121,1,150,2|0,0:0|0:0,0:0:0:0:
77,32,124143,6,0,P|43:98|73:181,1,150,2|0,0:0|0:0,0:0:0:0:
239,37,124548,2,0,P|168:59|130:139,1,150,2|0,0:0|0:0,0:0:0:0:
354,154,124954,2,0,P|287:120|205:150,1,150,2|8,0:0|0:0,0:0:0:0:
361,245,125359,1,2,0:0:0:0:
361,245,125764,6,0,L|523:227,1,150,10|0,0:0|0:0,0:0:0:0:
285,314,126170,2,0,L|447:332,1,150,2|0,0:0|0:0,0:0:0:0:
141,226,126575,2,0,L|303:208,1,150,2|8,0:0|0:0,0:0:0:0:
83,309,126981,1,2,0:0:0:0:
83,309,127386,5,10,0:0:0:0:
347,343,127589,1,2,0:0:0:0:
197,130,127791,5,2,0:0:0:0:
152,356,127994,1,2,0:0:0:0:
117,103,128197,5,2,0:0:0:0:
221,307,128399,1,10,0:0:0:0:
225,51,128602,5,2,0:0:0:0:
225,51,128704,1,8,0:0:0:0:
225,51,128805,1,2,0:0:0:0:
127,274,129008,5,10,0:0:0:0:
0,86,129210,1,10,0:0:0:0:
257,131,129413,5,2,0:0:0:0:
120,289,129616,1,2,0:0:0:0:
26,9,129818,2,0,B|85:54|85:54|240:2,1,225,2|0,0:0|0:0,0:0:0:0:
241,23,130224,2,0,P|183:83|245:214,1,225,2|0,0:0|0:0,0:0:0:0:
319,190,130629,6,0,L|92:210,1,225.000008583069,14|0,0:0|0:0,0:0:0:0:
47,150,130933,1,2,0:0:0:0:
65,134,131035,2,0,P|103:212|67:270,1,112.500004291535,0|0,1:0|0:0,0:0:0:0:
11,372,131237,2,0,L|18:241,1,112.500004291535,2|0,0:0|0:0,0:0:0:0:
171,142,131440,2,0,P|128:165|160:74,1,225.000008583069,10|0,0:0|0:0,0:0:0:0:
218,68,131744,1,2,0:0:0:0:
227,87,131845,2,0,P|319:136|420:61,1,225.000008583069,0|2,1:0|0:0,0:0:0:0:
489,293,132251,6,0,B|421:253|421:253|282:328,1,225.000008583069,10|0,0:0|0:0,0:0:0:0:
210,356,132555,1,2,0:0:0:0:
221,337,132656,2,0,P|172:313|89:351,1,112.500004291535,0|0,1:0|0:0,0:0:0:0:
68,207,132859,2,0,P|121:218|171:195,1,112.500004291535,2|0,0:0|0:0,0:0:0:0:
216,130,133062,2,0,L|208:12,1,112.500004291535,10|0,0:0|0:0,0:0:0:0:
109,139,133264,2,0,L|103:246,1,97.4999955368044,2|0,0:0|0:0,0:0:0:0:
169,302,133467,2,0,P|117:251|14:294,1,150,2|0,1:0|0:0,0:0:0:0:
284,217,133872,6,0,B|392:161|383:280|518:184,1,225.000008583069,10|0,0:0|0:0,0:0:0:0:
463,131,134177,1,0,0:0:0:0:
452,103,134278,2,0,L|440:256,1,112.500004291535,0|0,1:0|0:0,0:0:0:0:
370,355,134481,2,0,P|320:372|248:304,1,112.500004291535,2|0,0:0|0:0,0:0:0:0:
203,142,134683,6,0,B|205:41|205:41|229:118,1,134.999995880127,10|0,0:0|0:0,0:0:0:0:
287,263,134886,2,0,B|285:364|285:364|274:331,1,134.999995880127,2|0,0:0|0:0,0:0:0:0:
308,138,135089,6,0,B|409:140|409:140|332:164,1,134.999995880127,2|0,1:0|0:0,0:0:0:0:
187,222,135292,2,0,B|86:220|86:220|118:209,1,134.999995880127,2|0,0:0|0:0,0:0:0:0:
257,195,135494,6,0,P|325:298|295:354,1,194.999991073609,10|0,0:0|0:0,0:0:0:0:
223,322,135798,1,2,0:0:0:0:
212,338,135899,2,0,L|390:322,1,97.4999955368044,0|0,1:0|0:0,0:0:0:0:
378,362,136102,1,10,0:0:0:0:
378,362,136305,2,0,L|140:338,1,194.999991073609,10|0,0:0|0:0,0:0:0:0:
9,323,136710,1,10,0:0:0:0:
180,136,136913,1,10,0:0:0:0:
184,154,137014,1,8,0:0:0:0:
187,171,137116,6,0,B|228:155|272:209|272:209|180:326|74:232,1,300,14|0,0:0|0:0,0:0:0:0:
46,194,137420,1,2,0:0:0:0:
60,167,137521,2,0,L|71:341,1,142.49999619484,0|0,1:0|0:0,0:0:0:0:
109,108,137724,2,0,P|151:60|238:90,1,142.49999619484,2|0,0:0|0:0,0:0:0:0:
426,201,137927,2,0,B|266:151|310:345|140:257,1,284.999992389679,10|0,0:0|0:0,0:0:0:0:
186,289,138231,1,2,0:0:0:0:
204,313,138332,2,0,L|200:138,1,142.49999619484,0|0,1:0|0:0,0:0:0:0:
319,35,138535,2,0,L|315:177,1,142.49999619484,2|0,0:0|0:0,0:0:0:0:
461,332,138737,6,0,P|412:294|307:330,1,142.49999619484,10|0,0:0|0:0,0:0:0:0:
334,317,138940,2,0,P|402:306|459:346,1,142.49999619484,2|0,0:0|0:0,0:0:0:0:
260,227,139143,6,0,L|96:251,1,142.49999619484,2|0,1:0|0:0,0:0:0:0:
106,263,139345,2,0,L|246:242,1,142.49999619484,2|0,0:0|0:0,0:0:0:0:
365,92,139548,6,0,L|373:231,1,104.999996795654,10|0,0:0|0:0,0:0:0:0:
284,53,139751,2,0,L|292:192,1,104.999996795654,2|0,0:0|0:0,0:0:0:0:
199,274,139954,6,0,L|205:172,1,97.4999955368044,2|0,1:0|0:0,0:0:0:0:
119,302,140156,2,0,L|125:200,1,97.4999955368044,2|0,0:0|0:0,0:0:0:0:
26,135,140359,6,0,B|52:174|52:174|41:350,1,194.999991073609,10|0,0:0|0:0,0:0:0:0:
97,377,140663,1,2,0:0:0:0:
113,359,140764,2,0,P|158:320|219:349,1,97.4999955368044,0|0,1:0|0:0,0:0:0:0:
256,360,140967,2,0,P|303:360|335:325,1,97.4999955368044,2|0,0:0|0:0,0:0:0:0:
439,187,141170,2,0,L|202:147,1,194.999991073609,10|0,0:0|0:0,0:0:0:0:
199,96,141474,1,2,0:0:0:0:
180,102,141575,2,0,P|174:196|260:237,1,194.999991073609,0|2,1:0|0:0,0:0:0:0:
492,227,141981,5,10,0:0:0:0:
462,193,142082,1,0,0:0:0:0:
422,174,142183,1,0,0:0:0:0:
377,173,142285,1,8,0:0:0:0:
336,191,142386,1,0,1:0:0:0:
150,329,142589,1,8,0:0:0:0:
192,173,142791,2,0,P|225:205|234:264,1,89.9999972534181,10|0,0:0|0:0,0:0:0:0:
253,326,142994,1,8,0:0:0:0:
75,143,143197,5,12,0:0:0:0:
127,99,143298,1,8,0:0:0:0:
188,128,143399,1,8,0:0:0:0:
187,196,143501,1,8,0:0:0:0:
128,237,143602,6,0,B|252:168|196:313|408:170,1,225.000008583069,14|0,0:0|0:0,0:0:0:0:
405,253,143906,1,2,0:0:0:0:
383,274,144008,2,0,P|360:238|381:138,1,112.500004291535,0|0,1:0|0:0,0:0:0:0:
466,63,144210,2,0,L|462:206,1,112.500004291535,2|0,0:0|0:0,0:0:0:0:
452,355,144413,2,0,B|391:296|391:296|220:380,1,225.000008583069,10|0,0:0|0:0,0:0:0:0:
205,308,144717,1,2,0:0:0:0:
194,332,144818,2,0,L|185:96,1,225.000008583069,0|2,1:0|0:0,0:0:0:0:
501,40,145224,6,0,P|472:83|301:47,1,225.000008583069,10|0,0:0|0:0,0:0:0:0:
262,21,145528,1,2,0:0:0:0:
289,4,145629,2,0,L|279:160,1,112.500004291535,0|0,1:0|0:0,0:0:0:0:
326,179,145832,2,0,L|336:335,1,112.500004291535,2|0,0:0|0:0,0:0:0:0:
403,228,146035,2,0,P|333:198|269:244,1,112.500004291535,10|0,0:0|0:0,0:0:0:0:
251,267,146237,2,0,P|181:297|128:249,1,97.4999955368044,2|0,0:0|0:0,0:0:0:0:
116,234,146440,2,0,L|112:80,1,150,2|0,1:0|0:0,0:0:0:0:
1,331,146845,6,0,B|68:295|68:295|269:376,1,225.000008583069,10|0,0:0|0:0,0:0:0:0:
280,328,147149,1,0,0:0:0:0:
292,344,147251,2,0,P|259:274|299:206,1,112.500004291535,0|0,1:0|0:0,0:0:0:0:
332,196,147454,2,0,P|362:149|357:94,1,112.500004291535,2|0,0:0|0:0,0:0:0:0:
89,126,147656,6,0,B|127:101|127:101|247:127,1,134.999995880127,10|0,0:0|0:0,0:0:0:0:
439,223,147859,2,0,B|401:249|401:249|313:228,1,134.999995880127,2|0,0:0|0:0,0:0:0:0:
222,351,148062,6,0,B|197:313|197:313|215:225,1,134.999995880127,2|0,1:0|0:0,0:0:0:0:
315,6,148264,2,0,B|341:41|341:41|315:161,1,134.999995880127,2|0,0:0|0:0,0:0:0:0:
265,175,148467,6,0,P|187:145|83:211,1,194.999991073609,10|0,0:0|0:0,0:0:0:0:
47,134,148771,1,2,0:0:0:0:
63,115,148872,2,0,L|74:295,1,97.4999955368044,0|0,1:0|0:0,0:0:0:0:
16,272,149075,1,10,0:0:0:0:
16,272,149278,2,0,P|80:310|170:220,1,194.999991073609,10|0,0:0|0:0,0:0:0:0:
232,63,149683,1,10,0:0:0:0:
287,282,149886,1,10,0:0:0:0:
269,274,149987,1,8,0:0:0:0:
250,266,150089,6,0,B|196:261|173:306|173:306|283:276|281:393|423:276,1,300,14|0,0:0|0:0,0:0:0:0:
425,252,150393,1,2,0:0:0:0:
440,272,150494,2,0,P|387:197|403:126,1,142.49999619484,0|0,1:0|0:0,0:0:0:0:
269,24,150697,2,0,L|266:185,1,142.49999619484,2|0,0:0|0:0,0:0:0:0:
148,298,150899,2,0,P|177:236|8:175,1,284.999992389679,10|0,0:0|0:0,0:0:0:0:
1,231,151204,1,2,0:0:0:0:
13,250,151305,2,0,L|174:231,1,142.49999619484,0|0,1:0|0:0,0:0:0:0:
361,286,151508,2,0,L|200:267,1,142.49999619484,2|0,0:0|0:0,0:0:0:0:
169,97,151710,6,0,P|222:62|317:98,1,142.49999619484,10|0,0:0|0:0,0:0:0:0:
293,59,151913,2,0,P|225:42|166:79,1,142.49999619484,2|0,0:0|0:0,0:0:0:0:
401,162,152116,6,0,L|390:13,1,142.49999619484,2|0,1:0|0:0,0:0:0:0:
406,38,152318,2,0,L|416:180,1,142.49999619484,2|0,0:0|0:0,0:0:0:0:
329,295,152521,6,0,L|200:302,1,112.500004291535,10|0,0:0|0:0,0:0:0:0:
290,218,152724,2,0,L|161:225,1,112.500004291535,2|0,0:0|0:0,0:0:0:0:
319,128,152927,6,0,L|440:134,1,97.4999955368044,2|0,1:0|0:0,0:0:0:0:
287,47,153129,2,0,L|408:53,1,97.4999955368044,2|0,0:0|0:0,0:0:0:0:
227,117,153332,6,0,P|172:96|56:185,1,194.999991073609,10|0,0:0|0:0,0:0:0:0:
26,227,153636,1,2,0:0:0:0:
18,243,153737,2,0,L|5:65,1,97.4999955368044,0|0,1:0|0:0,0:0:0:0:
134,194,153940,2,0,L|126:291,1,97.4999955368044,2|0,0:0|0:0,0:0:0:0:
62,329,154143,2,0,P|139:259|237:344,1,194.999991073609,10|0,0:0|0:0,0:0:0:0:
266,346,154447,1,2,0:0:0:0:
251,355,154548,2,0,P|339:381|403:313,1,194.999991073609,0|2,1:0|0:0,0:0:0:0:
497,100,154954,6,0,B|447:67|447:67|304:108,1,179.999994506836,14|0,0:0|0:0,0:0:0:0:
297,171,155258,1,8,0:0:0:0:
297,171,155359,1,0,1:0:0:0:
144,16,155562,1,8,0:0:0:0:
54,153,155764,2,0,L|162:134,1,89.9999972534181,14|0,0:0|0:0,0:0:0:0:
217,119,155967,1,8,0:0:0:0:
330,244,156170,5,8,0:0:0:0:
304,306,156271,1,8,0:0:0:0:
237,309,156372,1,8,0:0:0:0:
205,249,156474,1,8,0:0:0:0:
254,196,156575,6,0,L|258:281,1,75,6|2,0:0|0:0,0:0:0:0:
303,334,156981,1,2,0:0:0:0:
303,334,157183,1,2,0:0:0:0:
380,349,157386,1,2,0:0:0:0:
380,349,157589,1,2,0:0:0:0:
433,290,157791,1,2,0:0:0:0:
433,290,157994,1,2,0:0:0:0:
397,214,158197,6,0,L|301:198,1,75,2|0,0:0|0:0,0:0:0:0:
180,278,158602,1,2,0:0:0:0:
180,278,158805,1,2,0:0:0:0:
218,213,159008,1,10,0:0:0:0:
218,213,159210,1,10,0:0:0:0:
202,139,159413,1,10,0:0:0:0:
202,139,159616,1,10,0:0:0:0:
144,91,159818,6,0,L|54:102,1,75,10|0,0:0|0:0,0:0:0:0:
269,12,160224,2,0,L|271:116,2,75,10|10|10,0:0|0:0|0:0,0:0:0:0:
272,314,161035,2,0,L|270:239,2,75,2|2|2,0:0|0:0|0:0,0:0:0:0:
270,86,161845,2,0,L|268:11,2,75,2|2|10,0:0|0:0|0:0,0:0:0:0:
74,244,162859,5,2,0:0:0:0:
74,244,163062,2,0,L|174:237,1,75,10|0,0:0|0:0,0:0:0:0:
198,179,163366,2,0,L|259:182,1,37.5,2|8,0:0|0:0,0:0:0:0:
395,299,163670,1,2,0:0:0:0:
395,299,163872,2,0,L|294:296,1,75,2|0,0:0|0:0,0:0:0:0:
252,327,164177,2,0,L|256:377,1,37.5,2|0,0:0|0:0,0:0:0:0:
322,191,164481,1,2,0:0:0:0:
322,191,164683,6,0,P|365:167|408:187,1,75,2|0,0:0|0:0,0:0:0:0:
445,226,164987,2,0,P|475:239|504:233,1,37.5,2|0,0:0|0:0,0:0:0:0:
267,114,165291,1,2,0:0:0:0:
267,114,165494,2,0,P|224:90|174:100,1,75,10|0,0:0|0:0,0:0:0:0:
144,149,165797,2,0,P|114:162|85:156,1,37.5,10|0,0:0|0:0,0:0:0:0:
6,61,166102,1,2,0:0:0:0:
6,61,166305,6,0,L|101:53,1,75,10|0,0:0|0:0,0:0:0:0:
151,15,166609,2,0,L|155:79,1,37.5,2|8,0:0|0:0,0:0:0:0:
162,218,166913,1,10,0:0:0:0:
162,218,167116,2,0,L|157:126,1,75,2|0,0:0|0:0,0:0:0:0:
100,275,167521,1,2,0:0:0:0:
100,275,167724,1,2,0:0:0:0:
100,275,167927,6,0,P|164:300|195:282,1,75,2|0,0:0|0:0,0:0:0:0:
225,254,168231,2,0,P|239:239|275:234,1,37.5,2|0,0:0|0:0,0:0:0:0:
439,309,168535,1,2,0:0:0:0:
439,309,168737,2,0,L|331:311,1,75,10|0,0:0|0:0,0:0:0:0:
474,227,169143,2,0,P|479:180|453:146,1,75,2|2,0:0|0:0,0:0:0:0:
317,40,169548,6,0,L|315:166,1,120,14|2,0:0|0:0,0:0:0:0:
188,256,169954,1,2,1:0:0:0:
216,237,170055,1,2,0:0:0:0:
234,239,170156,1,2,0:0:0:0:
263,257,170258,2,0,L|322:250,1,60,2|0,0:0|0:0,0:0:0:0:
378,301,170460,2,0,L|447:309,1,60,2|8,0:0|0:0,0:0:0:0:
495,255,170663,1,2,0:0:0:0:
502,241,170764,2,0,L|498:170,1,60,2|0,1:0|0:0,0:0:0:0:
442,133,170967,2,0,L|446:62,1,60,2|0,0:0|0:0,0:0:0:0:
304,10,171170,6,0,L|310:79,1,60,10|0,0:0|0:0,0:0:0:0:
253,123,171372,1,2,0:0:0:0:
258,143,171474,1,2,0:0:0:0:
263,163,171575,2,0,L|186:153,1,60,2|0,1:0|0:0,0:0:0:0:
143,204,171778,1,2,0:0:0:0:
153,222,171879,2,0,L|66:231,1,60,2|0,1:0|0:0,0:0:0:0:
316,303,172183,1,10,0:0:0:0:
316,303,172386,2,0,L|446:280,1,120,2|0,1:0|0:0,0:0:0:0:
230,365,172791,5,10,0:0:0:0:
230,365,172994,2,0,L|231:290,1,60,2|0,0:0|0:0,0:0:0:0:
271,237,173197,2,0,L|270:162,1,60,2|0,1:0|0:0,0:0:0:0:
228,114,173399,1,2,0:0:0:0:
237,95,173501,2,0,L|300:90,1,60,2|0,0:0|0:0,0:0:0:0:
186,32,173704,2,0,L|123:27,1,60,2|8,0:0|0:0,0:0:0:0:
69,77,173906,1,0,0:0:0:0:
75,96,174008,2,0,L|77:188,1,60,2|8,1:0|0:0,0:0:0:0:
27,215,174210,2,0,P|56:202|100:210,1,60,2|0,0:0|0:0,0:0:0:0:
142,262,174413,5,0,0:0:0:0:
142,262,174616,2,0,L|214:265,1,60,10|2,0:0|0:0,0:0:0:0:
319,329,174818,1,2,1:0:0:0:
334,334,174920,1,0,0:0:0:0:
356,329,175021,1,2,0:0:0:0:
370,334,175122,1,0,0:0:0:0:
393,341,175224,2,0,L|457:332,1,60,2|0,0:0|0:0,0:0:0:0:
487,268,175427,2,0,L|484:192,1,60,8|0,0:0|0:0,0:0:0:0:
426,160,175629,2,0,P|406:103|435:38,1,120,2|2,0:0|1:0,0:0:0:0:
321,215,176035,6,0,P|242:236|194:195,1,127.50000243187,10|2,0:0|0:0,0:0:0:0:
84,45,176440,1,2,1:0:0:0:
80,69,176541,1,2,0:0:0:0:
83,82,176643,1,2,0:0:0:0:
92,118,176744,1,0,0:0:0:0:
85,144,176845,2,0,L|176:129,1,63.7500012159348,2|0,0:0|0:0,0:0:0:0:
203,79,177048,1,8,0:0:0:0:
219,64,177149,2,0,L|309:71,1,63.7500012159348,2|0,0:0|1:0,0:0:0:0:
464,210,177454,1,2,0:0:0:0:
448,225,177555,6,0,L|358:218,1,63.7500012159348,2|8,0:0|0:0,0:0:0:0:
326,273,177758,1,2,0:0:0:0:
306,286,177859,2,0,L|306:362,1,63.7500012159348,2|0,0:0|0:0,0:0:0:0:
259,224,178062,1,2,1:0:0:0:
237,209,178163,1,2,0:0:0:0:
193,215,178264,1,2,0:0:0:0:
151,251,178366,2,0,L|84:256,1,63.7500012159348,2|0,0:0|0:0,0:0:0:0:
39,185,178568,1,2,0:0:0:0:
56,170,178670,2,0,L|60:85,1,63.7500012159348,10|0,0:0|0:0,0:0:0:0:
114,50,178872,2,0,P|166:21|255:63,1,127.50000243187,2|0,1:0|0:0,0:0:0:0:
349,323,179278,6,0,L|351:251,1,63.7500012159348,10|2,0:0|0:0,0:0:0:0:
416,213,179481,2,0,L|414:141,1,63.7500012159348,2|2,0:0|0:0,0:0:0:0:
350,103,179683,2,0,L|263:94,1,63.7500012159348,2|0,1:0|0:0,0:0:0:0:
232,149,179886,1,2,0:0:0:0:
221,168,179987,2,0,L|135:172,1,63.7500012159348,2|0,0:0|0:0,0:0:0:0:
102,221,180190,1,2,0:0:0:0:
83,233,180291,2,0,L|85:319,1,63.7500012159348,10|0,0:0|0:0,0:0:0:0:
145,342,180494,2,0,P|201:367|280:327,1,127.50000243187,2|2,1:0|0:0,0:0:0:0:
202,92,180899,6,0,L|200:168,1,63.7500012159348,10|0,0:0|0:0,0:0:0:0:
258,205,181102,2,0,L|260:284,1,63.7500012159348,10|0,0:0|0:0,0:0:0:0:
181,264,181305,1,2,1:0:0:0:
196,248,181406,1,2,0:0:0:0:
241,235,181508,1,2,0:0:0:0:
271,250,181609,2,0,L|345:256,1,63.7500012159348,2|0,0:0|0:0,0:0:0:0:
397,207,181812,1,2,0:0:0:0:
411,223,181913,2,0,L|492:220,1,63.7500012159348,10|0,0:0|0:0,0:0:0:0:
341,58,182116,2,0,P|318:98|363:215,1,127.50000243187,2|0,1:0|0:0,0:0:0:0:
110,304,182521,5,14,0:0:0:0:
267,249,182724,1,2,0:0:0:0:
92,165,182927,1,2,1:0:0:0:
189,348,183129,1,2,0:0:0:0:
194,322,183231,1,2,0:0:0:0:
198,296,183332,1,2,0:0:0:0:
228,114,183535,1,10,0:0:0:0:
333,342,183737,1,2,1:0:0:0:
188,216,183940,1,2,0:0:0:0:
390,121,184143,5,10,0:0:0:0:
384,146,184244,1,2,0:0:0:0:
379,171,184345,1,2,0:0:0:0:
245,342,184548,1,2,1:0:0:0:
429,298,184751,1,2,0:0:0:0:
207,244,184954,1,2,0:0:0:0:
32,373,185156,1,10,0:0:0:0:
24,347,185258,1,2,0:0:0:0:
15,322,185359,1,2,1:0:0:0:
212,355,185562,1,2,0:0:0:0:
146,156,185764,6,0,P|100:224|124:299,1,150,10|0,0:0|0:0,0:0:0:0:
297,148,186170,1,2,1:0:0:0:
309,170,186271,2,0,L|296:75,1,75,2|0,0:0|0:0,0:0:0:0:
381,210,186474,1,2,0:0:0:0:
373,223,186575,1,2,0:0:0:0:
354,242,186677,1,2,0:0:0:0:
310,259,186778,1,10,0:0:0:0:
266,243,186879,1,2,0:0:0:0:
214,194,186981,2,0,L|219:95,1,75,2|8,1:0|0:0,0:0:0:0:
162,70,187183,1,0,0:0:0:0:
147,47,187285,1,0,0:0:0:0:
130,26,187386,6,0,L|132:182,1,150,10|8,0:0|0:0,0:0:0:0:
75,230,187690,1,2,0:0:0:0:
57,249,187791,2,0,P|143:273|204:231,1,150,2|2,1:0|0:0,0:0:0:0:
232,178,188095,2,0,L|223:302,1,75,2|0,0:0|0:0,0:0:0:0:
290,293,188298,2,0,L|299:417,1,75,2|8,0:0|0:0,0:0:0:0:
464,174,188602,2,0,P|386:130|302:171,1,150,2|0,1:0|0:0,0:0:0:0:
28,273,189008,6,0,B|78:238|78:238|240:288,1,209.999993591309,14|2,0:0|0:0,0:0:0:0:
283,324,189312,1,2,0:0:0:0:
305,307,189413,2,0,L|298:198,1,78.7499975967408,2|0,1:0|0:0,0:0:0:0:
245,173,189616,2,0,L|252:64,1,78.7499975967408,2|2,0:0|0:0,0:0:0:0:
330,22,189818,1,2,0:0:0:0:
318,36,189920,1,2,0:0:0:0:
276,56,190021,1,10,0:0:0:0:
213,32,190122,1,2,0:0:0:0:
134,43,190224,2,0,P|103:95|173:203,1,157.499995193482,0|2,1:0|0:0,0:0:0:0:
187,235,190528,1,2,0:0:0:0:
204,256,190629,6,0,L|298:251,1,78.7499975967408,10|0,0:0|0:0,0:0:0:0:
342,303,190832,2,0,L|436:308,1,78.7499975967408,2|2,0:0|0:0,0:0:0:0:
477,255,191035,2,0,L|485:159,1,78.7499975967408,2|0,1:0|0:0,0:0:0:0:
431,118,191237,1,2,0:0:0:0:
405,129,191339,1,2,0:0:0:0:
380,140,191440,2,0,L|372:44,1,78.7499975967408,2|0,0:0|0:0,0:0:0:0:
305,21,191643,1,10,0:0:0:0:
285,40,191744,1,2,0:0:0:0:
265,58,191845,2,0,P|197:27|105:75,1,157.499995193482,0|0,1:0|0:0,0:0:0:0:
182,361,192251,6,0,B|211:301|211:301|159:153,1,209.999993591309,14|2,0:0|0:0,0:0:0:0:
234,121,192555,1,2,0:0:0:0:
251,143,192656,2,0,L|131:149,1,82.5000025177003,0|2,1:0|0:0,0:0:0:0:
137,216,192859,1,2,0:0:0:0:
112,231,192960,1,0,0:0:0:0:
87,247,193062,2,0,L|3:238,1,82.5000025177003,2|0,0:0|0:0,0:0:0:0:
125,316,193264,2,0,L|209:325,1,82.5000025177003,10|0,0:0|0:0,0:0:0:0:
269,374,193467,2,0,P|281:298|255:271,1,82.5000025177003,2|8,1:0|0:0,0:0:0:0:
230,229,193670,2,0,L|321:220,1,82.5000025177003,2|0,0:0|0:0,0:0:0:0:
416,124,193872,6,0,B|380:174|380:174|426:358,1,209.999993591309,14|10,0:0|0:0,0:0:0:0:
487,349,194177,1,2,0:0:0:0:
478,336,194278,1,0,1:0:0:0:
454,328,194379,1,2,0:0:0:0:
417,359,194481,1,2,0:0:0:0:
367,343,194582,1,0,0:0:0:0:
317,283,194683,6,0,B|335:253|335:253|323:151,1,104.999996795654,14|0,0:2|0:0,0:0:0:0:
261,119,194886,2,0,B|243:149|243:149|251:218,1,104.999996795654,10|0,0:0|0:0,0:0:0:0:
395,65,195089,6,0,B|365:47|365:47|263:59,1,104.999996795654,2|0,1:0|0:0,0:0:0:0:
231,121,195292,2,0,B|261:139|261:139|330:130,1,104.999996795654,2|0,0:0|0:0,0:0:0:0:
130,10,195494,6,0,B|165:57|165:57|118:233,1,209.999993591309,14|2,0:0|0:0,0:0:0:0:
64,251,195798,1,0,0:0:0:0:
76,240,195899,1,0,1:0:0:0:
120,226,196001,1,2,0:0:0:0:
157,251,196102,1,2,0:0:0:0:
175,262,196204,1,2,0:0:0:0:
218,251,196305,1,2,0:0:0:0:
237,208,196406,1,2,0:0:0:0:
217,168,196508,1,10,0:0:0:0:
214,151,196609,1,2,0:0:0:0:
237,83,196710,2,0,L|341:77,1,89.9999972534181,2|0,1:0|0:0,0:0:0:0:
177,30,196913,2,0,L|73:24,1,89.9999972534181,2|0,0:0|0:0,0:0:0:0:
22,72,197116,6,0,L|24:257,1,179.999994506836,10|2,0:0|0:0,0:0:0:0:
82,297,197420,1,0,0:0:0:0:
102,320,197521,2,0,L|204:313,1,89.9999972534181,2|0,1:0|0:0,0:0:0:0:
238,250,197724,2,0,L|327:256,1,89.9999972534181,2|0,0:0|0:0,0:0:0:0:
384,313,197927,1,2,0:0:0:0:
370,337,198028,1,2,0:0:0:0:
323,349,198129,1,10,0:0:0:0:
306,336,198231,1,2,0:0:0:0:
260,277,198332,2,0,P|281:201|197:141,1,179.999994506836,2|0,1:0|0:0,0:0:0:0:
465,25,198737,6,0,B|425:77|425:77|475:247,1,209.999993591309,14|2,0:0|0:0,0:0:0:0:
448,290,199041,1,2,0:0:0:0:
427,315,199143,2,0,L|316:307,1,93.75,2|0,1:0|0:0,0:0:0:0:
280,253,199345,2,0,L|285:138,1,93.75,2|0,0:0|0:0,0:0:0:0:
199,46,199548,2,0,L|206:164,1,93.75,2|0,0:0|0:0,0:0:0:0:
163,207,199751,2,0,L|45:222,1,93.75,10|0,0:0|0:0,0:0:0:0:
7,252,199954,1,2,1:0:0:0:
23,277,200055,2,0,P|63:228|-27:137,1,187.5,8|0,0:0|0:0,0:0:0:0:
126,18,200359,6,0,L|120:119,1,93.75,10|0,0:0|0:0,0:0:0:0:
177,162,200562,2,0,L|183:263,1,93.75,2|2,0:0|0:0,0:0:0:0:
229,318,200764,1,2,1:0:0:0:
215,307,200866,1,0,0:0:0:0:
173,299,200967,1,2,0:0:0:0:
152,313,201068,1,0,0:0:0:0:
102,326,201170,1,2,0:0:0:0:
82,313,201271,1,0,0:0:0:0:
51,277,201372,1,8,0:0:0:0:
52,233,201474,1,2,0:0:0:0:
105,180,201575,2,0,L|207:175,1,93.75,2|0,0:0|0:0,0:0:0:0:
260,219,201778,2,0,L|362:224,1,93.75,2|0,1:0|0:0,0:0:0:0:
458,354,201981,6,0,B|418:298|418:298|465:131,1,209.999993591309,14|2,0:0|0:0,0:0:0:0:
415,95,202285,1,2,0:0:0:0:
396,66,202386,2,0,L|406:190,1,97.4999955368044,2|2,1:0|0:0,0:0:0:0:
328,293,202589,2,0,L|338:169,1,97.4999955368044,2|2,0:0|0:0,0:0:0:0:
287,138,202791,2,0,P|253:112|184:138,1,97.4999955368044,2|2,0:0|0:0,0:0:0:0:
157,182,202994,1,10,0:0:0:0:
143,167,203095,1,2,0:0:0:0:
100,153,203197,1,2,1:0:0:0:
50,185,203298,1,2,0:0:0:0:
32,259,203399,2,0,L|43:365,1,97.4999955368044,2|0,0:0|0:0,0:0:0:0:
196,289,203602,6,0,P|150:264|88:293,1,97.4999955368044,10|0,0:0|0:0,0:0:0:0:
250,348,203805,2,0,P|296:357|337:332,1,97.4999955368044,2|0,0:0|0:0,0:0:0:0:
382,267,204008,2,0,L|385:160,1,97.4999955368044,2|0,1:0|0:0,0:0:0:0:
323,124,204210,2,0,L|320:17,1,97.4999955368044,2|0,0:0|0:0,0:0:0:0:
374,84,204413,2,0,P|321:110|265:83,1,97.4999955368044,2|0,0:0|0:0,0:0:0:0:
233,43,204616,2,0,P|180:17|124:44,1,97.4999955368044,10|2,0:0|0:0,0:0:0:0:
83,72,204818,2,0,L|91:280,1,194.999991073609,2|0,1:0|0:0,0:0:0:0:
416,349,205224,6,0,B|378:306|378:306|396:131,1,209.999993591309,12|0,0:0|0:0,0:0:0:0:
466,149,205528,1,2,0:0:0:0:
486,177,205629,2,0,L|337:181,1,101.250000386238,2|0,1:0|0:0,0:0:0:0:
327,231,205832,2,0,L|178:227,1,101.250000386238,2|0,0:0|0:0,0:0:0:0:
174,290,206035,2,0,P|144:221|182:169,1,101.250000386238,2|0,0:0|0:0,0:0:0:0:
213,151,206237,2,0,P|243:82|205:30,1,101.250000386238,10|2,0:0|0:0,0:0:0:0:
172,15,206440,2,0,L|50:21,1,101.250000386238,2|0,1:0|0:0,0:0:0:0:
28,85,206643,1,2,0:0:0:0:
49,112,206744,1,2,0:0:0:0:
71,139,206845,6,0,B|31:205|31:205|108:343,1,209.999993591309,14|8,0:0|0:0,0:0:0:0:
168,332,207149,1,2,0:0:0:0:
187,300,207251,2,0,L|310:295,1,104.999996795654,2|0,1:0|0:0,0:0:0:0:
350,249,207454,2,0,L|473:254,1,104.999996795654,2|0,0:0|0:0,0:0:0:0:
401,313,207656,2,0,P|375:243|399:196,1,104.999996795654,10|2,0:0|0:0,0:0:0:0:
445,169,207859,2,0,P|452:117|427:73,1,104.999996795654,10|0,0:0|0:0,0:0:0:0:
242,132,208062,6,0,L|369:136,1,112.5,2|0,1:0|0:0,0:0:0:0:
247,38,208467,6,0,P|191:133|257:247,1,225.000008583069,14|0,0:0|0:0,0:0:0:0:
302,270,208771,1,2,0:0:0:0:
289,252,208872,2,0,P|225:221|159:276,1,112.500004291535,0|0,1:0|0:0,0:0:0:0:
62,344,209075,2,0,L|206:327,1,112.500004291535,2|0,0:0|0:0,0:0:0:0:
29,244,209278,2,0,P|11:184|161:131,1,225.000008583069,10|0,0:0|0:0,0:0:0:0:
198,134,209582,1,2,0:0:0:0:
210,147,209683,2,0,B|175:209|175:209|210:391,1,225.000008583069,0|2,1:0|0:0,0:0:0:0:
509,131,210089,6,0,L|279:104,1,225.000008583069,10|0,0:0|0:0,0:0:0:0:
235,44,210393,1,2,0:0:0:0:
214,29,210494,2,0,P|166:61|74:10,1,112.500004291535,0|0,1:0|0:0,0:0:0:0:
22,142,210697,2,0,P|76:136|122:167,1,112.500004291535,2|0,0:0|0:0,0:0:0:0:
146,244,210899,2,0,L|142:370,1,112.500004291535,10|0,0:0|0:0,0:0:0:0:
204,178,211102,2,0,P|254:152|315:181,1,97.4999955368044,2|0,0:0|0:0,0:0:0:0:
331,226,211305,2,0,P|405:260|496:204,1,150,2|0,1:0|0:0,0:0:0:0:
222,31,211710,6,0,B|272:85|272:85|230:271,1,225.000008583069,10|0,0:0|0:0,0:0:0:0:
176,274,212014,1,0,0:0:0:0:
166,300,212116,2,0,P|115:316|43:257,1,112.500004291535,0|0,1:0|0:0,0:0:0:0:
227,352,212318,2,0,P|277:329|329:345,1,112.500004291535,2|0,0:0|0:0,0:0:0:0:
116,227,212521,6,0,L|114:77,1,134.999995880127,10|0,0:0|0:0,0:0:0:0:
323,35,212724,2,0,L|188:36,1,134.999995880127,2|0,0:0|0:0,0:0:0:0:
134,238,212927,6,0,L|132:88,1,134.999995880127,2|0,1:0|0:0,0:0:0:0:
341,46,213130,2,0,L|206:47,1,134.999995880127,2|0,0:0|0:0,0:0:0:0:
152,250,213332,6,0,P|227:296|332:207,1,194.999991073609,10|0,0:0|0:0,0:0:0:0:
361,188,213636,1,2,0:0:0:0:
372,170,213737,2,0,L|376:316,1,97.4999955368044,0|0,1:0|0:0,0:0:0:0:
426,328,213940,1,10,0:0:0:0:
426,328,214143,2,0,B|361:301|361:301|217:365,1,194.999991073609,10|0,0:0|0:0,0:0:0:0:
462,250,214548,1,10,0:0:0:0:
237,114,214751,1,10,0:0:0:0:
240,133,214852,1,8,0:0:0:0:
243,152,214954,6,0,B|295:152|332:205|332:205|259:303|116:243,1,300,14|0,0:0|0:0,0:0:0:0:
114,201,215258,1,2,0:0:0:0:
97,182,215359,2,0,P|125:114|94:44,1,142.49999619484,0|0,1:0|0:0,0:0:0:0:
33,226,215562,2,0,P|10:291|38:355,1,142.49999619484,2|0,0:0|0:0,0:0:0:0:
245,234,215764,6,0,P|145:250|265:306,1,284.999992389679,10|0,0:0|0:0,0:0:0:0:
301,317,216068,1,2,0:0:0:0:
319,304,216170,2,0,L|480:314,1,142.49999619484,0|0,1:0|0:0,0:0:0:0:
508,250,216372,2,0,P|476:210|507:113,1,142.49999619484,2|0,0:0|0:0,0:0:0:0:
357,32,216575,6,0,L|356:207,1,142.49999619484,10|0,0:0|0:0,0:0:0:0:
342,191,216778,2,0,L|342:48,1,142.49999619484,2|0,0:0|0:0,0:0:0:0:
138,125,216981,6,0,P|196:161|272:136,1,142.49999619484,2|0,1:0|0:0,0:0:0:0:
264,159,217183,2,0,P|197:177|137:140,1,142.49999619484,2|0,0:0|0:0,0:0:0:0:
257,286,217386,6,0,L|381:278,1,104.999996795654,10|0,0:0|0:0,0:0:0:0:
221,366,217589,2,0,L|325:359,1,104.999996795654,2|0,0:0|0:0,0:0:0:0:
172,293,217791,6,0,L|47:285,1,97.4999955368044,2|0,1:0|0:0,0:0:0:0:
155,213,217994,2,0,L|30:205,1,97.4999955368044,2|0,0:0|0:0,0:0:0:0:
144,91,218197,6,0,P|215:43|331:91,1,194.999991073609,10|0,0:0|0:0,0:0:0:0:
366,130,218501,1,2,0:0:0:0:
375,148,218602,2,0,L|379:274,1,97.4999955368044,0|0,1:0|0:0,0:0:0:0:
420,291,218805,2,0,P|381:263|334:271,1,97.4999955368044,2|0,0:0|0:0,0:0:0:0:
285,335,219008,2,0,P|220:363|117:265,1,194.999991073609,10|0,0:0|0:0,0:0:0:0:
100,228,219312,1,2,0:0:0:0:
112,212,219413,2,0,B|145:147|145:147|103:16,1,194.999991073609,0|2,1:0|0:0,0:0:0:0:
272,194,219818,6,0,L|468:163,1,194.999991073609,10|0,0:0|0:0,0:0:0:0:
492,92,220122,1,8,0:0:0:0:
492,92,220224,1,0,1:0:0:0:
422,306,220427,1,8,0:0:0:0:
295,119,220629,2,0,L|404:145,1,97.4999955368044,10|0,0:0|0:0,0:0:0:0:
464,163,220832,1,0,0:0:0:0:
246,196,221035,1,12,0:2:0:0:
194,140,221136,1,8,0:0:0:0:
200,65,221237,1,8,0:0:0:0:
261,19,221339,1,8,0:0:0:0:
332,45,221440,6,0,P|291:105|144:7,1,225.000008583069,14|0,0:0|0:0,0:0:0:0:
102,26,221744,1,2,0:0:0:0:
84,9,221845,2,0,L|88:149,1,112.500004291535,0|0,1:0|0:0,0:0:0:0:
34,266,222048,2,0,P|72:289|152:229,1,112.500004291535,2|0,0:0|0:0,0:0:0:0:
192,223,222251,2,0,B|322:214|240:326|472:280,1,225.000008583069,10|0,0:0|0:0,0:0:0:0:
446,231,222555,1,2,0:0:0:0:
461,218,222656,2,0,P|401:221|389:369,1,225.000008583069,0|2,1:0|0:0,0:0:0:0:
262,96,223062,6,0,B|196:64|196:64|19:153,1,225.000008583069,10|0,0:0|0:0,0:0:0:0:
32,202,223366,1,2,0:0:0:0:
41,222,223467,2,0,L|49:350,1,112.500004291535,0|0,1:0|0:0,0:0:0:0:
114,371,223670,2,0,P|157:326|242:368,1,112.500004291535,2|0,0:0|0:0,0:0:0:0:
275,357,223872,2,0,L|279:229,1,112.500004291535,10|0,0:0|0:0,0:0:0:0:
225,192,224075,2,0,P|168:163|122:197,1,97.4999955368044,2|0,0:0|0:0,0:0:0:0:
299,169,224278,2,0,P|349:133|443:161,1,150,2|0,1:0|0:0,0:0:0:0:
154,29,224683,6,0,L|160:255,1,225.000008583069,10|0,0:0|0:0,0:0:0:0:
216,308,224987,1,0,0:0:0:0:
210,286,225089,2,0,P|152:251|87:301,1,112.500004291535,0|0,1:0|0:0,0:0:0:0:
8,371,225291,2,0,L|145:354,1,112.500004291535,2|0,0:0|0:0,0:0:0:0:
232,149,225494,6,0,P|183:118|103:142,1,134.999995880127,10|0,0:0|0:0,0:0:0:0:
341,255,225697,2,0,P|404:272|461:240,1,134.999995880127,2|0,0:0|0:0,0:0:0:0:
341,147,225899,6,0,P|372:98|348:18,1,134.999995880127,2|0,1:0|0:0,0:0:0:0:
235,256,226102,2,0,P|217:319|249:376,1,134.999995880127,2|0,0:0|0:0,0:0:0:0:
287,201,226305,6,0,P|220:140|93:167,1,194.999991073609,10|0,0:0|0:0,0:0:0:0:
68,197,226609,1,2,0:0:0:0:
79,213,226710,2,0,L|76:89,1,97.4999955368044,0|0,1:0|0:0,0:0:0:0:
117,49,226913,1,10,0:0:0:0:
117,49,227116,2,0,B|178:15|178:15|326:57,1,194.999991073609,10|0,0:0|0:0,0:0:0:0:
45,13,227521,1,10,0:0:0:0:
299,146,227724,1,10,0:0:0:0:
282,154,227825,1,8,0:0:0:0:
268,163,227927,6,0,B|263:121|331:104|363:149|375:191|343:223|335:211|301:310|179:212,1,300,14|0,0:0|0:0,0:0:0:0:
157,190,228231,1,2,0:0:0:0:
142,176,228332,2,0,L|139:17,1,142.49999619484,0|0,1:0|0:0,0:0:0:0:
332,79,228535,2,0,P|281:125|207:102,1,142.49999619484,2|0,0:0|0:0,0:0:0:0:
404,23,228737,2,0,B|365:89|365:89|425:297,1,284.999992389679,10|0,0:0|0:0,0:0:0:0:
372,351,229041,1,2,0:0:0:0:
360,325,229143,2,0,P|417:269|494:294,1,142.49999619484,0|0,1:0|0:0,0:0:0:0:
291,362,229345,2,0,P|222:366|177:314,1,142.49999619484,2|0,0:0|0:0,0:0:0:0:
240,117,229548,6,0,L|249:262,1,142.49999619484,10|0,0:0|0:0,0:0:0:0:
261,278,229751,2,0,L|252:135,1,142.49999619484,2|0,0:0|0:0,0:0:0:0:
144,44,229954,6,0,P|77:34|0:99,1,142.49999619484,2|0,1:0|0:0,0:0:0:0:
18,84,230156,2,0,P|77:47|146:57,1,142.49999619484,2|0,0:0|0:0,0:0:0:0:
252,135,230359,6,0,L|379:120,1,112.500004291535,10|0,0:0|0:0,0:0:0:0:
221,219,230562,2,0,L|348:204,1,112.500004291535,2|0,0:0|0:0,0:0:0:0:
169,155,230764,6,0,L|57:142,1,97.4999955368044,2|0,1:0|0:0,0:0:0:0:
131,235,230967,2,0,L|19:222,1,97.4999955368044,2|0,0:0|0:0,0:0:0:0:
275,297,231170,6,0,L|260:69,1,194.999991073609,10|0,0:0|0:0,0:0:0:0:
325,56,231474,1,2,0:0:0:0:
323,72,231575,2,0,P|269:100|209:55,1,97.4999955368044,0|0,1:0|0:0,0:0:0:0:
104,15,231778,2,0,L|234:22,1,97.4999955368044,2|0,0:0|0:0,0:0:0:0:
45,104,231981,2,0,B|12:159|12:159|52:313,1,194.999991073609,10|0,0:0|0:0,0:0:0:0:
86,354,232285,1,2,0:0:0:0:
97,344,232386,2,0,P|98:266|-2:250,1,194.999991073609,0|2,1:0|0:0,0:0:0:0:
240,299,232791,6,0,B|397:220|354:363|522:267,1,284.999992389679,14|0,0:0|0:0,0:0:0:0:
498,194,233095,1,8,0:0:0:0:
482,179,233197,2,0,P|431:146|366:171,1,97.4999955368044,0|0,1:0|0:0,0:0:0:0:
327,182,233399,1,8,0:0:0:0:
154,49,233602,6,0,L|164:372,1,284.999992389679,14|8,0:0|0:0,0:0:0:0:
61,146,234008,1,8,0:0:0:0:
84,72,234109,1,8,0:0:0:0:
143,23,234210,1,8,0:0:0:0:
219,12,234312,1,8,0:0:0:0:
290,44,234413,6,0,B|203:92|203:92|-1:10,1,300,14|0,0:0|0:0,0:0:0:0:
3,92,234717,1,2,0:0:0:0:
12,108,234818,2,0,L|18:258,1,142.49999619484,0|0,1:0|0:0,0:0:0:0:
111,366,235021,2,0,P|129:288|81:228,1,142.49999619484,2|0,0:0|0:0,0:0:0:0:
260,170,235224,2,0,P|355:235|233:235,1,284.999992389679,10|0,0:0|0:0,0:0:0:0:
192,210,235528,1,2,0:0:0:0:
166,188,235629,2,0,P|148:110|196:50,1,142.49999619484,0|0,1:0|0:0,0:0:0:0:
249,33,235832,2,0,L|416:29,1,142.49999619484,2|0,0:0|0:0,0:0:0:0:
211,141,236035,6,0,B|188:130|188:130|109:156|109:156|9:117,1,142.49999619484,14|0,0:0|0:0,0:0:0:0:
74,162,236237,2,0,B|105:174|105:174|184:148|184:148|207:159,1,142.49999619484,2|0,0:0|0:0,0:0:0:0:
356,231,236440,6,0,P|389:281|359:370,1,142.49999619484,2|0,1:0|0:0,0:0:0:0:
386,359,236643,2,0,P|405:292|370:232,1,142.49999619484,2|0,0:0|0:0,0:0:0:0:
203,286,236845,6,0,L|329:299,1,112.500004291535,10|0,0:0|0:0,0:0:0:0:
171,207,237048,2,0,L|297:220,1,112.500004291535,2|0,0:0|0:0,0:0:0:0:
145,133,237251,6,0,L|32:147,1,97.4999955368044,2|0,1:0|0:0,0:0:0:0:
124,57,237454,2,0,L|11:71,1,97.4999955368044,2|0,0:0|0:0,0:0:0:0:
292,6,237656,6,0,L|269:312,1,284.999992389679,14|0,0:0|0:0,0:0:0:0:
332,343,237960,1,0,0:0:0:0:
344,359,238062,6,0,P|405:372|457:277,1,97.4999955368044,0|0,1:0|0:0,0:0:0:0:
270,290,238264,2,0,P|225:273|179:288,1,97.4999955368044,2|0,0:0|0:0,0:0:0:0:
23,369,238467,6,0,P|92:268|-7:133,1,284.999992389679,14|0,0:0|0:0,0:0:0:0:
57,76,238771,1,2,0:0:0:0:
74,96,238872,6,0,L|80:297,1,194.999991073609,0|2,1:0|0:0,0:0:0:0:
341,160,239278,6,0,P|285:109|164:151,1,194.999991073609,14|0,0:0|0:0,0:0:0:0:
146,203,239582,1,8,0:0:0:0:
146,203,239683,1,0,1:0:0:0:
262,19,239886,1,2,0:0:0:0:
371,120,240089,2,0,L|247:128,1,97.4999955368044,2|0,0:0|0:0,0:0:0:0:
177,134,240291,1,8,0:0:0:0:
417,19,240494,1,8,0:0:0:0:
471,72,240595,1,8,0:0:0:0:
477,148,240696,1,8,0:0:0:0:
431,208,240798,1,8,0:0:0:0:
356,223,240899,6,0,L|236:212,1,104.999996795654,6|0,0:0|0:0,0:0:0:0:
192,261,241204,1,2,0:0:0:0:
181,272,241305,2,0,L|91:279,1,52.4999983978272,0|0,0:0|0:0,0:0:0:0:
72,229,241508,2,0,L|-18:222,1,52.4999983978272,2|0,0:0|0:0,0:0:0:0:
132,66,241710,6,0,P|164:119|142:176,1,104.999996795654,2|0,0:0|0:0,0:0:0:0:
100,209,242014,1,2,0:0:0:0:
89,221,242116,2,0,P|82:271|112:313,1,104.999996795654,0|2,0:0|0:0,0:0:0:0:
341,255,242521,6,0,L|216:240,3,104.999996795654,2|0|0|0,0:0|0:0|0:0|0:0,0:0:0:0:
445,77,243332,2,0,P|372:120|426:313,1,314.999990386963,2|0,0:0|0:0,0:0:0:0:
142,38,244143,6,0,L|146:95,1,44.999998626709,4|0,0:0|0:0,0:0:0:0:
198,136,244447,2,0,L|194:193,1,44.999998626709,2|0,0:0|0:0,0:0:0:0:
149,240,244751,1,2,0:0:0:0:
69,326,244954,6,0,L|125:332,1,44.999998626709,2|0,0:0|0:0,0:0:0:0:
183,361,245258,2,0,L|239:355,1,44.999998626709,2|0,0:0|0:0,0:0:0:0:
294,318,245562,1,2,0:0:0:0:
392,210,245764,6,0,L|397:269,3,44.999998626709,2|0|0|0,0:0|0:0|0:0|0:0,0:0:0:0:
311,167,246575,2,0,L|316:107,1,44.999998626709,2|0,0:0|0:0,0:0:0:0:
491,58,246981,6,0,P|446:91|369:57,1,120,2|0,0:0|0:0,0:0:0:0:
173,32,247386,6,0,B|145:82|145:82|185:213,1,194.999991073609,14|0,0:0|0:0,0:0:0:0:
41,354,247791,1,2,1:0:0:0:
41,354,247994,2,0,P|95:334|138:361,1,75,2|0,0:0|0:0,0:0:0:0:
177,374,248197,2,0,P|213:376|245:357,1,75,0|0,0:0|0:0,0:0:0:0:
295,299,248399,2,0,L|297:213,1,75,10|0,0:0|0:0,0:0:0:0:
244,169,248602,2,0,L|242:94,1,75,2|0,1:0|0:0,0:0:0:0:
295,38,248805,2,0,L|394:30,1,75,2|0,0:0|0:0,0:0:0:0:
206,26,249008,6,0,L|43:20,1,150,10|2,0:0|0:0,0:0:0:0:
98,239,249413,2,0,P|120:184|96:147,1,75,2|0,1:0|0:0,0:0:0:0:
43,296,249616,2,0,P|40:332|61:363,1,75,2|0,0:0|0:0,0:0:0:0:
134,372,249818,2,0,L|296:361,1,150,2|8,0:0|0:0,0:0:0:0:
476,223,250224,1,0,1:0:0:0:
476,223,250427,6,0,B|417:256|417:256|271:190,1,194.999991073609,6|8,0:0|0:0,0:0:0:0:
182,29,250832,2,0,L|178:141,1,75,2|0,0:0|0:0,0:0:0:0:
126,168,251035,2,0,P|193:125|272:163,1,150,2|0,1:0|0:0,0:0:0:0:
300,203,251339,1,0,0:0:0:0:
313,220,251440,2,0,L|319:317,1,75,2|0,0:0|0:0,0:0:0:0:
377,346,251643,2,0,L|466:355,1,75,10|0,0:0|0:0,0:0:0:0:
497,289,251845,1,0,1:0:0:0:
482,271,251947,1,8,0:0:0:0:
466,254,252048,6,0,B|405:220|405:220|268:266,1,194.999991073609,6|10,0:0|0:0,0:0:0:0:
91,126,252454,2,0,L|195:148,1,75,10|0,0:0|0:0,0:0:0:0:
227,101,252656,2,0,P|244:160|215:188,1,75,2|0,1:0|0:0,0:0:0:0:
181,213,252859,2,0,P|164:272|193:300,1,75,2|0,0:0|0:0,0:0:0:0:
217,341,253062,2,0,B|165:307|165:307|-16:364,2,194.999991073609,6|8|0,0:0|0:0|0:0,0:0:0:0:
323,127,253670,6,0,B|375:161|375:161|556:104,2,194.999991073609,4|10|0,0:0|0:0|0:0,0:0:0:0:
104,27,254278,2,0,L|268:15,1,150,2|0,1:0|0:0,0:0:0:0:
326,44,254582,1,0,0:0:0:0:
326,44,254683,1,0,0:0:0:0:
135,164,254886,2,0,B|167:211|167:211|120:353,1,194.999991073609,14|2,0:0|1:0,0:0:0:0:
369,263,255291,2,0,L|245:245,1,75,2|0,0:0|0:0,0:0:0:0:
409,338,255494,6,0,B|382:290|382:290|420:131,1,194.999991073609,14|2,0:0|0:0,0:0:0:0:
231,15,255899,2,0,L|236:110,1,75,2|0,1:0|0:0,0:0:0:0:
174,143,256102,2,0,L|169:238,1,75,2|0,0:0|0:0,0:0:0:0:
216,284,256305,2,0,P|279:302|349:229,1,150,2|8,0:0|0:0,0:0:0:0:
88,161,256710,1,0,1:0:0:0:
88,161,256913,6,0,B|146:194|146:194|321:114,1,194.999991073609,6|8,0:0|0:0,0:0:0:0:
442,299,257318,6,0,L|345:279,1,75,2|0,0:0|0:0,0:0:0:0:
232,337,257521,2,0,L|329:317,1,75,2|0,1:0|0:0,0:0:0:0:
436,282,257724,6,0,L|339:262,1,75,2|0,0:0|0:0,0:0:0:0:
226,320,257927,2,0,L|323:300,1,75,2|0,0:0|0:0,0:0:0:0:
295,230,258129,2,0,B|267:196|267:196|291:26,1,194.999991073609,14|0,0:0|1:0,0:0:0:0:
227,9,258433,1,8,0:0:0:0:
227,9,258535,1,0,0:0:0:0:
107,199,258737,6,0,B|154:165|154:165|340:227,1,194.999991073609,14|10,0:0|0:0,0:0:0:0:
49,35,259143,2,0,L|46:129,1,75,2|0,1:0|0:0,0:0:0:0:
77,181,259345,2,0,L|80:275,1,75,2|0,0:0|0:0,0:0:0:0:
39,320,259548,1,14,0:0:0:0:
256,192,259649,12,0,260359,0:0:0:0:
