osu file format v14

[General]
AudioFilename: audio.mp3
AudioLeadIn: 0
PreviewTime: 65714
Countdown: 0
SampleSet: Soft
StackLeniency: 0.7
Mode: 0
LetterboxInBreaks: 0
WidescreenStoryboard: 0

[Editor]
Bookmarks: 29886,43062,91710,102454
DistanceSpacing: 1.1
BeatDivisor: 4
GridSize: 32
TimelineZoom: 1.9

[Metadata]
Title:Witches' Night (ShinRa-Bansho Ver.)
TitleUnicode:Witches' Night (森羅万象 Ver.)
Artist:TAMAONSEN
ArtistUnicode:魂音泉
Creator:Dafiely
Version:Dafiely & Xenon's Insane
Source:妖精大戦争 ~ 東方三月精
Tags:videogame halloween 東方Project Team Shanghai Alice 上海アリス幻樂団 霧雨 魔理沙 japanese c96 メイガスナイト xen xenon- xenon xehn toho 12.8 Fairy Wars Extra boss theme ZUN Magus kirisame marisa misoni comi touhou 東方歌ってみた Comiket 96 kaztora Hedonist あやぽんず*,あよ Ayaponzu* Ayo danbkaa Denil25 girl
BeatmapID:2165811
BeatmapSetID:1030100

[Difficulty]
HPDrainRate:5
CircleSize:4
OverallDifficulty:7
ApproachRate:9
SliderMultiplier:2.4
SliderTickRate:1

[Events]
//Background and Video events
0,0,"BG.jpg",0,0
//Break Periods
//Storyboard Layer 0 (Background)
//Storyboard Layer 1 (Fail)
//Storyboard Layer 2 (Pass)
//Storyboard Layer 3 (Foreground)
//Storyboard Layer 4 (Overlay)
//Storyboard Sound Samples

[TimingPoints]
900,405.405405405405,4,2,47,35,1,0
900,-285.714285714286,4,2,47,35,0,0
1305,-285.714285714286,4,2,47,5,0,0
1508,-285.714285714286,4,2,47,35,0,0
2116,-285.714285714286,4,2,47,5,0,0
2318,-285.714285714286,4,2,47,35,0,0
2927,-285.714285714286,4,2,47,5,0,0
3129,-285.714285714286,4,2,47,35,0,0
12656,-285.714285714286,4,2,47,5,0,0
12859,-285.714285714286,4,2,47,35,0,0
13467,-285.714285714286,4,2,47,5,0,0
13670,-285.714285714286,4,2,47,35,0,0
13872,-200,4,2,47,50,0,0
14278,-200,4,2,47,5,0,0
14481,-200,4,2,47,50,0,0
15089,-200,4,2,47,5,0,0
15291,-200,4,2,47,50,0,0
15899,-200,4,2,47,5,0,0
16102,-200,4,2,47,50,0,0
25629,-200,4,2,47,5,0,0
25832,-200,4,2,47,50,0,0
26440,-142.857142857143,4,2,47,70,0,0
29886,-66.6666666666667,4,2,47,70,0,0
30089,-142.857142857143,4,2,47,70,0,0
33129,-66.6666666666667,4,2,47,70,0,0
33332,-142.857142857143,4,2,47,70,0,0
36372,-66.6666666666667,4,2,47,70,0,0
36575,-142.857142857143,4,2,47,70,0,0
39818,-200,4,2,47,60,0,0
42656,-285.714285714286,4,2,47,60,0,0
43062,-200,4,2,47,60,0,0
45899,-285.714285714286,4,2,47,60,0,0
46305,-200,4,2,47,60,0,0
52791,-153.846153846154,4,2,47,65,0,0
65764,-83.3333333333333,4,2,47,90,0,1
68602,-100,4,2,47,90,0,1
69008,-83.3333333333333,4,2,47,90,0,1
70629,-100,4,2,47,90,0,1
72251,-76.9230769230769,4,2,47,90,0,1
75494,-111.111111111111,4,2,47,90,0,1
78737,-83.3333333333333,4,2,47,90,0,1
81575,-100,4,2,47,90,0,1
81981,-83.3333333333333,4,2,47,90,0,1
83602,-100,4,2,47,90,0,1
85224,-76.9230769230769,4,2,47,90,0,1
88467,-111.111111111111,4,2,47,90,0,1
91710,-83.3333333333333,4,2,47,75,0,0
92014,-125,4,2,47,75,0,0
94751,-83.3333333333333,4,2,47,75,0,0
95359,-125,4,2,47,75,0,0
97994,-83.3333333333333,4,2,47,75,0,0
98197,-125,4,2,47,75,0,0
99210,-83.3333333333333,4,2,47,75,0,0
99514,-125,4,2,47,75,0,0
99818,-83.3333333333333,4,2,47,75,0,0
100224,-125,4,2,47,75,0,0
101237,-83.3333333333333,4,2,47,75,0,0
101643,-125,4,2,47,75,0,0
102454,-83.3333333333333,4,2,47,75,0,0
103062,-83.3333333333333,4,2,47,75,0,0
103467,-125,4,2,47,75,0,0
103872,-83.3333333333333,4,2,47,75,0,0
104278,-125,4,2,47,75,0,0
104683,-333.333333333333,4,2,47,40,0,0
117656,-125,4,2,47,70,0,0
130629,-83.3333333333333,4,2,47,90,0,1
133467,-100,4,2,47,90,0,1
133872,-83.3333333333333,4,2,47,90,0,1
134683,-100,4,2,47,90,0,1
135494,-100,4,2,47,90,0,1
137116,-76.9230769230769,4,2,47,90,0,1
140359,-111.111111111111,4,2,47,90,0,1
143602,-83.3333333333333,4,2,47,90,0,1
146440,-100,4,2,47,90,0,1
146845,-83.3333333333333,4,2,47,90,0,1
147656,-100,4,2,47,90,0,1
148467,-100,4,2,47,90,0,1
150089,-76.9230769230769,4,2,47,90,0,1
153332,-111.111111111111,4,2,47,90,0,1
156575,-200,4,2,47,45,0,0
169548,-142.857142857143,4,2,47,60,0,0
176035,-142.857142857143,4,2,47,60,0,0
182521,-111.111111111111,4,2,47,65,0,0
188602,-95.2380952380952,4,2,47,65,0,0
189008,-111.111111111111,4,2,47,68,0,0
189312,-111.111111111111,4,2,47,68,0,0
192251,-111.111111111111,4,2,47,71,0,0
192555,-111.111111111111,4,2,47,71,0,0
193872,-100,4,2,47,74,0,0
194177,-100,4,2,47,74,0,0
194683,-100,4,2,47,77,0,0
195494,-100,4,2,47,80,0,0
195798,-100,4,2,47,80,0,0
198737,-90.9090909090909,4,2,47,82,0,0
199041,-90.9090909090909,4,2,47,82,0,0
201981,-90.9090909090909,4,2,47,84,0,0
202285,-90.9090909090909,4,2,47,84,0,0
205224,-90.9090909090909,4,2,47,85,0,0
205528,-90.9090909090909,4,2,47,85,0,0
206845,-90.9090909090909,4,2,47,86,0,0
208062,-90.9090909090909,4,2,47,86,0,0
208467,-83.3333333333333,4,2,47,90,0,1
211305,-100,4,2,47,90,0,1
211710,-83.3333333333333,4,2,47,90,0,1
213332,-100,4,2,47,90,0,1
214954,-76.9230769230769,4,2,47,90,0,1
218197,-111.111111111111,4,2,47,90,0,1
221440,-83.3333333333333,4,2,47,90,0,1
224278,-100,4,2,47,90,0,1
224683,-83.3333333333333,4,2,47,90,0,1
226305,-100,4,2,47,90,0,1
227927,-76.9230769230769,4,2,47,90,0,1
231170,-111.111111111111,4,2,47,90,0,1
232791,-95.2380952380952,4,2,47,90,0,1
233602,-83.3333333333333,4,2,47,90,0,1
234413,-76.9230769230769,4,2,47,90,0,1
237656,-111.111111111111,4,2,47,90,0,1
239277,-95.2380952380952,4,2,47,90,0,1
240899,-142.857142857143,4,2,47,55,0,0
244143,-200,4,2,47,30,0,0
246981,-285.714285714286,4,2,47,60,0,0
247386,-111.111111111111,4,2,47,75,0,0
247690,-111.111111111111,4,2,47,75,0,0
250427,-111.111111111111,4,2,47,75,0,0
250832,-111.111111111111,4,2,47,75,0,0
252048,-111.111111111111,4,2,47,75,0,0
252454,-111.111111111111,4,2,47,75,0,0
253062,-111.111111111111,4,2,47,75,0,0
254278,-111.111111111111,4,2,47,75,0,0
254886,-111.111111111111,4,2,47,75,0,0
255291,-111.111111111111,4,2,47,75,0,0
255494,-111.111111111111,4,2,47,75,0,0
255899,-111.111111111111,4,2,47,75,0,0
256913,-111.111111111111,4,2,47,75,0,0
257318,-111.111111111111,4,2,47,75,0,0
258129,-111.111111111111,4,2,47,75,0,0
258535,-111.111111111111,4,2,47,75,0,0
258737,-111.111111111111,4,2,47,75,0,0
259143,-111.111111111111,4,2,47,75,0,0
259548,-166.666666666667,4,2,47,75,0,0
260359,-166.666666666667,4,2,47,5,0,0

[Colours]
Combo1 : 192,192,192
Combo2 : 255,255,89
Combo3 : 255,128,64
Combo4 : 136,196,255

[HitObjects]
200,149,900,6,0,P|213:118|208:77,2,62.9999980773926,2|2|2,0:0|0:0|0:0,0:0:0:0:
140,202,1710,2,0,P|106:206|73:231,2,62.9999980773926,2|2|2,0:0|0:0|0:0,0:0:0:0:
215,226,2521,2,0,P|235:252|273:268,2,62.9999980773926,2|2|2,0:0|0:0|0:0,0:0:0:0:
200,149,3332,6,0,P|220:118|280:124,1,83.9999974365235,2|2,0:0|0:0,0:0:0:0:
334,231,4143,6,0,P|365:230|393:243,2,62.9999980773926,2|2|2,0:0|0:0|0:0,0:0:0:0:
295,301,4954,2,0,L|301:356,1,41.9999987182618,2|2,0:0|0:0,0:0:0:0:
216,314,5359,2,0,L|222:369,1,41.9999987182618,2|2,0:0|0:0,0:0:0:0:
150,266,5764,6,0,P|118:265|90:278,2,62.9999980773926,2|2|2,0:0|0:0|0:0,0:0:0:0:
204,205,6575,2,0,P|184:178|200:121,1,83.9999974365235,2|0,0:0|0:0,0:0:0:0:
257,83,7183,1,2,0:0:0:0:
257,83,7386,6,0,P|285:95|316:95,2,62.9999980773926,2|2|2,0:0|0:0|0:0,0:0:0:0:
275,5,8197,2,0,P|306:4|334:17,2,62.9999980773926,2|2|2,0:0|0:0|0:0,0:0:0:0:
197,29,9008,6,0,L|155:34,1,41.9999987182618,2|2,0:0|0:0,0:0:0:0:
114,101,9413,2,0,L|119:143,1,41.9999987182618,2|2,0:0|0:0,0:0:0:0:
186,184,9818,2,0,L|228:179,1,41.9999987182618,2|2,0:0|0:0,0:0:0:0:
269,112,10224,2,0,L|264:70,1,41.9999987182618,2|2,0:0|0:0,0:0:0:0:
321,14,10629,6,0,P|349:2|380:2,2,62.9999980773926,2|2|2,0:0|0:0|0:0,0:0:0:0:
339,92,11440,2,0,P|370:93|398:80,2,62.9999980773926,2|2|0,0:0|0:0|0:0,0:0:0:0:
285,152,12251,2,0,B|195:125|231:205|127:178,1,167.999994873047,2|2,0:0|0:0,0:0:0:0:
371,174,13872,6,0,P|322:147|271:155,2,90,6|2|2,0:0|0:0|0:0,0:0:0:0:
389,256,14683,2,0,P|436:227|455:178,2,90,2|2|2,0:0|0:0|0:0,0:0:0:0:
308,230,15494,2,0,P|309:285|341:326,2,90,2|2|2,0:0|0:0|0:0,0:0:0:0:
251,172,16305,2,0,P|221:123|154:157,1,120,2|2,0:0|0:0,0:0:0:0:
46,219,17116,6,0,P|97:196|147:208,2,90,2|2|2,0:0|0:0|0:0,0:0:0:0:
105,280,17927,2,0,L|112:346,1,60,2|2,0:0|0:0,0:0:0:0:
187,269,18332,2,0,L|194:335,1,60,2|2,0:0|0:0,0:0:0:0:
252,210,18737,6,0,P|303:232|353:220,2,90,2|2|2,0:0|0:0|0:0,0:0:0:0:
249,132,19548,2,0,P|207:94|144:122,1,120,2|0,0:0|0:0,0:0:0:0:
112,182,20156,1,2,0:0:0:0:
112,182,20359,6,0,P|132:221|130:265,2,90,6|2|2,0:0|0:0|0:0,0:0:0:0:
28,202,21170,2,0,P|25:246|46:285,2,90,2|2|2,0:0|0:0|0:0,0:0:0:0:
55,125,21980,6,0,L|62:65,1,60,2|2,0:0|0:0,0:0:0:0:
145,80,22386,2,0,L|137:20,1,60,2|2,0:0|0:0,0:0:0:0:
221,133,22791,2,0,L|228:73,1,60,2|2,0:0|0:0,0:0:0:0:
311,88,23197,2,0,L|303:28,1,60,2|2,0:0|0:0,0:0:0:0:
383,131,23602,6,0,P|427:128|466:149,2,90,2|2|2,0:0|0:0|0:0,0:0:0:0:
365,209,24413,2,0,P|404:229|448:227,2,90,2|2|2,0:0|0:0|0:0,0:0:0:0:
307,264,25224,6,0,B|174:225|228:348|87:308,1,240,2|2,0:0|0:0,0:0:0:0:
426,194,26440,2,0,L|278:178,1,125.999996154785,2|0,0:0|0:0,0:0:0:0:
245,126,26845,6,0,L|251:219,1,83.9999974365235,14|2,0:0|0:0,0:0:0:0:
205,269,27149,1,2,0:0:0:0:
205,269,27251,2,0,P|172:288|115:264,1,83.9999974365235,2|2,0:0|0:0,0:0:0:0:
96,213,27555,1,2,0:0:0:0:
96,213,27657,2,0,P|63:194|6:218,1,83.9999974365235,2|8,0:0|0:0,0:0:0:0:
161,35,28062,2,0,L|164:158,1,83.9999974365235,2|2,0:0|0:0,0:0:0:0:
348,266,28467,6,0,P|387:242|435:256,1,83.9999974365235,10|0,0:0|0:0,0:0:0:0:
285,319,28872,2,0,P|244:323|210:300,1,83.9999974365235,2|0,0:0|0:0,0:0:0:0:
148,241,29177,1,2,0:0:0:0:
148,241,29278,2,0,L|152:139,1,83.9999974365235,2|8,0:0|0:0,0:0:0:0:
223,97,29683,2,0,L|220:38,1,41.9999987182618,2|0,0:0|0:0,0:0:0:0:
149,26,29886,1,6,0:0:0:0:
158,11,30089,6,0,P|207:-18|300:56,1,167.999994873047,10|0,0:0|0:0,0:0:0:0:
109,74,30697,1,0,0:0:0:0:
109,74,30798,1,0,0:0:0:0:
109,74,30899,2,0,P|81:54|27:60,1,83.9999974365235,0|8,0:0|0:2,0:0:0:0:
197,187,31305,1,2,0:0:0:0:
197,187,31406,2,0,L|202:121,1,41.9999987182618,8|0,0:0|0:0,0:0:0:0:
53,270,31710,6,0,L|66:379,1,83.9999974365235,10|8,0:0|0:0,0:0:0:0:
111,204,32116,2,0,P|72:182|19:196,1,83.9999974365235,2|0,0:0|0:0,0:0:0:0:
212,316,32521,2,0,L|321:300,2,83.9999974365235,2|8|0,0:0|0:0|0:0,0:0:0:0:
250,120,33129,1,6,0:0:0:0:
258,106,33332,6,0,L|263:179,1,41.9999987182618,10|0,0:0|0:0,0:0:0:0:
312,205,33535,1,2,0:0:0:0:
312,205,33636,2,0,L|367:211,1,41.9999987182618,2|0,0:0|0:0,0:0:0:0:
402,151,33839,1,2,0:0:0:0:
402,151,33940,2,0,L|457:145,1,41.9999987182618,2|0,0:0|0:0,0:0:0:0:
497,203,34143,2,0,L|497:308,2,83.9999974365235,2|8|0,0:0|0:2|0:0,0:0:0:0:
307,328,34751,1,2,0:0:0:0:
313,317,34954,6,0,P|343:305|377:318,1,41.9999987182618,10|0,0:0|0:0,0:0:0:0:
456,352,35156,1,2,0:0:0:0:
456,352,35258,2,0,P|426:340|392:353,1,41.9999987182618,2|0,0:0|0:0,0:0:0:0:
311,299,35460,1,2,0:0:0:0:
311,299,35562,2,0,P|341:287|375:300,1,41.9999987182618,2|0,0:0|0:0,0:0:0:0:
424,266,35764,2,0,L|416:151,1,83.9999974365235,2|8,0:0|0:0,0:0:0:0:
271,53,36170,2,0,L|270:110,1,41.9999987182618,2|0,0:0|0:0,0:0:0:0:
228,155,36372,1,4,0:0:0:0:
432,66,36575,6,0,P|376:26|282:46,1,167.999994873047,10|0,0:0|0:0,0:0:0:0:
127,96,37183,1,0,0:0:0:0:
127,96,37285,1,0,0:0:0:0:
127,96,37386,2,0,P|154:98|183:114,1,41.9999987182618,0|0,0:0|0:0,0:0:0:0:
224,160,37589,2,0,L|226:210,1,41.9999987182618,8|0,0:0|0:0,0:0:0:0:
172,259,37791,1,2,0:0:0:0:
172,259,37893,2,0,L|170:309,1,41.9999987182618,8|0,0:0|0:0,0:0:0:0:
377,208,38197,6,0,P|343:186|287:200,1,83.9999974365235,10|10,0:0|0:0,0:0:0:0:
442,336,38602,2,0,P|478:317|493:262,1,83.9999974365235,2|0,0:0|0:0,0:0:0:0:
293,310,39008,2,0,P|290:350|331:391,2,83.9999974365235,2|8|0,0:0|0:0|0:0,0:0:0:0:
373,290,39616,1,0,0:0:0:0:
186,196,39818,6,0,L|263:190,1,60,2|2,0:0|0:0,0:0:0:0:
430,79,40224,1,2,0:0:0:0:
430,79,40325,2,0,L|374:74,1,30,2|0,0:0|0:0,0:0:0:0:
336,119,40528,1,2,0:0:0:0:
336,119,40629,2,0,L|340:157,1,30,2|0,0:0|0:0,0:0:0:0:
398,200,40832,2,0,L|391:274,1,60,10|2,0:0|0:0,0:0:0:0:
245,95,41237,1,2,0:0:0:0:
245,95,41339,1,2,0:0:0:0:
245,95,41440,6,0,P|224:89|197:97,1,30,2|2,0:0|0:0,0:0:0:0:
165,151,41643,2,0,P|144:157|117:149,1,30,2|2,0:0|0:0,0:0:0:0:
74,110,41845,2,0,L|71:46,1,60,2|0,0:0|0:0,0:0:0:0:
19,171,42149,1,2,0:0:0:0:
19,171,42251,2,0,L|16:230,1,60,2|10,0:0|0:0,0:0:0:0:
202,331,42656,2,0,P|207:306|200:284,1,41.9999987182618,2|0,0:0|0:0,0:0:0:0:
23,326,43062,6,0,L|103:334,1,60,8|2,0:0|0:0,0:0:0:0:
255,191,43467,2,0,L|178:196,1,60,2|2,0:0|0:0,0:0:0:0:
144,250,43771,1,2,0:0:0:0:
144,250,43872,2,0,L|148:292,1,30,2|0,0:0|0:0,0:0:0:0:
82,200,44075,1,10,0:0:0:0:
82,200,44177,1,2,0:0:0:0:
82,200,44278,2,0,L|86:158,1,30,2|8,0:0|0:0,0:0:0:0:
40,106,44481,1,2,0:0:0:0:
204,20,44683,6,0,L|198:107,1,60,10|10,0:0|0:0,0:0:0:0:
149,159,45089,2,0,L|113:154,1,30,2|0,0:0|0:0,0:0:0:0:
226,181,45291,2,0,L|262:176,1,30,2|0,0:0|0:0,0:0:0:0:
323,214,45494,2,0,P|333:250|323:282,1,60,2|8,0:0|0:0,0:0:0:0:
270,324,45798,1,2,0:0:0:0:
270,324,45899,2,0,P|264:353|270:371,1,41.9999987182618,2|0,0:0|0:0,0:0:0:0:
500,292,46305,6,0,P|453:275|427:283,1,60,8|2,0:0|0:0,0:0:0:0:
349,362,46710,1,2,0:0:0:0:
349,362,46812,2,0,L|311:366,1,30,2|0,0:0|0:0,0:0:0:0:
262,313,47014,1,0,0:0:0:0:
262,313,47116,2,0,L|260:261,1,30,2|0,0:0|0:0,0:0:0:0:
212,225,47318,1,10,0:0:0:0:
212,225,47420,2,0,L|214:173,1,30,2|0,0:0|0:0,0:0:0:0:
39,319,47724,2,0,L|89:325,1,30,2|0,0:0|0:0,0:0:0:0:
135,284,47927,6,0,L|132:241,3,30,2|2|2|2,0:0|0:0|0:0|0:0,0:0:0:0:
78,201,48332,2,0,L|81:158,3,30,2|2|2|2,0:0|0:0|0:0|0:0,0:0:0:0:
135,117,48737,1,0,0:0:0:0:
326,196,48940,1,10,0:0:0:0:
326,196,49041,2,0,L|279:200,1,30,2|2,0:0|0:0,0:0:0:0:
288,213,49345,6,0,P|278:242|282:262,1,30,2|0,0:0|0:0,0:0:0:0:
241,152,49548,6,0,P|238:137|231:124,1,30,10|0,0:0|0:0,0:0:0:0:
241,50,49751,1,2,0:0:0:0:
241,50,49852,1,2,0:0:0:0:
241,50,49954,2,0,P|226:45|211:45,1,30,2|0,0:0|0:0,0:0:0:0:
307,93,50156,2,0,P|321:92|336:87,1,30,2|0,0:0|0:0,0:0:0:0:
408,48,50359,2,0,L|404:103,1,30,2|0,0:0|0:0,0:0:0:0:
379,152,50562,1,10,0:0:0:0:
379,152,50663,2,0,L|383:207,1,30,2|0,0:0|0:0,0:0:0:0:
432,242,50866,1,10,0:0:0:0:
432,242,50967,2,0,L|428:297,1,30,2|0,0:0|0:0,0:0:0:0:
378,331,51170,5,10,0:0:0:0:
378,331,51372,1,10,0:0:0:0:
209,229,51575,2,0,L|256:223,1,30,2|0,0:0|0:0,0:0:0:0:
312,189,51778,1,2,0:0:0:0:
312,189,51879,2,0,L|307:240,1,30,2|0,0:0|0:0,0:0:0:0:
282,295,52082,1,2,0:0:0:0:
282,295,52183,2,0,L|287:346,1,30,10|0,0:0|0:0,0:0:0:0:
224,374,52386,1,6,0:0:0:0:
211,378,52589,6,0,P|182:372|159:356,1,30,2|0,0:0|0:0,0:0:0:0:
132,309,52791,6,0,L|134:197,1,77.9999964294435,8|2,0:0|0:0,0:0:0:0:
5,71,53197,2,0,L|7:183,1,77.9999964294435,2|2,0:0|0:0,0:0:0:0:
116,140,53501,1,2,0:0:0:0:
116,140,53602,2,0,P|89:129|64:133,1,38.9999982147218,2|2,0:0|0:0,0:0:0:0:
71,206,53805,2,0,P|42:209|22:226,1,38.9999982147218,10|2,0:0|0:0,0:0:0:0:
70,280,54008,2,0,P|47:297|38:321,1,38.9999982147218,2|0,0:0|0:0,0:0:0:0:
108,346,54210,1,2,0:0:0:0:
285,238,54413,6,0,L|197:231,1,77.9999964294435,10|2,0:0|0:0,0:0:0:0:
171,167,54717,1,2,0:0:0:0:
171,167,54818,1,2,0:0:0:0:
252,349,55021,1,2,0:0:0:0:
297,101,55224,2,0,P|321:90|349:94,1,38.9999982147218,2|0,0:0|0:0,0:0:0:0:
260,170,55427,1,10,0:0:0:0:
260,170,55528,1,2,0:0:0:0:
260,170,55629,2,0,P|240:168|223:158,1,38.9999982147218,2|0,0:0|0:0,0:0:0:0:
179,94,55832,2,0,L|180:44,1,38.9999982147218,2|0,0:0|0:0,0:0:0:0:
112,138,56035,6,0,L|114:216,1,77.9999964294435,10|2,0:0|0:0,0:0:0:0:
73,282,56339,1,2,0:0:0:0:
73,282,56440,2,0,L|19:288,1,38.9999982147218,2|2,0:0|0:0,0:0:0:0:
130,341,56643,2,0,L|184:347,1,38.9999982147218,2|2,0:0|0:0,0:0:0:0:
216,287,56845,2,0,L|270:281,1,38.9999982147218,0|0,0:0|0:0,0:0:0:0:
313,338,57048,1,10,0:0:0:0:
216,169,57251,1,2,0:0:0:0:
216,169,57352,1,8,0:0:0:0:
216,169,57454,2,0,L|212:225,1,38.9999982147218,2|0,0:0|0:0,0:0:0:0:
254,282,57656,6,0,P|221:258|165:272,1,77.9999964294435,10|8,0:0|0:0,0:0:0:0:
325,137,58062,2,0,P|355:119|387:127,1,38.9999982147218,2|2,0:0|0:0,0:0:0:0:
406,177,58264,2,0,P|440:176|464:199,1,38.9999982147218,2|2,0:0|0:0,0:0:0:0:
491,238,58467,1,0,0:0:0:0:
453,43,58670,1,10,0:0:0:0:
327,219,58872,2,0,L|223:199,1,77.9999964294435,2|2,0:0|0:0,0:0:0:0:
424,330,59278,6,0,L|415:237,1,77.9999964294435,8|2,0:0|0:0,0:0:0:0:
351,84,59683,1,2,0:0:0:0:
351,84,59785,2,0,L|347:157,1,38.9999982147218,0|0,0:0|0:0,0:0:0:0:
391,182,59987,2,0,P|421:198|480:178,1,77.9999964294435,2|2,0:0|0:0,0:0:0:0:
508,132,60291,1,10,0:0:0:0:
312,190,60494,1,0,0:0:0:0:
510,121,60697,1,2,0:0:0:0:
253,38,60899,6,0,L|257:130,1,77.9999964294435,10|2,0:0|0:0,0:0:0:0:
207,172,61204,1,2,0:0:0:0:
207,172,61305,2,0,L|206:223,1,38.9999982147218,2|2,0:0|0:0,0:0:0:0:
156,269,61508,1,2,0:0:0:0:
156,269,61609,2,0,P|128:280|65:250,1,77.9999964294435,2|0,0:0|0:0,0:0:0:0:
209,330,61913,2,0,P|245:318|276:327,1,38.9999982147218,10|0,0:0|0:0,0:0:0:0:
297,373,62116,2,0,P|333:384|370:373,1,77.9999964294435,2|0,0:0|0:0,0:0:0:0:
415,192,62521,6,0,L|323:207,1,77.9999964294435,10|0,0:0|0:0,0:0:0:0:
276,159,62825,2,0,L|180:154,1,77.9999964294435,2|0,0:0|0:0,0:0:0:0:
138,207,63129,1,2,0:0:0:0:
138,207,63231,1,0,0:0:0:0:
138,207,63332,2,0,P|119:243|144:303,1,77.9999964294435,2|8,0:0|0:0,0:0:0:0:
65,165,63636,2,0,P|46:129|71:69,1,77.9999964294435,2|2,0:0|0:0,0:0:0:0:
102,38,63940,1,0,0:0:0:0:
102,38,64041,1,0,0:0:0:0:
102,38,64143,6,0,L|149:35,1,38.9999982147218,10|2,0:0|0:0,0:0:0:0:
202,82,64345,2,0,L|249:85,1,38.9999982147218,10|2,0:0|0:0,0:0:0:0:
299,32,64548,1,2,0:0:0:0:
242,228,64751,1,2,0:0:0:0:
46,67,64954,5,10,0:0:0:0:
402,8,65359,5,10,0:0:0:0:
232,296,65764,6,0,L|224:123,1,143.999995605469,14|0,0:0|0:0,0:0:0:0:
276,97,66068,1,2,0:0:0:0:
276,97,66170,2,0,P|316:74|350:91,1,71.9999978027344,0|0,1:0|0:0,0:0:0:0:
396,128,66372,1,2,0:0:0:0:
165,267,66575,2,0,B|128:246|128:246|-1:305,1,143.999995605469,10|0,0:0|0:0,0:0:0:0:
6,361,66879,1,2,0:0:0:0:
6,361,66981,1,0,1:0:0:0:
71,184,67183,1,2,0:0:0:0:
306,299,67386,6,0,L|156:277,1,143.999995605469,10|0,0:0|0:0,0:0:0:0:
106,329,67690,1,2,0:0:0:0:
106,329,67791,1,0,1:0:0:0:
49,108,67994,1,2,0:0:0:0:
302,162,68197,1,10,0:0:0:0:
160,225,68399,1,2,0:0:0:0:
220,144,68602,2,0,B|198:181|198:181|228:295,1,120,2|0,1:0|0:0,0:0:0:0:
474,160,69008,6,0,P|409:115|326:158,1,143.999995605469,10|0,0:0|0:0,0:0:0:0:
309,193,69312,1,0,0:0:0:0:
309,193,69413,2,0,L|310:287,1,71.9999978027344,0|0,1:0|0:0,0:0:0:0:
260,324,69616,1,2,0:0:0:0:
493,226,69818,1,10,0:0:0:0:
493,226,70021,1,2,0:0:0:0:
253,141,70224,1,2,1:0:0:0:
253,141,70427,1,2,0:0:0:0:
378,294,70629,6,0,L|372:136,1,120,10|0,0:0|0:0,0:0:0:0:
370,98,70933,1,2,0:0:0:0:
370,98,71035,1,0,1:0:0:0:
495,273,71237,1,10,0:0:0:0:
255,174,71440,2,0,P|196:188|179:282,1,120,10|0,0:0|0:0,0:0:0:0:
321,102,71845,2,0,P|269:70|190:124,1,120,10|10,0:0|0:0,0:0:0:0:
147,120,72149,1,8,0:0:0:0:
147,120,72251,6,0,L|151:302,1,155.999992858887,14|0,0:0|0:0,0:0:0:0:
112,340,72555,1,2,0:0:0:0:
112,340,72656,2,0,P|62:361|28:330,1,77.9999964294435,0|0,1:0|0:0,0:0:0:0:
0,293,72859,1,2,0:0:0:0:
232,206,73062,2,0,B|207:260|207:260|236:353,1,155.999992858887,10|0,0:0|0:0,0:0:0:0:
310,373,73366,1,2,0:0:0:0:
310,373,73467,1,0,1:0:0:0:
114,249,73670,1,2,0:0:0:0:
359,128,73872,5,10,0:0:0:0:
373,204,74075,1,2,0:0:0:0:
134,117,74278,5,2,1:0:0:0:
142,70,74481,1,2,0:0:0:0:
294,174,74683,5,10,0:0:0:0:
277,179,74886,1,2,0:0:0:0:
219,151,75089,5,2,1:0:0:0:
234,158,75292,1,2,0:0:0:0:
222,234,75494,6,0,L|229:356,1,107.999996704102,10|0,0:0|0:0,0:0:0:0:
300,380,75798,1,2,0:0:0:0:
300,380,75899,2,0,L|358:364,1,53.9999983520508,0|0,1:0|0:0,0:0:0:0:
406,311,76102,1,2,0:0:0:0:
132,256,76305,2,0,B|152:298|152:298|128:375,1,107.999996704102,10|0,0:0|0:0,0:0:0:0:
63,379,76609,1,2,0:0:0:0:
63,379,76710,1,0,1:0:0:0:
243,316,76913,1,2,0:0:0:0:
102,136,77116,6,0,L|95:215,1,53.9999983520508,10|0,0:0|0:0,0:0:0:0:
150,242,77318,2,0,L|215:223,1,53.9999983520508,0|8,0:0|0:0,0:0:0:0:
71,261,77521,2,0,L|6:242,1,53.9999983520508,0|0,1:0|0:0,0:0:0:0:
127,319,77724,1,8,0:0:0:0:
191,143,77927,2,0,P|235:114|304:140,1,107.999996704102,10|8,0:0|0:0,0:0:0:0:
454,228,78332,1,12,0:2:0:0:
443,240,78433,1,8,0:0:0:0:
431,228,78535,1,8,0:0:0:0:
439,214,78636,1,8,0:0:0:0:
459,220,78737,6,0,L|314:200,1,143.999995605469,14|0,0:0|0:0,0:0:0:0:
256,248,79041,1,2,0:0:0:0:
256,248,79143,2,0,P|241:301|259:340,1,71.9999978027344,0|0,1:0|0:0,0:0:0:0:
295,374,79345,1,2,0:0:0:0:
180,157,79548,2,0,B|121:119|96:189|39:144,1,143.999995605469,10|0,0:0|0:0,0:0:0:0:
12,84,79852,1,2,0:0:0:0:
12,84,79954,1,0,1:0:0:0:
120,253,80156,1,2,0:0:0:0:
213,15,80359,6,0,B|189:61|189:61|228:166,1,143.999995605469,10|0,0:0|0:0,0:0:0:0:
257,216,80663,1,2,0:0:0:0:
257,216,80764,1,0,1:0:0:0:
401,49,80967,1,2,0:0:0:0:
116,21,81170,1,10,0:0:0:0:
253,129,81372,1,2,0:0:0:0:
184,67,81575,2,0,L|176:221,1,120,2|0,1:0|0:0,0:0:0:0:
385,337,81981,6,0,B|345:308|345:308|235:366,1,143.999995605469,10|0,0:0|0:0,0:0:0:0:
190,329,82285,1,0,0:0:0:0:
190,329,82386,2,0,L|194:241,1,71.9999978027344,0|0,1:0|0:0,0:0:0:0:
145,197,82589,1,2,0:0:0:0:
419,162,82791,1,10,0:0:0:0:
419,162,82994,1,2,0:0:0:0:
207,90,83197,1,2,1:0:0:0:
207,90,83400,1,2,0:0:0:0:
273,242,83602,6,0,B|309:217|309:217|418:256,1,120,10|0,0:0|0:0,0:0:0:0:
453,273,83906,1,2,0:0:0:0:
453,273,84008,1,0,1:0:0:0:
358,71,84210,1,10,0:0:0:0:
261,319,84413,2,0,P|215:345|139:291,1,120,10|0,0:0|0:0,0:0:0:0:
201,229,84818,2,0,P|150:214|134:122,1,120,10|10,0:0|0:0,0:0:0:0:
141,81,85122,1,8,0:0:0:0:
141,81,85224,6,0,B|226:42|195:126|317:60,1,155.999992858887,14|0,0:0|0:0,0:0:0:0:
342,12,85528,1,2,0:0:0:0:
342,12,85629,2,0,P|320:58|340:108,1,77.9999964294435,0|0,1:0|0:0,0:0:0:0:
378,140,85832,1,2,0:0:0:0:
234,339,86035,2,0,B|225:173,1,155.999992858887,10|0,0:0|0:0,0:0:0:0:
170,129,86339,1,2,0:0:0:0:
170,129,86440,1,0,1:0:0:0:
382,233,86643,1,2,0:0:0:0:
91,324,86845,5,10,0:0:0:0:
77,247,87048,1,2,0:0:0:0:
299,74,87251,5,2,1:0:0:0:
292,120,87454,1,2,0:0:0:0:
129,164,87656,5,10,0:0:0:0:
146,159,87859,1,2,0:0:0:0:
219,224,88062,5,2,1:0:0:0:
207,220,88265,1,2,0:0:0:0:
263,151,88467,6,0,P|307:124|376:149,1,107.999996704102,10|0,0:0|0:0,0:0:0:0:
411,191,88771,1,2,0:0:0:0:
411,191,88872,2,0,L|414:258,1,53.9999983520508,0|0,1:0|0:0,0:0:0:0:
381,311,89075,1,2,0:0:0:0:
316,59,89278,2,0,B|285:79|285:79|178:46,1,107.999996704102,10|0,0:0|0:0,0:0:0:0:
152,24,89582,1,2,0:0:0:0:
152,24,89683,1,0,1:0:0:0:
376,4,89886,1,2,0:0:0:0:
226,136,90089,6,0,L|240:284,1,107.999996704102,14|0,0:0|0:0,0:0:0:0:
191,306,90393,1,8,0:0:0:0:
191,306,90494,1,0,1:0:0:0:
345,171,90697,1,8,0:0:0:0:
94,117,90899,2,0,L|105:237,1,107.999996704102,14|8,0:0|0:0,0:0:0:0:
265,26,91305,1,8,0:2:0:0:
281,25,91406,1,8,0:0:0:0:
282,42,91508,1,8,0:0:0:0:
266,47,91609,1,8,0:0:0:0:
252,42,91710,6,0,B|187:-2|182:84|87:14,1,143.999995605469,14|0,0:0|0:0,0:0:0:0:
317,114,92116,1,2,0:0:0:0:
317,114,92318,1,2,0:0:0:0:
221,219,92521,2,0,L|224:104,1,96,2|10,0:0|0:0,0:0:0:0:
345,234,92927,2,0,L|348:349,1,96,2|0,0:0|0:0,0:0:0:0:
217,118,93332,6,0,P|177:99|111:126,1,96,2|0,0:0|0:0,0:0:0:0:
267,194,93737,2,0,P|312:205|355:186,1,96,2|2,0:0|0:0,0:0:0:0:
306,125,94041,1,0,0:0:0:0:
306,125,94143,2,0,L|305:248,2,96,2|8|0,0:0|0:0|0:0,0:0:0:0:
109,51,94751,6,0,B|174:7|179:93|274:23,1,143.999995605469,6|8,0:0|0:0,0:0:0:0:
370,8,95156,1,0,0:0:0:0:
207,125,95359,2,0,L|216:239,1,96,2|2,0:0|0:0,0:0:0:0:
169,285,95663,1,0,0:0:0:0:
169,285,95764,2,0,P|136:269|110:282,1,48,2|0,0:0|0:0,0:0:0:0:
66,320,95967,1,10,0:0:0:0:
227,358,96170,1,2,0:0:0:0:
227,358,96271,1,8,0:0:0:0:
227,358,96372,2,0,P|250:358|269:343,1,48,0|0,0:0|0:0,0:0:0:0:
309,277,96575,6,0,L|310:167,1,96,10|10,0:0|0:0,0:0:0:0:
510,254,96981,2,0,P|463:281|426:268,1,96,2|2,0:0|0:0,0:0:0:0:
382,209,97285,1,0,0:0:0:0:
382,209,97386,2,0,P|335:182|298:195,2,96,2|8|0,0:0|0:0|0:0,0:0:0:0:
217,342,97994,6,0,L|212:247,1,71.9999978027344,6|0,0:0|0:0,0:0:0:0:
160,214,98197,2,0,L|165:90,1,96,10|0,0:0|0:0,0:0:0:0:
114,59,98501,1,2,0:0:0:0:
114,59,98602,1,0,0:0:0:0:
114,59,98704,2,0,L|51:48,2,48,2|2|0,0:0|0:0|0:0,0:0:0:0:
196,32,99008,1,2,0:0:0:0:
187,47,99210,2,0,B|257:10|250:74|342:25,1,143.999995605469,14|2,0:0|0:0,0:0:0:0:
397,84,99514,1,0,0:0:0:0:
397,84,99616,1,2,0:0:0:0:
397,84,99717,1,2,0:0:0:0:
397,84,99818,6,0,B|327:47|334:111|242:62,1,143.999995605469,14|0,0:0|0:0,0:0:0:0:
140,226,100224,2,0,L|210:218,2,48,2|2|2,0:0|0:0|0:0,0:0:0:0:
91,166,100528,1,0,0:0:0:0:
91,166,100629,1,2,0:0:0:0:
189,344,100832,1,8,0:0:0:0:
263,239,101035,2,0,L|200:223,1,48,2|0,0:0|0:0,0:0:0:0:
147,256,101237,6,0,B|219:202|220:296|314:215,1,143.999995605469,6|8,0:0|0:0,0:0:0:0:
411,104,101643,2,0,L|406:175,1,48,2|2,0:0|0:0,0:0:0:0:
372,222,101845,2,0,L|377:293,1,48,2|2,0:0|0:0,0:0:0:0:
426,329,102048,1,2,0:0:0:0:
294,143,102251,1,2,0:0:0:0:
417,99,102454,2,0,B|341:57|354:135|268:79,1,143.999995605469,12|2,0:0|0:0,0:0:0:0:
208,113,102758,1,8,0:0:0:0:
208,113,102859,1,2,0:0:0:0:
85,215,103062,6,0,B|162:214|118:271|217:284,1,143.999995605469,14|8,0:0|0:0,0:0:0:0:
8,135,103467,2,0,L|4:265,1,96,2|2,0:0|0:0,0:0:0:0:
59,293,103771,1,0,0:0:0:0:
59,293,103872,2,0,B|116:237|134:320|208:238,1,143.999995605469,6|8,0:0|0:0,0:0:0:0:
405,356,104278,2,0,L|304:344,1,96,0|0,0:0|0:0,0:0:0:0:
210,181,104683,6,0,L|208:103,2,71.9999978027344,2|2|2,0:0|0:0|0:0,0:0:0:0:
272,234,105899,1,2,0:0:0:0:
272,234,106305,6,0,L|350:222,2,71.9999978027344,2|2|2,0:0|0:0|0:0,0:0:0:0:
220,288,107521,1,2,0:0:0:0:
220,288,107927,6,0,L|217:376,2,71.9999978027344,2|2|2,0:0|0:0|0:0,0:0:0:0:
168,231,109143,1,2,0:0:0:0:
168,231,109548,6,0,P|140:227|117:234,2,35.9999989013672,2|2|2,0:0|0:0|0:0,0:0:0:0:
219,175,110156,2,0,P|236:176|254:172,2,35.9999989013672,2|2|0,0:0|0:0|0:0,0:0:0:0:
181,108,110764,2,0,L|180:60,1,35.9999989013672,2|0,0:0|0:0,0:0:0:0:
117,23,111170,6,0,P|93:18|40:44,2,71.9999978027344,2|2|2,0:0|0:0|0:0,0:0:0:0:
180,72,112386,1,2,0:0:0:0:
243,121,112791,6,0,P|267:126|320:100,2,71.9999978027344,2|2|2,0:0|0:0|0:0,0:0:0:0:
180,72,114007,1,2,0:0:0:0:
180,72,114413,6,0,L|133:70,1,35.9999989013672,2|0,0:0|0:0,0:0:0:0:
83,117,114717,1,0,0:0:0:0:
83,117,114818,2,0,L|86:159,1,35.9999989013672,2|2,0:0|0:0,0:0:0:0:
48,243,115224,1,2,0:0:0:0:
48,243,115629,1,2,0:0:0:0:
175,350,116035,6,0,L|170:302,1,35.9999989013672,2|0,0:0|0:0,0:0:0:0:
135,213,116440,2,0,L|131:248,1,35.9999989013672,2|0,0:0|0:0,0:0:0:0:
199,160,116845,2,0,P|218:154|244:161,1,35.9999989013672,2|0,0:0|0:0,0:0:0:0:
294,208,117251,2,0,P|313:214|339:207,1,35.9999989013672,2|0,0:0|0:0,0:0:0:0:
452,104,117656,5,14,0:0:0:0:
452,104,117859,1,2,0:0:0:0:
452,104,118062,2,0,L|457:224,1,96,2|0,0:0|0:0,0:0:0:0:
415,267,118366,1,2,0:0:0:0:
415,267,118467,2,0,P|380:294|321:276,1,96,2|10,0:0|0:0,0:0:0:0:
204,198,118872,2,0,P|249:188|287:216,1,96,2|2,0:0|0:0,0:0:0:0:
252,284,119177,1,2,0:0:0:0:
252,284,119278,6,0,L|259:384,1,96,10|2,0:0|0:0,0:0:0:0:
197,208,119683,2,0,L|204:108,1,96,2|2,0:0|0:0,0:0:0:0:
141,63,119987,1,0,0:0:0:0:
141,63,120089,2,0,P|180:86|255:41,1,96,2|10,0:0|0:0,0:0:0:0:
107,139,120494,2,0,P|61:129|20:152,1,96,2|0,0:0|0:0,0:0:0:0:
214,244,120899,6,0,L|334:231,1,96,10|0,0:0|0:0,0:0:0:0:
374,193,121204,1,2,0:0:0:0:
374,193,121305,1,0,0:0:0:0:
423,41,121508,1,2,0:0:0:0:
487,250,121710,2,0,P|445:274|399:260,1,96,2|8,0:0|0:0,0:0:0:0:
218,163,122116,2,0,P|248:151|287:169,1,48,2|8,0:0|0:0,0:0:0:0:
169,227,122318,2,0,P|145:227|124:216,1,48,2|0,0:0|0:0,0:0:0:0:
80,154,122521,6,0,L|77:46,1,96,10|10,0:0|0:0,0:0:0:0:
138,9,122825,1,2,0:0:0:0:
138,9,122927,2,0,P|179:-6|233:14,1,96,2|2,0:0|0:0,0:0:0:0:
124,216,123332,2,0,P|83:231|29:211,1,96,2|10,0:0|0:0,0:0:0:0:
220,130,123737,2,0,L|225:249,1,96,2|0,0:0|0:0,0:0:0:0:
392,347,124143,5,2,0:0:0:0:
220,92,124548,1,2,0:0:0:0:
92,371,124954,1,2,0:0:0:0:
152,322,125156,1,8,0:0:0:0:
133,250,125359,1,2,0:0:0:0:
133,250,125764,5,10,0:0:0:0:
354,33,126170,1,2,0:0:0:0:
454,323,126575,1,2,0:0:0:0:
413,255,126778,1,8,0:0:0:0:
337,249,126981,1,2,0:0:0:0:
337,249,127386,6,0,L|342:363,1,96,10|2,0:0|0:0,0:0:0:0:
273,197,127791,2,0,L|278:83,1,96,2|2,0:0|0:0,0:0:0:0:
255,276,128197,2,0,P|191:289|162:260,1,96,2|10,0:0|0:0,0:0:0:0:
359,170,128602,1,2,0:0:0:0:
359,170,128704,1,8,0:0:0:0:
359,170,128805,1,2,0:0:0:0:
405,373,129008,5,10,0:0:0:0:
232,265,129210,1,10,0:0:0:0:
447,195,129413,1,2,0:0:0:0:
331,352,129616,1,2,0:0:0:0:
160,101,129818,5,2,0:0:0:0:
32,365,130224,5,2,0:0:0:0:
168,237,130629,6,0,B|216:270|216:270|331:226,1,143.999995605469,14|0,0:0|0:0,0:0:0:0:
343,178,130933,1,2,0:0:0:0:
343,178,131035,2,0,L|337:254,1,71.9999978027344,0|0,1:0|0:0,0:0:0:0:
392,307,131237,1,2,0:0:0:0:
260,129,131440,2,0,P|205:94|111:140,1,143.999995605469,10|0,0:0|0:0,0:0:0:0:
87,175,131744,1,2,0:0:0:0:
87,175,131845,1,0,1:0:0:0:
155,6,132048,1,2,0:0:0:0:
206,212,132251,6,0,L|49:185,1,143.999995605469,10|0,0:0|0:0,0:0:0:0:
7,239,132555,1,2,0:0:0:0:
7,239,132656,1,0,1:0:0:0:
137,86,132859,1,2,0:0:0:0:
217,330,133062,1,10,0:0:0:0:
93,228,133264,1,2,0:0:0:0:
189,148,133467,2,0,B|167:186|167:186|188:262,1,120,2|0,1:0|0:0,0:0:0:0:
431,210,133872,6,0,L|423:55,1,143.999995605469,10|0,0:0|0:0,0:0:0:0:
356,29,134177,1,0,0:0:0:0:
356,29,134278,2,0,P|321:14|270:32,1,71.9999978027344,0|0,1:0|0:0,0:0:0:0:
231,69,134481,1,2,0:0:0:0:
486,168,134683,1,10,0:0:0:0:
486,168,134886,1,2,0:0:0:0:
263,233,135089,1,2,1:0:0:0:
263,233,135291,1,2,0:0:0:0:
365,102,135494,6,0,B|334:134|334:134|373:234,1,120,10|0,0:0|0:0,0:0:0:0:
414,282,135798,1,2,0:0:0:0:
414,282,135899,1,0,1:0:0:0:
365,102,136102,1,10,0:0:0:0:
272,344,136305,2,0,P|208:354|163:310,1,120,10|0,0:0|0:0,0:0:0:0:
243,244,136710,2,0,P|190:205|189:142,1,120,10|10,0:0|0:0,0:0:0:0:
227,91,137014,1,8,0:0:0:0:
227,91,137116,6,0,B|150:41|139:140|59:60,1,155.999992858887,14|0,0:0|0:0,0:0:0:0:
36,22,137420,1,2,0:0:0:0:
36,22,137521,2,0,L|41:115,1,77.9999964294435,0|0,1:0|0:0,0:0:0:0:
4,171,137724,1,2,0:0:0:0:
185,267,137927,2,0,B|136:243|136:243|32:295,1,155.999992858887,10|0,0:0|0:0,0:0:0:0:
17,359,138231,1,2,0:0:0:0:
17,359,138332,1,0,1:0:0:0:
117,146,138535,1,2,0:0:0:0:
286,357,138737,5,10,0:0:0:0:
362,342,138940,1,2,0:0:0:0:
139,231,139143,5,2,1:0:0:0:
92,222,139346,1,2,0:0:0:0:
325,82,139548,5,10,0:0:0:0:
323,105,139751,1,2,0:0:0:0:
249,207,139954,5,2,1:0:0:0:
247,195,140156,1,2,0:0:0:0:
192,121,140359,6,0,P|149:97|84:130,1,107.999996704102,10|0,0:0|0:0,0:0:0:0:
53,182,140663,1,2,0:0:0:0:
53,182,140764,2,0,L|58:247,1,53.9999983520508,0|0,1:0|0:0,0:0:0:0:
14,304,140967,1,2,0:0:0:0:
192,221,141170,2,0,B|226:243|226:243|332:199,1,107.999996704102,10|0,0:0|0:0,0:0:0:0:
331,150,141474,1,2,0:0:0:0:
331,150,141575,1,0,1:0:0:0:
389,326,141778,1,2,0:0:0:0:
237,126,141981,6,0,P|209:114|172:121,1,53.9999983520508,10|0,0:0|0:0,0:0:0:0:
305,70,142183,2,0,P|293:41|262:20,1,53.9999983520508,0|8,0:0|0:0,0:0:0:0:
396,99,142386,2,0,P|408:71|401:33,1,53.9999983520508,0|0,1:0|0:0,0:0:0:0:
331,150,142589,5,8,0:0:0:0:
186,340,142791,2,0,P|137:367|72:330,1,107.999996704102,10|8,0:0|0:0,0:0:0:0:
299,251,143197,5,12,0:0:0:0:
311,274,143298,1,8,0:0:0:0:
302,297,143399,1,8,0:0:0:0:
310,318,143501,1,8,0:0:0:0:
305,338,143602,6,0,P|354:365|437:317,1,143.999995605469,14|0,0:0|0:0,0:0:0:0:
464,264,143906,1,2,0:0:0:0:
464,264,144008,2,0,L|459:179,1,71.9999978027344,0|0,1:0|0:0,0:0:0:0:
408,129,144210,1,2,0:0:0:0:
255,260,144413,2,0,B|308:231|308:231|401:269,1,143.999995605469,10|0,0:0|0:0,0:0:0:0:
438,325,144717,1,2,0:0:0:0:
438,325,144818,1,0,1:0:0:0:
378,115,145021,1,2,0:0:0:0:
342,344,145224,6,0,P|283:303|196:350,1,143.999995605469,10|0,0:0|0:0,0:0:0:0:
159,372,145528,1,2,0:0:0:0:
159,372,145629,2,0,L|163:254,1,71.9999978027344,0|0,1:0|0:0,0:0:0:0:
108,238,145832,1,2,0:0:0:0:
318,71,146035,1,10,0:0:0:0:
168,0,146237,1,2,0:0:0:0:
220,94,146440,2,0,L|213:225,1,120,2|0,1:0|0:0,0:0:0:0:
491,74,146845,6,0,B|454:49|454:49|338:86,1,143.999995605469,10|0,0:0|0:0,0:0:0:0:
301,131,147149,1,0,0:0:0:0:
301,131,147251,2,0,L|305:218,1,71.9999978027344,0|0,1:0|0:0,0:0:0:0:
309,277,147454,1,2,0:0:0:0:
41,203,147656,1,10,0:0:0:0:
41,203,147859,1,2,0:0:0:0:
208,91,148062,1,2,1:0:0:0:
208,91,148264,1,2,0:0:0:0:
140,164,148467,6,0,L|136:277,1,120,10|0,0:0|0:0,0:0:0:0:
151,370,148771,1,2,0:0:0:0:
151,370,148872,1,0,1:0:0:0:
140,164,149075,1,10,0:0:0:0:
277,369,149278,2,0,P|331:381|388:328,1,120,10|0,0:0|0:0,0:0:0:0:
307,284,149683,2,0,P|353:254|356:176,1,120,10|10,0:0|0:0,0:0:0:0:
343,118,149987,1,8,0:0:0:0:
343,118,150089,6,0,B|293:150|293:150|167:89,1,155.999992858887,14|0,0:0|0:0,0:0:0:0:
151,159,150393,1,2,0:0:0:0:
151,159,150494,2,0,P|112:142|61:174,1,77.9999964294435,0|0,1:0|0:0,0:0:0:0:
29,207,150697,1,2,0:0:0:0:
224,384,150899,2,0,L|226:226,1,155.999992858887,10|0,0:0|0:0,0:0:0:0:
228,153,151204,1,2,0:0:0:0:
228,153,151305,1,0,1:0:0:0:
112,365,151508,1,2,0:0:0:0:
42,88,151710,5,10,0:0:0:0:
55,164,151913,1,2,0:0:0:0:
348,288,152116,5,2,1:0:0:0:
356,242,152319,1,2,0:0:0:0:
134,344,152521,5,10,0:0:0:0:
153,348,152724,1,2,0:0:0:0:
265,255,152927,5,2,1:0:0:0:
253,259,153130,1,2,0:0:0:0:
348,355,153332,6,0,L|470:333,1,107.999996704102,10|0,0:0|0:0,0:0:0:0:
493,271,153636,1,2,0:0:0:0:
493,271,153737,2,0,P|498:237|485:212,1,53.9999983520508,0|0,1:0|0:0,0:0:0:0:
451,157,153940,1,2,0:0:0:0:
333,365,154143,2,0,B|353:343|353:343|319:234,1,107.999996704102,10|0,0:0|0:0,0:0:0:0:
266,227,154447,1,2,0:0:0:0:
266,227,154548,1,0,1:0:0:0:
429,321,154751,1,2,0:0:0:0:
181,368,154954,6,0,L|189:236,1,107.999996704102,14|0,0:0|0:0,0:0:0:0:
196,184,155258,1,8,0:0:0:0:
196,184,155359,1,0,1:0:0:0:
312,344,155562,1,8,0:0:0:0:
262,119,155764,2,0,P|214:89|152:104,1,107.999996704102,14|8,0:0|0:0,0:0:0:0:
35,331,156170,5,8,0:0:0:0:
61,331,156271,1,8,0:0:0:0:
78,313,156372,1,8,0:0:0:0:
101,311,156474,1,8,0:0:0:0:
108,298,156575,6,0,L|113:234,1,60,6|2,0:0|0:0,0:0:0:0:
182,193,156981,2,0,L|176:129,1,60,2|2,0:0|0:0,0:0:0:0:
232,72,157386,2,0,P|178:49|123:70,1,120,2|2,0:0|0:0,0:0:0:0:
99,148,157994,1,2,0:0:0:0:
99,148,158197,5,2,0:0:0:0:
253,233,158602,2,0,L|247:292,1,60,2|2,0:0|0:0,0:0:0:0:
301,354,159008,2,0,B|344:333|344:333|424:358,1,120,10|10,0:0|0:0,0:0:0:0:
477,304,159616,1,10,0:0:0:0:
477,304,159818,6,0,L|465:176,1,120,10|10,0:0|0:0,0:0:0:0:
401,134,160427,1,10,0:0:0:0:
401,134,160629,1,10,0:0:0:0:
255,59,161035,6,0,P|226:53|199:67,2,60,2|2|2,0:0|0:0|0:0,0:0:0:0:
165,195,161845,2,0,P|138:181|109:186,1,60,2|2,0:0|0:0,0:0:0:0:
77,262,162251,2,0,L|65:134,1,120,10|0,0:0|0:0,0:0:0:0:
133,94,162859,1,2,0:0:0:0:
133,94,163062,6,0,L|144:-1,2,90,10|2|2,0:0|0:0|0:0,0:0:0:0:
193,148,163872,2,0,L|204:243,2,90,2|2|2,0:0|0:0|0:0,0:0:0:0:
253,94,164683,2,0,L|263:4,2,90,2|2|2,0:0|0:0|0:0,0:0:0:0:
309,153,165494,2,0,P|361:132|398:197,1,120,10|0,0:0|0:0,0:0:0:0:
269,272,166305,6,0,L|279:361,2,90,10|2|10,0:0|0:0|0:0,0:0:0:0:
198,230,167116,2,0,B|241:250|241:250|321:225,1,120,2|2,0:0|0:0,0:0:0:0:
349,157,167724,1,2,0:0:0:0:
349,157,167927,6,0,L|338:67,2,90,2|2|2,0:0|0:0|0:0,0:0:0:0:
420,199,168738,2,0,B|376:178|376:178|296:203,1,120,10|2,0:0|0:0,0:0:0:0:
232,334,169548,6,0,L|240:238,1,83.9999974365235,14|2,0:0|0:0,0:0:0:0:
185,194,169954,1,2,1:0:0:0:
165,185,170055,1,2,0:0:0:0:
144,186,170156,1,2,0:0:0:0:
126,194,170258,2,0,P|86:204|51:183,1,83.9999974365235,2|2,0:0|0:0,0:0:0:0:
43,172,170562,1,8,0:0:0:0:
94,43,170764,1,2,1:0:0:0:
0,102,170967,1,2,0:0:0:0:
91,30,171170,6,0,P|130:20|165:41,1,83.9999974365235,10|2,0:0|0:0,0:0:0:0:
186,119,171474,1,2,0:0:0:0:
186,119,171575,2,0,L|178:182,1,41.9999987182618,2|0,1:0|0:0,0:0:0:0:
271,248,171778,1,2,0:0:0:0:
271,248,171879,2,0,L|260:164,1,83.9999974365235,2|0,1:0|0:0,0:0:0:0:
268,151,172183,1,10,0:0:0:0:
353,246,172386,2,0,P|392:236|427:257,1,83.9999974365235,2|0,1:0|0:0,0:0:0:0:
492,214,172791,5,10,0:0:0:0:
379,324,172994,1,2,0:0:0:0:
500,225,173197,2,0,L|489:141,1,83.9999974365235,2|2,1:0|0:0,0:0:0:0:
494,130,173501,2,0,P|459:108|419:118,1,83.9999974365235,2|2,0:0|0:0,0:0:0:0:
412,130,173805,1,8,0:0:0:0:
304,52,174008,2,0,L|399:40,1,83.9999974365235,2|2,1:0|0:0,0:0:0:0:
383,206,174413,6,0,L|299:195,1,83.9999974365235,0|10,0:0|0:0,0:0:0:0:
238,244,174717,1,2,0:0:0:0:
238,244,174818,2,0,L|196:249,1,41.9999987182618,2|0,1:0|0:0,0:0:0:0:
133,201,175021,1,2,0:0:0:0:
199,343,175224,2,0,P|164:321|124:330,2,83.9999974365235,2|8|2,0:0|0:0|0:0,0:0:0:0:
316,274,175832,5,2,1:0:0:0:
208,165,176035,2,0,L|219:81,1,83.9999974365235,10|2,0:0|0:0,0:0:0:0:
159,0,176440,1,2,1:0:0:0:
160,13,176541,1,2,0:0:0:0:
162,26,176642,1,2,0:0:0:0:
131,139,176845,2,0,L|123:76,1,41.9999987182618,2|0,0:0|0:0,0:0:0:0:
55,43,177048,1,8,0:0:0:0:
55,43,177149,2,0,L|38:167,1,125.999996154785,2|2,0:0|0:0,0:0:0:0:
87,235,177555,1,2,0:0:0:0:
87,235,177656,6,0,P|121:213|161:221,1,83.9999974365235,8|2,0:0|0:0,0:0:0:0:
259,276,178062,1,2,1:0:0:0:
279,285,178163,1,2,0:0:0:0:
300,284,178264,1,2,0:0:0:0:
318,276,178366,2,0,P|358:266|393:287,1,83.9999974365235,2|2,0:0|0:0,0:0:0:0:
401,298,178670,1,10,0:0:0:0:
281,351,178872,2,0,L|197:340,1,83.9999974365235,2|0,1:0|0:0,0:0:0:0:
106,282,179278,6,0,L|148:276,1,41.9999987182618,10|2,0:0|0:0,0:0:0:0:
222,215,179481,1,2,0:0:0:0:
209,213,179582,1,2,0:0:0:0:
196,212,179683,2,0,P|185:172|206:137,1,83.9999974365235,2|2,1:0|0:0,0:0:0:0:
217,127,179987,2,0,L|301:138,1,83.9999974365235,2|2,0:0|0:0,0:0:0:0:
313,132,180291,1,10,0:0:0:0:
394,72,180494,1,2,1:0:0:0:
381,73,180595,1,0,0:0:0:0:
368,75,180696,1,2,0:0:0:0:
512,156,180899,5,10,0:0:0:0:
457,18,181102,1,10,0:0:0:0:
436,185,181305,1,2,1:0:0:0:
416,194,181406,1,2,0:0:0:0:
395,193,181507,1,2,0:0:0:0:
377,185,181609,2,0,P|337:175|302:196,1,83.9999974365235,2|2,0:0|0:0,0:0:0:0:
294,207,181913,2,0,L|301:270,1,41.9999987182618,10|0,0:0|0:0,0:0:0:0:
203,98,182116,2,0,P|242:87|277:108,1,83.9999974365235,2|0,1:0|0:0,0:0:0:0:
146,161,182521,5,14,0:0:0:0:
167,24,182724,1,2,0:0:0:0:
31,1,182927,1,2,1:0:0:0:
10,138,183129,1,2,0:0:0:0:
11,151,183230,1,2,0:0:0:0:
13,164,183332,2,0,P|63:152|100:189,1,107.999996704102,2|10,0:0|0:0,0:0:0:0:
217,257,183737,2,0,P|166:245|129:282,1,107.999996704102,2|2,1:0|0:0,0:0:0:0:
284,335,184143,5,10,0:0:0:0:
282,322,184244,1,2,0:0:0:0:
281,309,184345,1,2,0:0:0:0:
219,166,184548,1,2,1:0:0:0:
345,252,184751,1,2,0:0:0:0:
453,196,184954,2,0,L|399:189,1,53.9999983520508,2|0,0:0|0:0,0:0:0:0:
360,119,185156,2,0,L|306:125,1,53.9999983520508,10|2,0:0|0:0,0:0:0:0:
471,25,185359,2,0,P|434:62|445:112,1,107.999996704102,2|2,1:0|0:0,0:0:0:0:
321,210,185764,6,0,L|213:196,1,107.999996704102,10|0,0:0|0:0,0:0:0:0:
93,280,186170,1,2,1:0:0:0:
86,289,186271,2,0,L|193:275,1,107.999996704102,2|2,0:0|0:0,0:0:0:0:
204,285,186575,2,0,L|257:291,1,53.9999983520508,2|2,0:0|0:0,0:0:0:0:
309,354,186778,2,0,L|362:347,1,53.9999983520508,10|2,0:0|0:0,0:0:0:0:
332,184,186981,2,0,P|281:172|244:209,1,107.999996704102,2|0,1:0|0:0,0:0:0:0:
65,208,187386,6,0,L|78:100,1,107.999996704102,10|8,0:0|0:0,0:0:0:0:
40,36,187690,1,2,0:0:0:0:
40,36,187791,1,2,1:0:0:0:
158,123,187994,1,2,0:0:0:0:
154,135,188095,2,0,P|197:106|244:128,1,107.999996704102,2|2,0:0|0:0,0:0:0:0:
255,140,188399,2,0,L|248:193,1,53.9999983520508,8|0,0:0|0:0,0:0:0:0:
350,217,188602,2,0,L|334:92,1,125.999996154785,2|0,1:0|0:0,0:0:0:0:
169,214,189008,6,0,L|182:322,1,107.999996704102,14|2,0:0|0:0,0:0:0:0:
247,371,189312,1,2,0:0:0:0:
247,371,189413,1,2,1:0:0:0:
87,306,189616,2,0,L|94:253,1,53.9999983520508,2|2,0:0|0:0,0:0:0:0:
257,287,189818,1,2,0:0:0:0:
277,278,189919,1,2,0:0:0:0:
298,279,190020,1,10,0:0:0:0:
316,287,190122,2,0,B|368:311|368:311|467:280,1,161.999995056153,2|2,0:0|0:0,0:0:0:0:
373,225,190629,5,10,0:0:0:0:
235,260,190832,1,2,0:0:0:0:
233,246,190933,1,2,0:0:0:0:
232,233,191034,1,2,1:0:0:0:
132,138,191237,1,2,0:0:0:0:
134,124,191338,1,2,0:0:0:0:
135,111,191440,2,0,P|178:82|225:104,1,107.999996704102,2|10,0:0|0:0,0:0:0:0:
273,169,191744,1,2,0:0:0:0:
273,169,191845,2,0,L|260:277,1,107.999996704102,0|0,1:0|0:0,0:0:0:0:
359,206,192251,6,0,L|346:98,1,107.999996704102,14|2,0:0|0:0,0:0:0:0:
285,53,192555,1,2,0:0:0:0:
285,53,192656,1,0,1:0:0:0:
426,98,192859,1,2,0:0:0:0:
428,84,192960,1,0,0:0:0:0:
429,71,193061,1,2,0:0:0:0:
269,136,193264,1,10,0:0:0:0:
444,192,193467,2,0,L|432:287,1,53.9999983520508,2|8,1:0|0:0,0:0:0:0:
301,311,193670,2,0,L|294:257,1,53.9999983520508,2|0,0:0|0:0,0:0:0:0:
379,141,193872,6,0,P|331:103|283:128,1,120,14|10,0:0|0:0,0:0:0:0:
248,195,194177,1,2,0:0:0:0:
248,195,194278,2,0,L|189:187,1,60,0|2,1:0|0:0,0:0:0:0:
139,89,194481,1,2,0:0:0:0:
125,91,194582,1,0,0:0:0:0:
112,92,194683,6,0,L|53:99,1,60,14|0,0:2|0:0,0:0:0:0:
189,25,194886,2,0,L|248:32,1,60,10|0,0:0|0:0,0:0:0:0:
109,176,195089,6,0,L|102:235,1,60,2|0,1:0|0:0,0:0:0:0:
190,186,195291,2,0,L|183:245,1,60,2|0,0:0|0:0,0:0:0:0:
133,310,195494,5,14,0:0:0:0:
158,113,195697,1,2,0:0:0:0:
267,225,195899,1,0,1:0:0:0:
281,223,196000,1,2,0:0:0:0:
294,222,196102,2,0,L|353:215,1,60,2|2,0:0|0:0,0:0:0:0:
263,87,196305,5,2,0:0:0:0:
234,76,196406,1,2,0:0:0:0:
205,78,196507,1,10,0:0:0:0:
178,91,196609,1,2,0:0:0:0:
158,113,196710,1,2,1:0:0:0:
217,250,196913,2,0,L|210:309,1,60,2|0,0:0|0:0,0:0:0:0:
58,210,197116,6,0,P|110:232|152:195,1,120,10|2,0:0|0:0,0:0:0:0:
97,144,197420,1,0,0:0:0:0:
97,144,197521,1,2,1:0:0:0:
126,309,197724,1,2,0:0:0:0:
229,169,197927,5,2,0:0:0:0:
258,158,198028,1,2,0:0:0:0:
287,160,198129,1,10,0:0:0:0:
314,173,198231,1,2,0:0:0:0:
334,195,198332,2,0,L|318:324,1,120,2|0,1:0|0:0,0:0:0:0:
512,246,198737,6,0,P|460:224|406:275,1,132.00000402832,14|2,0:0|0:0,0:0:0:0:
475,318,199041,1,2,0:0:0:0:
475,318,199142,1,2,1:0:0:0:
432,150,199345,1,2,0:0:0:0:
396,347,199548,5,2,0:0:0:0:
339,216,199751,1,10,0:0:0:0:
191,368,199954,2,0,L|349:387,1,132.00000402832,2|0,1:0|0:0,0:0:0:0:
230,173,200359,5,10,0:0:0:0:
247,198,200460,1,0,0:0:0:0:
252,227,200561,1,2,0:0:0:0:
246,256,200663,1,2,0:0:0:0:
230,281,200764,2,0,L|75:299,1,132.00000402832,2|2,1:0|0:0,0:0:0:0:
0,192,201170,6,0,L|154:210,1,132.00000402832,2|8,0:0|0:0,0:0:0:0:
192,162,201474,1,2,0:0:0:0:
192,162,201575,1,2,0:0:0:0:
132,25,201778,1,2,1:0:0:0:
265,127,201981,6,0,P|317:105|371:156,1,132.00000402832,14|2,0:0|0:0,0:0:0:0:
437,191,202285,1,2,0:0:0:0:
437,191,202386,2,0,L|425:286,1,66.0000020141602,2|2,1:0|0:0,0:0:0:0:
367,301,202589,2,0,L|378:396,1,66.0000020141602,2|2,0:0|0:0,0:0:0:0:
260,216,202791,5,2,0:0:0:0:
235,199,202892,1,2,0:0:0:0:
206,194,202993,1,10,0:0:0:0:
177,200,203095,2,0,P|155:148|206:94,1,132.00000402832,2|2,0:0|0:0,0:0:0:0:
208,85,203399,1,2,0:0:0:0:
73,149,203602,5,10,0:0:0:0:
75,163,203703,1,0,0:0:0:0:
76,176,203804,2,0,L|85:252,1,66.0000020141602,2|0,0:0|0:0,0:0:0:0:
42,307,204008,1,2,1:0:0:0:
157,202,204210,1,2,0:0:0:0:
221,360,204413,2,0,P|266:316|325:337,1,132.00000402832,2|10,0:0|0:0,0:0:0:0:
404,349,204717,1,2,0:0:0:0:
404,349,204818,2,0,L|387:218,1,132.00000402832,2|0,1:0|0:0,0:0:0:0:
512,139,205224,6,0,B|468:160|468:160|388:135,1,132.00000402832,12|0,0:0|0:0,0:0:0:0:
333,83,205528,1,2,0:0:0:0:
333,83,205629,2,0,L|205:98,1,66.0000020141602,2|0,1:0|0:0,0:0:0:0:
151,20,205832,2,0,L|279:35,1,66.0000020141602,2|0,0:0|0:0,0:0:0:0:
308,167,206035,6,0,P|328:226|284:270,1,132.00000402832,2|10,0:0|0:0,0:0:0:0:
258,345,206339,1,2,0:0:0:0:
258,345,206440,1,2,1:0:0:0:
158,240,206643,1,2,0:0:0:0:
160,254,206744,1,2,0:0:0:0:
161,267,206845,6,0,B|205:246|205:246|285:271,1,132.00000402832,14|8,0:0|0:0,0:0:0:0:
354,234,207149,1,2,0:0:0:0:
354,234,207251,1,2,1:0:0:0:
463,363,207454,2,0,L|448:235,1,66.0000020141602,2|0,0:0|0:0,0:0:0:0:
497,168,207656,5,10,0:0:0:0:
472,151,207757,1,2,0:0:0:0:
443,146,207858,1,10,0:0:0:0:
414,152,207960,1,0,0:0:0:0:
389,168,208061,2,0,L|371:323,1,132.00000402832,2|0,1:0|0:0,0:0:0:0:
211,95,208467,6,0,B|258:72|258:72|345:99,1,143.999995605469,14|0,0:0|0:0,0:0:0:0:
425,101,208771,1,2,0:0:0:0:
425,101,208873,2,0,P|448:61|486:58,1,71.9999978027344,0|0,1:0|0:0,0:0:0:0:
483,215,209075,1,2,0:0:0:0:
343,181,209278,2,0,L|362:339,1,143.999995605469,10|0,0:0|0:0,0:0:0:0:
307,381,209582,1,2,0:0:0:0:
307,381,209684,1,0,1:0:0:0:
430,233,209886,1,2,0:0:0:0:
269,151,210089,6,0,P|226:131|167:202,1,143.999995605469,10|0,0:0|0:0,0:0:0:0:
113,250,210393,1,2,0:0:0:0:
113,250,210494,1,0,1:0:0:0:
39,122,210697,1,2,0:0:0:0:
183,5,210900,1,10,0:0:0:0:
119,104,211102,1,2,0:0:0:0:
14,0,211305,2,0,L|29:127,1,120,2|0,1:0|0:0,0:0:0:0:
216,62,211710,6,0,B|264:38|264:38|351:66,1,143.999995605469,10|0,0:0|0:0,0:0:0:0:
393,131,212015,1,0,0:0:0:0:
393,131,212116,2,0,L|380:224,1,71.9999978027344,0|0,1:0|0:0,0:0:0:0:
301,277,212319,1,2,0:0:0:0:
464,194,212521,1,10,0:0:0:0:
476,271,212724,1,2,0:0:0:0:
306,192,212927,1,2,1:0:0:0:
318,115,213130,1,2,0:0:0:0:
260,258,213332,6,0,L|140:272,1,120,10|0,0:0|0:0,0:0:0:0:
95,338,213636,1,2,0:0:0:0:
95,338,213738,1,0,1:0:0:0:
105,202,213940,1,10,0:0:0:0:
10,335,214143,2,0,P|-3:276|58:224,1,120,10|0,0:0|0:0,0:0:0:0:
201,311,214548,1,10,0:0:0:0:
102,183,214751,1,10,0:0:0:0:
104,169,214852,1,8,0:0:0:0:
105,156,214954,6,0,B|156:181|156:181|251:151,1,155.999992858887,14|0,0:0|0:0,0:0:0:0:
298,89,215258,1,2,0:0:0:0:
298,89,215359,2,0,P|248:68|214:99,1,77.9999964294435,0|0,1:0|0:0,0:0:0:0:
247,235,215562,1,2,0:0:0:0:
385,161,215764,2,0,P|378:107|473:63,1,155.999992858887,10|0,0:0|0:0,0:0:0:0:
509,123,216069,1,2,0:0:0:0:
509,123,216170,1,0,1:0:0:0:
363,6,216373,1,2,0:0:0:0:
317,205,216575,5,10,0:0:0:0:
201,142,216778,1,2,0:0:0:0:
106,232,216981,1,2,1:0:0:0:
162,349,217183,1,2,0:0:0:0:
293,334,217386,5,10,0:0:0:0:
308,253,217589,1,2,0:0:0:0:
391,243,217792,1,2,1:0:0:0:
426,317,217994,1,2,0:0:0:0:
301,244,218197,6,0,L|316:116,1,107.999996704102,10|0,0:0|0:0,0:0:0:0:
278,68,218501,1,2,0:0:0:0:
278,68,218602,2,0,L|373:56,1,53.9999983520508,0|0,1:0|0:0,0:0:0:0:
388,171,218805,1,2,0:0:0:0:
223,222,219008,2,0,B|181:202|181:202|104:226,1,107.999996704102,10|0,0:0|0:0,0:0:0:0:
81,290,219312,1,2,0:0:0:0:
81,290,219413,1,0,1:0:0:0:
116,141,219616,1,2,0:0:0:0:
217,302,219818,6,0,L|344:286,1,107.999996704102,10|0,0:0|0:0,0:0:0:0:
387,339,220122,1,8,0:0:0:0:
387,339,220224,2,0,B|429:319|429:319|506:343,1,107.999996704102,0|8,1:0|0:0,0:0:0:0:
412,151,220630,2,0,P|383:195|409:264,1,107.999996704102,10|0,0:0|0:0,0:0:0:0:
487,120,221035,1,12,0:2:0:0:
484,101,221136,1,8,0:0:0:0:
482,82,221237,1,8,0:0:0:0:
480,63,221339,1,8,0:0:0:0:
477,44,221440,6,0,B|427:20|427:20|335:48,1,143.999995605469,14|0,0:0|0:0,0:0:0:0:
278,4,221744,1,2,0:0:0:0:
277,4,221846,2,0,P|260:35|267:70,1,71.9999978027344,0|0,1:0|0:0,0:0:0:0:
419,107,222048,1,2,0:0:0:0:
320,224,222251,2,0,B|239:200|271:273|177:248,1,143.999995605469,10|0,0:0|0:0,0:0:0:0:
138,193,222555,1,2,0:0:0:0:
138,193,222657,1,0,1:0:0:0:
248,331,222859,1,2,0:0:0:0:
309,143,223062,6,0,B|355:119|355:119|460:158,1,143.999995605469,10|0,0:0|0:0,0:0:0:0:
464,227,223366,1,2,0:0:0:0:
464,227,223467,1,0,1:0:0:0:
413,52,223670,1,2,0:0:0:0:
239,103,223872,1,10,0:0:0:0:
361,122,224075,1,2,0:0:0:0:
258,24,224278,2,0,L|138:38,1,120,2|0,1:0|0:0,0:0:0:0:
0,120,224683,6,0,B|49:93|49:93|138:121,1,143.999995605469,10|0,0:0|0:0,0:0:0:0:
168,197,224988,1,0,0:0:0:0:
168,197,225089,2,0,L|156:292,1,71.9999978027344,0|0,1:0|0:0,0:0:0:0:
196,337,225291,1,2,0:0:0:0:
248,191,225494,1,10,0:0:0:0:
236,114,225697,1,2,0:0:0:0:
390,191,225900,1,2,1:0:0:0:
378,268,226103,1,2,0:0:0:0:
253,371,226305,6,0,P|285:332|359:369,1,120,10|0,0:0|0:0,0:0:0:0:
427,366,226609,1,2,0:0:0:0:
427,366,226710,2,0,L|412:246,1,120,0|10,1:0|0:0,0:0:0:0:
496,133,227116,2,0,B|516:173|516:173|492:249,1,120,10|0,0:0|0:0,0:0:0:0:
421,92,227521,1,10,0:0:0:0:
334,226,227724,1,10,0:0:0:0:
332,240,227825,1,8,0:0:0:0:
329,252,227927,6,0,B|243:227|278:307|186:281,1,155.999992858887,14|0,0:0|0:0,0:0:0:0:
131,331,228231,1,2,0:0:0:0:
131,331,228332,2,0,P|109:285|129:235,1,77.9999964294435,0|0,1:0|0:0,0:0:0:0:
207,203,228535,1,2,0:0:0:0:
33,275,228737,2,0,L|52:116,1,155.999992858887,10|0,0:0|0:0,0:0:0:0:
4,63,229042,1,2,0:0:0:0:
4,63,229143,1,0,1:0:0:0:
125,170,229346,1,2,0:0:0:0:
227,16,229548,5,10,0:0:0:0:
356,42,229751,1,2,0:0:0:0:
329,170,229954,1,2,1:0:0:0:
201,144,230156,1,2,0:0:0:0:
106,43,230359,5,10,0:0:0:0:
22,59,230562,1,2,0:0:0:0:
39,142,230765,1,2,1:0:0:0:
122,126,230967,1,2,0:0:0:0:
9,235,231170,6,0,P|58:219|100:251,1,107.999996704102,10|0,0:0|0:0,0:0:0:0:
74,325,231474,1,2,0:0:0:0:
74,325,231575,2,0,L|81:388,1,53.9999983520508,0|0,1:0|0:0,0:0:0:0:
171,289,231778,1,2,0:0:0:0:
158,365,231981,2,0,B|196:385|196:385|270:362,1,107.999996704102,10|0,0:0|0:0,0:0:0:0:
325,322,232285,1,2,0:0:0:0:
325,322,232386,1,0,1:0:0:0:
477,378,232589,1,2,0:0:0:0:
383,261,232791,6,0,L|366:126,1,125.999996154785,14|0,0:0|0:0,0:0:0:0:
314,83,233096,1,8,0:0:0:0:
314,83,233197,2,0,P|253:57|211:122,1,125.999996154785,0|8,1:0|0:0,0:0:0:0:
300,231,233602,1,14,0:0:0:0:
157,142,233805,1,8,0:0:0:0:
365,180,234008,1,8,0:0:0:0:
384,177,234109,1,8,0:0:0:0:
403,175,234210,1,8,0:0:0:0:
422,173,234312,1,8,0:0:0:0:
441,170,234413,6,0,B|465:222|465:222|436:317,1,155.999992858887,14|0,0:0|0:0,0:0:0:0:
364,339,234717,1,2,0:0:0:0:
364,339,234818,2,0,P|402:335|435:355,1,77.9999964294435,0|0,1:0|0:0,0:0:0:0:
512,329,235021,1,2,0:0:0:0:
380,228,235224,2,0,L|225:246,1,155.999992858887,10|0,0:0|0:0,0:0:0:0:
174,191,235528,1,2,0:0:0:0:
174,191,235629,1,0,1:0:0:0:
85,331,235832,1,2,0:0:0:0:
1,189,236035,5,14,0:0:0:0:
117,126,236238,1,2,0:0:0:0:
212,216,236441,1,2,1:0:0:0:
156,333,236643,1,2,0:0:0:0:
25,318,236845,5,10,0:0:0:0:
4,235,237048,1,2,0:0:0:0:
86,215,237251,1,2,1:0:0:0:
106,297,237453,1,2,0:0:0:0:
138,153,237656,6,0,P|187:168|229:136,1,107.999996704102,14|0,0:0|0:0,0:0:0:0:
201,66,237960,1,0,0:0:0:0:
201,66,238061,2,0,L|208:2,1,53.9999983520508,0|0,1:0|0:0,0:0:0:0:
294,88,238264,1,2,0:0:0:0:
284,13,238467,2,0,B|322:-6|322:-6|396:16,1,107.999996704102,14|0,0:0|0:0,0:0:0:0:
431,82,238771,1,2,0:0:0:0:
431,82,238872,1,0,1:0:0:0:
297,154,239075,1,2,0:0:0:0:
454,157,239278,6,0,L|437:291,1,125.999996154785,14|0,0:0|0:0,0:0:0:0:
385,335,239583,1,8,0:0:0:0:
385,335,239684,2,0,P|324:361|282:296,1,125.999996154785,0|2,1:0|0:0,0:0:0:0:
371,187,240089,1,2,0:0:0:0:
228,276,240292,1,8,0:0:0:0:
247,111,240495,1,8,0:0:0:0:
266,114,240596,1,8,0:0:0:0:
285,116,240697,1,8,0:0:0:0:
304,118,240799,1,8,0:0:0:0:
323,121,240899,6,0,P|360:76|435:105,2,125.999996154785,6|2|2,0:0|0:0|0:0,0:0:0:0:
303,226,241710,2,0,P|266:181|191:210,2,125.999996154785,2|2|2,0:0|0:0|0:0,0:0:0:0:
356,365,242521,2,0,L|367:269,1,83.9999974365235,2|0,0:0|0:0,0:0:0:0:
442,375,242927,2,0,L|453:279,1,83.9999974365235,0|0,0:0|0:0,0:0:0:0:
512,239,243332,1,2,0:0:0:0:
164,183,244143,6,0,P|120:164|87:203,2,90,4|2|2,0:0|0:0|0:0,0:0:0:0:
184,90,244954,2,0,P|228:71|261:110,2,90,2|2|2,0:0|0:0|0:0,0:0:0:0:
138,242,245764,2,0,B|114:239|114:239|58:232|68:152|123:159|123:159|235:173,1,240,2|2,0:0|0:0,0:0:0:0:
404,29,246981,6,0,L|411:91,1,62.9999980773926,2|0,0:0|0:0,0:0:0:0:
421,102,247386,6,0,P|366:103|347:176,1,107.999996704102,14|0,0:0|0:0,0:0:0:0:
407,283,247791,1,2,1:0:0:0:
281,203,247994,2,0,L|173:216,1,107.999996704102,2|0,0:0|0:0,0:0:0:0:
101,355,248399,1,10,0:0:0:0:
218,292,248602,1,2,1:0:0:0:
107,344,248805,1,2,0:0:0:0:
9,191,249008,6,0,P|62:172|97:220,1,107.999996704102,10|2,0:0|0:0,0:0:0:0:
197,91,249413,2,0,P|144:72|109:120,1,107.999996704102,2|2,1:0|0:0,0:0:0:0:
168,164,249717,1,0,0:0:0:0:
168,164,249818,1,2,0:0:0:0:
276,68,250021,1,8,0:0:0:0:
250,173,250224,1,0,1:0:0:0:
346,22,250427,6,0,L|453:35,1,107.999996704102,6|8,0:0|0:0,0:0:0:0:
391,107,250832,1,2,0:0:0:0:
269,0,251035,2,0,L|162:13,1,107.999996704102,2|0,1:0|0:0,0:0:0:0:
93,156,251440,1,2,0:0:0:0:
245,127,251643,2,0,P|206:92|155:103,1,107.999996704102,10|0,0:0|1:0,0:0:0:0:
184,178,251947,1,8,0:0:0:0:
184,178,252048,1,6,0:0:0:0:
311,74,252251,5,10,0:0:0:0:
240,234,252454,1,10,0:0:0:0:
302,67,252656,1,2,1:0:0:0:
431,191,252859,1,2,0:0:0:0:
295,174,253062,5,6,0:0:0:0:
477,106,253264,2,0,L|453:296,1,161.999995056153,8|0,0:0|0:0,0:0:0:0:
465,276,253670,1,4,0:0:0:0:
301,335,253872,6,0,P|356:334|375:261,1,107.999996704102,10|0,0:0|0:0,0:0:0:0:
235,197,254277,1,2,1:0:0:0:
224,360,254480,2,0,L|116:373,1,107.999996704102,0|0,0:0|0:0,0:0:0:0:
12,229,254885,1,14,0:0:0:0:
129,292,255088,1,2,1:0:0:0:
18,240,255291,1,2,0:0:0:0:
169,221,255494,6,0,P|222:202|257:250,1,107.999996704102,14|2,0:0|0:0,0:0:0:0:
357,121,255899,2,0,P|304:102|269:150,1,107.999996704102,2|2,1:0|0:0,0:0:0:0:
328,194,256203,1,0,0:0:0:0:
328,194,256304,1,2,0:0:0:0:
436,121,256507,1,8,0:0:0:0:
397,236,256710,1,0,1:0:0:0:
440,112,256913,6,0,L|427:5,1,107.999996704102,6|8,0:0|0:0,0:0:0:0:
512,152,257318,1,2,0:0:0:0:
356,89,257521,2,0,P|317:55|270:75,1,107.999996704102,2|2,1:0|0:0,0:0:0:0:
163,169,257927,1,2,0:0:0:0:
113,3,258129,2,0,L|220:16,1,107.999996704102,14|0,0:0|1:0,0:0:0:0:
274,78,258433,1,8,0:0:0:0:
274,78,258535,1,0,0:0:0:0:
96,123,258737,5,14,0:0:0:0:
125,245,258940,1,10,0:0:0:0:
164,84,259143,1,2,1:0:0:0:
56,197,259345,1,2,0:0:0:0:
243,114,259548,6,0,B|320:65|396:56|433:122|395:209|320:171,1,287.999991210938,14|0,0:0|0:0,0:0:0:0:
