osu file format v14

[General]
AudioFilename: audio.ogg
AudioLeadIn: 0
PreviewTime: 53779
Countdown: 0
SampleSet: Soft
StackLeniency: 0.7
Mode: 0
LetterboxInBreaks: 0
WidescreenStoryboard: 0

[Editor]
Bookmarks: 1532,14814,41379,54661,67944,81226,94508,107791,121073,134356,157600,162477,170882,175759,184165,190806
DistanceSpacing: 1.4
BeatDivisor: 4
GridSize: 4
TimelineZoom: 2.4

[Metadata]
Title:Sonna Yume o Mita no ~lonely dreaming girl~ (Nightcore Mix)
TitleUnicode:そんなゆめをみたの ~lonely dreaming girl~ (Nightcore Mix)
Artist:TAMAONSEN
ArtistUnicode:魂音泉
Creator:Aranel
Version:~Lunatic~
Source:東方紅魔郷 ~ the Embodiment of Scarlet Devil.
Tags:-_katie_- - katie - -ady andrai touhou japanese electronic vgm video game remix おてんば恋娘 otenba koimusume beloved tomboyish girl in love stage 2 boss cirno chiruno チルノ 東方project 2hu koumakyou th6 eosd ZUN たま coro k's/coro kokorobeats たまおんせん 東方流星少女 ~Little Shooting Star~ ryuusei shoujo comiket 76 c76 上海アリス幻樂団 Team Shanghai Alice
BeatmapID:3669354
BeatmapSetID:1790704

[Difficulty]
HPDrainRate:5
CircleSize:4
OverallDifficulty:8
ApproachRate:8
SliderMultiplier:2
SliderTickRate:2

[Events]
//Background and Video events
0,0,"baka.jpg",0,0
//Break Periods
2,28296,39752
2,81426,93032
2,134555,156020
//Storyboard Layer 0 (Background)
//Storyboard Layer 1 (Fail)
//Storyboard Layer 2 (Pass)
//Storyboard Layer 3 (Foreground)
//Storyboard Layer 4 (Overlay)
//Storyboard Sound Samples

[TimingPoints]
1532,415.075543748962,4,2,1,45,1,0
1532,-133.333333333333,4,2,1,45,0,0
14814,-117.647058823529,4,2,1,45,0,0
27994,-111.111111111111,4,2,1,65,0,0
51341,-222.222222222222,4,2,1,65,0,0
52171,-111.111111111111,4,2,1,65,0,0
53001,-222.222222222222,4,2,1,65,0,0
53831,-111.111111111111,4,2,1,70,0,0
54661,-100,4,2,1,75,0,1
81226,-100,4,2,1,65,0,0
94508,-111.111111111111,4,2,1,65,0,0
104470,-222.222222222222,4,2,1,65,0,0
105300,-111.111111111111,4,2,1,65,0,0
106130,-222.222222222222,4,2,1,65,0,0
106960,-111.111111111111,4,2,1,70,0,0
107791,-100,4,2,1,75,0,1
134356,-100,4,2,1,80,0,0
157496,-83.3333333333333,4,2,1,80,0,0
157600,-95.2380952380952,4,2,1,85,0,1
158015,-95.2380952380952,4,2,2,85,0,1
158041,-95.2380952380952,4,2,1,85,0,1
162581,-95.2380952380952,4,2,3,85,0,1
162685,-95.2380952380952,4,2,1,85,0,1
162996,-95.2380952380952,4,2,3,85,0,1
163100,-95.2380952380952,4,2,1,85,0,1
163411,-95.2380952380952,4,2,3,85,0,1
163515,-95.2380952380952,4,2,1,85,0,1
175863,-95.2380952380952,4,2,3,85,0,1
175967,-95.2380952380952,4,2,1,85,0,1
176278,-95.2380952380952,4,2,3,85,0,1
176382,-95.2380952380952,4,2,1,85,0,1
176693,-95.2380952380952,4,2,3,85,0,1
176797,-95.2380952380952,4,2,1,85,0,1
184166,-95.2380952380952,4,2,1,75,0,1
184270,-95.2380952380952,4,2,1,75,0,1
200768,-83.3333333333333,4,2,1,90,0,0

[Colours]
Combo1 : 113,99,146
Combo2 : 184,227,246
Combo3 : 255,102,102
Combo4 : 135,162,170

[HitObjects]
304,240,701,5,2,0:0:0:0:
232,248,909,1,2,0:0:0:0:
192,184,1116,1,2,0:0:0:0:
248,128,1324,1,2,0:0:0:0:
312,168,1532,1,2,0:1:0:0:
64,368,2154,6,0,B|40:328|72:272,1,75.0000028610231,2|2,0:2|0:2,0:0:0:0:
128,248,2569,2,0,B|176:240|208:296,1,75.0000028610231,2|2,0:2|0:2,0:0:0:0:
232,352,2984,1,2,0:2:0:0:
232,352,3088,1,2,0:0:0:0:
232,352,3192,6,0,B|272:360|320:296|376:320,1,150.000005722046,2|0,0:2|0:0,0:0:0:0:
373,319,3814,1,0,0:0:0:0:
448,360,4022,1,0,0:0:0:0:
464,280,4229,2,0,B|448:232|480:192,1,75.0000028610231,2|2,0:2|0:2,0:0:0:0:
504,128,4645,1,2,0:2:0:0:
420,136,4852,1,2,0:2:0:0:
144,96,5475,5,2,0:2:0:0:
184,168,5682,1,2,0:2:0:0:
264,152,5889,1,2,0:2:0:0:
276,68,6097,1,2,0:2:0:0:
200,36,6305,1,2,0:2:0:0:
144,96,6512,2,0,B|96:112|72:168,1,75.0000028610231,2|0,0:2|0:0,0:0:0:0:
8,120,6927,2,0,B|0:176|24:224,2,75.0000028610231
176,280,7758,5,2,0:2:0:0:
176,280,8173,1,2,0:2:0:0:
176,280,8795,5,2,0:2:0:0:
232,336,9002,1,2,0:2:0:0:
272,264,9210,1,2,0:2:0:0:
216,208,9417,1,2,0:2:0:0:
312,72,9833,6,0,B|336:40|400:32|400:32,1,75.0000028610231,2|2,0:2|0:2,0:0:0:0:
376,36,10248,1,2,0:2:0:0:
376,120,10456,2,0,B|424:112|464:160|464:160,1,75.0000028610231,2|2,0:2|0:2,0:0:0:0:
445,142,10871,1,2,0:2:0:0:
384,200,11078,2,0,B|424:224|440:280|440:280,1,75.0000028610231,2|2,0:2|0:2,0:0:0:0:
456,328,11493,6,0,B|496:328|536:344|536:344,2,75.0000028610231,2|2|2,0:2|0:2|0:2,0:0:0:0:
456,328,12116,1,2,0:2:0:0:
384,360,12323,2,0,B|344:360|312:336|312:336,2,75.0000028610231,2|2|2,0:2|0:2|0:2,0:0:0:0:
384,360,12946,1,2,0:2:0:0:
457,325,13154,2,0,B|504:264|488:160|425:123,1,225.000008583069,2|2,0:2|0:2,0:0:0:0:
368,64,13984,5,2,0:2:0:0:
288,80,14191,1,2,0:2:0:0:
216,40,14399,1,2,0:2:0:0:
168,104,14606,1,2,0:2:0:0:
88,72,14814,6,0,B|32:64|-8:104|-8:104,1,85.0000016212464,2|2,0:1|0:0,0:0:0:0:
7,91,15125,1,2,0:0:0:0:
7,91,15229,1,2,0:0:0:0:
72,160,15437,1,2,0:0:0:0:
48,248,15644,2,0,B|104:256|144:216|144:216,1,85.0000016212464,2|2,0:0|0:0,0:0:0:0:
72,160,16059,1,2,0:0:0:0:
152,136,16267,1,2,0:0:0:0:
224,176,16474,2,0,B|248:256|232:344|232:344,2,170.000003242493,2|2|2,0:0|0:0|0:0,0:0:0:0:
304,128,17512,5,2,0:0:0:0:
376,176,17719,1,2,0:0:0:0:
320,240,17927,1,2,0:0:0:0:
392,280,18135,6,0,B|464:272|512:176,1,127.50000243187,2|0,0:0|0:0,0:0:0:0:
512,168,18550,2,0,B|512:112|448:104,1,85.0000016212464,2|2,0:0|0:0,0:0:0:0:
400,56,18965,2,0,B|352:48|319:93,1,85.0000016212464,2|2,0:0|0:0,0:0:0:0:
325,86,19276,1,0,0:0:0:0:
325,86,19380,1,2,0:0:0:0:
392,144,19587,1,2,0:0:0:0:
312,176,19795,6,0,B|272:176|240:120,1,85.0000016212464,2|0,0:0|0:0,0:0:0:0:
245,129,20106,1,0,0:0:0:0:
245,129,20210,1,2,0:0:0:0:
176,72,20417,1,0,0:0:0:0:
96,104,20625,2,0,B|96:176|48:224,1,127.50000243187,2|0,0:0|0:0,0:0:0:0:
16,240,21040,5,2,0:0:0:0:
16,240,21455,1,2,0:0:0:0:
16,240,21870,5,2,0:0:0:0:
72,304,22078,1,2,0:0:0:0:
152,272,22285,1,2,0:0:0:0:
144,184,22493,1,2,0:0:0:0:
64,160,22700,1,2,0:0:0:0:
224,216,23115,6,0,B|272:224|320:160|320:160,1,85.0000016212464,2|2,0:0|0:0,0:0:0:0:
299,182,23530,1,2,0:0:0:0:
232,136,23738,2,0,B|272:96|264:32|264:32,1,85.0000016212464,2|2,0:0|0:0,0:0:0:0:
264,59,24153,1,2,0:0:0:0:
184,72,24360,2,0,B|168:24|128:0|128:0,1,85.0000016212464,2|0,0:0|0:0,0:0:0:0:
96,80,24775,6,0,B|48:72|0:104|0:104,2,85.0000016212464,2|2|2,0:0|0:0|0:0,0:0:0:0:
72,160,25398,1,2,0:0:0:0:
40,240,25606,2,0,B|88:248|136:216|136:216,2,85.0000016212464,2|2|2,0:0|0:0|0:0,0:0:0:0:
40,240,26228,1,2,0:0:0:0:
72,160,26436,1,2,0:0:0:0:
256,192,26540,12,2,28096,1:2:0:0:
312,120,40652,5,2,0:0:0:0:
312,120,40756,1,2,1:2:0:0:
256,192,40964,1,10,0:2:0:0:
200,120,41171,1,0,1:2:0:0:
256,48,41379,6,0,B|344:0|432:48,2,179.999994506836,2|8|2,1:1|0:0|0:2,0:0:0:0:
176,16,42416,1,2,1:2:0:0:
104,72,42624,2,0,B|64:112|88:176,1,89.9999972534181,10|2,0:2|0:2,0:0:0:0:
168,136,43039,2,0,B|184:192|128:232,1,89.9999972534181,2|0,1:2|0:0,0:0:0:0:
64,248,43454,2,0,B|72:304|144:312,1,89.9999972534181,10|2,0:0|0:0,0:0:0:0:
200,352,43869,1,2,0:2:0:0:
376,240,44284,5,10,0:2:0:0:
424,312,44492,1,2,0:2:0:0:
464,232,44699,2,0,B|464:192|440:152|392:136|352:144|328:160,1,179.999994506836,2|8,1:2|0:0,0:0:0:0:
248,184,45322,5,2,0:0:0:0:
160,160,45530,1,2,0:2:0:0:
184,72,45737,1,2,1:2:0:0:
272,96,45945,1,10,0:2:0:0:
248,184,46152,1,2,0:2:0:0:
160,160,46360,2,0,B|112:144|88:96|88:56|112:8,1,179.999994506836,2|8,1:2|0:0,0:0:0:0:
110,10,46982,1,2,0:2:0:0:
184,72,47190,1,2,0:2:0:0:
48,192,47605,5,10,0:2:0:0:
24,280,47812,1,2,0:2:0:0:
88,344,48020,2,0,B|168:288|264:304|264:304,1,179.999994506836,2|10,1:2|0:0,0:0:0:0:
336,344,48643,1,2,0:0:0:0:
400,280,48850,2,0,B|368:232|376:168|376:168,1,89.9999972534181,2|2,0:2|1:2,0:0:0:0:
464,216,49265,2,0,B|496:264|488:328|488:328,1,89.9999972534181,10|2,0:2|0:2,0:0:0:0:
432,368,49680,5,2,1:2:0:0:
304,248,50095,1,10,0:0:0:0:
216,256,50303,1,2,0:0:0:0:
144,312,50510,2,0,B|112:288|104:224|104:224,1,89.9999972534181,2|0,0:2|1:2,0:0:0:0:
96,144,50925,1,10,0:2:0:0:
96,144,51133,1,2,0:2:0:0:
152,72,51341,6,0,B|216:-4|321:33|321:33,1,179.999994506836,2|0,1:2|1:2,0:0:0:0:
317,31,52378,1,2,0:0:0:0:
408,16,52586,1,8,0:0:0:0:
472,80,52793,1,2,0:0:0:0:
448,168,53001,6,0,B|396:224|312:192|312:192,1,134.999995880127,2|0,1:1|0:0,0:0:0:0:
189,195,53831,5,2,0:0:0:0:
256,256,54039,1,2,1:2:0:0:
323,195,54246,1,10,0:0:0:0:
256,128,54454,1,2,1:2:0:0:
189,195,54661,6,0,B|128:168|64:216|64:216,1,100,6|0,1:1|3:2,0:0:0:0:
144,280,55076,1,10,0:2:0:0:
104,376,55284,1,2,3:2:0:0:
104,376,55388,1,0,3:2:0:0:
104,376,55491,2,0,B|176:400|240:344|240:344,1,100,2|2,1:2|3:2,0:0:0:0:
292,328,55906,1,10,0:2:0:0:
384,368,56114,1,2,3:2:0:0:
456,288,56321,6,0,B|496:192|448:72,1,200,2|8,1:2|0:2,0:0:0:0:
384,24,56944,1,0,3:2:0:0:
336,120,57152,1,0,1:2:0:0:
256,48,57359,1,2,3:2:0:0:
224,152,57567,1,10,0:2:0:0:
136,88,57774,5,2,1:2:0:0:
136,88,57878,1,0,3:2:0:0:
136,88,57982,2,0,B|96:184|144:304,1,200,2|10,1:2|0:2,0:0:0:0:
216,360,58604,1,2,3:2:0:0:
304,288,58812,1,0,1:2:0:0:
224,208,59019,1,2,3:2:0:0:
137,283,59227,2,0,B|64:280|61:203|61:203,1,100,10|2,0:2|3:2,0:0:0:0:
137,283,59642,5,2,1:2:0:0:
224,208,59850,1,4,3:3:0:0:
304,288,60057,1,8,0:2:0:0:
216,360,60265,1,4,3:3:0:0:
144,200,60472,5,0,1:2:0:0:
304,208,60680,1,8,3:3:0:0:
296,368,60887,1,10,0:2:0:0:
136,360,61095,1,2,3:2:0:0:
296,368,61302,6,0,B|368:368|440:312,1,150,2|0,1:2|0:0,0:0:0:0:
472,280,61717,1,12,0:2:0:0:
400,200,61925,1,0,3:2:0:0:
432,96,62133,2,0,B|368:88|328:128,1,100,2|2,1:2|3:2,0:0:0:0:
306,223,62548,2,0,B|370:231|410:191,1,100,10|0,0:2|3:2,0:0:0:0:
440,8,62963,6,0,B|344:-8|272:64,1,150,2|0,1:2|0:0,0:0:0:0:
256,72,63378,2,0,B|264:136|224:176,1,100,10|2,0:2|3:2,0:0:0:0:
152,96,63793,1,2,1:2:0:0:
40,344,64208,6,0,B|91:363|139:323|139:323,1,100,10|2,0:2|1:2,0:0:0:0:
72,256,64623,1,2,1:2:0:0:
472,344,65038,6,0,B|420:363|372:323|372:323,1,100,10|2,0:2|1:2,0:0:0:0:
440,256,65453,1,2,1:2:0:0:
256,40,65868,6,0,L|256:140,1,100,10|2,0:2|1:2,0:0:0:0:
256,232,66283,1,2,1:2:0:0:
472,344,66698,1,8,0:2:0:0:
40,344,67113,5,2,1:2:0:0:
88,256,67321,1,2,1:2:0:0:
160,344,67529,1,10,0:2:0:0:
192,200,67736,1,2,3:2:0:0:
192,200,67840,1,0,3:2:0:0:
192,200,67944,6,0,B|200:136|152:88|152:88,1,100,6|0,1:1|3:2,0:0:0:0:
96,184,68359,1,10,0:2:0:0:
0,160,68567,1,2,3:2:0:0:
0,160,68670,1,0,3:2:0:0:
0,160,68774,2,0,B|-8:224|40:272|40:272,1,100,2|2,1:2|3:2,0:0:0:0:
112,312,69189,1,10,0:2:0:0:
208,360,69397,1,2,3:2:0:0:
304,312,69604,6,0,B|400:351|520:304,1,200,2|8,1:2|0:2,0:0:0:0:
400,240,70227,1,0,3:2:0:0:
496,184,70435,1,0,1:2:0:0:
400,128,70642,1,2,3:2:0:0:
304,184,70850,1,10,0:2:0:0:
400,128,71057,5,2,1:2:0:0:
400,128,71161,1,0,3:2:0:0:
400,128,71264,2,0,B|304:40|224:120,1,200,2|10,1:2|0:2,0:0:0:0:
304,184,71887,1,2,3:2:0:0:
384,256,72094,1,2,1:2:0:0:
304,328,72302,1,2,3:2:0:0:
224,256,72509,2,0,B|168:288|104:248|104:248,1,100,10|2,0:2|3:2,0:0:0:0:
48,176,72925,5,2,1:2:0:0:
16,320,73133,1,4,3:3:0:0:
152,344,73340,1,8,0:2:0:0:
184,192,73548,1,4,3:3:0:0:
328,192,73755,5,0,1:2:0:0:
360,344,73962,1,8,3:0:0:0:
496,320,74169,1,10,0:2:0:0:
464,176,74377,1,0,3:2:0:0:
328,192,74585,6,0,B|256:152|176:192|176:192,1,150,2|0,1:2|0:0,0:0:0:0:
136,208,75000,1,14,0:2:0:0:
88,304,75207,2,0,B|136:328|184:304|184:304,1,100,0|2,3:2|1:2,0:0:0:0:
136,208,75622,1,2,3:2:0:0:
184,112,75830,2,0,B|136:88|88:112|88:112,1,100,10|2,0:2|3:2,0:0:0:0:
256,192,76245,6,0,B|336:200|416:144|416:144,1,150,2|2,1:2|0:0,0:0:0:0:
432,128,76660,1,10,0:2:0:0:
408,32,76868,2,0,B|472:16|504:64|504:64,1,100,2|2,3:2|1:2,0:0:0:0:
472,344,77490,6,0,B|420:363|372:323|372:323,1,100,10|2,0:2|1:2,0:0:0:0:
440,256,77905,1,2,1:2:0:0:
40,344,78320,6,0,B|91:363|139:323|139:323,1,100,10|2,0:2|1:2,0:0:0:0:
72,256,78735,1,2,1:2:0:0:
256,32,79151,5,10,0:2:0:0:
256,32,79358,1,2,1:2:0:0:
352,112,79566,6,0,B|384:168|360:232|360:232,1,100,2|0,1:2|3:2,0:0:0:0:
160,272,79981,2,0,B|128:216|152:152|152:152,1,100,8|0,0:2|3:2,0:0:0:0:
336,288,80396,2,0,B|280:320|215:296|215:296,1,100,0|2,1:2|1:3,0:0:0:0:
176,96,80811,2,0,B|232:64|296:88|296:88,1,100,10|0,1:2|3:2,0:0:0:0:
272,82,81122,1,0,3:2:0:0:
272,82,81226,1,2,0:1:0:0:
128,232,93782,5,2,0:0:0:0:
128,232,93886,1,2,1:2:0:0:
208,192,94094,1,10,0:2:0:0:
304,192,94301,1,0,1:2:0:0:
384,232,94509,6,0,B|424:144|400:48,2,179.999994506836,2|8|2,1:1|0:0|0:2,0:0:0:0:
424,312,95546,1,2,1:2:0:0:
352,368,95754,2,0,B|296:384|256:336,1,89.9999972534181,10|2,0:2|0:2,0:0:0:0:
272,256,96169,2,0,B|216:248|184:320,1,89.9999972534181,2|0,1:2|0:0,0:0:0:0:
192,384,96584,2,0,B|136:384|112:328,1,89.9999972534181,10|2,0:0|0:0,0:0:0:0:
32,336,96999,1,2,0:2:0:0:
128,184,97414,5,10,0:2:0:0:
104,96,97622,1,2,0:2:0:0:
16,96,97829,2,0,B|16:56|64:-8|120:8|152:24,1,179.999994506836,2|8,1:2|0:0,0:0:0:0:
232,56,98452,5,2,0:0:0:0:
208,144,98660,1,2,0:2:0:0:
296,176,98867,1,2,1:2:0:0:
328,88,99075,1,10,0:2:0:0:
232,56,99282,1,2,0:2:0:0:
208,144,99490,2,0,B|192:192|256:264|241:318,1,179.999994506836,2|8,1:2|0:0,0:0:0:0:
312,368,100112,1,2,0:2:0:0:
400,336,100320,1,2,0:2:0:0:
488,176,100735,5,10,0:2:0:0:
400,144,100942,1,2,0:2:0:0:
336,208,101150,1,2,1:2:0:0:
336,208,101772,2,0,B|280:232|240:200|240:200,2,89.9999972534181,2|2|2,0:0|0:2|1:2,0:0:0:0:
296,128,102395,1,10,0:2:0:0:
296,128,102810,6,0,B|216:64|122:108,1,179.999994506836,2|10,1:2|0:0,0:0:0:0:
48,160,103433,1,2,0:0:0:0:
128,192,103640,2,0,B|96:240|112:296|112:296,1,89.9999972534181,2|0,0:2|1:2,0:0:0:0:
168,352,104055,1,10,0:2:0:0:
168,352,104263,1,2,0:2:0:0:
248,320,104470,6,0,B|328:384|421:339,1,179.999994506836,2|0,1:2|1:2,0:0:0:0:
344,248,105508,1,2,0:0:0:0:
424,184,105716,1,8,0:0:0:0:
368,104,105923,1,2,0:0:0:0:
448,40,106131,6,0,B|388:-17|324:12|324:12,1,134.999995880127,2|0,1:1|0:0,0:0:0:0:
256,88,106961,5,2,0:0:0:0:
256,88,107064,1,0,3:2:0:0:
256,88,107169,1,2,1:2:0:0:
256,192,107376,1,10,0:0:0:0:
256,296,107584,1,2,1:2:0:0:
256,296,107687,1,0,3:2:0:0:
256,296,107791,6,0,B|296:352|384:344|384:344,1,100,6|0,1:1|3:2,0:0:0:0:
336,232,108206,1,10,0:2:0:0:
424,168,108414,1,2,3:2:0:0:
424,168,108517,1,0,3:2:0:0:
424,168,108621,2,0,B|384:120|320:120|320:120,1,100,2|2,1:2|3:2,0:0:0:0:
256,200,109036,1,10,0:2:0:0:
152,160,109244,1,2,3:2:0:0:
56,112,109451,6,0,B|128:16|240:88,1,200,2|8,1:2|0:2,0:0:0:0:
152,160,110074,1,0,3:2:0:0:
152,264,110281,2,0,B|96:272|56:336,1,100,0|2,1:2|3:2,0:0:0:0:
233,211,110696,2,0,B|203:165|152:160,1,100,10|2,0:2|1:2,0:0:0:0:
280,296,111111,6,0,B|368:232|304:104,1,200,2|10,1:2|0:2,0:0:0:0:
384,32,111734,1,2,3:2:0:0:
472,96,111942,1,0,1:2:0:0:
408,184,112149,1,2,3:2:0:0:
309,116,112357,2,0,B|240:128|233:196,1,100,10|2,0:2|3:2,0:0:0:0:
200,328,112772,5,2,1:2:0:0:
88,312,112980,1,4,3:3:0:0:
248,264,113187,1,8,0:2:0:0:
136,192,113395,1,4,3:3:0:0:
312,200,113602,5,0,1:2:0:0:
280,152,113706,1,0,3:2:0:0:
248,104,113810,1,8,3:3:0:0:
408,184,114017,1,10,0:2:0:0:
384,32,114225,1,2,3:2:0:0:
512,200,114432,6,0,B|528:296|448:360,1,150,2|0,1:2|0:0,0:0:0:0:
424,368,114847,1,12,0:2:0:0:
336,304,115055,2,0,B|256:280|272:184|176:176,1,200,2|2,3:2|3:2,0:0:0:0:
128,88,115677,1,10,0:2:0:0:
128,88,115885,1,0,3:2:0:0:
39,160,116093,6,0,B|0:232|48:320,1,150,2|0,1:2|0:0,0:0:0:0:
64,352,116507,2,0,B|112:384|176:344|176:344,1,100,10|2,0:2|3:2,0:0:0:0:
104,256,116923,1,2,1:2:0:0:
408,256,117338,6,0,B|464:280|472:344|472:344,1,100,10|2,0:2|1:2,0:0:0:0:
368,352,117753,1,2,1:2:0:0:
104,256,118168,6,0,B|48:280|40:344|40:344,1,100,10|2,0:2|1:2,0:0:0:0:
144,352,118583,1,2,1:2:0:0:
304,32,118998,6,0,B|256:8|208:32|208:32,1,100,10|2,0:2|1:2,0:0:0:0:
256,120,119413,1,2,1:2:0:0:
112,248,119828,1,8,0:2:0:0:
400,248,120243,5,2,1:2:0:0:
336,152,120451,1,2,1:2:0:0:
256,248,120659,1,10,0:2:0:0:
176,152,120866,1,2,3:2:0:0:
176,152,120970,1,0,3:2:0:0:
176,152,121074,6,0,B|128:104|48:152|48:152,1,100,6|0,1:1|3:2,0:0:0:0:
112,248,121489,1,10,0:2:0:0:
16,232,121697,1,2,3:2:0:0:
16,232,121800,1,0,3:2:0:0:
16,232,121904,2,0,B|0:304|64:344|64:344,1,100,2|2,1:2|3:2,0:0:0:0:
144,360,122319,1,10,0:2:0:0:
112,248,122527,1,2,3:2:0:0:
232,296,122734,6,0,B|328:248|448:304,1,200,2|8,1:2|0:2,0:0:0:0:
336,360,123357,1,0,3:2:0:0:
296,256,123565,1,0,1:2:0:0:
368,184,123772,1,2,3:2:0:0:
280,120,123980,1,10,0:2:0:0:
360,40,124187,5,2,1:2:0:0:
360,40,124291,1,0,3:2:0:0:
360,40,124394,2,0,B|256:-8|160:32,1,200,2|10,1:2|0:2,0:0:0:0:
120,128,125017,1,2,3:2:0:0:
40,56,125224,2,0,B|-8:120|32:184|32:184,1,100,2|2,1:2|3:2,0:0:0:0:
200,200,125639,2,0,B|248:136|208:72|208:72,1,100,10|2,0:2|3:2,0:0:0:0:
120,128,126054,5,2,1:2:0:0:
72,272,126263,1,4,3:3:0:0:
192,352,126470,1,8,0:2:0:0:
312,256,126678,1,4,3:3:0:0:
200,256,126884,5,0,1:2:0:0:
320,352,127092,1,8,3:0:0:0:
440,272,127299,1,10,0:2:0:0:
392,128,127508,1,0,3:2:0:0:
256,192,127715,6,0,B|224:120|264:40|264:40,1,150,2|0,1:2|0:0,0:0:0:0:
280,8,128130,1,14,0:2:0:0:
334,79,128337,2,0,B|304:120|334:191,1,100,0|2,3:2|1:2,0:0:0:0:
416,216,128752,1,2,3:2:0:0:
496,152,128960,2,0,B|528:216|504:264|504:264,1,100,10|2,0:2|3:2,0:0:0:0:
440,328,129375,6,0,B|360:296|272:360|272:360,1,150,2|2,1:2|0:0,0:0:0:0:
256,368,129790,2,0,B|256:304|200:264|200:264,1,100,10|2,0:2|3:2,0:0:0:0:
160,368,130206,1,2,1:2:0:0:
104,128,130620,6,0,B|48:104|40:40|40:40,1,100,10|2,0:2|1:2,0:0:0:0:
144,32,131035,1,6,1:2:0:0:
408,128,131450,6,0,B|464:104|472:40|472:40,1,100,10|2,0:2|1:2,0:0:0:0:
368,32,131865,1,6,1:2:0:0:
256,352,132280,5,10,0:2:0:0:
256,352,132487,1,2,1:2:0:0:
144,304,132695,6,0,B|112:248|136:184|136:184,1,100,6|0,1:2|3:2,0:0:0:0:
368,80,133110,2,0,B|400:136|376:200|376:200,1,100,8|0,0:2|3:2,0:0:0:0:
144,80,133526,2,0,B|200:48|264:72|264:72,1,100,0|2,1:2|1:3,0:0:0:0:
368,304,133941,2,0,B|312:336|248:312|248:312,1,100,10|0,1:2|3:2,0:0:0:0:
271,317,134251,1,0,3:2:0:0:
271,317,134355,1,2,0:1:0:0:
320,112,156770,5,2,0:0:0:0:
336,256,156977,1,2,0:0:0:0:
192,272,157185,1,2,0:0:0:0:
176,128,157392,1,2,1:2:0:0:
176,128,157496,1,0,3:2:0:0:
176,128,157600,6,0,B|136:88|72:104,1,104.999996795654,6|0,1:1|3:2,0:0:0:0:
104,216,158015,1,14,0:2:0:0:
32,304,158223,1,2,3:2:0:0:
32,304,158326,1,0,3:2:0:0:
32,304,158430,2,0,B|72:344|136:328,1,104.999996795654,2|2,1:2|3:2,0:0:0:0:
216,256,158845,1,10,0:2:0:0:
264,248,158949,1,0,3:2:0:0:
312,256,159053,1,2,3:2:0:0:
344,288,159156,1,0,3:2:0:0:
360,328,159260,6,0,B|424:296|424:216,1,104.999996795654,2|0,1:2|3:2,0:0:0:0:
325,167,159675,2,0,B|261:199|261:279,1,104.999996795654,8|0,0:2|3:2,0:0:0:0:
368,336,160090,2,0,B|432:304|432:224,1,104.999996795654,0|2,1:2|3:2,0:0:0:0:
496,160,160505,1,10,0:2:0:0:
448,56,160713,1,2,1:2:0:0:
336,24,160921,6,0,B|224:8|136:96,1,209.999993591309,2|10,1:2|0:2,0:0:0:0:
96,192,161543,1,2,3:2:0:0:
0,136,161751,1,0,1:2:0:0:
48,32,161958,1,2,3:2:0:0:
143,88,162166,2,0,B|208:128|200:208|200:208,1,104.999996795654,10|2,0:2|3:2,0:0:0:0:
256,320,162581,5,2,1:2:0:0:
384,280,162789,1,8,3:3:0:0:
256,336,162996,1,10,0:2:0:0:
314,173,163204,1,8,3:3:0:0:
256,352,163411,5,2,1:2:0:0:
198,173,163618,1,8,3:3:0:0:
256,368,163826,1,10,0:2:0:0:
128,280,164034,1,2,3:2:0:0:
256,384,164241,6,0,B|240:296|264:224|264:224,1,157.499995193482,2|0,1:2|0:0,0:0:0:0:
314,173,164656,2,0,B|368:128|432:160|432:160,1,104.999996795654,12|0,0:2|3:2,0:0:0:0:
376,264,165071,1,2,1:2:0:0:
376,264,165279,1,2,3:2:0:0:
240,152,165486,2,0,B|232:88|160:72|160:72,1,104.999996795654,10|0,0:2|3:2,0:0:0:0:
144,192,165901,6,0,B|56:232|56:344,1,157.499995193482,2|0,1:2|0:0,0:0:0:0:
128,336,166316,2,0,B|128:256|208:248|208:248,1,104.999996795654,10|2,0:2|3:2,0:0:0:0:
240,352,166732,1,2,1:2:0:0:
472,144,167147,6,0,B|488:80|440:32|440:32,1,104.999996795654,10|2,0:2|1:2,0:0:0:0:
376,112,167562,1,2,1:2:0:0:
40,144,167977,6,0,B|24:80|72:32|72:32,1,104.999996795654,14|2,0:2|1:2,0:0:0:0:
136,112,168392,1,2,1:2:0:0:
308,344,168807,6,0,B|256:368|204:344,1,104.999996795654,14|2,0:2|1:2,0:0:0:0:
256,256,169221,1,2,1:2:0:0:
256,24,169637,1,8,0:2:0:0:
392,288,170052,5,2,1:2:0:0:
256,256,170260,1,2,1:2:0:0:
120,288,170467,1,10,0:2:0:0:
256,256,170675,1,2,3:2:0:0:
256,256,170779,1,0,3:2:0:0:
256,256,170882,6,0,B|224:208|240:152|240:152,1,104.999996795654,6|0,1:1|3:2,0:0:0:0:
352,192,171297,1,10,0:2:0:0:
448,120,171505,1,2,3:2:0:0:
448,120,171609,1,0,3:2:0:0:
448,120,171712,2,0,B|480:168|464:224|464:224,1,104.999996795654,2|2,1:2|3:2,0:0:0:0:
384,304,172128,1,10,0:2:0:0:
352,192,172335,1,2,3:2:0:0:
320,80,172543,6,0,B|280:32|208:40,1,104.999996795654,2|0,1:2|3:2,0:0:0:0:
160,176,172958,2,0,B|200:224|272:216,1,104.999996795654,8|0,0:2|3:2,0:0:0:0:
328,72,173373,2,0,B|288:24|216:32,1,104.999996795654,0|2,1:2|3:2,0:0:0:0:
128,72,173788,1,10,0:2:0:0:
240,128,173995,1,2,1:2:0:0:
352,184,174202,6,0,B|448:272|384:376,1,209.999993591309,2|10,1:2|0:2,0:0:0:0:
296,296,174825,1,2,3:2:0:0:
192,352,175032,2,0,B|240:304|200:224|200:224,1,104.999996795654,2|2,1:2|3:2,0:0:0:0:
40,224,175448,2,0,B|-8:288|32:352|32:352,1,104.999996795654,10|2,0:2|3:2,0:0:0:0:
112,288,175862,5,2,1:2:0:0:
160,48,176071,1,8,3:3:0:0:
400,96,176278,1,10,0:2:0:0:
352,336,176487,1,8,3:3:0:0:
198,278,176693,5,2,1:2:0:0:
169,134,176902,1,8,3:3:0:0:
313,105,177109,1,10,0:2:0:0:
342,249,177316,1,0,3:2:0:0:
104,216,177524,6,0,B|48:160|80:64,1,157.499995193482,2|0,1:2|0:0,0:0:0:0:
120,0,177938,1,14,0:2:0:0:
216,56,178146,1,0,3:2:0:0:
316,0,178354,2,0,B|292:48|300:104,1,104.999996795654,2|2,1:2|3:2,0:0:0:0:
412,120,178769,2,0,B|436:72|428:16,1,104.999996795654,10|2,0:2|3:2,0:0:0:0:
348,176,179183,6,0,B|316:264|364:336|364:336,1,157.499995193482,2|2,1:2|0:0,0:0:0:0:
432,304,179598,2,0,B|392:244|424:184|424:184,1,104.999996795654,10|2,0:2|3:2,0:0:0:0:
512,240,180014,1,2,1:2:0:0:
296,368,180429,6,0,B|232:368|192:296,1,104.999996795654,10|2,0:2|1:2,0:0:0:0:
288,272,180844,2,0,B|264:200|320:104,1,157.499995193482,2|0,1:2|0:0,0:0:0:0:
336,80,181259,5,14,0:2:0:0:
408,152,181467,1,2,1:2:0:0:
464,72,181674,1,2,1:2:0:0:
392,0,181882,1,2,3:2:0:0:
336,80,182089,1,14,0:2:0:0:
408,152,182296,1,2,1:2:0:0:
464,72,182504,6,0,B|504:112|504:168|504:168,1,104.999996795654,2|0,1:2|3:2,0:0:0:0:
408,152,182920,2,0,B|408:216|360:256|360:256,1,104.999996795654,8|0,0:2|3:2,0:0:0:0:
312,160,183335,2,0,B|256:192|192:168|192:168,1,104.999996795654,0|2,1:2|1:3,0:0:0:0:
120,128,183750,1,10,1:2:0:0:
96,24,183956,1,0,3:2:0:0:
96,24,184061,1,0,3:2:0:0:
96,24,184165,6,0,B|-32:96|56:208|56:208,1,209.999993591309,6|8,1:1|0:2,0:0:0:0:
51,201,184787,1,0,3:2:0:0:
120,128,184995,2,0,B|160:64|240:72|240:72,1,104.999996795654,2|2,1:2|3:2,0:0:0:0:
208,176,185410,2,0,B|280:152|328:192,1,104.999996795654,10|0,0:2|3:2,0:0:0:0:
248,264,185825,6,0,B|328:280|368:376|368:376,1,157.499995193482,2|0,1:2|0:0,0:0:0:0:
362,364,186240,1,10,0:2:0:0:
456,328,186448,1,2,3:2:0:0:
400,240,186655,1,2,1:2:0:0:
464,40,187070,6,0,B|432:96|360:112,1,104.999996795654,10|2,0:2|1:2,0:0:0:0:
368,0,187485,1,2,1:2:0:0:
48,40,187900,6,0,B|80:96|152:112,1,104.999996795654,10|2,0:2|1:2,0:0:0:0:
144,0,188315,2,0,B|200:16|223:64,1,104.999996795654,2|2,1:2|3:2,0:0:0:0:
280,152,188730,1,10,0:2:0:0:
184,184,188937,1,2,1:2:0:0:
127,104,189145,6,0,B|80:144|88:200|88:200,1,104.999996795654,2|0,1:2|3:2,0:0:0:0:
240,248,189561,2,0,B|287:208|279:152|279:152,1,104.999996795654,8|0,0:2|3:2,0:0:0:0:
112,96,189976,2,0,B|65:136|73:192|73:192,1,104.999996795654,0|2,1:2|1:3,0:0:0:0:
256,264,190391,2,0,B|303:224|295:168|295:168,1,104.999996795654,10|0,1:2|3:2,0:0:0:0:
184,184,190806,6,0,B|112:360,1,157.499995193482,2|0,0:1|0:0,0:0:0:0:
104,376,191221,1,4,1:1:0:0:
184,184,191636,2,0,B|240:56,1,104.999996795654,2|2,0:0|0:0,0:0:0:0:
264,0,192051,1,4,1:1:0:0:
400,248,192466,5,2,1:2:0:0:
480,168,192674,1,2,3:2:0:0:
432,64,192881,1,10,0:2:0:0:
320,80,193089,1,2,3:2:0:0:
296,192,193296,1,2,1:2:0:0:
472,352,193711,5,10,0:2:0:0:
360,352,193919,1,2,1:2:0:0:
416,248,194127,1,6,1:1:0:0:
200,32,194542,5,10,0:2:0:0:
312,32,194750,1,2,1:2:0:0:
256,128,194958,1,6,1:1:0:0:
152,352,195372,5,10,0:2:0:0:
40,352,195580,1,2,1:2:0:0:
96,256,195787,2,0,B|48:144|128:48|128:48,1,209.999993591309,6|8,1:1|0:2,0:0:0:0:
121,56,196409,1,0,3:2:0:0:
184,144,196617,2,0,B|224:88|296:104|296:104,1,104.999996795654,0|2,1:2|3:2,0:0:0:0:
264,208,197032,2,0,B|328:208|352:272|352:272,1,104.999996795654,10|2,0:2|1:3,0:0:0:0:
360,312,197343,1,0,3:2:0:0:
360,312,197447,6,0,B|256:360|152:312|152:312,1,209.999993591309,6|10,1:1|0:2,0:0:0:0:
155,313,198070,1,2,1:3:0:0:
152,72,198277,6,0,B|256:24|360:72|360:72,1,209.999993591309,6|10,1:1|0:2,0:0:0:0:
356,70,198900,1,2,1:3:0:0:
256,192,199107,5,6,1:1:0:0:
256,192,199730,1,2,3:2:0:0:
152,112,199938,1,2,1:2:0:0:
336,88,200145,1,2,1:3:0:0:
360,272,200353,1,10,1:2:0:0:
184,304,200560,1,0,3:2:0:0:
184,304,200664,1,0,3:2:0:0:
184,304,200768,1,2,0:1:0:0:
