osu file format v14

[General]
AudioFilename: audio.ogg
AudioLeadIn: 0
PreviewTime: 53779
Countdown: 0
SampleSet: Soft
StackLeniency: 0.7
Mode: 0
LetterboxInBreaks: 0
WidescreenStoryboard: 0

[Editor]
Bookmarks: 1532,14814,41379,54661,67944,81226,94508,107791,111111,121073,124394,134356,157600,160921,170882,174203,184165,190806
DistanceSpacing: 1.4
BeatDivisor: 4
GridSize: 8
TimelineZoom: 1.600001

[Metadata]
Title:Sonna Yume o Mita no ~lonely dreaming girl~ (Nightcore Mix)
TitleUnicode:そんなゆめをみたの ~lonely dreaming girl~ (Nightcore Mix)
Artist:TAMAONSEN
ArtistUnicode:魂音泉
Creator:Aranel
Version:~Hard~
Source:東方紅魔郷 ~ the Embodiment of Scarlet Devil.
Tags:-_katie_- - katie - -ady andrai touhou japanese electronic vgm video game remix おてんば恋娘 otenba koimusume beloved tomboyish girl in love stage 2 boss cirno chiruno チルノ 東方project 2hu koumakyou th6 eosd ZUN たま coro k's/coro kokorobeats たまおんせん 東方流星少女 ~Little Shooting Star~ ryuusei shoujo comiket 76 c76 上海アリス幻樂団 Team Shanghai Alice
BeatmapID:3669780
BeatmapSetID:1790704

[Difficulty]
HPDrainRate:4.5
CircleSize:4
OverallDifficulty:6.5
ApproachRate:7
SliderMultiplier:1.7
SliderTickRate:2

[Events]
//Background and Video events
0,0,"baka.jpg",0,0
//Break Periods
2,28296,40479
2,81426,93608
2,134555,155870
//Storyboard Layer 0 (Background)
//Storyboard Layer 1 (Fail)
//Storyboard Layer 2 (Pass)
//Storyboard Layer 3 (Foreground)
//Storyboard Layer 4 (Overlay)
//Storyboard Sound Samples

[TimingPoints]
1532,415.075543748962,4,2,1,45,1,0
1532,-117.647058823529,4,2,1,45,0,0
14814,-117.647058823529,4,2,1,45,0,0
27994,-111.111111111111,4,2,1,65,0,0
41379,-100,4,2,1,65,0,0
51341,-133.333333333333,4,2,1,65,0,0
52171,-100,4,2,1,65,0,0
53001,-142.857142857143,4,2,1,65,0,0
53831,-111.111111111111,4,2,1,70,0,0
54661,-90.9090909090909,4,2,1,75,0,1
81226,-100,4,2,1,65,0,0
94508,-100,4,2,1,65,0,0
104470,-133.333333333333,4,2,1,65,0,0
105300,-100,4,2,1,65,0,0
106130,-142.857142857143,4,2,1,65,0,0
106960,-111.111111111111,4,2,1,70,0,0
107791,-90.9090909090909,4,2,1,75,0,1
134356,-100,4,2,1,80,0,0
157496,-83.3333333333333,4,2,1,80,0,0
157600,-83.3333333333333,4,2,1,85,0,1
158015,-83.3333333333333,4,2,2,85,0,1
158041,-83.3333333333333,4,2,1,85,0,1
184166,-83.3333333333333,4,2,1,75,0,1
184270,-83.3333333333333,4,2,1,75,0,1
200768,-83.3333333333333,4,2,1,90,0,0

[Colours]
Combo1 : 113,99,146
Combo2 : 184,227,246
Combo3 : 255,102,102
Combo4 : 135,162,170

[HitObjects]
256,192,14814,6,0,B|216:288|216:288|96:320|96:320,1,216.750004134178,2|2,0:1|0:0,0:0:0:0:
32,328,15644,1,2,0:0:0:0:
64,256,15852,1,2,0:0:0:0:
24,192,16059,2,0,L|80:104,1,72.2500013780594,2|2,0:0|0:0,0:0:0:0:
32,64,16474,1,2,0:0:0:0:
448,128,17512,5,2,0:0:0:0:
376,120,17719,1,2,0:0:0:0:
304,136,17927,1,2,0:0:0:0:
256,192,18135,2,0,B|296:288|296:288|416:320|416:320,1,216.750004134178,2|2,0:0|0:0,0:0:0:0:
480,328,18965,1,2,0:0:0:0:
448,256,19173,1,2,0:0:0:0:
488,192,19380,2,0,L|432:104,1,72.2500013780594,2|2,0:0|0:0,0:0:0:0:
480,64,19795,1,2,0:0:0:0:
176,344,21040,5,2,0:0:0:0:
336,344,21455,1,2,0:0:0:0:
256,120,22078,1,2,0:0:0:0:
208,60,22285,1,2,0:0:0:0:
256,0,22493,1,2,0:0:0:0:
304,60,22700,1,2,0:0:0:0:
296,216,23115,6,0,L|384:240,2,72.2500013780594,2|2|2,0:0|0:0|0:0,0:0:0:0:
216,216,23738,2,0,L|128:240,2,72.2500013780594,2|2|2,0:0|0:0|0:0,0:0:0:0:
256,288,24361,1,2,0:0:0:0:
312,144,24776,6,0,L|381:163,1,72.2500013780594,2|2,0:0|0:0,0:0:0:0:
364,80,25191,2,0,L|294:60,1,72.2500013780594,2|2,0:0|0:0,0:0:0:0:
217,60,25606,2,0,L|148:80,1,72.2500013780594,2|2,0:0|0:0,0:0:0:0:
130,163,26021,2,0,L|200:144,1,72.2500013780594,2|2,0:0|0:0,0:0:0:0:
256,192,26436,12,2,28096,1:2:0:0:
328,256,41379,6,0,B|408:272|408:272|472:368|472:368,2,170,2|8|2,1:1|0:0|0:2,0:0:0:0:
256,208,42416,2,0,L|256:112,2,85,2|10|2,1:2|0:2|0:2,0:0:0:0:
184,256,43039,2,0,B|104:272|104:272|40:368|40:368,2,170,2|10|2,1:2|0:0|0:2,0:0:0:0:
336,176,44284,5,10,0:2:0:0:
416,144,44492,1,2,0:2:0:0:
440,64,44699,2,0,B|352:16|296:136|200:104,1,255,2|2,1:2|0:0,0:0:0:0:
128,64,45530,2,0,B|56:80|40:136|40:136,1,85,2|2,0:2|1:2,0:0:0:0:
56,192,45945,2,0,B|128:176|144:120|144:120,1,85,10|2,0:2|0:2,0:0:0:0:
200,104,46360,1,2,1:2:0:0:
256,264,46775,2,0,L|256:360,2,85,8|2|2,0:0|0:2|0:2,0:0:0:0:
312,104,47605,5,10,0:2:0:0:
256,40,47812,1,2,0:2:0:0:
200,104,48020,2,0,B|256:176|256:176|352:192|352:288,1,255,2|2,1:2|0:0,0:0:0:0:
380,368,48850,2,0,L|295:368,1,85,2|2,0:2|1:2,0:0:0:0:
217,368,49265,2,0,L|132:368,1,85,10|2,0:2|0:2,0:0:0:0:
160,288,49680,2,0,B|160:176|256:176|256:176|268:176,1,170,2|10,1:2|0:0,0:0:0:0:
344,176,50303,1,2,0:0:0:0:
432,176,50510,1,2,0:2:0:0:
380,32,50925,6,0,L|284:32,1,85,10|2,0:2|0:2,0:0:0:0:
216,32,51341,2,0,L|80:32,2,127.500004863739,2|8|0,1:2|0:0|1:2,0:0:0:0:
216,112,52378,2,0,L|216:208,2,85,2|8|2,0:0|0:0|0:0,0:0:0:0:
296,112,53001,2,0,B|400:112|400:112|400:200,1,178.499994552612,2|0,1:1|0:0,0:0:0:0:
400,272,53831,5,2,0:0:0:0:
336,320,54039,1,2,1:2:0:0:
256,344,54246,1,10,0:0:0:0:
176,320,54454,1,2,1:2:0:0:
112,272,54661,6,0,B|72:192|72:192|112:104|112:104,1,187.000005706787,6|10,1:1|0:2,0:0:0:0:
168,32,55284,1,2,3:2:0:0:
224,104,55491,2,0,L|184:192,1,93.5000028533936,2|2,1:2|3:2,0:0:0:0:
256,248,55906,2,0,L|295:163,1,93.5000028533936,10|2,0:2|3:2,0:0:0:0:
370,103,56321,6,0,B|440:80|496:144|482:209,1,187.000005706787,2|8,1:2|0:2,0:0:0:0:
432,288,56944,1,0,3:2:0:0:
488,360,57152,2,0,B|448:392|392:368|392:368|392:368,1,93.5000028533936,0|2,1:2|3:2,0:0:0:0:
343,299,57567,2,0,B|383:267|439:291|439:291|439:291,1,93.5000028533936,10|2,0:2|1:2,0:0:0:0:
464,200,57982,2,0,B|368:160|280:224|280:224,1,187.000005706787,2|10,1:2|0:2,0:0:0:0:
256,136,58604,2,0,B|160:80|72:112|72:112,1,187.000005706787,2|2,3:2|3:2,0:0:0:0:
24,192,59227,1,10,0:2:0:0:
24,192,59435,1,2,3:2:0:0:
72,272,59642,6,0,L|96:376,1,93.5000028533936,2|4,1:2|3:3,0:0:0:0:
181,355,60057,2,0,L|160:264,1,93.5000028533936,8|4,0:2|3:3,0:0:0:0:
248,256,60472,2,0,L|269:347,1,93.5000028533936,0|8,1:2|3:3,0:0:0:0:
352,384,60887,1,10,0:2:0:0:
352,384,61095,1,2,3:2:0:0:
432,328,61302,6,0,B|464:240|464:240|432:152,1,187.000005706787,2|12,1:2|0:2,0:0:0:0:
256,80,62133,1,2,1:2:0:0:
168,112,62340,1,2,3:2:0:0:
80,152,62548,2,0,L|112:264,1,93.5000028533936,10|0,0:2|3:2,0:0:0:0:
48,320,62963,2,0,B|140:332|140:332|208:248,1,187.000005706787,2|10,1:2|0:2,0:0:0:0:
256,184,63585,1,2,3:2:0:0:
313,258,63793,1,2,1:2:0:0:
416,104,64208,6,0,L|512:56,2,93.5000028533936,10|2|2,0:2|1:2|1:2,0:0:0:0:
416,280,65038,2,0,L|512:328,2,93.5000028533936,10|2|2,0:2|1:2|1:2,0:0:0:0:
256,192,65868,2,0,L|152:192,1,93.5000028533936,10|2,0:2|1:2,0:0:0:0:
72,192,66283,2,0,B|56:96|136:24,1,187.000005706787,2|8,1:2|0:2,0:0:0:0:
320,56,67113,5,2,1:2:0:0:
376,128,67321,1,2,1:2:0:0:
312,192,67528,1,10,0:2:0:0:
256,264,67736,1,2,3:2:0:0:
320,328,67943,6,0,P|448:176|448:176,1,187.000005706787,6|10,1:1|0:2,0:0:0:0:
496,104,68566,1,2,3:2:0:0:
400,104,68773,2,0,P|296:104|296:104,1,93.5000028533936,2|2,1:2|3:2,0:0:0:0:
206,104,69189,2,0,L|112:104,1,93.5000028533936,10|2,0:2|3:2,0:0:0:0:
16,104,69604,6,0,B|16:216|96:264|96:264,1,187.000005706787,2|8,1:2|0:2,0:0:0:0:
184,296,70226,1,0,3:2:0:0:
256,352,70434,2,0,B|288:312|264:256|264:256|264:256,1,93.5000028533936,0|2,1:2|3:2,0:0:0:0:
320,184,70849,2,0,B|280:152|224:176|224:176|224:176,1,93.5000028533936,10|2,0:2|1:2,0:0:0:0:
160,120,71264,6,0,B|112:216|184:296|184:296,1,187.000005706787,2|10,1:2|0:2,0:0:0:0:
256,352,71887,1,2,3:2:0:0:
312,272,72094,2,0,B|344:224|312:160|312:160,2,93.5000028533936,2|2|10,1:2|3:2|0:2,0:0:0:0:
256,352,72717,1,2,3:2:0:0:
184,296,72924,6,0,L|65:273,1,93.5000028533936,2|4,1:2|3:3,0:0:0:0:
160,208,73340,2,0,L|97:119,1,93.5000028533936,8|4,0:2|3:3,0:0:0:0:
200,120,73755,2,0,L|218:12,1,93.5000028533936,0|8,1:2|3:0,0:0:0:0:
304,8,74170,6,0,P|272:200|272:200,1,187.000005706787,10|2,0:2|1:2,0:0:0:0:
384,344,75000,5,14,0:2:0:0:
456,288,75207,1,0,3:2:0:0:
392,216,75415,1,2,1:2:0:0:
320,272,75622,1,2,3:2:0:0:
248,328,75830,2,0,B|192:344|152:304|152:304,1,93.5000028533936,10|2,0:2|3:2,0:0:0:0:
72,336,76245,6,0,B|48:264|128:208|128:208,1,140.25000428009,2|2,1:2|0:0,0:0:0:0:
152,184,76660,2,0,B|208:168|224:112|224:112,1,93.5000028533936,10|2,0:2|3:2,0:0:0:0:
264,40,77075,1,2,1:2:0:0:
96,104,77490,6,0,L|0:56,2,93.5000028533936,10|2|2,0:2|1:2|1:2,0:0:0:0:
96,280,78320,2,0,L|0:328,2,93.5000028533936,10|2|2,0:2|1:2|1:2,0:0:0:0:
256,192,79150,2,0,L|360:192,1,93.5000028533936,10|2,0:2|1:2,0:0:0:0:
440,192,79565,5,2,1:2:0:0:
256,64,79981,1,8,0:2:0:0:
72,192,80396,2,0,L|88:304,1,93.5000028533936,0|2,1:2|1:3,0:0:0:0:
176,312,80811,2,0,L|162:210,1,93.5000028533936,10|0,1:2|3:2,0:0:0:0:
160,176,81122,1,0,3:2:0:0:
160,176,81226,1,2,0:1:0:0:
184,128,94508,6,0,B|104:112|40:16|40:16,2,170,2|8|2,1:1|0:0|0:2,0:0:0:0:
256,176,95545,2,0,L|256:272,2,85,2|10|2,1:2|0:2|0:2,0:0:0:0:
328,128,96168,2,0,B|408:112|472:16|472:16,2,170,2|10|2,1:2|0:0|0:2,0:0:0:0:
176,208,97413,5,10,0:2:0:0:
96,240,97621,1,2,0:2:0:0:
72,320,97828,2,0,B|160:368|216:248|312:280,1,255,2|2,1:2|0:0,0:0:0:0:
384,320,98659,2,0,B|456:304|472:248|472:248,1,85,2|2,0:2|1:2,0:0:0:0:
456,192,99074,2,0,B|384:208|368:264|368:264,1,85,10|2,0:2|0:2,0:0:0:0:
312,280,99489,1,2,1:2:0:0:
256,120,99904,2,0,L|256:24,2,85,8|2|2,0:0|0:2|0:2,0:0:0:0:
200,280,100734,5,10,0:2:0:0:
256,344,100941,1,2,0:2:0:0:
312,280,101150,1,2,1:2:0:0:
217,16,101772,2,0,L|132:16,2,85,2|2|2,0:0|0:2|1:2,0:0:0:0:
295,16,102395,1,10,0:2:0:0:
400,136,102809,2,0,B|376:200|240:208,1,170,2|10,1:2|0:0,0:0:0:0:
168,208,103432,1,2,0:0:0:0:
80,208,103639,1,2,0:2:0:0:
132,352,104054,6,0,L|228:352,1,85,10|2,0:2|0:2,0:0:0:0:
296,352,104470,2,0,L|432:352,2,127.500004863739,2|8|0,1:2|0:0|1:2,0:0:0:0:
296,272,105507,2,0,L|296:176,2,85,2|8|2,0:0|0:0|0:0,0:0:0:0:
216,272,106131,2,0,B|112:272|112:272|112:184,1,178.499994552612,2|0,1:1|0:0,0:0:0:0:
112,112,106960,5,2,0:0:0:0:
176,64,107168,1,2,1:2:0:0:
256,40,107375,1,10,0:0:0:0:
336,64,107583,1,2,1:2:0:0:
400,112,107791,6,0,B|440:192|440:192|400:280|400:280,1,187.000005706787,6|10,1:1|0:2,0:0:0:0:
344,352,108413,1,2,3:2:0:0:
288,280,108620,2,0,L|328:192,1,93.5000028533936,2|2,1:2|3:2,0:0:0:0:
256,136,109035,2,0,L|217:221,1,93.5000028533936,10|2,0:2|3:2,0:0:0:0:
142,281,109450,6,0,B|72:304|16:240|30:175,1,187.000005706787,2|8,1:2|0:2,0:0:0:0:
80,96,110073,1,0,3:2:0:0:
24,24,110281,2,0,B|64:-8|120:16|120:16|120:16,1,93.5000028533936,0|2,1:2|3:2,0:0:0:0:
169,85,110696,2,0,B|129:117|73:93|73:93|73:93,1,93.5000028533936,10|2,0:2|1:2,0:0:0:0:
48,184,111111,2,0,B|144:224|232:160|232:160,1,187.000005706787,2|10,1:2|0:2,0:0:0:0:
256,248,111733,2,0,B|352:304|440:272|440:272,1,187.000005706787,2|2,3:2|3:2,0:0:0:0:
488,192,112356,1,10,0:2:0:0:
488,192,112564,1,2,3:2:0:0:
440,112,112771,6,0,L|416:8,1,93.5000028533936,2|4,1:2|3:3,0:0:0:0:
330,28,113186,2,0,L|352:120,1,93.5000028533936,8|4,0:2|3:3,0:0:0:0:
264,128,113601,2,0,L|242:36,1,93.5000028533936,0|8,1:2|3:3,0:0:0:0:
160,0,114016,1,10,0:2:0:0:
160,0,114224,1,2,3:2:0:0:
80,56,114431,6,0,B|48:144|48:144|80:232,1,187.000005706787,2|12,1:2|0:2,0:0:0:0:
160,280,115055,2,0,B|360:280,1,187.000005706787,2|2,3:2|3:2,0:0:0:0:
432,232,115677,2,0,L|400:120,1,93.5000028533936,10|0,0:2|3:2,0:0:0:0:
464,64,116092,2,0,B|372:52|372:52|304:136,1,187.000005706787,2|10,1:2|0:2,0:0:0:0:
256,200,116714,1,2,3:2:0:0:
199,126,116922,1,2,1:2:0:0:
96,280,117337,6,0,L|0:328,2,93.5000028533936,10|2|2,0:2|1:2|1:2,0:0:0:0:
96,104,118167,2,0,L|0:56,2,93.5000028533936,10|2|2,0:2|1:2|1:2,0:0:0:0:
256,192,118997,2,0,L|360:192,1,93.5000028533936,10|2,0:2|1:2,0:0:0:0:
440,192,119412,2,0,B|456:288|376:360,1,187.000005706787,2|8,1:2|0:2,0:0:0:0:
192,328,120242,5,2,1:2:0:0:
136,256,120450,1,2,1:2:0:0:
200,192,120657,1,10,0:2:0:0:
256,120,120865,1,2,3:2:0:0:
192,56,121072,6,0,P|64:208|64:208,1,187.000005706787,6|10,1:1|0:2,0:0:0:0:
16,280,121695,1,2,3:2:0:0:
112,280,121902,2,0,P|216:280|216:280,1,93.5000028533936,2|2,1:2|3:2,0:0:0:0:
306,280,122318,2,0,L|399:280,1,93.5000028533936,10|2,0:2|3:2,0:0:0:0:
496,280,122733,6,0,B|496:168|416:120|416:120,1,187.000005706787,2|8,1:2|0:2,0:0:0:0:
328,88,123355,1,0,3:2:0:0:
256,32,123563,2,0,B|224:72|248:128|248:128|248:128,1,93.5000028533936,0|2,1:2|3:2,0:0:0:0:
192,200,123978,2,0,B|232:232|288:208|288:208|288:208,1,93.5000028533936,10|2,0:2|1:2,0:0:0:0:
352,264,124393,6,0,B|400:168|328:88|328:88,1,187.000005706787,2|10,1:2|0:2,0:0:0:0:
256,32,125016,1,2,3:2:0:0:
200,112,125223,2,0,B|168:160|200:224|200:224,2,93.5000028533936,2|2|10,1:2|3:2|0:2,0:0:0:0:
256,32,125846,1,2,3:2:0:0:
328,88,126053,6,0,L|447:111,1,93.5000028533936,2|4,1:2|3:3,0:0:0:0:
352,176,126469,2,0,L|415:265,1,93.5000028533936,8|4,0:2|3:3,0:0:0:0:
312,264,126884,2,0,L|293:371,1,93.5000028533936,0|8,1:2|3:0,0:0:0:0:
208,376,127299,6,0,P|240:184|240:184,1,187.000005706787,10|2,0:2|1:2,0:0:0:0:
128,40,128129,5,14,0:2:0:0:
56,96,128336,1,0,3:2:0:0:
120,168,128544,1,2,1:2:0:0:
192,112,128751,1,2,3:2:0:0:
264,56,128959,2,0,B|320:40|360:80|360:80,1,93.5000028533936,10|2,0:2|3:2,0:0:0:0:
440,48,129374,6,0,B|464:120|384:176|384:176,1,140.25000428009,2|2,1:2|0:0,0:0:0:0:
360,200,129789,2,0,B|304:216|288:272|288:272,1,93.5000028533936,10|2,0:2|3:2,0:0:0:0:
248,344,130204,1,2,1:2:0:0:
416,280,130619,6,0,L|512:328,2,93.5000028533936,10|2|6,0:2|1:2|1:2,0:0:0:0:
416,104,131449,2,0,L|512:56,2,93.5000028533936,10|2|6,0:2|1:2|1:2,0:0:0:0:
256,192,132279,2,0,L|152:192,1,93.5000028533936,10|2,0:2|1:2,0:0:0:0:
72,192,132694,5,6,1:2:0:0:
256,320,133110,1,8,0:2:0:0:
440,192,133525,2,0,L|424:80,1,93.5000028533936,0|2,1:2|1:3,0:0:0:0:
336,72,133940,2,0,L|350:174,1,93.5000028533936,10|0,1:2|3:2,0:0:0:0:
352,208,134251,1,0,3:2:0:0:
352,208,134355,1,2,0:1:0:0:
336,192,156770,5,2,0:0:0:0:
256,248,156978,1,2,0:0:0:0:
176,192,157185,1,2,0:0:0:0:
256,136,157393,1,2,1:2:0:0:
256,136,157496,1,0,3:2:0:0:
256,136,157600,6,0,B|184:56|88:128|88:128,1,152.999995330811,6|0,1:1|0:0,0:0:0:0:
64,136,158015,1,14,0:2:0:0:
8,216,158223,1,2,3:2:0:0:
56,304,158430,2,0,B|96:352|160:328|160:328,1,101.999996887207,2|2,1:2|3:2,0:0:0:0:
224,264,158845,2,0,B|184:216|120:240|120:240,1,101.999996887207,10|2,0:2|3:2,0:0:0:0:
232,352,159260,6,0,B|320:336|304:248|392:232,1,203.999993774414,2|8,1:2|0:2,0:0:0:0:
488,264,159883,1,0,3:2:0:0:
456,168,160091,2,0,B|408:120|344:144|344:144,1,101.999996887207,0|2,1:2|3:2,0:0:0:0:
336,40,160506,2,0,B|288:40|256:96|256:96,1,101.999996887207,10|2,0:2|1:2,0:0:0:0:
152,80,160921,2,0,B|152:200|240:272|240:272,1,203.999993774414,2|10,1:2|0:2,0:0:0:0:
296,184,161543,2,0,B|176:184|104:272|104:272,1,203.999993774414,2|2,3:2|3:2,0:0:0:0:
64,352,162166,1,10,0:2:0:0:
64,352,162374,1,2,3:2:0:0:
167,344,162581,6,2,B|159:280|103:256|103:256,1,101.999996887207,2|8,1:2|3:3,0:1:0:0:
10,269,162996,2,2,B|18:333|74:357|74:357,1,101.999996887207,8|8,0:2|3:3,0:1:0:0:
176,336,163411,2,2,B|168:272|112:248|112:248,1,101.999996887207,0|8,1:2|3:3,0:1:0:0:
56,184,163826,1,10,0:2:0:0:
56,184,164034,1,2,3:2:0:0:
136,120,164241,6,0,B|184:176|256:192|328:168,1,203.999993774414,2|12,1:2|0:2,0:0:0:0:
480,40,165071,1,2,1:2:0:0:
416,120,165279,1,2,3:2:0:0:
432,224,165487,2,0,L|464:352,1,101.999996887207,10|0,0:2|3:2,0:0:0:0:
365,369,165902,6,0,B|321:170,1,203.999993774414,2|10,1:2|0:2,0:0:0:0:
256,88,166524,1,2,3:2:0:0:
191,169,166732,1,2,1:2:0:0:
147,369,167147,6,0,L|18:340,1,101.999996887207,10|2,0:2|1:2,0:0:0:0:
72,240,167562,1,2,1:2:0:0:
147,15,167977,6,0,L|18:44,1,101.999996887207,14|2,0:2|1:2,0:0:0:0:
72,144,168392,1,2,1:2:0:0:
272,192,168807,6,0,L|376:192,1,101.999996887207,14|2,0:2|1:2,0:0:0:0:
440,104,169222,2,0,B|504:192|507:191|440:280,1,203.999993774414,2|8,1:2|0:2,0:0:0:0:
200,272,170052,5,2,1:2:0:0:
256,192,170260,1,2,1:2:0:0:
312,272,170467,1,10,0:2:0:0:
256,352,170675,1,2,3:2:0:0:
256,352,170779,1,0,3:2:0:0:
256,352,170882,6,0,B|128:400|104:264|104:264,1,203.999993774414,6|10,1:1|0:2,0:0:0:0:
32,192,171505,1,2,3:2:0:0:
104,120,171712,2,0,P|208:80|208:80,1,101.999996887207,2|2,1:2|3:2,0:0:0:0:
272,160,172128,2,0,B|280:156|176:196,1,101.999996887207,10|2,0:2|3:2,0:0:0:0:
88,112,172543,6,0,B|288:32|288:32,1,203.999993774414,2|8,1:2|0:2,0:0:0:0:
352,104,173165,1,0,3:2:0:0:
424,176,173373,2,0,B|464:136|448:40|448:40,1,101.999996887207,0|2,1:2|3:2,0:0:0:0:
352,104,173788,2,0,B|312:144|328:240|328:240,1,101.999996887207,10|2,0:2|1:2,0:0:0:0:
416,288,174203,6,0,B|328:272|304:368|208:352,1,203.999993774414,2|10,1:2|0:2,0:0:0:0:
152,288,174826,1,2,3:2:0:0:
72,352,175033,2,0,B|32:304|64:240|64:240,2,101.999996887207,2|2|10,1:2|3:2|0:2,0:0:0:0:
152,288,175656,1,2,3:2:0:0:
112,192,175863,6,2,B|80:152|16:176|16:176,1,101.999996887207,2|8,1:2|3:3,0:1:0:0:
200,200,176278,2,2,B|205:149|160:104|160:104,1,101.999996887207,8|8,0:2|3:3,0:1:0:0:
248,272,176694,2,2,B|288:240|288:160|288:160,1,101.999996887207,0|8,1:2|3:3,0:1:0:0:
200,352,177109,6,0,B|304:392|408:288|408:288,1,203.999993774414,10|2,0:2|1:2,0:0:0:0:
440,104,177939,5,14,0:2:0:0:
512,160,178146,1,0,3:2:0:0:
448,232,178354,1,2,1:2:0:0:
376,176,178561,1,2,3:2:0:0:
440,104,178769,2,0,B|400:64|336:80|336:80,1,101.999996887207,10|2,0:2|3:2,0:0:0:0:
256,32,179184,6,0,B|176:56|144:136|144:136,1,152.999995330811,2|2,1:2|0:0,0:0:0:0:
112,168,179599,2,0,B|104:232|160:272|160:272,1,101.999996887207,10|2,0:2|3:2,0:0:0:0:
216,184,180014,1,2,1:2:0:0:
336,344,180429,2,0,B|416:328|432:256|432:256,1,101.999996887207,10|2,0:2|1:2,0:0:0:0:
336,256,180844,6,0,B|400:184|376:88|376:88,1,152.999995330811,2|0,1:2|0:0,0:0:0:0:
368,64,181259,1,14,0:2:0:0:
288,24,181467,1,2,1:2:0:0:
240,104,181674,2,0,B|208:152|224:208|224:208,1,101.999996887207,2|2,1:2|3:2,0:0:0:0:
304,160,182089,2,0,B|304:216|336:256|336:256,1,101.999996887207,14|2,0:2|1:2,0:0:0:0:
417,288,182504,5,2,1:2:0:0:
256,368,182920,1,8,0:2:0:0:
95,288,183335,2,0,L|112:168,1,101.999996887207,0|2,1:2|1:3,0:0:0:0:
200,160,183750,2,0,L|183:280,1,101.999996887207,10|0,1:2|3:2,0:0:0:0:
184,312,184061,1,0,3:2:0:0:
184,312,184165,6,0,B|264:240|384:272,2,203.999993774414,6|8|2,1:1|0:2|1:2,0:0:0:0:
120,376,185202,1,2,3:2:0:0:
95,288,185410,2,0,B|72:248|96:184|96:184,1,101.999996887207,10|0,0:2|3:2,0:0:0:0:
48,112,185825,2,0,B|136:80|176:136|256:104,1,203.999993774414,2|10,1:2|0:2,0:0:0:0:
304,32,186448,1,2,3:2:0:0:
392,64,186655,1,2,1:2:0:0:
368,248,187070,6,0,L|472:312,2,101.999996887207,10|2|2,0:2|1:2|1:2,0:0:0:0:
144,248,187900,2,0,L|40:312,1,101.999996887207,10|2,0:2|1:2,0:0:0:0:
136,352,188315,2,0,L|222:298,1,101.999996887207,2|2,1:2|3:2,0:0:0:0:
136,240,188731,2,0,L|32:304,1,101.999996887207,10|2,0:2|1:2,0:0:0:0:
144,360,189146,6,0,L|288:272,1,152.999995330811,2|0,1:2|0:0,0:0:0:0:
312,256,189561,1,8,0:2:0:0:
312,256,189768,1,0,3:2:0:0:
248,184,189976,2,0,B|232:120|280:72|280:72,1,101.999996887207,0|2,1:2|1:3,0:0:0:0:
336,152,190391,1,10,1:2:0:0:
416,104,190598,5,0,3:2:0:0:
416,104,190702,1,0,3:2:0:0:
416,104,190806,2,0,B|456:184|384:256|384:256,1,152.999995330811,2|0,0:1|0:0,0:0:0:0:
360,280,191221,1,4,1:1:0:0:
416,104,191636,2,0,B|400:40|448:-8|448:-8,1,101.999996887207,2|2,0:0|0:0,0:0:0:0:
504,80,192051,1,4,1:1:0:0:
336,152,192466,6,0,B|296:200|240:184|240:184,1,101.999996887207,2|2,1:2|3:2,0:0:0:0:
152,168,192881,2,0,B|96:136|104:80|104:80,1,101.999996887207,10|2,0:2|3:2,0:0:0:0:
192,88,193296,1,2,1:2:0:0:
365,15,193711,6,0,L|336:144,1,101.999996887207,10|2,0:2|1:2,0:0:0:0:
440,144,194126,1,6,1:1:0:0:
365,369,194542,6,0,L|336:240,1,101.999996887207,10|2,0:2|1:2,0:0:0:0:
440,240,194957,1,6,1:1:0:0:
240,192,195372,6,0,L|136:192,1,101.999996887207,10|2,0:2|1:2,0:0:0:0:
72,280,195787,2,0,B|8:192|5:193|72:104,2,203.999993774414,6|8|0,1:1|0:2|1:2,0:0:0:0:
144,336,196825,1,2,3:2:0:0:
216,272,197032,2,0,B|210:286|234:222|226:230|202:174,1,101.999996887207,10|2,0:2|1:3,0:0:0:0:
176,136,197343,1,0,3:2:0:0:
176,136,197447,6,0,B|280:80|376:136|376:136,1,203.999993774414,6|10,1:1|0:2,0:0:0:0:
372,134,198070,1,2,1:3:0:0:
336,248,198277,6,0,B|232:304|136:248|136:248,1,203.999993774414,6|10,1:1|0:2,0:0:0:0:
139,249,198900,1,2,1:3:0:0:
256,192,199107,5,6,1:1:0:0:
256,192,199211,12,2,200768,0:1:0:0:
