osu file format v14

[General]
AudioFilename: audio.mp3
AudioLeadIn: 0
PreviewTime: 66180
Countdown: 0
SampleSet: Soft
StackLeniency: 0.7
Mode: 2
LetterboxInBreaks: 0
WidescreenStoryboard: 1

[Editor]
Bookmarks: 23311,66947,88765,110583,132402,154220,176038,197856,219674
DistanceSpacing: 1.1
BeatDivisor: 4
GridSize: 4
TimelineZoom: 1.6

[Metadata]
Title:Saigetsu (Midnight Moon Walker Remix)
TitleUnicode:歳月 (Midnight Moon Walker Remix)
Artist:TAMAONSEN
ArtistUnicode:魂音泉
Creator:Spectator
Version:Stardust Prism's Salad
Source:東方萃夢想 ~ Immaterial and Missing Power.
Tags:boberofdarkness stardust prism japanese pop jpop doujin 東方project touhou project Coro One's Own Way 笥箪 砕月 C82 Comiket 82 tama たま toho tōhō th7.5 7.5 ZUN 太田 順也 ibuki suika 伊吹 萃香 ibaraki kasen 茨木 華扇 hoshiguma yuugi 星熊 勇儀 oni Team Shanghai Alice Twilight Frontier video game vocal broken moon 上海アリス幻樂団
BeatmapID:4440829
BeatmapSetID:724793

[Difficulty]
HPDrainRate:3
CircleSize:3
OverallDifficulty:7
ApproachRate:7
SliderMultiplier:1.4
SliderTickRate:1

[Events]
//Background and Video events
0,0,"suika.jpg",0,0
//Break Periods
2,176243,186052
//Storyboard Layer 0 (Background)
//Storyboard Layer 1 (Fail)
//Storyboard Layer 2 (Pass)
//Storyboard Layer 3 (Foreground)
//Storyboard Layer 4 (Overlay)
//Storyboard Sound Samples

[TimingPoints]
1498,340.909090909091,4,2,2,50,1,0
5588,-100,4,2,1,50,0,0
6952,-100,4,2,2,50,0,0
11725,-100,4,2,1,50,0,0
12407,-100,4,2,2,50,0,0
22208,-100,4,2,2,20,0,0
22634,-100,4,2,2,25,0,0
22804,-100,4,2,2,28,0,0
22975,-100,4,2,2,32,0,0
23145,-100,4,2,2,35,0,0
23316,-100,4,2,2,50,0,0
79225,-100,4,2,2,50,0,0
79566,-100,4,2,2,50,0,0
101043,-100,4,2,2,50,0,0
101384,-100,4,2,2,50,0,0
110588,-100,4,2,2,40,0,0
121498,-100,4,2,2,35,0,0
132407,-100,4,2,2,50,0,0
143316,-100,4,2,2,40,0,0
144679,-100,4,2,2,40,0,0
145020,-100,4,2,2,40,0,0
152861,-100,4,2,2,50,0,0
186952,-100,4,2,2,40,0,0
188316,-100,4,2,2,40,0,0
188827,-100,4,2,2,40,0,0
197861,-100,4,2,3,70,0,1
198032,-100,4,2,2,70,0,1
219594,-100,4,2,2,70,0,0
219679,-100,4,2,2,70,0,1
219765,-100,4,2,2,70,0,0

[Colours]
Combo1 : 87,157,234
Combo2 : 245,170,107
Combo3 : 224,78,78

[HitObjects]
166,268,1498,6,0,P|103:209|183:136,1,210,4|0,1:1|2:1,0:0:0:0:
327,108,2350,1,4,1:1:0:0:
256,98,2520,1,8,1:1:0:0:
69,229,3032,1,0,0:1:0:0:
224,167,3373,1,0,0:1:0:0:
228,99,3543,1,0,0:1:0:0:
92,117,3884,1,8,1:1:0:0:
335,236,4225,6,0,P|400:179|311:115,1,210,4|0,1:1|0:1,0:0:0:0:
183,184,5077,1,4,1:1:0:0:
111,169,5248,1,8,1:1:0:0:
361,235,5588,6,0,P|398:187|346:130,1,140,2|2,0:0|0:0,0:0:0:0:
216,143,6270,1,2,0:0:0:0:
298,133,6441,1,0,0:0:0:0:
376,126,6611,1,2,0:0:0:0:
130,299,6952,6,0,P|76:287|137:182,1,210,4|0,1:0|0:0,0:0:0:0:
251,108,7804,1,4,1:0:0:0:
327,88,7975,1,8,1:0:0:0:
158,205,8486,5,0,0:0:0:0:
30,146,8827,1,0,0:0:0:0:
30,146,8998,2,0,L|172:143,1,140,0|8,0:0|1:0,0:0:0:0:
426,252,9679,6,0,P|435:199|315:113,1,210,4|0,1:0|0:0,0:0:0:0:
184,212,10532,1,4,1:0:0:0:
266,207,10702,1,8,1:0:0:0:
420,168,11043,5,4,1:0:0:0:
277,150,11384,1,8,1:0:0:0:
420,168,11725,1,0,0:0:0:0:
471,117,11895,1,0,0:0:0:0:
393,100,12066,1,2,0:0:0:0:
142,260,12407,6,0,P|119:209|245:133,1,210,4|0,1:0|0:0,0:0:0:0:
358,120,13259,1,4,1:0:0:0:
427,111,13429,1,8,1:0:0:0:
295,185,13770,5,4,1:0:0:0:
57,250,14111,2,0,P|32:191|150:115,1,210,8|4,1:0|1:0,0:0:0:0:
199,107,14793,1,8,1:0:0:0:
448,117,15134,5,4,1:0:0:0:
451,103,15645,1,0,0:0:0:0:
312,130,15986,1,4,1:0:0:0:
240,117,16157,1,8,1:0:0:0:
382,80,16498,5,4,1:0:0:0:
135,217,16838,1,8,1:0:0:0:
20,114,17179,1,2,0:0:0:0:
28,65,17350,1,4,1:0:0:0:
96,60,17520,1,8,1:0:0:0:
342,254,17861,6,0,P|349:177|236:126,1,210,4|0,1:0|0:0,0:0:0:0:
115,164,18713,1,4,1:0:0:0:
194,145,18884,1,8,1:0:0:0:
440,260,19225,6,0,P|463:197|393:151,1,140,4|8,1:0|1:0,0:0:0:0:
280,174,19907,2,0,L|122:157,1,140,0|8,0:0|1:0,0:0:0:0:
395,343,20588,6,0,L|414:47,1,280,4|0,1:0|0:0,0:0:0:0:
276,198,21611,1,8,1:0:0:0:
32,350,21952,6,0,P|21:286|102:260,1,140,4|0,1:0|1:0,0:0:0:0:
219,193,22634,2,0,L|66:179,1,140,0|0,1:0|1:0,0:0:0:0:
360,291,23316,6,0,P|389:211|204:139,1,280,4|0,1:0|0:0,0:0:0:0:
111,174,24338,1,8,1:0:0:0:
270,304,24679,6,0,L|300:9,1,280,4|2,1:0|2:0,0:0:0:0:
440,100,25702,1,8,1:0:0:0:
296,295,26043,6,0,L|280:154,1,140,4|8,1:0|1:0,0:0:0:0:
422,224,26725,2,0,P|423:147|352:121,1,140,0|8,0:0|1:0,0:0:0:0:
224,150,27407,5,4,1:0:0:0:
130,153,27748,1,8,1:0:0:0:
224,150,28088,1,2,0:0:0:0:
366,128,28429,1,8,1:0:0:0:
102,299,28770,6,0,P|55:237|194:124,1,280,4|0,1:0|0:0,0:0:0:0:
315,130,29793,1,8,1:0:0:0:
468,248,30134,6,0,L|150:198,1,280,4|2,1:0|2:0,0:0:0:0:
51,196,31157,1,8,1:0:0:0:
304,153,31498,6,0,L|448:146,1,140,4|8,1:0|1:0,0:0:0:0:
295,245,32179,2,0,L|282:95,1,140,0|8,0:0|1:0,0:0:0:0:
425,124,32861,5,0,0:0:0:0:
494,75,33202,1,8,1:0:0:0:
425,64,33543,1,2,0:0:0:0:
286,172,33884,1,8,1:0:0:0:
32,274,34225,6,0,P|30:179|187:109,1,280,4|0,1:0|0:0,0:0:0:0:
325,140,35248,1,8,1:0:0:0:
184,284,35588,6,0,P|168:209|360:140,1,280,4|2,1:0|0:0,0:0:0:0:
178,145,36611,1,8,1:0:0:0:
431,284,36952,6,0,P|446:204|288:106,1,280,4|0,1:0|0:0,0:0:0:0:
231,120,37804,1,4,1:0:0:0:
160,124,37975,1,8,1:0:0:0:
325,267,38316,5,4,1:0:0:0:
337,127,38656,1,8,1:0:0:0:
197,149,38998,2,0,L|351:142,1,140,2|8,2:2|1:0,0:0:0:0:
85,326,39679,6,0,P|84:214|271:166,1,280,4|0,1:0|0:0,0:0:0:0:
366,135,40702,1,8,1:0:0:0:
121,298,41043,6,0,L|50:154,2,140,4|8|0,1:0|1:0|0:0,0:0:0:0:
263,265,42066,1,8,1:0:0:0:
402,205,42407,5,4,1:0:0:0:
266,314,42748,2,0,P|182:315|102:127,1,280,8|8,1:0|1:0,0:0:0:0:
342,178,43770,5,4,1:0:0:0:
482,161,44111,1,8,1:0:0:0:
342,178,44452,1,2,0:0:0:0:
482,161,44793,1,8,1:0:0:0:
215,307,45134,6,0,P|144:225|280:157,1,280,4|0,0:0|0:0,0:0:0:0:
397,208,46156,1,8,1:0:0:0:
238,338,46497,6,0,L|208:43,1,280,4|2,1:0|0:0,0:0:0:0:
68,134,47520,1,8,1:0:0:0:
212,329,47861,6,0,L|228:188,1,140,4|8,1:0|1:0,0:0:0:0:
86,258,48543,2,0,P|85:181|156:155,1,140,0|8,0:0|1:0,0:0:0:0:
284,184,49225,5,4,1:0:0:0:
378,187,49566,1,8,1:0:0:0:
284,184,49906,1,2,0:0:0:0:
142,162,50247,1,8,1:0:0:0:
406,333,50588,6,0,P|453:271|314:158,1,280,4|0,1:0|0:0,0:0:0:0:
193,164,51611,1,8,1:0:0:0:
40,282,51952,6,0,L|358:232,1,280,4|2,1:0|0:0,0:0:0:0:
457,230,52975,1,8,1:0:0:0:
204,187,53316,6,0,L|60:180,1,140,4|8,1:0|1:0,0:0:0:0:
213,279,53997,2,0,L|226:129,1,140,0|8,0:0|1:0,0:0:0:0:
83,158,54679,5,0,0:0:0:0:
14,109,55020,1,8,1:0:0:0:
83,98,55361,1,2,0:0:0:0:
222,206,55702,1,8,1:0:0:0:
476,308,56043,6,0,P|478:213|321:143,1,280,4|0,1:0|0:0,0:0:0:0:
183,174,57066,1,8,1:0:0:0:
324,318,57406,6,0,P|340:243|148:174,1,280,4|2,1:0|0:0,0:0:0:0:
330,179,58429,1,8,1:0:0:0:
77,318,58770,6,0,P|62:238|220:140,1,280,4|0,1:0|0:0,0:0:0:0:
277,154,59622,1,4,1:0:0:0:
348,158,59793,1,8,1:0:0:0:
183,301,60134,5,4,1:0:0:0:
171,161,60474,1,8,1:0:0:0:
311,183,60816,2,0,L|157:176,1,140,4|8,1:0|1:0,0:0:0:0:
423,360,61497,6,0,P|424:248|237:200,1,280,4|0,1:0|0:0,0:0:0:0:
142,169,62520,1,8,1:0:0:0:
408,343,62861,6,0,L|497:213,2,140,4|8|2,1:0|1:0|0:0,0:0:0:0:
268,303,63884,1,8,1:0:0:0:
15,264,64225,6,0,L|323:235,1,280,4|0,1:0|0:0,0:0:0:0:
151,235,65248,1,8,1:0:0:0:
403,212,65588,6,0,L|445:135,2,70,2|4|8,0:0|1:0|1:0,0:0:0:0:
265,193,66270,1,2,0:0:0:0:
405,161,66611,1,8,1:0:0:0:
149,276,66952,6,0,L|1:266,1,140,4|8,0:0|1:0,0:0:0:0:
156,268,67634,2,0,L|169:107,1,140,2|8,0:0|1:0,0:0:0:0:
311,241,68316,6,0,P|344:157|193:75,1,280,4|2,1:0|0:0,0:0:0:0:
64,237,69338,1,8,1:0:0:0:
318,237,69679,6,0,L|332:69,1,140,4|8,1:0|1:0,0:0:0:0:
170,206,70361,2,0,L|187:17,1,140,0|8,0:0|1:0,0:0:0:0:
323,278,71043,6,0,P|333:187|155:116,1,280,4|2,1:0|0:0,0:0:0:0:
33,183,72066,1,8,1:0:0:0:
286,231,72407,6,0,L|478:215,2,140,4|8|0,1:0|1:0|0:0,0:0:0:0:
146,203,73429,1,8,1:0:0:0:
282,343,73770,6,0,L|283:61,1,280,4|2,1:0|0:0,0:0:0:0:
422,82,74793,1,8,1:0:0:0:
167,268,75134,6,0,P|132:199|206:173,1,140,4|8,1:0|1:0,0:0:0:0:
245,157,75645,1,2,0:0:0:0:
325,151,75816,1,0,0:0:0:0:
183,122,76157,1,8,1:0:0:0:
43,259,76498,6,0,L|327:245,1,280,4|2,1:0|0:0,0:0:0:0:
184,218,77520,1,8,1:0:0:0:
449,228,77861,6,0,P|476:148|311:56,1,280,4|0,1:0|0:0,0:0:0:0:
192,193,78884,1,8,1:0:0:0:
444,281,79225,6,0,L|479:200,1,70,4|2,1:0|0:0,0:0:0:0:
402,208,79566,2,0,P|302:201|354:56,1,280,8|8,1:0|1:0,0:0:0:0:
470,182,80588,5,4,1:0:0:0:
316,232,80929,1,8,1:0:0:0:
206,289,81270,1,0,0:0:0:0:
344,298,81611,1,8,1:0:0:0:
485,246,81952,5,4,1:0:0:0:
485,246,82123,1,2,2:0:0:0:
414,230,82293,1,8,1:0:0:0:
297,204,82634,1,2,0:0:0:0:
431,170,82975,1,8,1:0:0:0:
172,265,83316,6,0,P|134:197|284:97,1,280,4|0,1:0|0:0,0:0:0:0:
409,117,84338,1,8,1:0:0:0:
171,245,84679,6,0,L|38:316,2,140,4|8|2,1:0|1:0|0:0,0:0:0:0:
319,230,85702,1,8,1:0:0:0:
62,312,86043,6,0,L|55:24,1,280,4|0,1:0|0:0,0:0:0:0:
127,26,86895,1,4,1:0:0:0:
198,34,87066,1,8,1:0:0:0:
449,238,87407,5,0,1:0:0:0:
449,238,87748,1,2,0:0:0:0:
379,233,87918,1,0,0:0:0:0:
309,228,88088,1,2,0:0:0:0:
459,238,88429,1,4,0:0:0:0:
202,302,88770,6,0,P|141:242|228:166,1,210,4|2,1:0|0:0,0:0:0:0:
351,117,89623,1,4,1:0:0:0:
288,112,89793,1,8,1:0:0:0:
146,212,90134,5,4,1:0:0:0:
146,212,90475,1,8,1:0:0:0:
289,190,90816,2,0,L|449:184,1,140,2|8,0:0|1:0,0:0:0:0:
166,287,91498,6,0,L|148:115,1,140,4|8,1:0|1:0,0:0:0:0:
298,127,92179,1,0,0:0:0:0:
156,123,92520,1,8,1:0:0:0:
410,283,92861,5,4,1:0:0:0:
269,206,93202,1,8,1:0:0:0:
338,202,93372,1,0,0:0:0:0:
408,198,93542,1,2,0:0:0:0:
408,198,93884,1,8,1:0:0:0:
150,267,94225,6,0,P|81:238|182:121,1,280,4|0,1:0|0:0,0:0:0:0:
316,150,95248,1,8,1:0:0:0:
177,145,95588,5,4,1:0:0:0:
37,135,95929,1,8,1:0:0:0:
181,153,96270,2,0,L|18:135,1,140,2|8,2:0|1:0,0:0:0:0:
302,302,96952,6,0,P|419:287|455:189,1,210,4|2,1:0|2:0,0:0:0:0:
308,171,97804,2,0,L|225:169,1,70,4|8,1:0|1:0,0:0:0:0:
383,226,98316,5,4,1:0:0:0:
378,214,98657,1,8,1:0:0:0:
234,198,98998,2,0,L|385:188,1,140,2|8,2:0|1:0,0:0:0:0:
115,306,99679,6,0,P|82:234|136:208,1,140,4|8,1:0|1:0,0:0:0:0:
268,191,100361,1,0,2:0:0:0:
347,194,100532,2,0,P|389:139|331:110,1,140,4|0,1:0|0:0,0:0:0:0:
271,104,101043,6,0,L|230:40,2,70,4|2|8,1:0|0:0|1:0,0:0:0:0:
444,210,101725,1,2,2:0:0:0:
306,211,102066,1,8,1:0:0:0:
46,267,102407,6,0,P|44:183|204:110,1,280,4|0,1:0|0:0,0:0:0:0:
271,119,103259,1,4,1:0:0:0:
344,132,103429,1,8,1:0:0:0:
202,266,103770,5,4,1:0:0:0:
202,266,104111,1,8,1:0:0:0:
349,215,104452,2,0,L|508:207,1,140,2|8,2:0|1:0,0:0:0:0:
233,240,105134,6,0,P|176:230|144:140,2,140,4|8|0,1:0|1:0|0:0,0:0:0:0:
74,182,106157,1,8,1:0:0:0:
339,166,106498,6,0,L|433:161,1,70,0|2,1:0|2:0,0:0:0:0:
272,262,107009,2,0,L|257:170,1,70,0|2,1:0|2:0,0:0:0:0:
406,141,107520,1,8,1:0:0:0:
152,295,107861,6,0,P|155:194|333:144,1,280,4|0,1:0|0:0,0:0:0:0:
445,179,108884,1,8,1:0:0:0:
194,276,109225,6,0,L|39:261,1,140,4|8,1:0|1:0,0:0:0:0:
201,215,109907,2,0,L|357:212,1,140,2|8,0:0|1:0,0:0:0:0:
86,183,110588,5,4,0:0:0:0:
314,276,111270,2,0,P|351:201|218:99,1,280,2|2,0:0|0:0,0:0:0:0:
51,276,112634,5,2,0:0:0:0:
111,178,112975,1,0,0:0:0:0:
252,149,113316,5,2,0:0:0:0:
438,189,113998,1,2,0:0:0:0:
185,270,114679,1,2,0:0:0:0:
384,281,115361,6,0,L|398:114,1,140,2|0,0:0|0:0,0:0:0:0:
234,186,116043,5,2,0:0:0:0:
46,241,116725,1,2,0:0:0:0:
200,209,117066,1,0,0:0:0:0:
46,241,117407,5,2,0:0:0:0:
254,127,118088,1,2,0:0:0:0:
261,46,118429,1,0,0:0:0:0:
404,263,118770,6,0,P|401:186|226:91,1,280,2|2,0:0|0:0,0:0:0:0:
109,173,119793,1,0,0:0:0:0:
231,155,120134,1,2,0:0:0:0:
451,196,120816,1,2,0:0:0:0:
451,142,121157,1,0,0:0:0:0:
307,256,121498,6,0,P|304:168|462:80,1,280,2|2,0:0|0:0,0:0:0:0:
460,111,122520,1,0,0:0:0:0:
333,152,122861,5,2,0:0:0:0:
143,233,123543,1,2,0:0:0:0:
276,207,123884,1,0,0:0:0:0:
143,233,124225,6,0,P|80:193|188:64,1,280,2|2,0:0|0:0,0:0:0:0:
377,122,125588,5,0,0:0:0:0:
165,233,126270,1,2,0:0:0:0:
306,211,126611,1,2,0:0:0:0:
153,311,126952,6,0,L|136:8,1,280,2|0,0:0|0:0,0:0:0:0:
267,133,127975,1,0,0:0:0:0:
409,229,128316,6,0,P|411:153|231:60,1,280,0|2,0:0|0:0,0:0:0:0:
122,218,129338,1,2,0:0:0:0:
266,180,129679,5,2,0:0:0:0:
396,68,130191,1,2,0:0:0:0:
166,249,131043,5,0,0:0:0:0:
153,137,131384,1,0,0:0:0:0:
308,212,131725,1,2,0:0:0:0:
346,98,132066,1,2,0:0:0:0:
90,289,132407,6,0,P|88:208|273:136,1,280,4|8,1:0|1:0,0:0:0:0:
389,182,133429,1,0,0:0:0:0:
236,316,133770,6,0,L|206:21,1,280,0|8,0:0|1:0,0:0:0:0:
66,112,134793,1,0,0:0:0:0:
210,307,135134,6,0,L|226:166,1,140,4|0,1:0|0:0,0:0:0:0:
84,236,135816,2,0,P|83:159|154:133,1,140,8|0,1:0|0:0,0:0:0:0:
385,268,136498,6,0,P|403:181|324:153,1,140,2|8,0:0|1:0,0:0:0:0:
301,160,137009,1,0,0:0:0:0:
233,158,137179,1,8,1:0:0:0:
93,158,137520,1,2,2:0:0:0:
354,292,137861,6,0,P|419:244|280:131,1,280,4|8,1:0|1:0,0:0:0:0:
187,141,138884,1,0,0:0:0:0:
38,260,139225,6,0,L|356:210,1,280,0|8,0:0|1:0,0:0:0:0:
455,208,140248,1,0,0:0:0:0:
202,165,140589,6,0,L|58:158,1,140,4|2,1:0|0:0,0:0:0:0:
211,257,141270,2,0,L|224:107,1,140,8|2,1:0|0:0,0:0:0:0:
81,136,141952,5,2,0:0:0:0:
12,87,142293,1,4,1:0:0:0:
81,76,142634,1,8,1:0:0:0:
220,184,142975,1,2,0:0:0:0:
474,286,143316,6,0,P|476:191|319:121,1,280,2|2,0:0|0:0,0:0:0:0:
181,152,144339,1,2,0:0:0:0:
322,296,144679,6,0,P|338:221|146:152,1,280,2|2,0:0|0:0,0:0:0:0:
328,157,145702,1,2,0:0:0:0:
75,296,146043,6,0,P|60:216|218:118,1,280,2|2,0:0|0:0,0:0:0:0:
275,132,146895,1,0,0:0:0:0:
346,136,147066,1,2,0:0:0:0:
181,279,147407,5,0,0:0:0:0:
169,139,147747,1,0,0:0:0:0:
309,161,148089,2,0,L|155:154,1,140,2|2,0:0|0:0,0:0:0:0:
304,335,148770,6,0,P|389:248|291:162,1,280,2|0,0:0|0:0,0:0:0:0:
151,156,149793,1,0,0:0:0:0:
303,243,150134,5,2,0:0:0:0:
321,158,150475,1,0,0:0:0:0:
303,243,150816,1,2,0:0:0:0:
168,252,151157,1,2,0:0:0:0:
430,313,151498,6,0,P|436:207|262:149,1,280,2|2,0:0|0:0,0:0:0:0:
131,226,152861,1,2,2:0:0:0:
74,208,153032,1,0,2:0:0:0:
131,226,153202,1,2,2:0:0:0:
278,174,153543,1,2,2:0:0:0:
420,156,153884,1,2,2:0:0:0:
160,286,154225,6,0,L|12:276,1,140,4|8,2:0|1:0,0:0:0:0:
167,278,154907,2,0,L|180:117,1,140,2|8,0:0|1:0,0:0:0:0:
322,251,155589,6,0,P|355:167|204:85,1,280,4|2,1:0|0:0,0:0:0:0:
75,247,156611,1,8,1:0:0:0:
329,247,156952,6,0,L|343:79,1,140,4|8,1:0|1:0,0:0:0:0:
181,216,157634,2,0,L|198:27,1,140,2|8,0:0|1:0,0:0:0:0:
334,288,158316,6,0,P|344:197|166:126,1,280,4|2,1:0|0:0,0:0:0:0:
44,193,159339,1,8,1:0:0:0:
297,241,159680,6,0,L|489:225,2,140,4|8|0,1:0|1:0|0:0,0:0:0:0:
157,213,160702,1,8,1:0:0:0:
293,353,161043,6,0,L|294:71,1,280,4|2,1:0|2:0,0:0:0:0:
433,92,162066,1,8,1:0:0:0:
178,278,162407,6,0,P|143:209|217:183,1,140,4|8,1:0|1:0,0:0:0:0:
256,167,162918,1,2,0:0:0:0:
336,161,163089,1,0,0:0:0:0:
122,235,163430,1,8,1:0:0:0:
54,269,163771,6,0,L|338:255,1,280,4|2,1:0|0:0,0:0:0:0:
195,228,164793,1,8,1:0:0:0:
460,238,165134,6,0,P|487:158|322:66,1,280,4|0,1:0|0:0,0:0:0:0:
203,203,166157,1,8,1:0:0:0:
454,185,166498,6,0,L|157:161,1,280,0|2,1:0|0:0,0:0:0:0:
322,131,167520,1,8,1:0:0:0:
73,244,167861,5,4,1:0:0:0:
74,226,168202,1,8,1:0:0:0:
217,299,168543,1,0,2:0:0:0:
357,300,168884,1,8,1:0:0:0:
202,238,169225,5,4,1:0:0:0:
202,238,169396,1,0,1:0:0:0:
278,244,169566,1,8,1:0:0:0:
420,244,169907,1,2,0:0:0:0:
428,191,170248,1,8,1:0:0:0:
183,275,170589,6,0,P|145:207|295:107,1,280,4|0,1:0|0:0,0:0:0:0:
420,127,171611,1,8,1:0:0:0:
182,255,171952,6,0,L|49:326,2,140,4|8|2,1:0|1:0|0:0,0:0:0:0:
330,240,172975,1,8,1:0:0:0:
73,322,173316,6,0,L|66:34,1,280,4|0,1:0|0:0,0:0:0:0:
138,36,174168,1,4,1:0:0:0:
209,44,174339,1,8,1:0:0:0:
459,328,174679,5,4,1:0:0:0:
394,305,174849,1,0,1:0:0:0:
368,242,175019,1,8,1:0:0:0:
397,181,175190,1,0,0:0:0:0:
462,161,175360,1,2,0:0:0:0:
212,243,175702,1,8,1:0:0:0:
462,161,176043,5,4,0:0:0:0:
69,232,186952,5,2,0:0:0:0:
251,121,187634,1,2,0:0:0:0:
444,235,188316,2,0,P|458:171|290:84,1,280,2|2,0:0|0:0,0:0:0:0:
161,215,189338,1,2,0:0:0:0:
404,174,189679,5,2,0:0:0:0:
404,174,190361,1,2,0:0:0:0:
334,170,190531,1,0,0:0:0:0:
404,174,190702,1,2,0:0:0:0:
265,225,191043,5,0,0:0:0:0:
68,201,191725,2,0,P|70:128|142:90,1,140,2|2,0:0|0:0,0:0:0:0:
273,84,192407,5,2,0:0:0:0:
280,60,192748,1,0,0:0:0:0:
210,50,192918,1,2,0:0:0:0:
136,40,193088,1,0,0:0:0:0:
369,208,193770,5,0,0:0:0:0:
395,145,193941,1,2,0:0:0:0:
237,137,194282,1,0,0:0:0:0:
308,132,194452,1,2,0:0:0:0:
452,139,194793,1,0,0:0:0:0:
201,267,195134,6,0,P|199:205|381:99,1,280,2|2,0:0|0:0,0:0:0:0:
191,218,196498,5,2,0:0:0:0:
166,135,196668,1,0,0:0:0:0:
248,103,196838,1,2,0:0:0:0:
322,121,197009,1,0,0:0:0:0:
251,97,197179,1,2,0:0:0:0:
107,217,197520,1,2,0:0:0:0:
368,178,197861,6,0,L|511:168,1,140,6|8,0:0|1:0,0:0:0:0:
359,256,198543,2,0,L|338:102,1,140,0|8,0:0|1:0,0:0:0:0:
87,249,199225,6,0,P|67:193|221:83,1,280,4|2,1:0|0:0,0:0:0:0:
365,123,200248,1,8,1:0:0:0:
114,261,200588,6,0,L|105:101,1,140,4|8,1:0|1:0,0:0:0:0:
253,168,201270,2,0,L|291:24,1,140,0|8,2:0|1:0,0:0:0:0:
50,227,201952,5,4,1:0:0:0:
44,157,202122,1,0,2:0:0:0:
125,143,202293,1,8,1:0:0:0:
265,93,202634,2,0,L|116:87,1,140,2|8,0:0|1:0,0:0:0:0:
386,237,203316,6,0,P|405:189|332:134,1,140,4|8,1:0|1:0,0:0:0:0:
269,136,203827,1,2,2:0:0:0:
193,93,203998,2,0,L|362:89,1,140,0|8,0:0|1:0,0:0:0:0:
81,261,204679,6,0,P|54:183|198:81,1,280,4|2,1:0|2:0,0:0:0:0:
59,131,205702,1,8,1:0:0:0:
307,193,206043,6,0,L|471:177,1,140,4|8,1:0|1:0,0:0:0:0:
375,163,206554,1,2,0:0:0:0:
299,163,206725,6,0,P|249:149|216:61,1,140,0|8,0:0|1:0,0:0:0:0:
461,258,207407,6,0,L|483:189,2,70,4|0|8,1:0|0:0|1:0,0:0:0:0:
321,231,208088,1,2,0:0:0:0:
461,204,208429,1,8,1:0:0:0:
207,257,208770,6,0,P|175:204|234:152,1,140,4|8,1:0|1:0,0:0:0:0:
291,153,209282,1,2,0:0:0:0:
361,150,209452,1,0,0:0:0:0:
496,161,209793,1,8,1:0:0:0:
233,247,210134,6,0,L|155:240,2,70,4|0|8,0:0|0:0|1:0,0:0:0:0:
377,178,210816,1,2,0:0:0:0:
275,142,211157,1,8,1:0:0:0:
20,259,211498,6,0,P|17:193|83:144,1,140,4|8,1:0|1:0,0:0:0:0:
222,187,212179,2,0,P|219:129|125:91,1,140,0|8,0:0|1:0,0:0:0:0:
411,156,212861,5,4,1:0:0:0:
442,156,213032,1,0,1:0:0:0:
411,156,213202,1,8,1:0:0:0:
264,194,213543,1,2,2:0:0:0:
119,182,213884,1,8,1:0:0:0:
373,255,214225,6,0,P|414:193|308:131,1,210,4|2,1:0|0:0,0:0:0:0:
248,130,214907,1,0,0:0:0:0:
389,76,215248,1,8,1:0:0:0:
140,253,215588,6,0,L|-1:247,1,140,2|8,0:0|1:0,0:0:0:0:
130,236,216270,6,0,L|166:160,2,70
377,174,216952,5,0,0:0:0:0:
256,192,217293,12,0,219679,0:0:0:0:
