osu file format v14

[General]
AudioFilename: audio.mp3
AudioLeadIn: 0
PreviewTime: 66180
Countdown: 0
SampleSet: Soft
StackLeniency: 0.7
Mode: 2
LetterboxInBreaks: 0
WidescreenStoryboard: 1

[Editor]
Bookmarks: 23311,66947,88765,110583,132402,154220,176038,197856,219674
DistanceSpacing: 1.1
BeatDivisor: 4
GridSize: 4
TimelineZoom: 1.6

[Metadata]
Title:Saigetsu (Midnight Moon Walker Remix)
TitleUnicode:歳月 (Midnight Moon Walker Remix)
Artist:TAMAONSEN
ArtistUnicode:魂音泉
Creator:Spectator
Version:Platter
Source:東方萃夢想 ~ Immaterial and Missing Power.
Tags:boberofdarkness stardust prism japanese pop jpop doujin 東方project touhou project Coro One's Own Way 笥箪 砕月 C82 Comiket 82 tama たま toho tōhō th7.5 7.5 ZUN 太田 順也 ibuki suika 伊吹 萃香 ibaraki kasen 茨木 華扇 hoshiguma yuugi 星熊 勇儀 oni Team Shanghai Alice Twilight Frontier video game vocal broken moon 上海アリス幻樂団
BeatmapID:4439877
BeatmapSetID:724793

[Difficulty]
HPDrainRate:4
CircleSize:3.5
OverallDifficulty:8
ApproachRate:8
SliderMultiplier:1.68
SliderTickRate:1

[Events]
//Background and Video events
0,0,"suika.jpg",0,0
//Break Periods
2,176243,186202
//Storyboard Layer 0 (Background)
//Storyboard Layer 1 (Fail)
//Storyboard Layer 2 (Pass)
//Storyboard Layer 3 (Foreground)
//Storyboard Layer 4 (Overlay)
//Storyboard Sound Samples

[TimingPoints]
1498,340.909090909091,4,2,2,50,1,0
5588,-100,4,2,1,50,0,0
6952,-100,4,2,2,50,0,0
11725,-100,4,2,1,50,0,0
12407,-100,4,2,2,50,0,0
22208,-100,4,2,2,20,0,0
22634,-100,4,2,2,25,0,0
22804,-100,4,2,2,28,0,0
22975,-100,4,2,2,32,0,0
23145,-100,4,2,2,35,0,0
23316,-100,4,2,2,50,0,0
79225,-100,4,2,2,50,0,0
79566,-100,4,2,2,50,0,0
101043,-100,4,2,2,50,0,0
101384,-100,4,2,2,50,0,0
110588,-100,4,2,2,40,0,0
121498,-100,4,2,2,35,0,0
132407,-100,4,2,2,50,0,0
143316,-100,4,2,2,40,0,0
144679,-100,4,2,2,40,0,0
145020,-100,4,2,2,40,0,0
152861,-100,4,2,2,50,0,0
186952,-100,4,2,2,40,0,0
188316,-100,4,2,2,40,0,0
188827,-100,4,2,2,40,0,0
197861,-100,4,2,3,70,0,1
198032,-100,4,2,2,70,0,1
219594,-100,4,2,2,70,0,0
219679,-100,4,2,2,70,0,1
219765,-100,4,2,2,70,0,0

[Colours]
Combo1 : 87,157,234
Combo2 : 245,170,107
Combo3 : 224,78,78

[HitObjects]
51,254,1498,6,0,P|62:199|166:141,1,168,4|8,1:1|1:1,0:0:0:0:
243,137,2009,1,0,2:1:0:0:
243,137,2350,1,4,1:1:0:0:
82,136,2520,1,8,1:1:0:0:
82,136,2861,5,4,1:1:0:0:
243,242,3032,2,0,L|331:243,1,84,0|8,0:1|1:1,0:0:0:0:
420,170,3373,1,0,0:1:0:0:
420,170,3458,1,0,0:1:0:0:
420,170,3543,2,0,L|236:167,1,168,0|8,0:1|1:1,0:0:0:0:
336,168,4054,1,0,0:1:0:0:
176,172,4225,6,0,P|133:136|202:47,1,168,4|8,1:1|1:1,0:0:0:0:
334,46,4736,1,0,0:1:0:0:
334,46,5077,1,4,1:1:0:0:
174,48,5248,1,8,1:1:0:0:
132,48,5333,1,0,0:0:0:0:
90,49,5418,1,0,0:0:0:0:
324,288,5588,6,0,P|378:275|437:166,1,168,2|2,0:0|0:0,0:0:0:0:
356,159,6100,1,0,0:0:0:0:
275,134,6270,1,2,0:0:0:0:
355,108,6441,1,0,0:0:0:0:
394,95,6526,1,0,0:0:0:0:
434,82,6611,1,2,0:0:0:0:
355,52,6782,1,0,0:0:0:0:
120,234,6952,6,0,P|80:200|127:103,1,168,4|8,1:0|1:0,0:0:0:0:
262,102,7463,1,0,0:0:0:0:
262,102,7804,1,4,1:0:0:0:
405,101,7975,2,0,L|450:100,2,42,8|0|0,1:0|0:0|0:0,0:0:0:0:
262,102,8316,6,0,L|253:196,1,84,4|0,1:0|0:0,0:0:0:0:
338,187,8657,2,0,L|424:187,1,84,8|0,1:0|0:0,0:0:0:0:
338,187,8998,2,0,P|276:171|227:68,1,168,0|8,0:0|1:0,0:0:0:0:
310,85,9509,1,0,0:0:0:0:
463,85,9679,6,0,L|468:278,1,168,4|8,1:0|1:0,0:0:0:0:
382,251,10191,1,0,0:0:0:0:
230,249,10361,1,2,0:0:0:0:
145,249,10532,1,4,1:0:0:0:
230,249,10702,1,8,1:0:0:0:
145,249,10873,1,0,0:0:0:0:
145,249,11043,5,4,1:0:0:0:
186,248,11128,1,0,0:0:0:0:
227,247,11213,1,0,0:0:0:0:
311,247,11384,1,8,1:0:0:0:
322,164,11554,1,0,0:0:0:0:
170,128,11725,2,0,L|81:128,1,84
86,128,12066,2,0,L|170:128,1,84,2|0,0:0|0:0,0:0:0:0:
409,240,12407,6,0,P|458:206|394:133,1,168,4|0,1:0|1:0,0:0:0:0:
325,116,12918,1,0,0:0:0:0:
243,97,13088,1,0,0:0:0:0:
240,139,13174,1,0,0:0:0:0:
237,180,13259,1,4,1:0:0:0:
320,180,13429,1,8,1:0:0:0:
362,180,13515,1,0,0:0:0:0:
403,180,13600,1,0,2:0:0:0:
171,323,13770,5,4,1:0:0:0:
136,298,13855,1,0,0:0:0:0:
122,257,13941,1,0,2:0:0:0:
134,217,14026,1,0,0:0:0:0:
171,197,14111,1,8,1:0:0:0:
323,95,14282,2,0,L|329:200,1,84
243,178,14623,1,4,1:0:0:0:
159,177,14793,2,0,L|272:182,1,84,8|0,1:0|2:0,0:0:0:0:
103,270,15134,6,0,P|57:235|130:154,1,168,4|8,1:0|1:0,0:0:0:0:
184,139,15645,1,0,0:0:0:0:
265,119,15816,2,0,L|271:6,1,84,2|4,0:0|1:0,0:0:0:0:
119,47,16157,1,8,1:0:0:0:
77,50,16242,1,0,0:0:0:0:
119,47,16327,1,0,0:0:0:0:
203,43,16498,6,0,L|111:47,1,84,4|0,1:0|1:0,0:0:0:0:
264,141,16838,2,0,L|347:137,1,84,8|0,1:0|0:0,0:0:0:0:
264,141,17179,1,2,0:0:0:0:
180,131,17350,1,4,1:0:0:0:
180,131,17520,1,8,1:0:0:0:
264,141,17691,1,0,2:0:0:0:
417,137,17861,6,0,P|463:178|414:262,1,168,4|8,1:0|1:0,0:0:0:0:
264,141,18373,1,0,0:0:0:0:
264,141,18713,1,4,1:0:0:0:
414,140,18884,1,8,1:0:0:0:
414,140,19225,6,0,P|394:218|294:256,1,168,4|8,1:0|1:0,0:0:0:0:
236,256,19736,1,0,0:0:0:0:
151,258,19907,2,0,L|351:232,1,168,0|8,0:0|1:0,0:0:0:0:
43,302,20588,6,0,L|28:45,1,252,4|0,1:0|0:0,0:0:0:0:
183,63,21270,2,0,L|282:66,1,84,0|4,0:0|1:0,0:0:0:0:
183,63,21611,2,0,L|89:61,1,84,8|0,1:0|0:0,0:0:0:0:
334,266,21952,5,4,1:0:0:0:
334,266,22293,1,0,1:0:0:0:
180,199,22634,2,0,L|94:216,1,84,0|0,1:0|1:0,0:0:0:0:
97,215,22975,2,0,L|180:199,1,84,0|0,1:0|1:0,0:0:0:0:
411,220,23316,6,0,P|463:188|400:120,1,168,4|8,1:0|1:0,0:0:0:0:
330,100,23827,1,2,0:0:0:0:
178,148,23998,2,0,L|175:244,1,84,0|4,0:0|1:0,0:0:0:0:
258,225,24338,2,0,L|373:225,1,84,8|0,1:0|0:0,0:0:0:0:
190,312,24679,6,0,P|139:297|92:184,1,168,4|8,1:0|1:0,0:0:0:0:
173,186,25191,1,0,0:0:0:0:
322,109,25361,2,0,L|416:120,1,84,2|0,2:0|0:0,0:0:0:0:
322,109,25702,2,0,L|216:119,1,84,8|0,1:0|0:0,0:0:0:0:
475,324,26043,6,0,L|482:140,1,168,4|8,1:0|1:0,0:0:0:0:
397,156,26554,1,2,0:0:0:0:
312,158,26725,2,0,L|481:149,1,168,0|8,0:0|1:0,0:0:0:0:
333,315,27236,6,0,L|228:312,2,84,0|4|0,0:0|1:0|1:0,0:0:0:0:
417,206,27748,1,8,1:0:0:0:
417,206,27918,1,0,0:0:0:0:
333,213,28088,2,0,L|151:223,1,168,2|8,0:0|1:0,0:0:0:0:
250,215,28600,1,0,0:0:0:0:
16,272,28770,6,0,L|10:79,1,168,4|8,1:0|1:0,0:0:0:0:
94,116,29282,1,2,2:0:0:0:
240,143,29452,2,0,L|348:132,1,84,0|4,0:0|1:0,0:0:0:0:
323,134,29793,2,0,L|240:143,1,84,8|0,1:0|0:0,0:0:0:0:
390,221,30134,6,0,P|439:189|378:114,1,168,4|8,1:0|1:0,0:0:0:0:
309,90,30645,1,0,0:0:0:0:
159,170,30816,2,0,L|154:84,1,84,2|4,2:0|1:0,0:0:0:0:
238,86,31157,2,0,L|347:88,1,84,8|0,1:0|0:0,0:0:0:0:
85,276,31498,6,0,L|79:83,1,168,4|8,1:0|1:0,0:0:0:0:
164,109,32009,1,2,0:0:0:0:
315,50,32179,2,0,L|418:52,1,84,0|4,0:0|1:0,0:0:0:0:
315,50,32520,2,0,L|211:49,1,84,8|0,1:0|0:0,0:0:0:0:
377,128,32861,6,0,L|384:232,1,84,0|0,0:0|1:0,0:0:0:0:
297,219,33202,2,0,L|397:218,1,84,8|0,1:0|1:0,0:0:0:0:
231,288,33543,2,0,L|146:289,1,84,2|4,0:0|1:0,0:0:0:0:
231,288,33884,2,0,L|146:289,1,84,8|0,1:0|0:0,0:0:0:0:
383,255,34225,6,0,P|426:222|372:134,1,168,4|8,1:0|1:0,0:0:0:0:
299,126,34736,1,2,0:0:0:0:
443,64,34907,2,0,L|448:163,1,84,0|4,0:0|1:0,0:0:0:0:
363,151,35248,2,0,L|269:154,1,84,8|0,1:0|0:0,0:0:0:0:
129,235,35588,6,0,L|125:61,1,168,4|8,1:0|1:0,0:0:0:0:
209,64,36100,1,0,0:0:0:0:
125,69,36270,2,0,L|302:63,1,168,2|8,0:0|1:0,0:0:0:0:
209,64,36782,1,0,0:0:0:0:
444,210,36952,6,0,P|491:179|439:94,1,168,4|8,1:0|1:0,0:0:0:0:
301,132,37463,2,0,L|211:144,2,84,2|0|4,0:0|0:0|1:0,0:0:0:0:
453,97,37975,2,0,L|458:304,1,168,8|4,1:0|1:0,0:0:0:0:
373,253,38486,5,0,0:0:0:0:
289,241,38657,1,8,1:0:0:0:
373,253,38827,1,0,0:0:0:0:
225,323,38998,2,0,L|218:211,1,84,2|0,2:2|0:0,0:0:0:0:
303,236,39338,2,0,L|406:235,1,84,8|0,1:0|0:0,0:0:0:0:
148,237,39679,6,0,P|103:199|156:119,1,168,4|8,1:0|1:0,0:0:0:0:
235,114,40191,1,2,2:0:0:0:
386,57,40361,2,0,L|393:142,1,84,0|4,0:0|1:0,0:0:0:0:
308,144,40702,2,0,L|205:145,1,84,8|0,1:0|0:0,0:0:0:0:
368,227,41043,6,0,P|418:217|476:102,1,168,4|8,1:0|1:0,0:0:0:0:
394,112,41554,1,2,0:0:0:0:
310,98,41725,2,0,L|487:71,1,168,0|8,0:0|1:0,0:0:0:0:
197,239,42407,6,0,P|147:203|214:131,1,168,4|8,1:0|1:0,0:0:0:0:
277,111,42918,2,0,L|105:83,1,168,2|4,0:0|1:0,0:0:0:0:
111,84,43429,1,8,1:0:0:0:
385,179,43770,6,0,L|480:172,1,84,4|0,1:0|1:0,0:0:0:0:
468,172,44111,2,0,L|385:179,1,84,8|0,1:0|0:0,0:0:0:0:
304,154,44452,2,0,L|482:146,1,168,2|8,0:0|1:0,0:0:0:0:
387,138,44963,1,0,0:0:0:0:
144,200,45134,6,0,P|97:159|154:80,1,168,4|8,0:0|1:0,0:0:0:0:
226,69,45645,1,2,0:0:0:0:
376,109,45816,2,0,L|380:204,1,84,0|4,0:0|1:0,0:0:0:0:
295,194,46157,2,0,L|396:193,1,84,8|0,1:0|0:0,0:0:0:0:
231,274,46498,6,0,P|175:261|123:140,1,168,4|8,1:0|1:0,0:0:0:0:
201,151,47009,1,0,0:0:0:0:
282,132,47179,2,0,L|92:106,1,168,2|8,0:0|1:0,0:0:0:0:
115,109,47691,1,0,0:0:0:0:
358,215,47861,6,0,P|411:197|466:92,1,168,4|8,1:0|1:0,0:0:0:0:
382,87,48373,1,2,0:0:0:0:
239,148,48543,2,0,L|143:152,1,84
155,151,48884,2,0,L|239:148,1,84,8|0,1:0|0:0,0:0:0:0:
95,221,49225,6,0,P|51:186|102:99,1,168,4|8,1:0|1:0,0:0:0:0:
177,89,49736,1,0,0:0:0:0:
259,74,49907,2,0,L|258:171,1,84,2|0,0:0|0:0,0:0:0:0:
173,159,50248,2,0,L|70:162,1,84,8|0,1:0|0:0,0:0:0:0:
321,268,50588,6,0,P|374:256|432:141,1,168,4|8,1:0|1:0,0:0:0:0:
351,142,51100,1,2,0:0:0:0:
268,128,51270,2,0,L|262:20,1,84,0|4,0:0|1:0,0:0:0:0:
347,39,51611,2,0,L|440:40,1,84,8|0,1:0|0:0,0:0:0:0:
282,176,51952,6,0,L|101:194,1,168,4|8,1:0|1:0,0:0:0:0:
198,201,52463,1,0,0:0:0:0:
281,210,52634,2,0,L|288:115,1,84,2|0,0:0|0:0,0:0:0:0:
136,88,52975,2,0,L|47:89,1,84,8|0,1:0|0:0,0:0:0:0:
285,309,53316,6,0,L|481:290,1,168,4|8,1:0|1:0,0:0:0:0:
370,271,53827,1,2,0:0:0:0:
217,211,53998,2,0,L|314:199,1,84,0|4,0:0|1:0,0:0:0:0:
383,190,54338,2,0,L|299:200,1,84,8|0,1:0|0:0,0:0:0:0:
150,194,54679,6,0,L|144:100,1,84,0|0,0:0|1:0,0:0:0:0:
228,104,55020,2,0,L|316:98,1,84,8|0,1:0|1:0,0:0:0:0:
160,49,55361,2,0,L|56:41,1,84,2|4,0:0|1:0,0:0:0:0:
160,49,55702,2,0,L|56:41,1,84,8|0,1:0|0:0,0:0:0:0:
317,249,56043,6,0,P|373:229|425:128,1,168,4|8,1:0|1:0,0:0:0:0:
340,133,56554,1,2,0:0:0:0:
192,122,56725,2,0,L|186:31,1,84,0|4,0:0|1:0,0:0:0:0:
270,82,57066,2,0,L|275:165,1,84,8|0,1:0|0:0,0:0:0:0:
127,227,57407,6,0,P|70:194|138:144,1,168,4|8,1:0|1:0,0:0:0:0:
208,120,57918,1,2,0:0:0:0:
288,97,58088,2,0,L|183:85,1,84,2|4,0:0|1:0,0:0:0:0:
204,88,58429,2,0,L|314:101,1,84,8|0,1:0|0:0,0:0:0:0:
54,355,58770,6,0,L|46:85,1,252,4|2,1:0|0:0,0:0:0:0:
132,102,59452,1,0,0:0:0:0:
216,102,59623,1,4,1:0:0:0:
132,102,59793,1,8,1:0:0:0:
48,103,59963,1,0,0:0:0:0:
200,200,60134,6,0,L|293:198,1,84,4|0,1:0|1:0,0:0:0:0:
368,195,60475,2,0,L|271:198,1,84,8|0,1:0|0:0,0:0:0:0:
435,272,60816,2,0,P|482:240|427:163,1,168,4|8,1:0|1:0,0:0:0:0:
349,149,61327,1,0,1:0:0:0:
114,237,61498,6,0,P|73:203|129:111,1,168,4|8,1:0|1:0,0:0:0:0:
198,112,62009,1,2,0:0:0:0:
281,108,62179,2,0,L|290:223,1,84,0|4,0:0|1:0,0:0:0:0:
203,196,62520,2,0,L|92:193,1,84,8|0,1:0|0:0,0:0:0:0:
271,273,62861,6,0,L|380:272,1,84,4|0,1:0|0:0,0:0:0:0:
271,273,63202,2,0,L|187:273,1,84,8|0,1:0|0:0,0:0:0:0:
271,273,63543,2,0,P|337:259|386:143,1,168,2|8,0:0|1:0,0:0:0:0:
305,163,64054,1,0,2:0:0:0:
70,257,64225,6,0,L|64:86,1,168,4|8,1:0|1:0,0:0:0:0:
148,89,64736,1,2,0:0:0:0:
232,88,64907,2,0,L|31:80,1,168,0|8,0:0|1:0,0:0:0:0:
68,86,65588,5,2,0:0:0:0:
152,152,65759,2,0,L|256:152,2,84,4|8|0,1:0|1:0|0:0,0:0:0:0:
305,174,66270,2,0,P|360:157|416:61,1,168,2|8,0:0|1:0,0:0:0:0:
330,66,66782,1,0,0:0:0:0:
91,319,66952,6,0,L|80:136,1,168,4|8,0:0|1:0,0:0:0:0:
369,92,67634,2,0,L|471:96,2,84,2|4|8,0:0|1:0|1:0,0:0:0:0:
83,259,68316,6,0,L|77:160,1,84,4|2,1:0|0:0,0:0:0:0:
161,169,68657,2,0,L|277:167,1,84,8|0,1:0|0:0,0:0:0:0:
94,297,68998,2,0,P|51:252|111:166,1,168,2|8,0:0|1:0,0:0:0:0:
178,173,69509,1,0,0:0:0:0:
334,98,69679,6,0,L|149:74,3,168,4|8|0|8,1:0|1:0|0:0|1:0,0:0:0:0:
326,226,70873,6,0,L|332:120,1,84,0|4,0:0|1:0,0:0:0:0:
248,126,71213,1,2,2:0:0:0:
165,106,71384,2,0,L|287:89,1,84,8|0,1:0|0:0,0:0:0:0:
400,169,71725,2,0,P|442:138|382:50,1,168,2|8,0:0|1:0,0:0:0:0:
314,52,72236,1,0,0:0:0:0:
79,293,72407,6,0,P|12:255|98:129,1,252,4|2,1:0|0:0,0:0:0:0:
159,120,73088,2,0,L|326:108,1,168,0|8,0:0|1:0,0:0:0:0:
244,88,73600,1,0,0:0:0:0:
396,67,73770,6,0,L|400:166,1,84,4|2,1:0|0:0,0:0:0:0:
315,157,74111,2,0,L|420:158,1,84,8|0,1:0|0:0,0:0:0:0:
246,244,74452,2,0,P|180:222|142:118,1,168,2|8,0:0|1:0,0:0:0:0:
223,124,74963,1,0,0:0:0:0:
460,244,75134,6,0,P|441:173|283:54,1,252,4|2,1:0|0:0,0:0:0:0:
226,72,75816,2,0,L|326:71,1,84,0|4,0:0|1:0,0:0:0:0:
156,172,76157,2,0,L|72:172,1,84,8|0,1:0|0:0,0:0:0:0:
70,244,76498,6,0,L|153:243,1,84,4|2,1:0|2:2,0:0:0:0:
236,231,76838,2,0,L|146:232,1,84,8|0,1:0|0:0,0:0:0:0:
306,160,77179,2,0,L|416:161,1,84,2|4,0:0|1:0,0:0:0:0:
306,160,77520,2,0,L|416:161,1,84,8|0,1:0|0:0,0:0:0:0:
153,273,77861,6,0,P|71:220|164:133,1,252,4|2,1:0|0:0,0:0:0:0:
237,126,78543,1,0,0:0:0:0:
239,84,78628,1,0,0:0:0:0:
242,42,78713,1,4,1:0:0:0:
157,43,78884,1,8,1:0:0:0:
73,44,79054,1,0,0:0:0:0:
310,288,79225,5,4,1:0:0:0:
352,254,79310,1,0,0:0:0:0:
368,201,79395,1,2,0:0:0:0:
350,149,79480,1,0,0:0:0:0:
312,129,79566,1,8,1:0:0:0:
160,141,79736,2,0,L|58:138,2,84,0|2|4,0:0|0:0|1:0,0:0:0:0:
247,193,80248,2,0,L|158:197,1,84,8|0,1:0|0:0,0:0:0:0:
315,258,80588,6,0,P|378:238|424:117,1,168,4|8,1:0|1:0,0:0:0:0:
343,137,81100,1,2,0:0:0:0:
259,128,81270,2,0,L|252:39,1,84,0|4,0:0|1:0,0:0:0:0:
408,80,81611,2,0,L|468:82,2,42,8|0|2,1:0|0:0|0:0,0:0:0:0:
260,128,81952,6,0,L|154:131,1,84,4|2,1:0|2:0,0:0:0:0:
176,130,82293,2,0,L|260:128,1,84,8|0,1:0|0:0,0:0:0:0:
412,224,82634,2,0,L|422:33,1,168,2|8,0:0|1:0,0:0:0:0:
336,56,83145,1,0,0:0:0:0:
104,260,83316,6,0,P|45:227|118:85,1,252,4|2,1:0|0:0,0:0:0:0:
184,88,83998,2,0,L|14:54,1,168,0|8,0:0|1:0,0:0:0:0:
103,49,84509,1,0,0:0:0:0:
256,160,84679,6,0,P|306:148|364:31,1,168,4|8,1:0|1:0,0:0:0:0:
280,52,85191,1,0,0:0:0:0:
129,193,85361,2,0,L|114:15,1,168,2|8,0:0|1:0,0:0:0:0:
199,28,85873,1,0,0:0:0:0:
432,318,86043,6,0,P|483:300|422:158,1,252,4|2,1:0|2:0,0:0:0:0:
279,142,86725,2,0,L|272:45,1,84,0|4,0:0|1:0,0:0:0:0:
356,51,87066,2,0,L|263:50,1,84,8|0,1:0|0:0,0:0:0:0:
120,115,87407,6,0,L|17:113,1,84,0|0,1:0|0:0,0:0:0:0:
36,113,87748,2,0,L|120:115,1,84,2|0,0:0|0:0,0:0:0:0:
271,176,88088,2,0,P|320:151|264:78,1,168,2|4,0:0|0:0,0:0:0:0:
186,64,88600,1,0,0:0:0:0:
423,115,88770,6,0,L|441:309,1,168,4|8,1:0|1:0,0:0:0:0:
353,280,89282,2,0,L|167:266,1,168,2|4,0:0|1:0,0:0:0:0:
268,254,89793,1,8,1:0:0:0:
116,241,89963,6,0,P|72:204|126:116,1,168,2|0,0:0|0:0,0:0:0:0:
198,121,90475,1,8,1:0:0:0:
114,121,90645,1,0,0:0:0:0:
267,193,90816,2,0,L|459:168,1,168,2|8,0:0|1:0,0:0:0:0:
350,157,91327,1,0,0:0:0:0:
77,276,91498,6,0,P|90:214|188:153,1,168,4|8,1:0|1:0,0:0:0:0:
255,154,92009,1,2,0:0:0:0:
171,152,92179,2,0,L|163:-21,1,168,0|8,0:0|1:0,0:0:0:0:
249,3,92691,1,0,0:0:0:0:
481,220,92861,6,0,P|472:158|378:102,1,168,4|8,1:0|1:0,0:0:0:0:
236,115,93373,2,0,L|420:94,1,168,0|4,0:0|1:0,0:0:0:0:
318,88,93884,1,8,1:0:0:0:
234,80,94054,1,0,1:0:0:0:
390,135,94225,6,0,L|396:324,1,168,4|8,1:0|1:0,0:0:0:0:
237,281,94736,2,0,L|51:294,1,168,2|4,0:0|1:0,0:0:0:0:
151,271,95248,1,8,1:0:0:0:
109,265,95333,1,0,0:0:0:0:
67,258,95418,1,0,0:0:0:0:
217,190,95588,6,0,L|337:173,1,84,4|0,1:0|0:0,0:0:0:0:
300,178,95929,2,0,L|217:190,1,84,8|0,1:0|0:0,0:0:0:0:
456,77,96270,2,0,L|463:270,1,168,2|8,2:0|1:0,0:0:0:0:
379,227,96782,1,0,0:0:0:0:
226,272,96952,5,4,1:0:0:0:
144,250,97123,1,2,0:0:0:0:
144,250,97293,1,8,1:0:0:0:
294,155,97463,1,2,2:0:0:0:
376,133,97634,1,0,0:0:0:0:
376,133,97804,1,4,1:0:0:0:
223,182,97975,6,0,P|174:155|238:83,1,168,8|4,1:0|1:0,0:0:0:0:
264,73,98401,1,0,0:0:0:0:
305,67,98486,1,0,1:0:0:0:
388,56,98657,1,8,1:0:0:0:
388,56,98827,1,0,0:0:0:0:
235,222,98998,2,0,L|134:210,1,84,2|4,2:0|1:0,0:0:0:0:
151,212,99338,2,0,L|234:221,1,84,8|0,1:0|0:0,0:0:0:0:
471,208,99679,6,0,P|454:146|360:89,1,168,4|8,1:0|1:0,0:0:0:0:
286,89,100191,1,2,0:0:0:0:
369,86,100361,2,0,L|369:-4,1,84,0|4,2:0|1:0,0:0:0:0:
286,89,100702,1,8,1:0:0:0:
244,89,100787,1,0,0:0:0:0:
202,89,100872,1,0,0:0:0:0:
441,155,101043,6,0,L|460:83,4,42,4|0|2|0|8,1:0|0:0|0:0|0:0|1:0,0:0:0:0:
356,155,101554,1,0,0:0:0:0:
204,201,101725,1,2,2:0:0:0:
120,202,101895,1,4,1:0:0:0:
204,201,102066,1,8,1:0:0:0:
289,200,102236,1,0,0:0:0:0:
138,304,102407,6,0,P|94:269|148:183,1,168,4|8,1:0|1:0,0:0:0:0:
217,152,102918,1,2,0:0:0:0:
133,142,103088,1,0,0:0:0:0:
50,132,103258,1,4,1:0:0:0:
206,72,103429,2,0,L|257:73,2,42,8|0|0,1:0|0:0|0:0,0:0:0:0:
54,284,103770,6,0,L|49:183,1,84,4|2,1:0|2:0,0:0:0:0:
134,199,104111,1,8,1:0:0:0:
289,134,104282,1,2,2:0:0:0:
205,122,104452,1,2,2:0:0:0:
121,111,104623,1,4,1:0:0:0:
275,39,104793,2,0,L|394:51,1,84,8|0,1:0|0:0,0:0:0:0:
116,262,105134,6,0,L|13:271,2,84,4|2|8,1:0|2:0|1:0,0:0:0:0:
269,250,105645,2,0,P|262:193|166:135,1,168,2|4,0:0|1:0,0:0:0:0:
91,126,106157,2,0,L|188:114,1,84,8|0,1:0|0:0,0:0:0:0:
328,283,106498,5,0,1:0:0:0:
410,261,106668,1,2,2:0:0:0:
410,261,106839,1,8,1:0:0:0:
260,166,107009,1,0,1:0:0:0:
178,144,107180,1,2,2:0:0:0:
178,144,107350,1,4,1:0:0:0:
328,283,107520,1,8,1:0:0:0:
328,283,107691,1,0,0:0:0:0:
92,335,107861,6,0,P|31:301|103:167,1,252,4|2,1:0|0:0,0:0:0:0:
247,100,108543,2,0,L|254:198,1,84,0|4,0:0|1:0,0:0:0:0:
168,190,108884,2,0,L|49:189,1,84,8|0,1:0|0:0,0:0:0:0:
237,267,109225,5,4,1:0:0:0:
320,266,109395,1,0,1:0:0:0:
237,267,109566,1,8,1:0:0:0:
153,267,109736,1,0,0:0:0:0:
306,202,109907,2,0,P|356:195|414:88,1,168,2|8,0:0|1:0,0:0:0:0:
331,98,110418,1,0,0:0:0:0:
91,100,110588,6,0,P|27:142|102:278,1,252,4|0,0:0|0:0,0:0:0:0:
173,269,111270,2,0,L|0:307,1,168,2|0,0:0|0:0,0:0:0:0:
20,341,111952,6,0,L|295:288,1,252,2|0,0:0|0:0,0:0:0:0:
267,293,112634,2,0,L|77:263,1,168,2|0,0:0|0:0,0:0:0:0:
383,138,113316,5,2,0:0:0:0:
383,138,113657,1,0,0:0:0:0:
217,88,113998,1,2,0:0:0:0:
217,88,114338,1,0,0:0:0:0:
383,138,114679,6,0,P|438:184|374:336,1,252,2|0,0:0|0:0,0:0:0:0:
297,315,115361,2,0,L|474:339,1,168,2|0,0:0|0:0,0:0:0:0:
180,267,116043,6,0,P|132:239|199:86,1,252,2|0,0:0|0:0,0:0:0:0:
271,86,116725,2,0,L|97:69,1,168,2|0,0:0|0:0,0:0:0:0:
282,330,117407,6,0,P|330:302|263:149,1,252,2|0,0:0|0:0,0:0:0:0:
191,149,118089,2,0,L|3:125,1,168,2|0,0:0|0:0,0:0:0:0:
438,135,118770,5,2,0:0:0:0:
438,135,119111,1,0,0:0:0:0:
272,85,119452,1,2,0:0:0:0:
272,85,119792,1,0,0:0:0:0:
438,135,120134,6,0,P|348:154|269:307,1,252,2|0,0:0|0:0,0:0:0:0:
268,283,120816,2,0,L|444:317,1,168,2|0,0:0|0:0,0:0:0:0:
150,377,121498,6,0,L|133:41,1,336,2|2,0:0|0:0,0:0:0:0:
299,67,122520,1,0,0:0:0:0:
134,33,122861,6,0,P|64:88|143:217,1,252,2|0,0:0|0:0,0:0:0:0:
209,204,123543,2,0,L|36:233,1,168,2|0,0:0|0:0,0:0:0:0:
327,295,124225,6,0,P|382:266|314:119,1,252,2|0,0:0|0:0,0:0:0:0:
246,110,124907,1,2,0:0:0:0:
246,110,125077,1,0,0:0:0:0:
329,119,125248,1,2,0:0:0:0:
165,285,125588,6,0,P|92:251|172:147,1,252
170,146,126270,2,0,L|5:108,1,168,2|2,0:0|0:0,0:0:0:0:
297,62,126952,6,0,P|358:95|297:306,1,336,2|0,0:0|0:0,0:0:0:0:
136,261,127975,1,0,0:0:0:0:
304,259,128316,5,0,0:0:0:0:
304,259,128657,1,0,0:0:0:0:
136,261,128998,1,2,0:0:0:0:
136,261,129338,1,2,0:0:0:0:
420,105,129679,6,0,L|424:276,1,168,2|0,0:0|0:0,0:0:0:0:
425,330,130191,2,0,L|163:352,1,252,2|0,0:0|0:0,0:0:0:0:
467,251,131043,5,0,0:0:0:0:
467,251,131384,1,0,0:0:0:0:
299,161,131725,1,2,0:0:0:0:
221,192,131895,1,0,0:0:0:0:
299,161,132066,1,2,0:0:0:0:
377,133,132236,1,0,0:0:0:0:
145,286,132407,6,0,P|92:258|168:114,1,252,4|0,1:0|0:0,0:0:0:0:
302,63,133088,2,0,L|309:172,1,84,8|0,1:0|0:0,0:0:0:0:
223,157,133429,1,0,0:0:0:0:
374,224,133600,6,0,P|414:203|357:112,1,168,4|0,1:0|0:0,0:0:0:0:
223,157,134111,2,0,P|183:136|240:45,1,168,4|8,1:0|1:0,0:0:0:0:
305,45,134623,2,0,L|405:37,2,84
68,308,135134,6,0,L|52:56,1,252,4|0,1:0|0:0,0:0:0:0:
208,172,135816,2,0,P|245:149|204:52,1,168,8|0,1:0|0:0,0:0:0:0:
124,63,136327,1,4,1:0:0:0:
361,258,136498,6,0,P|413:248|464:137,1,168,2|8,0:0|1:0,0:0:0:0:
383,140,137009,1,0,0:0:0:0:
300,126,137179,1,8,1:0:0:0:
452,60,137350,1,0,2:0:0:0:
452,60,137435,1,0,0:0:0:0:
452,60,137520,1,2,2:0:0:0:
368,67,137691,1,0,0:0:0:0:
126,239,137861,6,0,P|72:209|137:66,1,252,4|4,1:0|1:0,0:0:0:0:
287,67,138543,2,0,L|293:246,1,168,8|0,1:0|0:0,0:0:0:0:
250,235,138969,1,0,0:0:0:0:
208,234,139054,1,4,1:0:0:0:
357,305,139225,6,0,L|477:306,1,84
357,305,139566,2,0,L|458:306,1,84,4|0,1:0|0:0,0:0:0:0:
290,234,139907,2,0,P|234:212|179:108,1,168,8|0,1:0|0:0,0:0:0:0:
267,109,140418,1,0,0:0:0:0:
36,312,140588,6,0,L|25:114,1,168,4|2,1:0|0:0,0:0:0:0:
111,138,141100,1,0,1:0:0:0:
194,131,141270,1,8,1:0:0:0:
111,138,141441,1,0,0:0:0:0:
27,147,141611,1,2,0:0:0:0:
111,138,141782,1,4,1:0:0:0:
263,200,141952,5,2,0:0:0:0:
304,196,142037,1,0,0:0:0:0:
346,192,142123,1,0,2:0:0:0:
346,192,142293,1,4,1:0:0:0:
263,200,142463,1,0,0:0:0:0:
412,284,142634,2,0,L|504:271,1,84,8|0,1:0|2:0,0:0:0:0:
495,272,142975,2,0,L|387:288,1,84,2|0,0:0|0:0,0:0:0:0:
263,314,143316,6,0,P|197:280|285:79,1,336,2|2,0:0|0:0,0:0:0:0:
432,74,144338,1,2,0:0:0:0:
389,70,144424,1,0,0:0:0:0:
347,66,144509,1,0,0:0:0:0:
196,175,144679,5,2,0:0:0:0:
160,151,144765,1,0,0:0:0:0:
142,113,144850,1,0,0:0:0:0:
158,74,144935,1,0,0:0:0:0:
194,53,145020,1,2,0:0:0:0:
278,50,145191,1,0,0:0:0:0:
430,47,145361,2,0,L|441:235,1,168,2|2,0:0|0:0,0:0:0:0:
162,300,146043,6,0,P|102:264|179:126,1,252,2|0,0:0|0:0,0:0:0:0:
245,117,146725,1,2,0:0:0:0:
327,105,146895,1,0,0:0:0:0:
244,88,147066,1,2,0:0:0:0:
202,80,147151,1,0,0:0:0:0:
160,72,147236,1,0,0:0:0:0:
160,72,147577,5,2,0:0:0:0:
311,163,147748,2,0,L|435:149,1,84
242,235,148088,2,0,L|128:247,1,84,2|0,0:0|0:0,0:0:0:0:
158,243,148429,2,0,L|242:235,1,84,2|0,0:0|0:0,0:0:0:0:
395,349,148770,6,0,L|411:11,1,336,2|0,0:0|0:0,0:0:0:0:
246,50,149793,1,0,0:0:0:0:
82,88,150134,5,2,0:0:0:0:
82,88,150475,1,0,0:0:0:0:
246,50,150816,1,2,0:0:0:0:
407,16,151157,1,2,0:0:0:0:
131,260,151498,6,0,P|61:221|148:104,1,252,2|0,0:0|0:0,0:0:0:0:
212,82,152179,2,0,L|37:46,1,168,2|0,0:0|0:0,0:0:0:0:
40,49,152861,1,2,2:0:0:0:
111,93,153032,1,0,2:0:0:0:
131,174,153202,1,2,2:0:0:0:
109,255,153373,1,0,2:0:0:0:
45,309,153543,1,2,2:0:0:0:
45,309,153884,1,2,2:0:0:0:
452,320,154225,6,0,L|454:138,1,168,4|8,2:0|1:0,0:0:0:0:
164,94,154907,2,0,L|62:98,2,84,2|4|8,0:0|1:0|1:0,0:0:0:0:
446,259,155589,6,0,L|452:160,1,84,4|0,1:0|0:0,0:0:0:0:
368,169,155930,2,0,L|252:167,1,84,8|0,1:0|0:0,0:0:0:0:
435,297,156271,2,0,P|478:252|418:166,1,168,2|8,0:0|1:0,0:0:0:0:
351,173,156782,1,0,0:0:0:0:
188,99,156952,6,0,L|373:75,3,168,4|8|2|8,1:0|1:0|0:0|1:0,0:0:0:0:
190,226,158146,6,0,L|184:120,1,84,0|4,0:0|1:0,0:0:0:0:
268,126,158486,1,0,1:0:0:0:
351,106,158657,2,0,L|229:89,1,84,8|0,1:0|0:0,0:0:0:0:
116,169,158998,2,0,P|74:138|134:50,1,168,2|8,0:0|1:0,0:0:0:0:
202,52,159509,1,0,0:0:0:0:
437,293,159680,6,0,P|504:255|418:129,1,252,4|2,1:0|0:0,0:0:0:0:
357,120,160361,2,0,L|190:108,1,168,0|8,0:0|1:0,0:0:0:0:
272,88,160873,1,0,0:0:0:0:
120,67,161043,6,0,L|116:166,1,84,4|0,1:0|0:0,0:0:0:0:
201,157,161384,2,0,L|96:158,1,84,8|0,1:0|0:0,0:0:0:0:
270,244,161725,2,0,P|336:222|374:118,1,168,2|8,2:0|1:0,0:0:0:0:
293,124,162236,1,0,0:0:0:0:
56,244,162407,6,0,L|47:57,1,168,4|8,1:0|1:0,0:0:0:0:
130,75,162918,1,2,0:0:0:0:
213,75,163088,1,0,0:0:0:0:
130,75,163259,1,4,1:0:0:0:
366,172,163430,2,0,L|450:172,1,84,8|0,1:0|0:0,0:0:0:0:
452,244,163770,6,0,L|369:243,1,84,4|0,1:0|1:0,0:0:0:0:
286,231,164111,2,0,L|376:232,1,84,8|0,1:0|0:0,0:0:0:0:
210,160,164452,2,0,L|100:161,1,84,2|4,0:0|1:0,0:0:0:0:
210,160,164793,2,0,L|100:161,1,84,8|0,1:0|0:0,0:0:0:0:
363,273,165134,6,0,P|445:220|352:133,1,252,4|2,1:0|0:0,0:0:0:0:
279,126,165816,1,0,0:0:0:0:
277,84,165901,1,0,0:0:0:0:
274,42,165986,1,0,0:0:0:0:
359,43,166157,1,8,1:0:0:0:
443,44,166327,1,0,0:0:0:0:
206,288,166498,6,0,L|101:285,2,84,0|0|8,1:0|0:0|1:0,0:0:0:0:
356,141,167009,2,0,L|458:138,2,84,0|2|4,0:0|0:0|1:0,0:0:0:0:
269,193,167521,2,0,L|358:197,1,84,8|0,1:0|0:0,0:0:0:0:
201,258,167861,6,0,P|138:238|92:117,1,168,4|8,1:0|1:0,0:0:0:0:
173,137,168373,1,2,0:0:0:0:
257,128,168543,2,0,L|264:39,1,84,0|4,2:0|1:0,0:0:0:0:
108,80,168884,2,0,L|48:82,2,42,8|0|0,1:0|0:0|0:0,0:0:0:0:
256,128,169225,6,0,L|362:131,1,84,4|0,1:0|1:0,0:0:0:0:
340,130,169566,2,0,L|256:128,1,84,8|0,1:0|0:0,0:0:0:0:
104,224,169907,2,0,L|94:33,1,168,2|8,0:0|1:0,0:0:0:0:
180,56,170418,1,0,0:0:0:0:
412,260,170589,6,0,P|471:227|398:85,1,252,4|2,1:0|0:0,0:0:0:0:
332,88,171271,2,0,L|502:54,1,168,0|8,0:0|1:0,0:0:0:0:
413,49,171782,1,0,0:0:0:0:
260,160,171952,6,0,P|210:148|152:31,1,168,4|8,1:0|1:0,0:0:0:0:
236,52,172464,1,0,0:0:0:0:
387,193,172634,2,0,L|402:15,1,168,2|8,0:0|1:0,0:0:0:0:
317,28,173146,1,0,0:0:0:0:
84,318,173316,6,0,P|33:300|94:158,1,252,4|2,1:0|0:0,0:0:0:0:
237,142,173998,2,0,L|244:45,1,84,0|4,0:0|1:0,0:0:0:0:
160,51,174339,2,0,L|253:50,1,84,8|0,1:0|0:0,0:0:0:0:
396,115,174680,6,0,L|499:113,1,84,4|0,1:0|1:0,0:0:0:0:
480,113,175021,2,0,L|396:115,1,84,8|0,1:0|0:0,0:0:0:0:
245,176,175361,1,2,0:0:0:0:
328,170,175531,1,4,1:0:0:0:
412,164,175701,1,8,1:0:0:0:
328,170,175873,1,0,0:0:0:0:
80,70,176043,1,4,0:0:0:0:
335,54,186952,6,0,L|348:248,1,168,2|2,0:0|0:0,0:0:0:0:
262,217,187463,1,0,0:0:0:0:
177,212,187634,1,2,0:0:0:0:
259,208,187804,1,0,0:0:0:0:
343,204,187975,1,2,0:0:0:0:
301,201,188060,1,0,0:0:0:0:
259,198,188145,1,0,0:0:0:0:
107,189,188316,5,2,0:0:0:0:
117,148,188401,1,0,0:0:0:0:
141,113,188486,1,0,0:0:0:0:
178,94,188571,1,0,0:0:0:0:
219,85,188657,1,2,0:0:0:0:
302,85,188827,1,0,0:0:0:0:
152,250,188998,2,0,L|45:248,1,84,2|0,0:0|0:0,0:0:0:0:
152,250,189338,2,0,L|265:252,1,84,2|0,0:0|0:0,0:0:0:0:
389,262,189679,6,0,P|440:235|365:89,1,252,2|0,0:0|0:0,0:0:0:0:
300,93,190361,1,2,0:0:0:0:
300,93,190532,1,0,0:0:0:0:
383,91,190702,2,0,L|435:91,2,42,2|0|0,0:0|0:0|0:0,0:0:0:0:
95,308,191213,5,0,0:0:0:0:
91,265,191299,1,0,0:0:0:0:
88,223,191384,1,2,0:0:0:0:
170,208,191554,1,0,0:0:0:0:
322,128,191725,2,0,L|432:125,1,84,2|0,0:0|0:0,0:0:0:0:
322,128,192066,2,0,L|432:125,1,84,2|0,0:0|0:0,0:0:0:0:
253,92,192407,5,2,0:0:0:0:
170,75,192577,1,0,0:0:0:0:
170,75,192748,1,0,0:0:0:0:
253,92,192918,2,0,P|309:121|239:171,1,168,2|0,0:0|0:0,0:0:0:0:
168,181,193429,1,2,0:0:0:0:
83,185,193600,1,0,0:0:0:0:
237,269,193770,5,0,0:0:0:0:
321,264,193941,1,2,0:0:0:0:
320,144,194281,1,0,0:0:0:0:
235,147,194452,1,2,0:0:0:0:
67,154,194793,1,0,0:0:0:0:
353,297,195134,6,0,P|406:267|323:122,1,252,2|0,0:0|0:0,0:0:0:0:
268,103,195816,2,0,L|451:78,1,168,2|0,0:0|0:0,0:0:0:0:
268,107,196498,6,0,L|266:220,1,84,2|0,0:0|0:0,0:0:0:0:
349,179,196838,2,0,L|457:182,1,84,2|0,0:0|0:0,0:0:0:0:
285,321,197179,1,2,0:0:0:0:
233,297,197293,1,0,0:0:0:0:
204,248,197407,1,0,0:0:0:0:
201,192,197520,1,2,0:0:0:0:
230,143,197634,1,0,0:0:0:0:
282,121,197748,1,0,0:0:0:0:
336,111,197861,6,0,L|340:0,1,84,6|0,0:0|0:0,0:0:0:0:
104,179,198202,2,0,L|100:81,1,84,8|2,1:0|0:0,0:0:0:0:
259,245,198543,2,0,P|305:220|244:143,1,168,0|8,0:0|1:0,0:0:0:0:
172,135,199054,1,0,0:0:0:0:
22,177,199225,6,0,L|11:361,1,168,4|8,1:0|1:0,0:0:0:0:
92,321,199736,1,0,0:0:0:0:
242,216,199907,2,0,L|347:222,1,84,2|4,0:0|1:0,0:0:0:0:
242,216,200248,2,0,L|141:211,1,84,8|0,1:0|0:0,0:0:0:0:
389,290,200588,6,0,P|432:262|375:178,1,168,4|8,1:0|1:0,0:0:0:0:
303,159,201100,1,2,0:0:0:0:
386,166,201270,2,0,L|391:58,1,84,0|4,2:0|1:0,0:0:0:0:
235,80,201611,2,0,L|132:80,1,84,8|0,1:0|0:0,0:0:0:0:
305,214,201952,6,0,L|389:214,1,84,4|0,1:0|2:0,0:0:0:0:
389,214,202293,2,0,L|305:214,1,84,8|0,1:0|0:0,0:0:0:0:
152,212,202634,1,2,0:0:0:0:
66,211,202804,1,4,1:0:0:0:
66,211,202975,1,8,1:0:0:0:
152,212,203145,1,0,0:0:0:0:
391,270,203316,6,0,P|378:209|263:149,1,168,4|8,1:0|1:0,0:0:0:0:
212,135,203827,1,2,2:0:0:0:
295,123,203998,1,0,0:0:0:0:
378,112,204168,1,4,1:0:0:0:
226,55,204338,2,0,L|125:46,1,84,8|0,1:0|0:0,0:0:0:0:
294,232,204679,6,0,P|339:210|282:127,1,168,4|8,1:0|1:0,0:0:0:0:
213,111,205191,1,0,0:0:0:0:
129,99,205361,2,0,L|123:0,1,84,2|4,2:0|1:0,0:0:0:0:
281,120,205702,2,0,L|386:122,1,84,8|0,1:0|0:0,0:0:0:0:
126,288,206043,6,0,P|75:258|135:192,1,168,4|8,1:0|1:0,0:0:0:0:
212,182,206554,1,2,0:0:0:0:
127,187,206725,1,0,0:0:0:0:
127,187,206895,1,4,1:0:0:0:
278,95,207066,2,0,L|375:102,1,84,8|0,1:0|0:0,0:0:0:0:
209,263,207407,5,4,1:0:0:0:
167,267,207492,1,0,0:0:0:0:
125,271,207577,1,0,0:0:0:0:
125,271,207748,1,8,1:0:0:0:
209,263,207918,1,0,0:0:0:0:
361,199,208088,2,0,L|456:208,1,84,2|4,0:0|1:0,0:0:0:0:
361,199,208429,2,0,L|456:208,1,84,8|0,1:0|0:0,0:0:0:0:
213,299,208770,6,0,P|159:268|228:209,1,168,4|8,1:0|1:0,0:0:0:0:
295,191,209282,1,2,0:0:0:0:
447,114,209452,2,0,L|456:231,1,84,0|4,0:0|1:0,0:0:0:0:
369,203,209793,1,8,1:0:0:0:
410,201,209878,1,0,0:0:0:0:
451,199,209963,1,0,0:0:0:0:
208,300,210134,5,4,0:0:0:0:
173,276,210219,1,0,0:0:0:0:
159,236,210304,1,0,0:0:0:0:
170,195,210390,1,0,0:0:0:0:
205,172,210475,1,8,1:0:0:0:
288,162,210645,1,0,0:0:0:0:
50,177,210816,2,0,L|40:62,1,84,2|4,0:0|1:0,0:0:0:0:
134,86,211157,2,0,L|39:89,1,84,8|0,1:0|0:0,0:0:0:0:
205,152,211498,6,0,P|266:163|302:280,1,168,4|8,1:0|1:0,0:0:0:0:
225,256,212009,1,2,0:0:0:0:
141,260,212179,1,0,0:0:0:0:
225,256,212350,1,4,1:0:0:0:
379,194,212520,1,8,1:0:0:0:
337,191,212605,1,0,0:0:0:0:
294,188,212691,1,0,0:0:0:0:
210,181,212861,6,0,L|204:66,1,84,4|0,1:0|1:0,0:0:0:0:
454,98,213202,2,0,L|458:200,1,84,8|0,1:0|0:0,0:0:0:0:
304,277,213543,2,0,L|181:272,1,84,2|4,2:0|1:0,0:0:0:0:
220,273,213884,2,0,L|318:278,1,84,8|0,1:0|0:0,0:0:0:0:
68,310,214225,6,0,P|19:279|85:208,1,168,4|8,1:0|1:0,0:0:0:0:
152,193,214736,1,2,0:0:0:0:
67,196,214907,2,0,L|62:77,1,84,0|4,0:0|1:0,0:0:0:0:
218,86,215248,2,0,L|321:85,1,84,8|0,1:0|0:0,0:0:0:0:
150,220,215588,6,0,P|99:188|160:121,1,168,2|8,0:0|1:0,0:0:0:0:
235,105,216100,1,0,0:0:0:0:
84,176,216270,2,0,L|-8:148,2,84,2|4|8,0:0|1:0|1:0,0:0:0:0:
488,76,216952,5,4,0:0:0:0:
256,192,217293,12,4,219679,0:0:0:0:
