osu file format v14

[General]
AudioFilename: audio.mp3
AudioLeadIn: 0
PreviewTime: 66180
Countdown: 0
SampleSet: Soft
StackLeniency: 0.7
Mode: 2
LetterboxInBreaks: 0
WidescreenStoryboard: 0

[Editor]
Bookmarks: 23311,66947,88765,110583,132402,154220,176038,197856,219674
DistanceSpacing: 1.7
BeatDivisor: 4
GridSize: 4
TimelineZoom: 1.6

[Metadata]
Title:Saigetsu (Midnight Moon Walker Remix)
TitleUnicode:歳月 (Midnight Moon Walker Remix)
Artist:TAMAONSEN
ArtistUnicode:魂音泉
Creator:Spectator
Version:Overdose
Source:東方萃夢想 ~ Immaterial and Missing Power.
Tags:boberofdarkness stardust prism japanese pop jpop doujin 東方project touhou project Coro One's Own Way 笥箪 砕月 C82 Comiket 82 tama たま toho tōhō th7.5 7.5 ZUN 太田 順也 ibuki suika 伊吹 萃香 ibaraki kasen 茨木 華扇 hoshiguma yuugi 星熊 勇儀 oni Team Shanghai Alice Twilight Frontier video game vocal broken moon 上海アリス幻樂団
BeatmapID:1530447
BeatmapSetID:724793

[Difficulty]
HPDrainRate:6
CircleSize:4
OverallDifficulty:9.3
ApproachRate:9.3
SliderMultiplier:1.88
SliderTickRate:2

[Events]
//Background and Video events
0,0,"suika.jpg",0,0
//Break Periods
2,176243,186398
//Storyboard Layer 0 (Background)
//Storyboard Layer 1 (Fail)
//Storyboard Layer 2 (Pass)
//Storyboard Layer 3 (Foreground)
//Storyboard Layer 4 (Overlay)
//Storyboard Sound Samples

[TimingPoints]
1498,340.909090909091,4,2,2,50,1,0
5588,-100,4,2,1,50,0,0
6952,-100,4,2,2,50,0,0
11725,-100,4,2,1,50,0,0
12407,-100,4,2,2,50,0,0
22208,-100,4,2,2,20,0,0
22634,-100,4,2,2,25,0,0
22804,-100,4,2,2,28,0,0
22975,-100,4,2,2,32,0,0
23145,-100,4,2,2,35,0,0
23316,-100,4,2,2,50,0,0
79225,-76.9230769230769,4,2,2,50,0,0
79566,-100,4,2,2,50,0,0
101043,-76.9230769230769,4,2,2,50,0,0
101384,-100,4,2,2,50,0,0
110588,-111.111111111111,4,2,2,40,0,0
121498,-111.111111111111,4,2,2,35,0,0
132407,-111.111111111111,4,2,2,50,0,0
143316,-111.111111111111,4,2,2,40,0,0
144679,-100,4,2,2,40,0,0
145020,-111.111111111111,4,2,2,40,0,0
152861,-100,4,2,2,50,0,0
186952,-111.111111111111,4,2,2,40,0,0
188316,-100,4,2,2,40,0,0
188827,-111.111111111111,4,2,2,40,0,0
197861,-76.9230769230769,4,2,3,70,0,1
198032,-76.9230769230769,4,2,2,70,0,1
219594,-76.9230769230769,4,2,2,70,0,0
219679,-76.9230769230769,4,2,2,70,0,1
219765,-76.9230769230769,4,2,2,70,0,0

[Colours]
Combo1 : 87,157,234
Combo2 : 245,170,107
Combo3 : 224,78,78

[HitObjects]
149,248,1498,6,0,P|119:188|215:117,1,188,4|8,1:1|1:1,0:0:0:0:
340,113,2009,1,0,2:1:0:0:
204,211,2350,1,4,1:1:0:0:
59,212,2520,1,8,1:1:0:0:
201,218,2861,5,4,1:1:0:0:
60,223,3032,2,0,L|53:119,1,94,0|8,0:1|1:1,0:0:0:0:
183,123,3373,2,0,L|196:70,1,47,0|0,0:1|0:1,0:0:0:0:
363,285,3543,2,0,P|415:272|470:291,1,94,0|4,0:1|1:1,0:0:0:0:
302,224,3884,1,8,1:1:0:0:
450,225,4054,1,0,0:1:0:0:
128,232,4225,6,0,P|80:180|144:96,1,188,4|8,1:1|1:1,0:0:0:0:
287,93,4736,1,0,0:1:0:0:
124,162,5077,1,4,1:1:0:0:
274,251,5248,1,8,1:1:0:0:
208,242,5333,1,0,0:0:0:0:
143,232,5418,1,0,0:0:0:0:
381,329,5588,6,0,P|434:267|346:241,1,188,2|2,0:0|0:0,0:0:0:0:
215,171,6100,1,0,0:0:0:0:
371,259,6270,2,0,L|265:255,1,94,2|0,0:0|0:0,0:0:0:0:
352,206,6526,1,0,0:0:0:0:
438,207,6611,2,0,P|481:169|478:105,1,94,2|0,0:0|0:0,0:0:0:0:
160,95,6952,6,0,L|268:87,1,94,4|0,1:0|0:0,0:0:0:0:
407,97,7293,1,8,1:0:0:0:
258,86,7463,1,0,0:0:0:0:
332,248,7804,1,4,1:0:0:0:
180,204,7975,2,0,L|172:152,3,47,8|0|0|0,1:0|0:0|0:0|0:0,0:0:0:0:
352,336,8316,6,0,P|400:296|396:244,1,94,4|0,1:0|0:0,0:0:0:0:
256,219,8657,2,0,L|155:207,1,94,8|0,1:0|0:0,0:0:0:0:
312,119,8998,1,0,0:0:0:0:
42,112,9338,1,8,1:0:0:0:
291,332,9679,6,0,P|349:278|285:208,1,188,4|8,1:0|1:0,0:0:0:0:
369,141,10191,1,0,0:0:0:0:
213,169,10361,1,2,0:0:0:0:
130,116,10532,1,4,1:0:0:0:
296,216,10702,1,8,1:0:0:0:
128,288,10873,1,0,0:0:0:0:
276,123,11043,6,0,L|214:123,1,47,4|0,1:0|0:0,0:0:0:0:
396,292,11213,2,0,L|497:282,2,94,0|8|0,0:0|1:0|0:0,0:0:0:0:
256,320,11725,2,0,P|236:277|257:218,1,94
300,222,11952,1,0,0:0:0:0:
354,211,12009,1,0,0:0:0:0:
408,201,12066,2,0,P|440:153|437:105,1,94,2|0,0:0|0:0,0:0:0:0:
142,212,12407,6,0,P|83:175|145:104,1,188,4|0,1:0|1:0,0:0:0:0:
292,104,12918,1,0,0:0:0:0:
148,232,13088,2,0,L|118:181,3,47,0|0|4|0,0:0|0:0|1:0|0:0,0:0:0:0:
282,115,13429,2,0,L|328:74,3,47,8|0|0|0,1:0|0:0|2:0|0:0,0:0:0:0:
149,78,13770,6,0,L|87:78,1,47,4|0,1:0|0:0,0:0:0:0:
301,221,13941,2,0,L|364:217,1,47,0|0,2:0|0:0,0:0:0:0:
140,297,14111,2,0,P|115:248|128:194,1,94,8|0,1:0|0:0,0:0:0:0:
179,153,14367,1,0,0:0:0:0:
257,171,14452,2,0,L|368:166,1,94,0|4,0:0|1:0,0:0:0:0:
204,339,14793,2,0,L|93:334,1,94,8|0,1:0|2:0,0:0:0:0:
349,317,15134,6,0,P|405:279|329:202,1,188,4|8,1:0|1:0,0:0:0:0:
221,197,15645,1,0,0:0:0:0:
359,172,15816,2,0,L|243:161,1,94,2|4,0:0|1:0,0:0:0:0:
126,233,16157,2,0,L|185:228,3,47,8|0|0|0,1:0|0:0|0:0|0:0,0:0:0:0:
259,276,16498,5,4,1:0:0:0:
408,272,16668,1,0,1:0:0:0:
150,149,16838,1,8,1:0:0:0:
286,147,17009,1,0,0:0:0:0:
136,320,17179,2,0,L|36:312,1,94,2|4,0:0|1:0,0:0:0:0:
189,240,17520,1,8,1:0:0:0:
40,235,17691,1,0,2:0:0:0:
344,272,17861,6,0,P|416:248|456:128,1,188,4|8,1:0|1:0,0:0:0:0:
292,204,18373,2,0,P|248:162|309:58,1,188,0|4,0:0|1:0,0:0:0:0:
451,95,18884,1,8,1:0:0:0:
218,342,19225,5,4,1:0:0:0:
205,239,19395,1,0,0:0:0:0:
358,232,19566,1,8,1:0:0:0:
385,137,19736,1,0,0:0:0:0:
191,247,19907,1,0,0:0:0:0:
112,162,20077,1,4,1:0:0:0:
347,90,20248,1,8,1:0:0:0:
451,57,20418,1,0,0:0:0:0:
198,340,20588,6,0,P|129:296|194:222,1,188,4|8,1:0|1:0,0:0:0:0:
324,222,21100,2,0,L|113:200,1,188,0|4,0:0|1:0,0:0:0:0:
294,166,21611,1,8,1:0:0:0:
57,305,21952,5,4,1:0:0:0:
256,216,22293,1,0,1:0:0:0:
448,320,22634,1,0,1:0:0:0:
372,267,22804,1,0,1:0:0:0:
464,208,22975,1,0,1:0:0:0:
360,150,23145,1,0,1:0:0:0:
110,279,23316,6,0,P|61:229|113:137,1,188,4|8,1:0|1:0,0:0:0:0:
251,194,23827,2,0,L|55:206,1,188,2|4,0:0|1:0,0:0:0:0:
206,320,24338,2,0,L|94:308,1,94,8|0,1:0|0:0,0:0:0:0:
352,312,24679,5,4,1:0:0:0:
469,275,24850,1,0,0:0:0:0:
478,187,25020,1,8,1:0:0:0:
364,139,25191,1,0,0:0:0:0:
220,177,25361,2,0,P|188:113|280:53,1,188,2|8,2:0|1:0,0:0:0:0:
422,52,25873,1,0,0:0:0:0:
129,346,26043,6,0,P|90:307|114:257,1,94,4|0,1:0|0:0,0:0:0:0:
244,256,26384,2,0,P|283:217|259:167,1,94,8|2,1:0|0:0,0:0:0:0:
115,183,26725,2,0,P|36:118|63:30,1,188,0|8,0:0|1:0,0:0:0:0:
107,36,27151,1,0,0:0:0:0:
162,29,27236,1,0,0:0:0:0:
403,143,27407,5,4,1:0:0:0:
273,199,27577,1,0,1:0:0:0:
288,308,27748,1,8,1:0:0:0:
412,379,27918,1,0,0:0:0:0:
252,345,28088,2,0,L|24:333,1,188,2|8,0:0|1:0,0:0:0:0:
184,263,28600,1,0,0:0:0:0:
440,258,28770,6,0,P|469:204|360:134,1,188,4|8,1:0|1:0,0:0:0:0:
240,139,29282,2,0,L|454:125,1,188,2|4,2:0|1:0,0:0:0:0:
286,241,29793,2,0,L|392:260,1,94,8|0,1:0|0:0,0:0:0:0:
150,345,30134,5,4,1:0:0:0:
33,287,30304,1,0,0:0:0:0:
167,263,30475,1,8,1:0:0:0:
288,204,30645,1,0,0:0:0:0:
139,198,30816,2,0,L|128:87,1,94,2|4,2:0|1:0,0:0:0:0:
298,126,31157,2,0,L|410:119,1,94,8|0,1:0|0:0,0:0:0:0:
100,344,31498,6,0,L|72:241,1,94,4|0,1:0|0:0,0:0:0:0:
248,165,31838,2,0,L|152:145,1,94,8|2,1:0|0:0,0:0:0:0:
404,180,32179,2,0,P|452:128|451:64,1,94,0|4,0:0|1:0,0:0:0:0:
307,104,32520,1,8,1:0:0:0:
463,106,32691,1,0,0:0:0:0:
184,312,32861,6,0,L|88:300,1,94,0|0,0:0|1:0,0:0:0:0:
248,184,33202,2,0,L|136:168,1,94,8|0,1:0|1:0,0:0:0:0:
304,328,33543,2,0,P|324:272|280:220,1,94,2|4,0:0|1:0,0:0:0:0:
275,236,33770,1,0,0:0:0:0:
238,229,33827,1,0,0:0:0:0:
81,335,33884,2,0,L|72:226,1,94,8|0,1:0|0:0,0:0:0:0:
385,268,34225,6,0,P|416:199|321:137,1,188,4|8,1:0|1:0,0:0:0:0:
188,133,34736,2,0,L|401:89,1,188,2|4,0:0|1:0,0:0:0:0:
217,213,35248,2,0,L|123:224,1,94,8|0,1:0|0:0,0:0:0:0:
391,333,35588,5,4,1:0:0:0:
438,211,35759,1,0,0:0:0:0:
290,133,35929,1,8,1:0:0:0:
436,221,36100,2,0,L|515:216,1,47
295,319,36270,2,0,L|176:310,1,94,2|4,0:0|1:0,0:0:0:0:
357,245,36611,2,0,L|449:260,1,94,8|0,1:0|0:0,0:0:0:0:
210,338,36952,6,0,P|151:292|225:220,1,188,4|8,1:0|1:0,0:0:0:0:
366,171,37463,1,2,0:0:0:0:
214,106,37634,1,0,0:0:0:0:
375,66,37804,1,4,1:0:0:0:
197,297,37975,2,0,P|153:259|157:202,1,94,8|0,1:0|0:0,0:0:0:0:
397,147,38316,5,4,1:0:0:0:
289,104,38486,1,0,0:0:0:0:
137,194,38657,2,0,L|123:89,1,94,8|0,1:0|0:0,0:0:0:0:
284,258,38998,1,2,2:2:0:0:
405,199,39168,1,0,0:0:0:0:
239,120,39339,1,8,1:0:0:0:
119,103,39509,1,0,0:0:0:0:
379,335,39679,6,0,P|434:290|363:208,1,188,4|8,1:0|1:0,0:0:0:0:
223,129,40191,2,0,L|430:126,1,188,2|4,2:0|1:0,0:0:0:0:
266,256,40702,2,0,L|148:236,1,94,8|0,1:0|0:0,0:0:0:0:
460,288,41043,5,4,1:0:0:0:
322,228,41213,1,0,2:0:0:0:
308,127,41384,1,8,1:0:0:0:
452,200,41554,2,0,P|499:152|433:72,1,188,2|4,0:0|1:0,0:0:0:0:
285,313,42066,2,0,L|378:325,1,94,8|0,1:0|0:0,0:0:0:0:
150,341,42407,6,0,P|81:304|46:195,1,188,4|8,1:0|1:0,0:0:0:0:
202,182,42918,2,0,P|266:127|189:81,1,188,2|4,0:0|1:0,0:0:0:0:
47,75,43429,1,8,1:0:0:0:
375,286,43770,5,4,1:0:0:0:
246,291,43941,1,0,1:0:0:0:
390,294,44111,1,8,1:0:0:0:
229,301,44282,1,0,0:0:0:0:
76,233,44452,2,0,L|265:242,1,188,2|8,0:0|1:0,0:0:0:0:
412,196,44963,1,0,0:0:0:0:
136,268,45134,6,0,P|142:211|270:129,1,188,4|8,0:0|1:0,0:0:0:0:
396,71,45645,2,0,L|185:56,1,188,2|4,0:0|1:0,0:0:0:0:
347,164,46157,2,0,L|440:154,1,94,8|0,1:0|0:0,0:0:0:0:
174,333,46498,5,4,1:0:0:0:
57,296,46669,1,0,0:0:0:0:
48,208,46839,1,8,1:0:0:0:
162,160,47010,1,0,0:0:0:0:
22,162,47179,2,0,L|240:188,1,188,2|8,0:0|1:0,0:0:0:0:
61,224,47691,1,0,0:0:0:0:
323,322,47861,6,0,P|341:271|328:226,1,94,4|0,1:0|0:0,0:0:0:0:
180,84,48202,2,0,P|228:65|297:61,1,94,8|2,1:0|0:0,0:0:0:0:
124,296,48543,2,0,P|67:245|138:171,1,188,0|8,0:0|1:0,0:0:0:0:
180,168,48969,1,0,0:0:0:0:
236,165,49054,1,0,0:0:0:0:
470,315,49225,5,4,1:0:0:0:
337,245,49395,1,0,1:0:0:0:
342,140,49566,1,8,1:0:0:0:
483,103,49736,1,0,0:0:0:0:
333,190,49907,2,0,P|271:152|345:88,1,188,2|8,0:0|1:0,0:0:0:0:
447,85,50418,1,0,0:0:0:0:
189,158,50588,6,0,L|393:159,1,188,4|8,1:0|1:0,0:0:0:0:
231,325,51100,2,0,P|178:281|239:190,1,188,2|4,0:0|1:0,0:0:0:0:
383,207,51611,2,0,L|406:104,1,94,8|0,1:0|0:0,0:0:0:0:
153,164,51952,5,4,1:0:0:0:
287,127,52123,1,0,0:0:0:0:
434,254,52293,1,8,1:0:0:0:
302,217,52464,1,0,0:0:0:0:
149,292,52634,2,0,P|121:237|229:177,1,188,2|8,0:0|1:0,0:0:0:0:
358,167,53145,1,0,0:0:0:0:
104,336,53316,6,0,L|88:232,1,94,4|0,1:0|0:0,0:0:0:0:
244,153,53657,2,0,L|140:145,1,94,8|2,1:0|0:0,0:0:0:0:
324,256,53998,2,0,P|370:213|360:147,1,94,0|4,0:0|1:0,0:0:0:0:
340,170,54225,1,0,0:0:0:0:
306,155,54282,1,0,0:0:0:0:
146,209,54338,2,0,L|34:226,1,94,8|0,1:0|0:0,0:0:0:0:
316,75,54679,5,0,0:0:0:0:
443,75,54850,1,0,1:0:0:0:
316,75,55020,1,8,1:0:0:0:
443,75,55191,1,0,1:0:0:0:
183,219,55361,1,2,0:0:0:0:
81,134,55532,2,0,L|41:139,2,31.3333333333333,4|0|0,1:0|0:0|0:0,0:0:0:0:
256,174,55702,2,0,L|351:189,1,94,8|0,1:0|0:0,0:0:0:0:
116,337,56043,6,0,P|59:289|128:216,1,188,4|8,1:0|1:0,0:0:0:0:
267,261,56554,2,0,L|74:260,1,188,2|4,0:0|1:0,0:0:0:0:
228,161,57066,2,0,L|343:153,1,94,8|0,1:0|0:0,0:0:0:0:
69,322,57407,6,0,P|49:276|80:223,1,94,4|0,1:0|0:0,0:0:0:0:
205,236,57748,1,8,1:0:0:0:
55,202,57918,2,0,L|41:138,1,47,2|0,0:0|0:0,0:0:0:0:
235,343,58088,2,0,L|255:238,1,94,2|4,0:0|1:0,0:0:0:0:
108,140,58429,2,0,L|88:35,1,94,8|0,1:0|0:0,0:0:0:0:
356,284,58770,6,0,P|398:230|321:158,1,188,4|8,1:0|1:0,0:0:0:0:
190,154,59282,1,2,0:0:0:0:
59,236,59452,2,0,P|35:186|53:129,1,94,0|4,0:0|1:0,0:0:0:0:
197,81,59793,2,0,L|100:77,1,94,8|0,1:0|0:0,0:0:0:0:
336,281,60134,5,4,1:0:0:0:
471,189,60304,1,0,1:0:0:0:
316,149,60475,2,0,P|288:109|304:53,1,94,8|0,1:0|0:0,0:0:0:0:
462,102,60816,1,4,1:0:0:0:
325,117,60986,1,0,0:0:0:0:
187,131,61157,1,8,1:0:0:0:
49,140,61327,1,0,1:0:0:0:
293,329,61498,6,0,P|352:298|285:211,1,188,4|8,1:0|1:0,0:0:0:0:
158,268,62009,2,0,L|358:265,1,188,2|4,0:0|1:0,0:0:0:0:
197,226,62520,1,8,1:0:0:0:
466,148,62861,5,4,1:0:0:0:
317,150,63032,1,0,0:0:0:0:
466,148,63202,2,0,L|352:138,1,94,8|0,1:0|0:0,0:0:0:0:
220,299,63543,2,0,P|203:248|233:188,1,94,2|4,0:0|1:0,0:0:0:0:
368,187,63884,2,0,P|385:136|355:76,1,94,8|0,1:0|2:0,0:0:0:0:
145,67,64225,6,0,L|361:57,1,188,4|8,1:0|1:0,0:0:0:0:
190,142,64736,1,2,0:0:0:0:
334,250,64907,2,0,L|344:130,1,94,0|4,0:0|1:0,0:0:0:0:
191,232,65248,1,8,1:0:0:0:
473,167,65588,5,2,0:0:0:0:
337,139,65759,1,4,1:0:0:0:
473,167,65929,1,8,1:0:0:0:
337,139,66100,1,0,0:0:0:0:
198,167,66270,2,0,P|142:131|218:59,1,188,2|8,0:0|1:0,0:0:0:0:
354,77,66782,1,0,0:0:0:0:
33,280,66952,6,0,L|54:160,1,94,4|0,0:0|0:0,0:0:0:0:
188,157,67293,2,0,L|294:143,1,94,8|0,1:0|0:0,0:0:0:0:
414,306,67634,2,0,L|311:298,1,94,2|4,0:0|1:0,0:0:0:0:
177,356,67975,2,0,L|168:256,1,94,8|0,1:0|0:0,0:0:0:0:
408,183,68316,5,4,1:0:0:0:
266,182,68486,1,2,0:0:0:0:
408,183,68657,1,8,1:0:0:0:
266,182,68827,2,0,L|183:174,1,47
421,312,68998,2,0,P|481:260|401:204,1,188,2|8,0:0|1:0,0:0:0:0:
301,200,69509,1,0,0:0:0:0:
72,342,69679,6,0,P|45:300|66:252,1,94,4|0,1:0|0:0,0:0:0:0:
205,258,70020,1,8,1:0:0:0:
60,262,70191,1,2,0:0:0:0:
214,301,70361,2,0,L|326:289,1,94,0|4,0:0|1:0,0:0:0:0:
451,212,70702,1,8,1:0:0:0:
391,200,70787,1,0,0:0:0:0:
330,189,70873,1,0,0:0:0:0:
97,282,71043,5,4,1:0:0:0:
226,227,71213,1,2,2:0:0:0:
232,127,71384,1,8,1:0:0:0:
105,80,71554,1,0,0:0:0:0:
230,324,71725,2,0,P|292:289|216:225,1,188,2|8,0:0|1:0,0:0:0:0:
75,218,72236,1,0,0:0:0:0:
347,283,72407,6,0,L|152:263,1,188,4|8,1:0|1:0,0:0:0:0:
301,214,72918,2,0,P|360:162|288:88,1,188,2|4,0:0|1:0,0:0:0:0:
152,198,73429,1,8,1:0:0:0:
140,147,73515,1,0,0:0:0:0:
161,93,73600,1,0,0:0:0:0:
213,71,73685,1,0,0:0:0:0:
363,57,73770,5,4,1:0:0:0:
235,124,73941,1,2,0:0:0:0:
355,57,74111,1,8,1:0:0:0:
235,124,74282,1,0,0:0:0:0:
65,345,74452,2,0,P|33:297|49:229,1,94,2|4,0:0|1:0,0:0:0:0:
178,175,74793,2,0,P|131:179|87:196,1,94,8|0,1:0|0:0,0:0:0:0:
364,319,75134,6,0,L|156:291,1,188,4|8,1:0|1:0,0:0:0:0:
295,208,75645,1,2,0:0:0:0:
149,194,75816,2,0,P|130:144|143:100,1,94,0|4,0:0|1:0,0:0:0:0:
326,64,76157,1,8,1:0:0:0:
174,66,76327,1,0,0:0:0:0:
460,216,76498,6,0,L|348:247,1,94,4|2,1:0|2:2,0:0:0:0:
184,353,76838,2,0,L|294:327,1,94,8|0,1:0|0:0,0:0:0:0:
420,360,77179,2,0,P|440:312|404:256,1,94,2|4,0:0|1:0,0:0:0:0:
386,264,77407,1,0,0:0:0:0:
346,254,77463,1,0,0:0:0:0:
198,258,77520,2,0,L|93:251,1,94,8|0,1:0|0:0,0:0:0:0:
377,353,77861,6,0,P|440:310|361:253,1,188,4|8,1:0|1:0,0:0:0:0:
235,247,78373,1,2,0:0:0:0:
371,315,78543,1,0,0:0:0:0:
412,283,78628,1,0,0:0:0:0:
414,231,78713,1,4,1:0:0:0:
373,197,78799,1,0,0:0:0:0:
207,177,78884,1,8,1:0:0:0:
166,145,78969,1,0,0:0:0:0:
164,93,79054,1,0,0:0:0:0:
205,59,79140,1,0,0:0:0:0:
280,36,79225,6,0,L|344:36,4,61.0999972030641,4|0|2|0|8,1:0|0:0|0:0|0:0|1:0,0:0:0:0:
38,127,79736,1,0,0:0:0:0:
328,128,79907,1,2,0:0:0:0:
462,167,80077,1,4,1:0:0:0:
225,272,80248,1,8,1:0:0:0:
125,313,80418,1,0,0:0:0:0:
382,351,80588,6,0,P|412:302|397:254,1,94,4|0,1:0|0:0,0:0:0:0:
271,198,80929,2,0,P|221:190|159:208,1,94,8|2,1:0|0:0,0:0:0:0:
46,301,81270,2,0,P|34:247|57:193,1,94,0|4,0:0|1:0,0:0:0:0:
189,165,81611,2,0,L|197:89,1,47,8|0,1:0|0:0,0:0:0:0:
119,73,81782,2,0,L|113:14,1,47,2|0,0:0|0:0,0:0:0:0:
319,175,81952,5,4,1:0:0:0:
471,179,82123,1,2,2:0:0:0:
320,246,82293,2,0,L|305:137,1,94,8|0,1:0|0:0,0:0:0:0:
451,351,82634,1,2,0:0:0:0:
326,325,82804,1,4,1:0:0:0:
186,239,82975,1,8,1:0:0:0:
311,214,83145,1,0,0:0:0:0:
75,338,83316,6,0,P|16:292|91:218,1,188,4|8,1:0|1:0,0:0:0:0:
218,279,83827,2,0,L|14:280,1,188,2|4,0:0|1:0,0:0:0:0:
177,195,84338,2,0,L|55:176,1,94,8|0,1:0|0:0,0:0:0:0:
376,323,84679,6,0,P|411:279|412:225,1,94,4|2,1:0|0:0,0:0:0:0:
136,323,85020,2,0,P|101:279|100:225,1,94,8|0,1:0|0:0,0:0:0:0:
367,182,85361,2,0,P|324:170|277:195,1,94,2|4,0:0|1:0,0:0:0:0:
125,184,85702,2,0,P|168:172|215:197,1,94,8|0,1:0|0:0,0:0:0:0:
446,325,86043,6,0,P|502:267|432:194,1,188,4|8,1:0|1:0,0:0:0:0:
302,195,86554,1,2,2:0:0:0:
453,142,86725,1,0,0:0:0:0:
466,49,86895,1,4,1:0:0:0:
329,5,87066,1,8,1:0:0:0:
68,320,87407,5,0,1:0:0:0:
132,225,87577,1,0,0:0:0:0:
61,316,87748,1,2,0:0:0:0:
129,211,87918,1,0,0:0:0:0:
46,268,88088,2,0,L|178:120,1,188,2|4,0:0|0:0,0:0:0:0:
84,120,88600,1,0,0:0:0:0:
411,278,88770,6,0,P|471:226|407:158,1,188,4|8,1:0|1:0,0:0:0:0:
258,257,89282,2,0,P|268:194|378:140,1,188,2|4,0:0|1:0,0:0:0:0:
232,77,89793,1,8,1:0:0:0:
378,74,89963,1,2,0:0:0:0:
120,322,90134,5,4,1:0:0:0:
132,210,90304,1,0,0:0:0:0:
285,282,90475,1,8,1:0:0:0:
309,170,90645,1,0,0:0:0:0:
69,230,90816,2,0,P|4:184|99:137,1,188,2|8,0:0|1:0,0:0:0:0:
225,118,91327,1,0,0:0:0:0:
466,337,91498,5,4,1:0:0:0:
327,284,91668,1,0,0:0:0:0:
316,166,91838,1,8,1:0:0:0:
470,68,92009,2,0,P|448:155|363:186,1,188,2|4,0:0|1:0,0:0:0:0:
212,150,92520,1,8,1:0:0:0:
363,95,92691,1,0,0:0:0:0:
104,261,92861,5,4,1:0:0:0:
231,227,93032,1,0,1:0:0:0:
461,210,93202,1,8,1:0:0:0:
366,161,93373,1,0,1:0:0:0:
228,264,93543,1,2,0:0:0:0:
279,253,93628,1,0,0:0:0:0:
330,242,93713,1,4,1:0:0:0:
60,184,93884,1,8,1:0:0:0:
36,59,94054,1,0,1:0:0:0:
320,332,94225,6,0,P|352:264|248:200,1,188,4|8,1:0|1:0,0:0:0:0:
134,188,94736,2,0,L|358:188,1,188,2|4,0:0|1:0,0:0:0:0:
175,305,95248,2,0,L|107:285,1,47,8|0,1:0|0:0,0:0:0:0:
129,291,95418,2,0,L|175:305,1,47,0|0,2:0|0:0,0:0:0:0:
352,241,95588,5,4,1:0:0:0:
452,193,95759,1,0,0:0:0:0:
314,351,95929,1,8,1:0:0:0:
409,306,96100,1,0,0:0:0:0:
171,245,96270,1,2,2:0:0:0:
29,190,96441,1,4,1:0:0:0:
208,356,96611,1,8,1:0:0:0:
79,302,96782,1,0,0:0:0:0:
406,212,96952,5,4,1:0:0:0:
302,152,97123,1,2,0:0:0:0:
296,40,97293,1,8,1:0:0:0:
450,279,97463,1,2,2:0:0:0:
318,217,97634,1,0,0:0:0:0:
298,100,97804,1,4,1:0:0:0:
476,217,97975,1,8,1:0:0:0:
350,217,98145,1,0,0:0:0:0:
112,266,98316,5,4,1:0:0:0:
163,256,98401,1,0,0:0:0:0:
214,246,98486,1,0,1:0:0:0:
77,357,98657,2,0,P|39:311|56:249,1,94,8|0,1:0|0:0,0:0:0:0:
221,267,98998,1,2,2:0:0:0:
347,193,99168,1,4,1:0:0:0:
315,181,99225,1,0,0:0:0:0:
283,168,99282,1,0,0:0:0:0:
116,201,99338,1,8,1:0:0:0:
246,84,99509,1,0,0:0:0:0:
106,311,99679,6,0,P|53:278|129:198,1,188,4|8,1:0|1:0,0:0:0:0:
272,152,100191,1,2,0:0:0:0:
117,300,100361,1,0,2:0:0:0:
79,265,100446,1,0,0:0:0:0:
90,213,100532,1,4,1:0:0:0:
136,189,100617,1,0,0:0:0:0:
300,220,100702,1,8,1:0:0:0:
331,178,100787,1,0,0:0:0:0:
306,132,100873,1,0,0:0:0:0:
258,121,100958,1,0,0:0:0:0:
188,119,101043,6,0,L|115:119,4,61.0999972030641,4|0|2|0|8,1:0|0:0|0:0|0:0|1:0,0:0:0:0:
341,119,101554,1,0,0:0:0:0:
85,280,101725,1,2,2:0:0:0:
203,194,101895,1,4,1:0:0:0:
40,133,102066,1,8,1:0:0:0:
164,51,102236,1,0,0:0:0:0:
411,334,102407,6,0,P|456:285|371:209,1,188,4|8,1:0|1:0,0:0:0:0:
247,184,102918,1,2,0:0:0:0:
400,231,103088,2,0,L|416:121,1,94,0|4,0:0|1:0,0:0:0:0:
253,146,103429,1,8,1:0:0:0:
241,95,103515,1,0,0:0:0:0:
262,41,103600,1,0,0:0:0:0:
314,19,103685,1,0,0:0:0:0:
465,60,103770,5,4,1:0:0:0:
476,170,103941,1,2,2:0:0:0:
189,325,104111,1,8,1:0:0:0:
51,313,104282,1,2,2:0:0:0:
315,298,104452,1,2,2:0:0:0:
180,231,104623,1,4,1:0:0:0:
318,190,104793,1,8,1:0:0:0:
438,247,104963,1,0,0:0:0:0:
148,104,105134,5,4,1:0:0:0:
280,164,105304,1,2,2:0:0:0:
152,236,105475,1,8,1:0:0:0:
388,255,105645,2,0,P|452:199|372:151,1,188,2|4,0:0|1:0,0:0:0:0:
220,152,106157,2,0,L|352:152,1,94,8|0,1:0|0:0,0:0:0:0:
71,262,106498,5,0,1:0:0:0:
212,328,106668,1,2,2:0:0:0:
230,210,106838,1,8,1:0:0:0:
76,197,107009,1,0,1:0:0:0:
217,195,107179,1,2,2:0:0:0:
235,104,107350,1,4,1:0:0:0:
94,121,107520,2,0,L|73:27,1,94,8|0,1:0|0:0,0:0:0:0:
318,273,107861,6,0,P|377:227|320:147,1,188,4|8,1:0|1:0,0:0:0:0:
177,159,108373,2,0,L|386:161,1,188,2|4,0:0|1:0,0:0:0:0:
218,233,108884,1,8,1:0:0:0:
453,329,109225,5,4,1:0:0:0:
372,309,109395,1,0,1:0:0:0:
458,299,109566,1,8,1:0:0:0:
367,278,109736,1,0,0:0:0:0:
462,268,109907,2,0,B|375:200|371:321|269:239,1,188,2|8,0:0|1:0,0:0:0:0:
125,322,110588,6,0,P|46:285|138:182,1,253.799992254639,4|0,0:0|0:0,0:0:0:0:
243,182,111270,2,0,P|295:137|231:73,1,169.199994836426,2|0,0:0|0:0,0:0:0:0:
387,322,111952,6,0,P|466:285|374:182,1,253.799992254639,2|0,0:0|0:0,0:0:0:0:
269,182,112634,2,0,P|217:137|281:73,1,169.199994836426,2|0,0:0|0:0,0:0:0:0:
76,309,113316,5,2,0:0:0:0:
271,310,113657,1,0,0:0:0:0:
76,309,113998,1,2,0:0:0:0:
271,310,114339,1,0,0:0:0:0:
76,309,114679,2,0,P|76:237|220:135,1,253.799992254639,2|0,0:0|0:0,0:0:0:0:
331,136,115361,2,0,P|326:75|216:24,1,169.199994836426,2|0,0:0|0:0,0:0:0:0:
367,331,116043,6,0,P|443:266|352:170,1,253.799992254639,2|0,0:0|0:0,0:0:0:0:
248,173,116725,2,0,L|422:172,1,169.199994836426,2|0,0:0|0:0,0:0:0:0:
145,331,117407,6,0,P|69:266|160:170,1,253.799992254639,2|0,0:0|0:0,0:0:0:0:
309,166,118089,2,0,L|135:165,1,169.199994836426,2|0,0:0|0:0,0:0:0:0:
429,166,118770,5,2,0:0:0:0:
86,167,119111,1,0,0:0:0:0:
386,166,119452,1,2,0:0:0:0:
125,167,119793,1,0,0:0:0:0:
429,166,120134,1,2,0:0:0:0:
134,306,120816,2,0,P|80:266|142:199,1,169.199994836426,2|0,0:0|0:0,0:0:0:0:
428,310,121498,6,0,P|433:248|290:133,1,253.799992254639,2|0,0:0|0:0,0:0:0:0:
208,132,122179,2,0,L|409:91,1,169.199994836426,2|0,0:0|0:0,0:0:0:0:
84,310,122861,6,0,P|79:248|222:133,1,253.799992254639,2|0,0:0|0:0,0:0:0:0:
304,134,123542,2,0,L|103:93,1,169.199994836426,2|0,0:0|0:0,0:0:0:0:
428,310,124225,6,0,P|433:248|290:133,1,253.799992254639,2|0,0:0|0:0,0:0:0:0:
196,136,124907,2,0,L|300:114,2,84.599997418213,2|0|2,0:0|0:0|0:0,0:0:0:0:
352,312,125759,6,0,P|424:248|384:176,1,169.199994836426,2|0,0:0|0:0,0:0:0:0:
312,192,126270,1,2,0:0:0:0:
128,192,126611,1,2,0:0:0:0:
400,256,126952,6,0,L|224:256,1,169.199994836426,2|0,0:0|0:0,0:0:0:0:
116,331,127463,2,0,P|40:283|128:173,1,253.799992254639,2|0,0:0|0:0,0:0:0:0:
376,235,128486,2,0,P|431:190|358:139,1,169.199994836426,2|0,0:0|0:0,0:0:0:0:
277,134,128998,1,2,0:0:0:0:
79,140,129338,1,2,0:0:0:0:
304,324,129679,6,0,P|359:279|286:228,1,169.199994836426,2|0,0:0|0:0,0:0:0:0:
175,227,130191,2,0,P|94:172|193:79,1,253.799992254639,2|0,0:0|0:0,0:0:0:0:
361,235,131213,2,0,P|446:193|461:105,1,169.199994836426,2|0,0:0|0:0,0:0:0:0:
420,111,131640,1,0,0:0:0:0:
376,96,131725,1,2,0:0:0:0:
251,195,131895,1,0,0:0:0:0:
242,94,132066,1,2,0:0:0:0:
376,55,132236,1,0,0:0:0:0:
137,323,132407,6,0,P|81:292|111:199,1,169.199994836426,4|0,1:0|0:0,0:0:0:0:
237,255,132918,1,0,0:0:0:0:
101,265,133088,2,0,P|65:212|156:136,1,169.199994836426,8|0,1:0|0:0,0:0:0:0:
248,181,133600,6,0,P|252:114|154:68,1,169.199994836426,4|0,1:0|0:0,0:0:0:0:
41,68,134111,1,4,1:0:0:0:
204,276,134282,1,0,0:0:0:0:
254,279,134367,1,0,0:0:0:0:
304,281,134452,2,0,L|125:274,1,169.199994836426,8|0,1:0|0:0,0:0:0:0:
264,224,134963,1,0,0:0:0:0:
393,322,135134,6,0,P|449:291|419:198,1,169.199994836426,4|0,1:0|0:0,0:0:0:0:
285,256,135645,1,0,0:0:0:0:
429,264,135815,2,0,P|465:211|374:135,1,169.199994836426,8|0,1:0|0:0,0:0:0:0:
300,140,136327,1,4,1:0:0:0:
164,296,136498,6,0,L|152:192,1,84.599997418213,2|0,0:0|0:0,0:0:0:0:
312,300,136838,2,0,L|324:196,1,84.599997418213,8|0,1:0|0:0,0:0:0:0:
169,228,137179,2,0,L|155:132,1,84.599997418213,8|0,1:0|2:0,0:0:0:0:
204,142,137435,1,0,0:0:0:0:
251,140,137520,1,2,2:0:0:0:
399,197,137691,1,0,0:0:0:0:
168,324,137861,5,4,1:0:0:0:
68,264,138032,1,0,0:0:0:0:
180,300,138202,1,0,0:0:0:0:
284,252,138373,1,4,1:0:0:0:
164,280,138543,2,0,P|128:236|184:172,1,126.899996127319,8|0,1:0|0:0,0:0:0:0:
202,168,138884,1,0,0:0:0:0:
236,135,138969,1,0,0:0:0:0:
246,89,139054,1,4,1:0:0:0:
224,47,139140,1,0,0:0:0:0:
180,33,139225,6,0,L|74:37,1,84.599997418213
229,236,139566,2,0,L|335:240,1,84.599997418213,4|0,1:0|0:0,0:0:0:0:
175,339,139907,1,8,1:0:0:0:
450,346,140248,1,0,0:0:0:0:
192,288,140588,6,0,P|184:236|204:184,1,84.599997418213,4|0,1:0|0:0,0:0:0:0:
331,166,140929,1,2,0:0:0:0:
200,152,141100,1,0,1:0:0:0:
324,284,141270,1,8,1:0:0:0:
416,264,141441,1,0,0:0:0:0:
284,128,141611,1,2,0:0:0:0:
156,112,141782,1,4,1:0:0:0:
289,241,141952,5,2,0:0:0:0:
243,241,142037,1,0,0:0:0:0:
197,241,142123,1,0,2:0:0:0:
66,170,142293,1,4,1:0:0:0:
191,108,142463,1,0,0:0:0:0:
331,158,142634,1,8,1:0:0:0:
188,324,142804,1,0,2:0:0:0:
188,324,142861,1,0,0:0:0:0:
188,324,142918,1,0,0:0:0:0:
188,324,142975,1,2,0:0:0:0:
336,199,143145,1,0,0:0:0:0:
106,267,143316,6,0,P|73:225|155:148,1,169.199994836426,2|2,0:0|0:0,0:0:0:0:
250,142,143827,1,0,0:0:0:0:
112,360,143998,1,2,0:0:0:0:
78,335,144083,1,0,0:0:0:0:
69,293,144168,1,0,0:0:0:0:
89,255,144253,1,0,0:0:0:0:
128,237,144338,1,2,0:0:0:0:
157,205,144424,1,0,0:0:0:0:
163,163,144509,1,0,0:0:0:0:
145,124,144594,1,0,0:0:0:0:
105,112,144679,6,0,L|42:110,4,47,2|0|0|0|2,0:0|0:0|0:0|0:0|0:0,0:0:0:0:
233,115,145191,1,0,0:0:0:0:
354,120,145361,1,2,0:0:0:0:
365,247,145532,1,0,0:0:0:0:
225,189,145702,1,2,0:0:0:0:
212,272,145873,1,0,0:0:0:0:
358,337,146043,6,0,P|440:257|347:184,1,253.799992254639,2|0,0:0|0:0,0:0:0:0:
236,184,146725,1,2,0:0:0:0:
348,184,146895,1,0,0:0:0:0:
212,256,147066,2,0,L|156:244,3,42.2999987091065,2|0|0|0,0:0|0:0|0:0|0:0,0:0:0:0:
368,296,147577,6,0,P|421:244|351:191,1,169.199994836426,2|0,0:0|0:0,0:0:0:0:
320,196,148003,1,0,0:0:0:0:
278,199,148088,1,2,0:0:0:0:
235,67,148259,1,0,0:0:0:0:
418,254,148429,1,2,0:0:0:0:
375,122,148600,1,0,0:0:0:0:
235,126,148770,1,2,0:0:0:0:
344,336,150134,5,2,0:0:0:0:
152,292,150475,1,0,0:0:0:0:
416,224,150816,1,2,0:0:0:0:
99,165,151157,1,2,0:0:0:0:
400,272,151498,2,0,P|480:208|384:24,1,338.399989672852,2|2,0:0|0:0,0:0:0:0:
122,300,152861,5,2,2:0:0:0:
245,265,153032,1,0,2:0:0:0:
122,300,153202,1,2,2:0:0:0:
245,265,153373,1,0,2:0:0:0:
95,234,153543,2,0,P|39:198|115:126,1,188,2|2,2:0|2:0,0:0:0:0:
231,122,154055,1,0,2:0:0:0:
466,283,154225,6,0,P|483:231|460:184,1,94,4|0,2:0|0:0,0:0:0:0:
344,120,154566,2,0,L|239:105,1,94,8|2,1:0|0:0,0:0:0:0:
117,251,154907,2,0,L|108:137,1,94,2|4,0:0|1:0,0:0:0:0:
257,138,155248,2,0,L|266:24,1,94,8|0,1:0|2:0,0:0:0:0:
35,143,155588,5,4,1:0:0:0:
163,142,155759,1,0,0:0:0:0:
35,143,155929,1,8,1:0:0:0:
183,221,156100,2,0,L|255:217,1,47
416,232,156270,2,0,P|436:179|343:106,1,188,2|8,0:0|1:0,0:0:0:0:
238,105,156782,1,0,0:0:0:0:
470,300,156952,6,0,L|362:288,1,94,4|0,1:0|0:0,0:0:0:0:
228,288,157293,1,8,1:0:0:0:
370,285,157463,1,2,0:0:0:0:
209,245,157634,2,0,L|193:141,1,94,2|4,0:0|1:0,0:0:0:0:
351,101,157975,1,8,1:0:0:0:
298,100,158060,1,0,0:0:0:0:
245,97,158145,1,0,0:0:0:0:
473,241,158316,5,4,1:0:0:0:
346,235,158486,1,0,1:0:0:0:
336,113,158657,1,8,1:0:0:0:
487,72,158827,1,0,0:0:0:0:
341,308,158998,2,0,P|276:271|355:214,1,188,2|8,0:0|1:0,0:0:0:0:
475,205,159509,1,0,0:0:0:0:
235,192,159679,6,0,L|19:190,1,188,4|8,1:0|1:0,0:0:0:0:
173,271,160191,2,0,P|233:221|143:167,1,188,2|4,0:0|1:0,0:0:0:0:
43,158,160702,1,8,1:0:0:0:
331,170,161043,5,4,1:0:0:0:
203,170,161213,1,0,0:0:0:0:
331,170,161384,1,8,1:0:0:0:
203,170,161554,1,0,0:0:0:0:
330,278,161725,2,0,L|338:165,1,94,2|4,2:0|1:0,0:0:0:0:
189,112,162066,1,8,1:0:0:0:
318,112,162236,1,0,0:0:0:0:
68,328,162407,6,0,P|75:266|186:204,1,188,4|8,1:0|1:0,0:0:0:0:
317,172,162918,2,0,L|94:172,1,188,2|4,0:0|1:0,0:0:0:0:
257,80,163429,1,8,1:0:0:0:
117,79,163600,1,0,0:0:0:0:
360,256,163770,5,4,1:0:0:0:
482,184,163941,1,0,1:0:0:0:
498,72,164111,1,8,1:0:0:0:
376,16,164282,1,0,0:0:0:0:
224,307,164452,2,0,P|195:255|220:198,1,94,2|4,0:0|1:0,0:0:0:0:
234,211,164679,1,0,0:0:0:0:
267,199,164736,1,0,0:0:0:0:
401,156,164793,2,0,L|492:177,1,94,8|0,1:0|0:0,0:0:0:0:
192,311,165134,6,0,P|143:278|200:175,1,188,4|8,1:0|1:0,0:0:0:0:
333,134,165645,1,2,0:0:0:0:
186,175,165816,2,0,P|117:158|66:39,1,188,0|8,0:0|1:0,0:0:0:0:
196,39,166327,1,0,0:0:0:0:
441,345,166498,6,0,L|332:338,1,94,0|0,1:0|0:0,0:0:0:0:
231,236,166838,1,8,1:0:0:0:
360,179,167009,2,0,L|365:113,1,47
192,343,167179,1,2,0:0:0:0:
77,316,167350,1,4,1:0:0:0:
219,253,167520,1,8,1:0:0:0:
107,227,167691,1,0,0:0:0:0:
337,280,167861,6,0,P|375:234|367:177,1,94,4|0,1:0|0:0,0:0:0:0:
231,144,168202,1,8,1:0:0:0:
372,114,168373,1,2,0:0:0:0:
239,324,168543,2,0,P|201:278|209:221,1,94,0|4,2:0|1:0,0:0:0:0:
352,173,168884,2,0,L|465:158,1,94,8|0,1:0|0:0,0:0:0:0:
206,101,169225,5,4,1:0:0:0:
335,218,169395,1,0,1:0:0:0:
202,338,169566,1,8,1:0:0:0:
367,337,169736,1,0,0:0:0:0:
202,338,169907,2,0,L|79:324,1,94,2|4,0:0|1:0,0:0:0:0:
252,250,170248,1,8,1:0:0:0:
355,249,170418,1,0,0:0:0:0:
101,225,170588,6,0,P|40:185|118:116,1,188,4|8,1:0|1:0,0:0:0:0:
237,332,171100,2,0,L|42:331,1,188,2|4,0:0|1:0,0:0:0:0:
191,235,171611,2,0,L|89:223,1,94,8|0,1:0|0:0,0:0:0:0:
372,282,171952,5,4,1:0:0:0:
227,224,172123,1,0,0:0:0:0:
379,274,172293,2,0,L|405:174,1,94,8|0,1:0|0:0,0:0:0:0:
253,188,172634,2,0,P|193:140|264:75,1,188,2|8,0:0|1:0,0:0:0:0:
401,63,173145,1,0,0:0:0:0:
148,336,173316,6,0,P|104:296|160:188,1,188,4|8,1:0|1:0,0:0:0:0:
291,162,173827,2,0,L|76:133,1,188,2|4,0:0|1:0,0:0:0:0:
253,55,174338,1,8,1:0:0:0:
117,51,174509,1,0,0:0:0:0:
467,195,174679,5,4,1:0:0:0:
325,191,174850,1,0,1:0:0:0:
467,195,175020,1,8,1:0:0:0:
325,191,175191,1,0,0:0:0:0:
42,202,175361,2,0,L|150:190,1,94,2|4,0:0|1:0,0:0:0:0:
280,109,175702,2,0,L|172:97,1,94,8|0,1:0|0:0,0:0:0:0:
464,90,176043,1,4,0:0:0:0:
406,267,186952,6,0,P|439:225|357:148,1,169.199994836426,2|2,0:0|0:0,0:0:0:0:
262,142,187463,1,0,0:0:0:0:
400,360,187634,1,2,0:0:0:0:
434,335,187719,1,0,0:0:0:0:
443,293,187804,1,0,0:0:0:0:
423,255,187889,1,0,0:0:0:0:
384,237,187974,1,2,0:0:0:0:
355,205,188060,1,0,0:0:0:0:
349,163,188145,1,0,0:0:0:0:
367,124,188230,1,0,0:0:0:0:
407,112,188315,6,0,L|470:110,4,42.2999987091065,2|0|0|0|2,0:0|0:0|0:0|0:0|0:0,0:0:0:0:
288,120,188827,1,0,0:0:0:0:
173,137,188998,1,2,0:0:0:0:
293,189,189168,1,0,0:0:0:0:
429,224,189338,1,2,0:0:0:0:
305,264,189509,1,0,0:0:0:0:
173,333,189679,6,0,P|99:287|189:177,1,253.799992254639,2|0,0:0|0:0,0:0:0:0:
310,228,190361,2,0,P|328:178|300:127,1,84.599997418213,2|0,0:0|0:0,0:0:0:0:
172,76,190702,2,0,L|113:68,3,42.2999987091065,2|0|0|0,0:0|0:0|0:0|0:0,0:0:0:0:
319,197,191213,5,0,0:0:0:0:
272,203,191299,1,0,0:0:0:0:
226,210,191384,1,2,0:0:0:0:
350,295,191554,1,0,0:0:0:0:
207,274,191725,1,2,0:0:0:0:
288,215,191895,1,0,0:0:0:0:
301,122,192066,1,2,0:0:0:0:
218,49,192236,1,0,0:0:0:0:
341,140,192407,5,2,0:0:0:0:
250,182,192577,1,0,0:0:0:0:
341,236,192748,1,0,0:0:0:0:
206,268,192918,2,0,P|147:201|217:157,1,169.199994836426,2|0,0:0|0:0,0:0:0:0:
321,159,193429,1,2,0:0:0:0:
328,76,193600,1,0,0:0:0:0:
181,78,193770,5,0,0:0:0:0:
312,78,193941,1,2,0:0:0:0:
110,181,194282,1,0,0:0:0:0:
241,181,194452,1,2,0:0:0:0:
16,178,194793,1,0,0:0:0:0:
275,287,195134,6,0,L|100:70,1,253.799992254639,2|0,0:0|0:0,0:0:0:0:
229,229,195816,2,0,B|283:176|283:176|217:89,1,169.199994836426,2|0,0:0|0:0,0:0:0:0:
110,322,196498,5,2,0:0:0:0:
28,236,196668,1,0,0:0:0:0:
124,268,196838,1,2,0:0:0:0:
39,183,197009,1,0,0:0:0:0:
382,242,197179,1,2,0:0:0:0:
438,192,197293,1,0,0:0:0:0:
382,242,197407,1,0,0:0:0:0:
196,242,197520,1,2,0:0:0:0:
133,242,197634,1,0,0:0:0:0:
70,242,197748,1,0,0:0:0:0:
315,154,197861,6,0,L|471:147,1,122.199994406128,6|0,0:0|0:0,0:0:0:0:
197,154,198202,2,0,L|41:147,1,122.199994406128,8|2,1:0|0:0,0:0:0:0:
324,160,198543,1,0,0:0:0:0:
188,160,198713,1,4,1:0:0:0:
188,160,198799,1,0,0:0:0:0:
188,160,198884,1,8,1:0:0:0:
448,160,199054,1,0,0:0:0:0:
186,237,199225,6,0,P|112:182|212:84,1,244.399988812256,4|8,1:0|1:0,0:0:0:0:
329,152,199736,2,0,L|426:151,1,61.0999972030641
180,319,199907,1,2,0:0:0:0:
323,267,200077,1,4,1:0:0:0:
179,181,200248,1,8,1:0:0:0:
321,101,200418,1,0,0:0:0:0:
48,248,200588,6,0,L|188:236,1,122.199994406128,4|0,1:0|0:0,0:0:0:0:
316,168,200929,1,8,1:0:0:0:
168,160,201100,1,2,0:0:0:0:
464,248,201270,2,0,L|324:236,1,122.199994406128,0|4,2:0|1:0,0:0:0:0:
196,168,201611,1,8,1:0:0:0:
344,160,201782,1,0,0:0:0:0:
44,157,201952,5,4,1:0:0:0:
182,157,202123,1,0,2:0:0:0:
321,157,202293,1,8,1:0:0:0:
459,158,202463,1,0,0:0:0:0:
162,156,202634,1,2,0:0:0:0:
309,103,202804,2,0,L|358:102,2,40.7333314687094,4|0|0,1:0|0:0|0:0,0:0:0:0:
122,100,202975,2,0,L|-30:99,1,122.199994406128,8|0,1:0|0:0,0:0:0:0:
357,257,203316,5,4,1:0:0:0:
235,164,203486,1,0,0:0:0:0:
359,74,203657,1,8,1:0:0:0:
48,217,203827,1,2,2:0:0:0:
170,124,203997,1,0,0:0:0:0:
46,34,204168,1,4,1:0:0:0:
325,115,204338,2,0,L|494:121,1,122.199994406128,8|0,1:0|0:0,0:0:0:0:
172,283,204679,5,4,1:0:0:0:
334,288,204850,1,0,0:0:0:0:
334,288,205020,1,8,1:0:0:0:
172,283,205191,1,0,0:0:0:0:
444,222,205361,2,0,L|456:85,1,122.199994406128,2|4,2:0|1:0,0:0:0:0:
309,95,205702,1,8,1:0:0:0:
455,96,205873,1,0,0:0:0:0:
146,192,206043,6,0,L|416:190,1,244.399988812256,4|8,1:0|1:0,0:0:0:0:
245,189,206554,1,2,0:0:0:0:
480,189,206725,2,0,L|480:49,1,122.199994406128,0|4,0:0|1:0,0:0:0:0:
177,60,207066,1,8,1:0:0:0:
321,57,207236,1,0,0:0:0:0:
90,197,207407,6,0,L|159:198,1,61.0999972030641,4|0,1:0|0:0,0:0:0:0:
394,84,207577,1,0,0:0:0:0:
260,89,207748,1,8,1:0:0:0:
127,94,207918,1,0,0:0:0:0:
361,189,208088,1,2,0:0:0:0:
190,189,208259,2,0,L|163:139,2,40.7333314687094,4|0|0,1:0|0:0|0:0,0:0:0:0:
370,251,208429,2,0,L|506:252,1,122.199994406128,8|0,1:0|0:0,0:0:0:0:
53,231,208770,6,0,L|331:219,1,244.399988812256,4|8,1:0|1:0,0:0:0:0:
147,166,209282,1,2,0:0:0:0:
311,244,209452,2,0,L|383:239,1,61.0999972030641
184,163,209623,2,0,L|99:152,1,61.0999972030641,4|0,1:0|0:0,0:0:0:0:
334,116,209793,2,0,L|406:111,1,61.0999972030641,8|0,1:0|0:0,0:0:0:0:
163,34,209964,2,0,L|78:23,1,61.0999972030641
365,311,210134,6,0,L|453:311,4,61.0999972030641,4|0|0|0|8,2:0|0:0|0:0|0:0|1:0,0:0:0:0:
81,159,210645,1,0,0:0:0:0:
212,159,210816,1,2,0:0:0:0:
81,159,210986,1,4,1:0:0:0:
475,283,211157,1,8,1:0:0:0:
328,281,211327,1,0,0:0:0:0:
36,200,211498,6,0,L|196:192,1,122.199994406128,4|0,1:0|0:0,0:0:0:0:
312,188,211838,1,8,1:0:0:0:
168,192,212009,1,2,0:0:0:0:
452,292,212179,1,0,0:0:0:0:
472,160,212350,1,4,1:0:0:0:
168,192,212520,2,0,L|96:159,3,61.0999972030641,8|0|0|0,1:0|0:0|0:0|0:0,0:0:0:0:
342,260,212861,6,0,L|482:254,1,122.199994406128,4|0,1:0|1:0,0:0:0:0:
206,189,213202,1,8,1:0:0:0:
343,181,213373,1,0,0:0:0:0:
49,279,213543,1,2,2:0:0:0:
182,270,213713,1,4,1:0:0:0:
331,260,213884,1,8,1:0:0:0:
182,253,214054,1,0,0:0:0:0:
467,203,214225,6,0,L|183:177,1,244.399988812256,4|8,1:0|1:0,0:0:0:0:
355,152,214736,1,2,0:0:0:0:
88,313,214907,1,0,0:0:0:0:
53,187,215077,1,4,1:0:0:0:
390,307,215248,1,8,1:0:0:0:
425,181,215418,1,0,0:0:0:0:
255,176,215588,5,2,0:0:0:0:
126,172,215759,1,0,0:0:0:0:
255,176,215929,1,8,1:0:0:0:
378,176,216100,1,0,0:0:0:0:
500,176,216270,1,2,0:0:0:0:
255,176,216441,1,4,1:0:0:0:
11,177,216611,1,8,1:0:0:0:
467,180,216952,5,4,0:0:0:0:
256,192,217123,12,4,219679,0:0:0:0:
