osu file format v14

[General]
AudioFilename: audio.mp3
AudioLeadIn: 0
PreviewTime: 66180
Countdown: 0
SampleSet: Soft
StackLeniency: 0.7
Mode: 2
LetterboxInBreaks: 0
WidescreenStoryboard: 1

[Editor]
Bookmarks: 23311,66606,66947,88765,110583,132402,154220,176038,197856,219674
DistanceSpacing: 1.7
BeatDivisor: 4
GridSize: 4
TimelineZoom: 2.7

[Metadata]
Title:Saigetsu (Midnight Moon Walker Remix)
TitleUnicode:歳月 (Midnight Moon Walker Remix)
Artist:TAMAONSEN
ArtistUnicode:魂音泉
Creator:Spectator
Version:Bober's Rain
Source:東方萃夢想 ~ Immaterial and Missing Power.
Tags:boberofdarkness stardust prism japanese pop jpop doujin 東方project touhou project Coro One's Own Way 笥箪 砕月 C82 Comiket 82 tama たま toho tōhō th7.5 7.5 ZUN 太田 順也 ibuki suika 伊吹 萃香 ibaraki kasen 茨木 華扇 hoshiguma yuugi 星熊 勇儀 oni Team Shanghai Alice Twilight Frontier video game vocal broken moon 上海アリス幻樂団
BeatmapID:4459347
BeatmapSetID:724793

[Difficulty]
HPDrainRate:5
CircleSize:3.8
OverallDifficulty:9
ApproachRate:9
SliderMultiplier:1.7
SliderTickRate:2

[Events]
//Background and Video events
0,0,"suika.jpg",0,0
//Break Periods
//Storyboard Layer 0 (Background)
//Storyboard Layer 1 (Fail)
//Storyboard Layer 2 (Pass)
//Storyboard Layer 3 (Foreground)
//Storyboard Layer 4 (Overlay)
//Storyboard Sound Samples

[TimingPoints]
1498,340.909090909091,4,2,2,50,1,0
5588,-100,4,2,1,50,0,0
6952,-100,4,2,2,50,0,0
11725,-100,4,2,1,50,0,0
12407,-100,4,2,2,50,0,0
22208,-100,4,2,2,20,0,0
22634,-100,4,2,2,25,0,0
22804,-100,4,2,2,28,0,0
22975,-100,4,2,2,32,0,0
23145,-100,4,2,2,35,0,0
23316,-100,4,2,2,50,0,0
79225,-100,4,2,2,50,0,0
79566,-100,4,2,2,50,0,0
99338,-66.6666666666667,4,2,2,50,0,0
99509,-100,4,2,2,50,0,0
101043,-100,4,2,2,50,0,0
101384,-100,4,2,2,50,0,0
110588,-100,4,2,2,40,0,0
121498,-100,4,2,2,35,0,0
132407,-100,4,2,2,50,0,0
143316,-100,4,2,2,40,0,0
144679,-100,4,2,2,40,0,0
145020,-100,4,2,2,40,0,0
152861,-100,4,2,2,50,0,0
186952,-100,4,2,2,40,0,0
188316,-100,4,2,2,40,0,0
188827,-100,4,2,2,40,0,0
197861,-100,4,2,3,70,0,1
198032,-100,4,2,2,70,0,1
219594,-100,4,2,2,70,0,0
219679,-100,4,2,2,70,0,1
219765,-100,4,2,2,70,0,0

[Colours]
Combo1 : 87,157,234
Combo2 : 245,170,107
Combo3 : 224,78,78

[HitObjects]
416,331,1498,6,0,P|423:251|351:192,1,170,4|8,1:1|1:1,0:0:0:0:
261,169,2009,1,0,0:0:0:0:
91,189,2350,2,0,L|192:189,1,85,4|8,1:1|1:1,0:0:0:0:
379,325,2861,6,0,L|391:221,1,85,4|0,1:1|0:1,0:0:0:0:
217,160,3202,1,8,1:1:0:0:
132,100,3373,1,0,0:1:0:0:
136,64,3458,1,0,0:1:0:0:
160,36,3543,1,0,0:1:0:0:
264,16,3713,1,4,1:1:0:0:
404,280,3884,2,0,L|412:196,1,85,8|0,1:1|0:1,0:0:0:0:
160,224,4225,6,0,P|109:154|170:122,1,170,4|8,1:1|1:1,0:0:0:0:
291,117,4736,1,0,0:1:0:0:
291,117,5077,1,4,1:1:0:0:
120,188,5248,2,0,L|74:188,2,42.5,8|0|0,1:1|0:0|0:0,0:0:0:0:
349,288,5588,6,0,L|452:288,1,85,2|0,0:0|0:0,0:0:0:0:
204,324,5929,1,2,0:0:0:0:
135,284,6100,1,0,0:0:0:0:
288,256,6270,1,2,0:0:0:0:
299,215,6355,1,0,0:0:0:0:
288,174,6440,1,0,0:0:0:0:
258,145,6525,1,0,0:0:0:0:
217,135,6610,1,2,0:0:0:0:
303,110,6782,1,0,0:0:0:0:
74,190,6952,6,0,P|112:104|200:84,1,170,4|8,1:0|1:0,0:0:0:0:
280,84,7463,1,0,0:0:0:0:
280,84,7804,1,4,1:0:0:0:
93,315,7975,2,0,L|80:268,3,42.5,8|0|0|0,1:0|0:0|0:0|0:0,0:0:0:0:
236,192,8316,6,0,L|347:191,1,85,4|0,1:0|0:0,0:0:0:0:
44,312,8657,2,0,L|39:220,1,85,8|0,1:0|0:0,0:0:0:0:
144,188,8998,1,0,0:0:0:0:
299,206,9168,1,0,0:0:0:0:
68,152,9338,2,0,L|69:240,1,85,8|0,1:0|0:0,0:0:0:0:
320,316,9679,6,0,L|327:222,1,85,4|0,1:0|0:0,0:0:0:0:
92,220,10020,1,8,1:0:0:0:
184,212,10191,1,0,0:0:0:0:
268,200,10361,1,2,0:0:0:0:
96,152,10532,1,4,1:0:0:0:
328,140,10702,1,8,1:0:0:0:
331,28,10873,1,0,0:0:0:0:
66,308,11043,5,4,0:0:0:0:
29,231,11128,1,0,0:0:0:0:
52,151,11213,1,0,0:0:0:0:
104,96,11299,1,0,0:0:0:0:
263,238,11384,2,0,P|270:187|231:164,1,85,8|0,1:0|0:0,0:0:0:0:
67,268,11725,2,0,P|21:224|12:186,1,85
10,160,11951,1,0,0:0:0:0:
28,118,12009,1,0,0:0:0:0:
66,89,12065,1,2,0:0:0:0:
177,65,12236,1,0,0:0:0:0:
408,96,12407,6,0,P|464:160|396:192,1,170,4|0,1:0|1:0,0:0:0:0:
316,100,12918,1,0,0:0:0:0:
160,168,13088,1,0,0:0:0:0:
116,168,13174,1,0,0:0:0:0:
160,168,13259,1,4,1:0:0:0:
396,136,13429,1,8,1:0:0:0:
440,136,13515,1,0,0:0:0:0:
396,136,13600,1,0,2:0:0:0:
152,336,13770,6,0,L|148:268,1,42.5,4|0,1:0|0:0,0:0:0:0:
208,256,13941,2,0,L|204:204,1,42.5,0|0,2:0|0:0,0:0:0:0:
56,316,14111,2,0,P|28:268|68:228,1,85,8|0,1:0|0:0,0:0:0:0:
132,192,14452,2,0,L|228:192,1,85,0|4,0:0|1:0,0:0:0:0:
40,152,14793,2,0,L|32:60,1,85,8|0,1:0|2:0,0:0:0:0:
272,280,15134,6,0,L|384:280,1,85,4|0,1:0|0:0,0:0:0:0:
184,240,15475,1,8,1:0:0:0:
268,244,15645,2,0,L|272:160,1,85,0|2,0:0|0:0,0:0:0:0:
100,132,15986,1,4,1:0:0:0:
332,328,16157,1,8,1:0:0:0:
370,311,16242,1,0,0:0:0:0:
394,277,16327,1,0,0:0:0:0:
396,235,16412,1,0,0:0:0:0:
240,184,16498,5,4,1:0:0:0:
136,276,16668,2,0,L|136:208,1,42.5,0|0,1:0|0:0,0:0:0:0:
280,276,16838,2,0,L|396:232,1,85,8|0,1:0|0:0,0:0:0:0:
273,179,17179,2,0,L|250:79,1,85,0|4,1:0|1:0,0:0:0:0:
492,200,17520,2,0,L|520:84,1,85,8|0,1:0|2:0,0:0:0:0:
280,316,17861,6,0,L|160:308,1,85,4|0,1:0|0:0,0:0:0:0:
448,320,18202,1,8,1:0:0:0:
428,208,18373,1,0,0:0:0:0:
336,140,18543,1,0,0:0:0:0:
416,68,18713,1,4,1:0:0:0:
184,200,18884,2,0,L|168:100,1,85,8|0,1:0|0:0,0:0:0:0:
420,304,19225,6,0,P|464:248|400:212,1,127.5,4|0,1:0|0:0,0:0:0:0:
248,216,19566,2,0,P|214:151|261:119,1,127.5,8|0,1:0|0:0,0:0:0:0:
299,111,19907,2,0,L|370:57,1,85,0|4,0:0|1:0,0:0:0:0:
196,232,20248,2,0,L|111:219,1,85,8|0,1:0|0:0,0:0:0:0:
344,296,20588,6,0,P|392:236|340:184,1,127.5,4|0,1:0|0:0,0:0:0:0:
330,166,20929,2,0,B|249:136|249:136|333:111,1,170,8|0,1:0|0:0,0:0:0:0:
483,81,21441,1,4,1:0:0:0:
397,56,21611,2,0,L|497:40,1,85,8|0,1:0|0:0,0:0:0:0:
251,192,21952,6,0,L|71:192,2,170,4|0|0,1:0|1:0|1:0,0:0:0:0:
172,192,22804,1,0,1:0:0:0:
86,192,22975,1,0,1:0:0:0:
172,192,23145,1,0,1:0:0:0:
448,328,23316,6,0,L|464:140,1,170,4|8,1:0|1:0,0:0:0:0:
376,140,23827,1,2,0:0:0:0:
291,136,23998,2,0,L|387:140,1,85,0|4,0:0|1:0,0:0:0:0:
136,320,24338,2,0,L|124:204,1,85,8|0,1:0|0:0,0:0:0:0:
296,228,24679,6,0,L|400:220,1,85,4|0,1:0|0:0,0:0:0:0:
123,307,25020,2,0,L|105:205,1,85,8|0,1:0|0:0,0:0:0:0:
187,119,25361,1,2,2:0:0:0:
347,82,25532,1,0,0:0:0:0:
117,322,25702,2,0,L|109:225,1,85,8|0,1:0|0:0,0:0:0:0:
361,274,26043,6,0,P|387:193|300:149,1,170,4|8,1:0|1:0,0:0:0:0:
226,119,26554,1,2,0:0:0:0:
61,257,26725,2,0,L|58:144,1,85
303,138,27066,2,0,L|361:133,2,42.5,8|0|0,1:0|0:0|0:0,0:0:0:0:
61,318,27407,6,0,L|55:219,1,85,4|0,1:0|1:0,0:0:0:0:
239,186,27748,2,0,L|338:149,1,85,8|0,1:0|0:0,0:0:0:0:
183,141,28088,2,0,L|170:50,1,85,2|0,0:0|0:0,0:0:0:0:
404,207,28429,2,0,P|410:122|398:104,1,85,8|0,1:0|0:0,0:0:0:0:
173,285,28770,6,0,P|135:198|192:161,1,170,4|8,1:0|1:0,1:0:0:0:
280,129,29282,1,0,0:0:0:0:
196,52,29452,1,0,0:0:0:0:
111,25,29623,1,4,1:0:0:0:
340,336,29793,2,0,L|343:228,1,85,8|0,1:0|0:0,0:0:0:0:
112,291,30134,6,0,P|66:221|155:182,1,170,4|8,1:0|1:0,0:0:0:0:
206,154,30645,1,0,0:0:0:0:
377,145,30816,2,0,L|381:41,1,85,2|4,2:0|1:0,0:0:0:0:
149,154,31157,2,0,L|142:67,1,85,8|0,1:0|0:0,0:0:0:0:
404,314,31498,6,0,L|198:314,2,170,4|8|0,1:0|1:0|0:0,0:0:0:0:
259,341,32350,1,4,1:0:0:0:
29,332,32520,2,0,L|26:236,1,85,8|0,1:0|0:0,0:0:0:0:
269,181,32861,6,0,L|386:180,1,85,0|0,0:0|1:0,0:0:0:0:
184,312,33202,2,0,L|178:210,1,85,8|0,1:0|1:0,0:0:0:0:
276,156,33543,1,2,0:0:0:0:
429,152,33713,1,4,1:0:0:0:
432,96,33771,1,0,0:0:0:0:
404,45,33827,1,0,0:0:0:0:
357,21,33884,1,8,1:0:0:0:
236,24,34054,1,0,0:0:0:0:
466,324,34225,6,0,L|470:228,1,85,4|0,1:0|0:0,0:0:0:0:
225,160,34566,2,0,L|229:62,1,85,8|2,1:1|0:0,0:0:0:0:
314,179,34907,1,0,0:0:0:0:
148,266,35077,1,4,1:0:0:0:
378,247,35248,2,0,L|381:161,1,85,8|0,1:0|0:0,0:0:0:0:
139,144,35588,6,0,L|131:53,1,85,4|0,1:0|0:0,0:0:0:0:
375,326,35929,2,0,P|403:249|393:232,1,85,8|0,1:0|0:0,0:0:0:0:
312,129,36270,1,2,0:0:0:0:
143,84,36441,1,4,1:0:0:0:
378,290,36611,2,0,L|383:184,1,85,8|0,1:0|0:0,0:0:0:0:
143,142,36952,6,0,L|139:52,1,85,4|0,1:0|0:0,0:0:0:0:
303,24,37293,1,8,1:0:0:0:
428,52,37463,2,0,L|433:169,1,85,2|0,0:0|0:0,0:0:0:0:
280,177,37804,1,4,1:0:0:0:
50,250,37975,2,0,L|148:250,1,85,8|0,1:0|0:0,0:0:0:0:
374,242,38316,5,4,1:0:0:0:
247,189,38486,1,0,0:0:0:0:
118,118,38657,2,0,L|118:213,1,85,8|0,1:0|0:0,0:0:0:0:
273,271,38998,2,0,L|354:230,1,85,2|0,2:2|0:0,0:0:0:0:
118,158,39338,2,0,L|125:59,1,85,8|0,1:0|0:0,0:0:0:0:
380,301,39679,6,0,P|388:232|307:150,1,170,4|8,1:0|1:0,0:0:0:0:
242,112,40191,1,2,2:0:0:0:
327,63,40361,1,0,0:0:0:0:
158,18,40532,1,4,1:0:0:0:
392,313,40702,2,0,L|403:212,1,85,8|0,1:0|0:0,0:0:0:0:
170,187,41043,6,0,L|64:170,1,85,4|0,1:0|2:0,0:0:0:0:
256,296,41384,2,0,P|268:223|198:129,1,170,8|0,1:0|1:0,0:0:0:0:
136,169,41895,1,4,1:0:0:0:
392,247,42066,2,0,L|403:146,1,85,8|0,1:0|0:0,0:0:0:0:
170,100,42407,6,0,L|77:83,1,85,4|0,1:0|0:0,0:0:0:0:
318,258,42748,2,0,L|426:256,2,85,8|2|0,1:0|0:0|0:0,0:0:0:0:
173,256,43259,1,4,1:0:0:0:
344,232,43429,2,0,P|381:204|372:134,1,85,8|0,1:0|0:0,0:0:0:0:
352,100,43685,1,0,0:0:0:0:
200,312,43770,5,4,1:0:0:0:
95,312,43941,1,0,1:0:0:0:
240,312,44111,2,0,B|326:312|326:312|242:312,1,170,8|2,1:0|0:0,0:0:0:0:
114,312,44623,1,4,1:0:0:0:
344,288,44793,2,0,L|352:196,1,85,8|0,1:0|0:0,0:0:0:0:
120,260,45134,6,0,L|320:260,1,170,4|8,0:0|1:0,0:0:0:0:
204,180,45645,1,2,0:0:0:0:
120,120,45816,1,0,0:0:0:0:
255,60,45986,1,4,1:0:0:0:
487,328,46157,2,0,L|491:240,1,85,8|0,1:0|0:0,0:0:0:0:
252,200,46498,6,0,L|340:192,1,85,4|0,1:0|0:0,0:0:0:0:
108,340,46838,1,8,1:0:0:0:
72,204,47009,1,0,0:0:0:0:
112,80,47179,1,2,0:0:0:0:
236,16,47350,1,4,1:0:0:0:
468,316,47520,2,0,L|476:228,1,85,8|0,1:0|0:0,0:0:0:0:
236,168,47861,6,0,L|136:144,1,85,4|0,1:0|0:0,0:0:0:0:
416,340,48202,2,0,L|511:285,1,85,8|2,1:0|0:0,0:0:0:0:
387,212,48543,1,0,0:0:0:0:
488,152,48713,1,4,1:0:0:0:
248,352,48884,1,8,1:0:0:0:
224,272,48969,1,0,0:0:0:0:
256,196,49054,1,0,0:0:0:0:
488,280,49225,5,4,1:0:0:0:
332,272,49395,2,0,L|312:228,1,42.5,0|0,1:0|0:0,0:0:0:0:
340,208,49566,2,0,L|424:164,1,85,8|0,1:0|0:0,0:0:0:0:
328,132,49907,2,0,L|304:32,1,85,2|4,0:0|1:0,0:0:0:0:
76,344,50248,2,0,L|64:240,1,85,8|0,1:0|0:0,0:0:0:0:
296,192,50588,6,0,L|112:192,1,170,4|8,1:0|1:0,0:0:0:0:
212,192,51100,1,2,0:0:0:0:
296,192,51270,1,0,0:0:0:0:
159,112,51441,1,4,1:0:0:0:
400,76,51611,2,0,L|416:196,1,85,8|0,1:0|0:0,0:0:0:0:
180,328,51952,6,0,L|356:328,1,170,4|8,1:0|1:0,0:0:0:0:
308,328,52378,1,0,0:0:0:0:
264,328,52463,1,0,0:0:0:0:
127,328,52634,2,0,L|239:328,1,85,2|4,0:0|1:0,0:0:0:0:
456,324,52975,2,0,L|476:224,1,85,8|0,1:0|0:0,0:0:0:0:
240,236,53316,6,0,L|432:236,2,170,4|8|0,1:0|1:0|0:0,0:0:0:0:
377,236,54168,1,4,1:0:0:0:
124,328,54338,2,0,L|112:232,1,85,8|0,1:0|0:0,0:0:0:0:
250,132,54679,5,0,0:0:0:0:
96,80,54850,1,0,1:0:0:0:
336,296,55020,2,0,L|348:200,1,85,8|0,1:0|1:0,0:0:0:0:
180,184,55361,2,0,L|87:184,1,85,2|4,0:0|1:0,0:0:0:0:
325,67,55702,2,0,L|434:67,1,85,8|0,1:0|0:0,0:0:0:0:
248,104,56043,6,0,L|144:104,1,85,4|0,1:0|0:0,0:0:0:0:
396,340,56384,2,0,L|412:232,1,85,8|2,1:0|0:0,0:0:0:0:
324,160,56725,1,0,0:0:0:0:
240,116,56895,1,4,1:0:0:0:
476,356,57066,2,0,L|488:272,1,85,8|0,1:0|0:0,0:0:0:0:
316,232,57407,6,0,L|220:208,1,85,4|0,1:0|0:0,0:0:0:0:
464,316,57748,2,0,P|488:272|488:224,1,85,8|2,1:0|0:0,0:0:0:0:
464,156,58003,1,0,0:0:0:0:
404,96,58088,1,2,0:0:0:0:
256,40,58259,1,4,1:0:0:0:
24,328,58429,2,0,L|16:232,1,85,8|0,1:0|0:0,0:0:0:0:
248,324,58770,6,0,L|360:312,1,85,4|0,1:0|0:0,0:0:0:0:
176,236,59111,2,0,L|132:140,1,85,8|2,1:0|0:0,0:0:0:0:
228,72,59452,1,0,0:0:0:0:
460,24,59623,1,4,1:0:0:0:
324,25,59793,1,8,1:0:0:0:
460,24,59963,1,0,0:0:0:0:
228,340,60134,6,0,L|216:240,1,85,4|0,1:0|1:0,0:0:0:0:
448,284,60475,2,0,L|472:196,1,85,8|0,1:0|0:0,0:0:0:0:
388,56,60816,1,0,2:0:0:0:
232,36,60986,1,4,1:0:0:0:
464,328,61157,2,0,L|472:224,1,85,8|0,1:0|2:0,0:0:0:0:
236,260,61498,6,0,L|208:172,1,85,4|0,1:0|0:0,0:0:0:0:
380,204,61838,2,0,L|408:116,1,85,8|2,1:0|0:0,0:0:0:0:
320,8,62179,1,0,0:0:0:0:
164,16,62350,1,4,1:0:0:0:
396,336,62520,2,0,L|408:232,1,85,8|0,1:0|0:0,0:0:0:0:
232,200,62861,6,0,L|224:112,1,85,4|0,1:0|0:0,0:0:0:0:
456,280,63202,2,0,B|468:200|468:200|372:160,1,170,8|2,1:0|0:0,0:0:0:0:
248,116,63713,1,4,1:0:0:0:
488,336,63884,2,0,L|496:248,1,85,8|0,1:0|2:0,0:0:0:0:
264,240,64225,6,0,L|152:228,1,85,4|0,1:0|0:0,0:0:0:0:
412,336,64566,1,8,1:0:0:0:
480,236,64736,1,2,0:0:0:0:
444,112,64907,1,0,0:0:0:0:
342,50,65077,1,4,1:0:0:0:
88,192,65248,2,0,P|51:164|84:109,1,85,8|0,1:0|0:0,0:0:0:0:
95,75,65504,1,0,0:0:0:0:
284,280,65589,5,2,0:0:0:0:
390,276,65759,1,4,1:0:0:0:
152,188,65929,2,0,P|120:156|148:105,1,85,8|0,1:0|0:0,0:0:0:0:
164,68,66185,1,0,0:0:0:0:
318,316,66270,2,0,P|340:276|304:212,1,85,2|0,0:0|0:0,0:0:0:0:
72,228,66611,2,0,L|58:124,1,85,8|0,1:0|0:0,0:0:0:0:
292,84,66952,6,0,L|120:84,1,170,4|8,0:0|1:0,0:0:0:0:
208,80,67463,1,0,0:0:0:0:
292,76,67634,1,2,0:0:0:0:
156,77,67804,1,4,1:0:0:0:
396,336,67975,2,0,L|404:248,1,85,8|0,1:0|0:0,0:0:0:0:
172,212,68316,6,0,L|160:120,1,85,4|2,1:0|0:0,0:0:0:0:
392,328,68657,2,0,B|480:328|480:328|392:328,1,170,8|2,1:0|0:0,0:0:0:0:
240,332,69168,1,0,0:0:0:0:
472,224,69338,2,0,L|476:128,1,85,8|0,1:0|0:0,0:0:0:0:
240,208,69679,6,0,L|360:208,1,85,4|0,1:0|0:0,0:0:0:0:
88,316,70020,2,0,L|80:224,1,85,8|2,1:0|0:0,0:0:0:0:
184,79,70361,1,0,0:0:0:0:
288,28,70532,1,4,1:0:0:0:
56,284,70702,1,8,1:0:0:0:
48,200,70787,1,0,0:0:0:0:
92,128,70873,1,0,0:0:0:0:
268,88,71043,5,4,1:0:0:0:
112,56,71213,1,2,2:0:0:0:
344,344,71384,2,0,P|400:268|364:188,1,170,8|2,1:0|0:0,0:0:0:0:
243,112,71895,1,0,0:0:0:0:
12,311,72066,2,0,L|100:311,1,85,8|0,1:0|0:0,0:0:0:0:
332,308,72407,6,0,L|308:136,1,170,4|8,1:0|1:0,0:0:0:0:
392,76,72918,1,2,0:0:0:0:
476,40,73088,1,0,0:0:0:0:
339,13,73259,1,4,1:0:0:0:
110,319,73429,2,0,L|56:318,2,42.5,8|0|0,1:0|0:0|0:0,0:0:0:0:
268,212,73770,6,0,L|276:128,1,85,4|2,1:0|0:0,0:0:0:0:
44,328,74111,2,0,L|32:152,1,170,8|2,1:0|0:0,0:0:0:0:
120,92,74623,1,4,1:0:0:0:
352,324,74793,2,0,L|460:304,1,85,8|0,1:0|0:0,0:0:0:0:
200,280,75134,6,0,L|376:280,1,170,4|8,1:0|1:0,0:0:0:0:
284,208,75645,1,2,0:0:0:0:
200,136,75816,2,0,L|320:136,1,85,0|4,0:0|1:0,0:0:0:0:
52,324,76157,2,0,L|40:216,1,85,8|0,1:0|0:0,0:0:0:0:
232,152,76498,5,4,1:0:0:0:
80,104,76668,1,2,2:2:0:0:
312,320,76838,2,0,L|320:212,1,85,8|0,1:0|0:0,0:0:0:0:
160,224,77179,2,0,L|96:168,1,85,2|4,0:0|1:0,0:0:0:0:
326,352,77520,2,0,L|424:348,1,85,8|0,1:0|0:0,0:0:0:0:
180,276,77861,6,0,L|172:180,1,85,4|0,1:0|0:0,0:0:0:0:
408,332,78202,1,8,1:0:0:0:
468,236,78373,1,2,0:0:0:0:
416,100,78543,1,0,0:0:0:0:
280,36,78713,1,4,1:0:0:0:
48,360,78884,2,0,L|36:248,1,85,8|0,1:0|0:0,0:0:0:0:
270,324,79225,5,4,1:0:0:0:
322,272,79310,1,0,0:0:0:0:
306,192,79395,1,2,0:0:0:0:
246,136,79480,1,0,0:0:0:0:
74,192,79566,2,0,L|66:88,1,85,8|0,1:0|0:0,0:0:0:0:
170,94,79907,2,0,L|191:7,1,85,2|4,0:0|1:0,0:0:0:0:
421,347,80248,2,0,L|501:299,1,85,8|0,1:0|0:0,0:0:0:0:
248,256,80588,6,0,L|140:212,1,85,4|0,1:0|0:0,0:0:0:0:
404,312,80929,1,8,1:0:0:0:
420,184,81100,1,2,0:0:0:0:
318,70,81270,1,0,0:0:0:0:
216,24,81441,1,4,1:0:0:0:
445,335,81611,1,8,1:0:0:0:
485,263,81696,1,0,0:0:0:0:
469,183,81782,1,2,0:0:0:0:
413,127,81867,1,0,0:0:0:0:
229,311,81952,6,0,L|141:263,1,85,4|2,1:0|2:0,0:0:0:0:
385,323,82293,2,0,L|429:223,1,85,8|0,1:0|0:0,0:0:0:0:
337,111,82634,1,2,0:0:0:0:
192,32,82804,1,4,1:0:0:0:
432,320,82975,2,0,L|448:216,1,85,8|0,1:0|0:0,0:0:0:0:
212,176,83316,6,0,L|100:156,1,85,4|0,1:0|0:0,0:0:0:0:
316,336,83657,1,8,1:0:0:0:
404,268,83827,1,2,0:0:0:0:
376,128,83998,1,0,0:0:0:0:
264,48,84168,1,4,1:0:0:0:
32,308,84338,2,0,L|60:196,1,85,8|0,1:0|0:0,0:0:0:0:
288,164,84679,6,0,L|184:164,1,85,4|2,1:0|0:0,0:0:0:0:
440,196,85020,2,0,P|456:280|376:328,1,170,8|2,1:0|0:0,0:0:0:0:
240,328,85532,1,4,1:0:0:0:
476,236,85702,2,0,L|484:120,1,85,8|0,1:0|0:0,0:0:0:0:
248,340,86043,6,0,L|192:236,1,85,4|0,1:0|0:0,0:0:0:0:
444,256,86384,1,8,1:0:0:0:
476,179,86554,1,2,2:0:0:0:
446,101,86724,1,0,0:0:0:0:
372,65,86895,1,4,1:0:0:0:
136,348,87066,1,8,1:0:0:0:
80,224,87236,1,0,0:0:0:0:
312,168,87407,6,0,L|432:168,3,85,0|0|2|0,1:0|0:0|0:0|0:0,0:0:0:0:
252,340,88088,2,0,L|184:340,2,42.5,2|0|0,0:0|0:0|0:0,0:0:0:0:
488,292,88429,2,0,L|496:208,1,85,4|0,0:0|0:0,0:0:0:0:
260,272,88770,6,0,L|80:232,1,170,4|8,1:0|1:0,0:0:0:0:
180,160,89282,1,2,0:0:0:0:
264,104,89452,1,0,0:0:0:0:
120,68,89623,1,4,1:0:0:0:
356,332,89793,2,0,L|372:228,1,85,8|2,1:0|0:0,0:0:0:0:
204,160,90134,6,0,L|120:128,1,85,4|0,1:0|0:0,0:0:0:0:
360,336,90475,2,0,L|392:224,1,85,8|0,1:0|0:0,0:0:0:0:
344,112,90816,1,2,0:0:0:0:
192,52,90986,1,0,0:0:0:0:
428,320,91157,2,0,L|440:200,1,85,8|0,1:0|0:0,0:0:0:0:
280,144,91498,6,0,L|196:116,1,85,4|0,1:0|0:0,0:0:0:0:
432,312,91838,2,0,P|444:268|344:172,1,170,8|0,1:0|0:0,0:0:0:0:
216,136,92350,1,4,1:0:0:0:
448,320,92520,1,8,1:0:0:0:
468,232,92605,1,0,0:0:0:0:
416,148,92691,1,0,0:0:0:0:
184,324,92861,5,4,1:0:0:0:
80,297,93032,1,0,1:0:0:0:
330,254,93202,1,8,1:0:0:0:
432,184,93373,2,0,L|436:96,1,85,0|2,0:0|0:0,0:0:0:0:
280,40,93713,2,0,L|332:36,1,42.5,4|0,1:0|0:0,0:0:0:0:
488,272,93884,2,0,L|496:172,1,85,8|0,1:0|1:0,0:0:0:0:
264,128,94225,6,0,L|76:128,1,170,4|8,1:0|1:0,0:0:0:0:
180,128,94736,1,2,0:0:0:0:
264,128,94907,1,0,0:0:0:0:
176,132,95077,1,4,1:0:0:0:
408,332,95248,2,0,P|428:272|408:228,1,85,8|0,1:0|0:0,0:0:0:0:
380,192,95503,1,0,0:0:0:0:
212,120,95588,6,0,L|96:120,1,85,4|0,1:0|0:0,0:0:0:0:
360,324,95929,2,0,L|368:240,1,85,8|0,1:0|0:0,0:0:0:0:
212,184,96270,2,0,L|220:100,1,85,2|4,2:0|1:0,0:0:0:0:
452,228,96611,2,0,L|460:140,1,85,8|0,1:0|0:0,0:0:0:0:
216,272,96952,6,0,P|144:224|212:160,1,170,4|8,1:0|1:0,0:0:0:0:
328,164,97463,2,0,P|336:104|256:32,1,170,2|4,2:0|1:0,0:0:0:0:
28,328,97975,2,0,L|24:232,1,85,8|0,1:0|0:0,0:0:0:0:
255,296,98316,6,0,L|319:276,2,42.5,4|0|0,1:0|0:0|0:0,0:0:0:0:
409,229,98657,2,0,L|505:229,2,85,8|0|2,1:0|0:0|2:0,0:0:0:0:
239,225,99168,1,4,1:0:0:0:
210,233,99224,1,0,0:0:0:0:
239,225,99282,1,0,0:0:0:0:
274,188,99338,2,0,P|316:150|247:124,1,127.500004863739,8|0,1:0|0:0,0:0:0:0:
104,135,99679,6,0,L|39:35,1,85,4|0,1:0|0:0,0:0:0:0:
288,348,100020,2,0,L|312:264,1,85,8|2,1:0|0:0,0:0:0:0:
232,128,100361,1,0,2:0:0:0:
290,107,100446,1,0,0:0:0:0:
351,80,100532,1,4,1:0:0:0:
119,280,100702,1,8,1:0:0:0:
75,188,100787,1,0,0:0:0:0:
107,92,100873,1,0,0:0:0:0:
183,40,100958,1,0,0:0:0:0:
337,324,101043,6,0,L|357:256,1,42.5,4|0,1:0|0:0,0:0:0:0:
281,220,101213,2,0,L|265:168,1,42.5,2|0,0:0|0:0,0:0:0:0:
425,248,101384,6,0,P|442:203|437:156,1,85,8|0,1:0|0:0,0:0:0:0:
377,52,101725,1,2,2:0:0:0:
292,6,101895,1,4,1:0:0:0:
61,324,102066,2,0,L|161:320,1,85,8|0,1:0|0:0,0:0:0:0:
377,176,102407,6,0,L|205:176,1,170,4|8,1:0|1:0,0:0:0:0:
384,324,102918,1,2,0:0:0:0:
334,198,103088,1,0,0:0:0:0:
232,124,103259,1,4,1:0:0:0:
468,280,103429,2,0,L|484:168,1,85,8|0,1:0|0:0,0:0:0:0:
332,152,103770,5,4,1:0:0:0:
184,108,103941,1,2,2:0:0:0:
424,316,104111,2,0,P|448:232|440:208,1,85,8|2,1:0|2:0,0:0:0:0:
340,128,104452,1,2,2:0:0:0:
180,108,104623,1,4,1:0:0:0:
412,332,104793,2,0,L|420:244,1,85,8|0,1:0|0:0,0:0:0:0:
184,160,105134,6,0,L|64:144,1,85,4|2,1:0|2:0,0:0:0:0:
340,332,105475,1,8,1:0:0:0:
420,232,105645,1,2,0:0:0:0:
380,84,105816,1,0,0:0:0:0:
224,56,105986,1,4,1:0:0:0:
456,332,106157,2,0,L|464:236,1,85,8|0,1:0|0:0,0:0:0:0:
232,224,106498,6,0,L|108:204,1,85,0|2,1:0|2:0,0:0:0:0:
380,328,106838,1,8,1:0:0:0:
412,224,107008,1,0,1:0:0:0:
364,108,107178,1,2,2:0:0:0:
262,55,107349,1,4,1:0:0:0:
408,328,107520,2,0,L|412:228,1,85,8|0,1:0|0:0,0:0:0:0:
136,264,107861,6,0,L|128:160,1,85,4|0,1:0|0:0,0:0:0:0:
360,168,108202,2,0,L|476:184,1,85,8|2,1:0|0:0,0:0:0:0:
344,280,108543,6,0,L|232:264,1,85,0|4,0:0|1:0,0:0:0:0:
172,360,108884,2,0,L|284:344,1,85,8|0,1:0|0:0,0:0:0:0:
24,380,109225,6,0,L|8:272,1,85,4|0,1:0|1:0,0:0:0:0:
248,332,109566,2,0,L|260:232,1,85,8|0,1:0|0:0,0:0:0:0:
152,240,109907,2,0,L|44:224,1,85,2|0,0:0|0:0,0:0:0:0:
300,316,110248,2,0,L|408:300,1,85,8|0,1:0|0:0,0:0:0:0:
155,197,110588,6,0,P|69:274|166:287,1,255,4|0,0:0|0:0,0:0:0:0:
239,161,111270,2,0,L|62:160,2,170,2|0|2,0:0|0:0|0:0,0:0:0:0:
393,294,112123,6,0,L|404:123,1,170
250,126,112634,2,0,L|48:101,1,170,2|0,0:0|0:0,0:0:0:0:
286,307,113316,6,0,L|393:301,2,85,2|0|0,0:0|0:0|0:0,0:0:0:0:
201,315,113827,2,0,P|134:249|276:81,1,340
336,140,114679,6,0,P|388:187|324:339,1,255,2|0,0:0|0:0,0:0:0:0:
247,318,115361,2,0,L|432:340,1,170,2|0,0:0|0:0,0:0:0:0:
138,267,116043,6,0,P|90:239|160:84,1,255,2|0,0:0|0:0,0:0:0:0:
229,86,116725,2,0,L|48:68,1,170,2|0,0:0|0:0,0:0:0:0:
240,330,117407,6,0,P|288:302|216:144,1,255,2|0,0:0|0:0,0:0:0:0:
147,143,118089,2,0,B|62:143|62:143|147:143,1,170,2|0,0:0|0:0,0:0:0:0:
419,136,118770,6,0,L|520:136,2,85,2|0|0,0:0|0:0|0:0,0:0:0:0:
254,243,119282,2,0,P|242:183|321:95,1,170
388,252,119793,2,0,L|383:144,1,85
292,68,120134,6,0,P|220:92|297:204,1,255,2|0,0:0|0:0,0:0:0:0:
382,177,120816,2,0,P|433:112|361:63,1,170,2|0,0:0|0:0,0:0:0:0:
109,376,121498,6,0,P|52:246|145:222,1,255,2|0,0:0|0:0,0:0:0:0:
211,282,122179,2,0,L|219:175,1,85,2|0,0:0|0:0,0:0:0:0:
132,149,122520,2,0,L|140:42,1,85
224,34,122861,6,0,P|311:116|204:169,1,255,2|0,0:0|0:0,0:0:0:0:
130,178,123543,2,0,L|41:178,2,85,2|0|0,0:0|0:0|0:0,0:0:0:0:
403,342,124225,6,0,P|458:313|377:165,1,255,2|0,0:0|0:0,0:0:0:0:
321,151,124907,2,0,P|238:95|349:29,1,255,2|0,0:0|0:0,0:0:0:0:
413,333,125588,6,0,P|453:275|358:142,1,255
225,105,126270,2,0,L|131:105,1,85,2|0,0:0|0:0,0:0:0:0:
243,217,126611,2,0,L|364:217,1,85,2|0,0:0|0:0,0:0:0:0:
191,328,126952,6,0,P|133:251|217:112,1,255,2|2,0:0|0:0,0:0:0:0:
331,76,127634,2,0,L|503:76,1,170
221,62,128316,6,0,P|145:119|230:253,1,255
302,338,128998,2,0,P|305:202|266:157,1,170,2|2,0:0|0:0,0:0:0:0:
86,305,129679,6,0,P|32:256|86:153,1,170,2|0,0:0|0:0,0:0:0:0:
143,97,130191,2,0,B|225:81|225:81|23:70,1,255
304,324,131043,6,0,L|311:201,1,85,0|2,0:0|0:0,0:0:0:0:
223,204,131384,2,0,L|230:81,1,85
313,323,131725,1,2,0:0:0:0:
362,261,131895,1,0,0:0:0:0:
313,200,132066,2,0,L|233:147,1,85,2|0,0:0|0:0,0:0:0:0:
472,243,132407,6,0,L|485:137,1,85,4|0,1:0|0:0,0:0:0:0:
431,82,132748,1,0,0:0:0:0:
337,35,132918,1,0,0:0:0:0:
101,232,133088,2,0,L|-17:232,2,85,8|0|0,1:0|0:0|0:0,0:0:0:0:
342,325,133600,6,0,L|362:152,1,170,4|0,1:0|0:0,0:0:0:0:
208,96,134111,2,0,L|107:79,1,85,4|0,1:0|0:0,0:0:0:0:
161,58,134367,1,0,0:0:0:0:
326,330,134452,2,0,L|331:231,1,85,8|0,1:0|0:0,0:0:0:0:
232,178,134793,2,0,L|242:79,1,85
419,192,135134,6,0,L|515:191,1,85,4|0,1:0|0:0,0:0:0:0:
419,113,135475,2,0,L|410:24,1,85
165,319,135816,2,0,P|97:260|138:209,1,170,8|0,1:0|0:0,0:0:0:0:
365,154,136327,1,4,1:0:0:0:
467,116,136498,6,0,L|515:26,1,85,2|0,0:0|0:0,0:0:0:0:
277,18,136838,2,0,L|180:17,1,85,8|0,1:0|0:0,0:0:0:0:
423,341,137179,1,8,1:0:0:0:
465,267,137265,1,0,0:0:0:0:
427,182,137350,1,0,2:0:0:0:
352,142,137435,1,0,0:0:0:0:
295,126,137520,2,0,L|393:109,1,85,2|0,2:0|0:0,0:0:0:0:
136,337,137861,6,0,L|124:154,1,170,4|0,1:0|0:0,0:0:0:0:
212,102,138373,1,4,1:0:0:0:
450,316,138543,2,0,L|464:217,1,85,8|0,1:0|0:0,0:0:0:0:
362,134,138884,1,0,0:0:0:0:
311,114,138969,1,0,0:0:0:0:
220,144,139054,1,4,1:0:0:0:
206,62,139140,1,0,0:0:0:0:
312,132,139225,6,0,L|320:45,1,85
58,332,139566,2,0,P|45:265|95:223,1,127.5,4|0,1:0|0:0,0:0:0:0:
263,288,139907,2,0,L|280:197,1,85,8|0,1:0|0:0,0:0:0:0:
201,76,140248,1,0,0:0:0:0:
94,32,140418,1,0,0:0:0:0:
323,344,140588,6,0,L|424:325,2,85,4|0|2,1:0|0:0|0:0,0:0:0:0:
152,350,141100,1,0,1:0:0:0:
388,227,141270,2,0,L|388:122,1,85,8|0,1:0|0:0,0:0:0:0:
251,45,141611,1,2,0:0:0:0:
439,25,141782,1,4,1:0:0:0:
338,263,141952,5,2,0:0:0:0:
388,244,142037,1,0,0:0:0:0:
440,224,142123,1,0,2:0:0:0:
208,328,142293,2,0,L|196:204,1,85,4|0,1:0|0:0,0:0:0:0:
440,240,142634,1,8,1:0:0:0:
471,213,142719,1,0,0:0:0:0:
479,171,142804,1,0,2:0:0:0:
476,138,142862,1,0,0:0:0:0:
456,112,142918,1,0,0:0:0:0:
422,95,142974,1,2,0:0:0:0:
346,82,143145,1,0,0:0:0:0:
432,340,143316,6,0,L|432:168,1,170,2|2,0:0|0:0,0:0:0:0:
344,196,143827,1,0,0:0:0:0:
112,360,143998,1,2,0:0:0:0:
84,327,144083,1,0,0:0:0:0:
72,287,144168,1,0,0:0:0:0:
76,245,144253,1,0,0:0:0:0:
97,208,144338,1,2,0:0:0:0:
130,182,144424,1,0,0:0:0:0:
171,171,144509,1,0,0:0:0:0:
324,272,144679,6,0,L|380:272,2,42.5,2|0|0,0:0|0:0|0:0,0:0:0:0:
168,272,145020,2,0,L|112:272,2,42.5,2|0|0,0:0|0:0|0:0,0:0:0:0:
296,236,145361,2,0,P|332:212|352:168,1,85,2|0,0:0|0:0,0:0:0:0:
324,120,145617,1,0,0:0:0:0:
284,80,145702,1,2,0:0:0:0:
182,26,145873,1,0,0:0:0:0:
344,300,146043,6,0,P|380:224|332:148,1,170,2|0,0:0|0:0,0:0:0:0:
256,100,146554,1,0,0:0:0:0:
84,320,146725,2,0,L|76:212,1,85,2|0,0:0|0:0,0:0:0:0:
164,196,147066,2,0,L|256:195,2,85,2|0|0,0:0|0:0|0:0,0:0:0:0:
244,340,147577,6,0,L|292:336,2,42.5,2|0|0,0:0|0:0|0:0,0:0:0:0:
108,304,147918,1,0,0:0:0:0:
92,228,148003,1,0,0:0:0:0:
124,148,148088,1,2,0:0:0:0:
220,104,148259,1,0,0:0:0:0:
304,72,148429,1,2,0:0:0:0:
220,104,148600,1,0,0:0:0:0:
304,72,148770,6,0,L|324:268,1,170,2|0,0:0|0:0,0:0:0:0:
232,256,149282,1,0,0:0:0:0:
147,249,149452,2,0,L|189:84,1,170
108,312,150134,6,0,L|100:208,1,85,2|0,0:0|0:0,0:0:0:0:
188,196,150475,2,0,L|196:92,1,85
280,144,150816,2,0,L|272:40,1,85,2|0,0:0|0:0,0:0:0:0:
360,148,151157,2,0,L|368:44,1,85,2|0,0:0|0:0,0:0:0:0:
192,336,151498,6,0,P|112:256|212:176,1,255,2|0,0:0|0:0,0:0:0:0:
276,316,152179,2,0,L|288:52,1,255,2|0,0:0|0:0,0:0:0:0:
143,36,152861,5,2,2:0:0:0:
288,36,153032,1,0,2:0:0:0:
434,37,153202,1,2,2:0:0:0:
289,36,153373,1,0,2:0:0:0:
144,36,153543,2,0,P|68:104|64:188,1,170,2|2,2:0|2:0,0:0:0:0:
156,256,154054,1,0,2:0:0:0:
400,312,154225,6,0,L|408:192,1,85,4|0,2:0|0:0,0:0:0:0:
164,244,154566,2,0,L|348:232,1,170,8|2,1:0|0:0,0:0:0:0:
248,148,155077,1,4,1:0:0:0:
16,320,155248,2,0,L|12:212,1,85,8|0,1:0|2:0,0:0:0:0:
248,280,155588,6,0,L|444:260,1,170,4|8,1:0|1:0,0:0:0:0:
332,200,156100,1,0,0:0:0:0:
248,164,156270,1,2,0:0:0:0:
332,148,156441,1,0,0:0:0:0:
100,328,156611,2,0,L|92:212,1,85,8|0,1:0|0:0,0:0:0:0:
330,188,156952,6,0,L|212:183,1,85,4|0,1:0|0:0,0:0:0:0:
403,318,157293,2,0,L|417:136,1,170,8|2,1:0|0:0,0:0:0:0:
314,116,157804,1,4,1:0:0:0:
68,267,157975,1,8,1:0:0:0:
43,208,158060,1,0,0:0:0:0:
61,147,158145,1,0,0:0:0:0:
113,111,158230,1,0,0:0:0:0:
268,311,158316,6,0,L|280:217,1,85,4|0,1:0|1:0,0:0:0:0:
22,212,158657,1,8,1:0:0:0:
124,169,158827,2,0,P|107:93|4:57,1,170
278,343,159338,2,0,L|394:328,1,85,8|0,1:0|0:0,0:0:0:0:
133,317,159679,6,0,L|127:197,1,85,4|0,1:0|0:0,0:0:0:0:
214,165,160020,2,0,L|29:147,1,170,8|0,1:0|0:0,0:0:0:0:
131,102,160532,1,4,1:0:0:0:
360,301,160702,2,0,L|364:186,1,85,8|0,1:0|0:0,0:0:0:0:
109,216,161043,6,0,L|308:216,1,170,4|8,1:0|1:0,0:0:0:0:
194,131,161554,1,0,0:0:0:0:
41,158,161725,2,0,L|51:65,1,85,2|4,2:0|1:0,0:0:0:0:
294,296,162066,2,0,L|389:271,1,85,8|0,1:0|0:0,0:0:0:0:
137,284,162407,6,0,L|130:115,1,170,4|8,1:0|1:0,0:0:0:0:
285,66,162918,1,2,0:0:0:0:
200,57,163088,1,0,0:0:0:0:
115,37,163259,1,4,1:0:0:0:
352,332,163429,2,0,L|368:240,1,85,8|0,1:0|0:0,0:0:0:0:
126,183,163770,6,0,L|112:97,1,85,4|0,1:0|1:0,0:0:0:0:
351,327,164111,1,8,1:0:0:0:
257,301,164282,1,0,0:0:0:0:
164,293,164452,2,0,P|134:237|145:207,1,85,2|4,0:0|1:0,0:0:0:0:
162,174,164680,1,0,0:0:0:0:
193,148,164736,1,0,0:0:0:0:
231,135,164793,1,8,1:0:0:0:
367,85,164963,1,0,0:0:0:0:
128,321,165134,6,0,L|115:145,1,170,4|8,1:0|1:0,0:0:0:0:
269,104,165645,1,2,0:0:0:0:
167,65,165816,1,0,0:0:0:0:
269,104,165986,1,0,0:0:0:0:
39,320,166157,2,0,L|31:224,1,85,8|0,1:0|0:0,0:0:0:0:
269,323,166498,6,0,L|461:313,1,170,0|8,1:0|1:0,0:0:0:0:
285,224,167009,1,0,0:0:0:0:
232,224,167094,1,0,0:0:0:0:
285,224,167179,2,0,L|300:125,1,85,2|4,0:0|1:0,0:0:0:0:
67,224,167520,2,0,L|51:121,1,85,8|0,1:0|0:0,0:0:0:0:
236,82,167861,6,0,L|348:73,1,85,4|0,1:0|0:0,0:0:0:0:
88,329,168202,2,0,L|80:243,1,85,8|2,1:0|0:0,0:0:0:0:
236,183,168543,2,0,L|330:172,1,85,0|4,2:0|1:0,0:0:0:0:
89,207,168884,2,0,L|16:148,1,85,8|0,1:0|0:0,0:0:0:0:
176,94,169225,5,4,1:0:0:0:
329,81,169395,1,0,1:0:0:0:
176,94,169566,2,0,L|356:94,1,170,8|2,1:0|0:0,0:0:0:0:
209,91,170077,1,4,1:0:0:0:
448,319,170248,2,0,L|463:222,1,85,8|0,1:0|0:0,0:0:0:0:
308,190,170588,6,0,L|222:171,1,85,4|0,1:0|0:0,0:0:0:0:
457,318,170929,2,0,L|481:120,1,170,8|0,1:0|0:0,0:0:0:0:
340,96,171441,1,4,1:0:0:0:
111,330,171611,2,0,L|211:322,1,85,8|0,1:0|0:0,0:0:0:0:
434,236,171952,6,0,L|422:135,1,85,4|0,1:0|0:0,0:0:0:0:
179,323,172293,1,8,1:0:0:0:
74,227,172463,1,0,0:0:0:0:
108,99,172634,1,2,0:0:0:0:
210,21,172804,1,0,0:0:0:0:
442,327,172975,2,0,L|449:226,1,85,8|0,1:0|0:0,0:0:0:0:
218,221,173316,6,0,L|133:210,1,85,4|0,1:0|0:0,0:0:0:0:
289,318,173657,2,0,P|336:283|272:209,1,170,8|0,1:0|0:0,0:0:0:0:
147,188,174168,1,4,1:0:0:0:
385,263,174338,2,0,L|389:162,1,85,8|0,1:0|0:0,0:0:0:0:
157,254,174679,5,4,1:0:0:0:
259,176,174850,1,0,1:0:0:0:
28,247,175020,2,0,L|25:150,1,85,8|0,1:0|1:0,1:0:0:0:
84,133,175276,1,0,0:0:0:0:
163,110,175361,2,0,L|169:18,1,85,2|4,0:0|1:0,0:0:0:0:
431,268,175702,2,0,L|437:176,1,85,8|0,1:0|0:0,0:0:0:0:
206,120,176043,6,0,L|30:110,1,170,4|0,0:0|0:0,0:0:0:0:
122,117,176554,1,0,0:0:0:0:
354,338,176725,2,0,L|366:152,1,170,8|0,1:0|0:0,0:0:0:0:
132,136,177236,6,0,L|312:136,1,170,4|0,1:0|2:0,0:0:0:0:
156,316,177748,2,0,L|152:196,1,85,4|0,1:0|0:0,0:0:0:0:
384,188,178088,2,0,L|180:188,1,170,8|0,1:0|0:0,0:0:0:0:
300,188,178600,1,0,0:0:0:0:
68,312,178770,6,0,L|60:132,1,170,4|0,1:0|0:0,0:0:0:0:
152,84,179282,1,0,0:0:0:0:
384,320,179452,2,0,P|480:248|496:188,1,170,8|0,1:0|0:0,0:0:0:0:
480,128,179878,1,0,0:0:0:0:
436,64,179963,1,4,1:0:0:0:
205,80,180134,5,2,0:0:0:0:
113,140,180304,1,0,0:0:0:0:
109,252,180475,1,4,1:0:0:0:
193,320,180645,1,0,0:0:0:0:
437,292,180816,2,0,B|371:237|371:237|445:197|445:197|374:137,1,255,8|0,1:0|0:0,0:0:0:0:
147,30,181498,6,0,P|89:63|162:115,1,170,4|0,1:0|0:0,0:0:0:0:
240,116,182009,1,0,0:0:0:0:
472,216,182179,2,0,L|264:216,1,170,8|0,1:0|0:0,0:0:0:0:
440,324,182691,1,4,1:0:0:0:
484,324,182776,1,0,0:0:0:0:
440,324,182861,6,0,L|324:324,1,85
124,112,183202,2,0,L|24:100,1,85,4|0,1:0|0:0,0:0:0:0:
280,296,183543,2,0,P|368:260|264:200,1,255,8|0,1:0|0:0,0:0:0:0:
48,312,184225,6,0,L|236:312,1,170,4|0,1:0|0:0,0:0:0:0:
132,224,184736,1,4,1:0:0:0:
368,324,184907,2,0,L|368:208,1,85,8|0,1:0|0:0,0:0:0:0:
232,152,185248,1,0,0:0:0:0:
367,128,185418,1,4,1:0:0:0:
263,307,185588,5,0,0:0:0:0:
243,219,185674,1,0,0:0:0:0:
275,135,185759,1,0,0:0:0:0:
504,68,185929,2,0,L|392:68,1,85,4|0,1:0|0:0,0:0:0:0:
188,48,186270,2,0,P|133:63|118:107,1,85,8|0,1:0|0:0,0:0:0:0:
102,142,186525,1,0,0:0:0:0:
120,84,186611,2,0,P|146:52|188:48,1,85
326,342,186952,5,2,0:0:0:0:
402,266,187123,1,0,0:0:0:0:
378,134,187293,1,2,0:0:0:0:
274,70,187463,1,0,0:0:0:0:
100,348,187634,2,0,L|96:244,1,85,2|0,0:0|0:0,0:0:0:0:
188,180,187975,1,2,0:0:0:0:
144,144,188060,1,0,0:0:0:0:
104,116,188145,1,0,0:0:0:0:
148,84,188230,1,0,0:0:0:0:
192,56,188316,5,2,0:0:0:0:
148,40,188401,1,0,0:0:0:0:
104,28,188486,1,0,0:0:0:0:
148,20,188571,1,0,0:0:0:0:
196,16,188657,2,0,L|196:124,1,85,2|0,0:0|0:0,0:0:0:0:
108,192,188998,2,0,L|108:300,1,85,2|0,0:0|0:0,0:0:0:0:
208,256,189338,2,0,L|208:364,1,85,2|0,0:0|0:0,0:0:0:0:
40,360,189679,6,0,P|0:288|56:228,1,170,2|0,0:0|0:0,0:0:0:0:
144,220,190191,2,0,P|144:176|48:96,1,170
144,52,190702,2,0,L|248:48,1,85,2|0,0:0|0:0,0:0:0:0:
144,336,191043,6,0,L|136:224,1,85
296,264,191384,1,2,0:0:0:0:
376,180,191554,1,0,0:0:0:0:
364,112,191640,1,0,0:0:0:0:
316,68,191725,1,2,0:0:0:0:
232,64,191895,1,0,0:0:0:0:
316,52,192066,1,2,0:0:0:0:
400,48,192236,1,0,0:0:0:0:
168,336,192407,6,0,L|164:240,1,85,2|0,0:0|0:0,0:0:0:0:
252,156,192748,2,0,L|132:144,1,85,0|2,0:0|0:0,0:0:0:0:
252,344,193088,1,0,0:0:0:0:
328,264,193259,1,0,0:0:0:0:
304,144,193429,1,2,0:0:0:0:
200,84,193600,1,0,0:0:0:0:
352,304,193770,6,0,L|464:304,2,85,0|2|0,0:0|0:0|0:0,0:0:0:0:
196,260,194282,2,0,L|84:260,2,85,0|2|0,0:0|0:0|0:0,0:0:0:0:
348,256,194793,2,0,L|352:160,1,85
196,344,195134,6,0,P|136:276|228:152,1,255,2|0,0:0|0:0,0:0:0:0:
372,360,195816,2,0,P|448:288|400:156,1,255,2|0,0:0|0:0,0:0:0:0:
172,288,196498,5,2,0:0:0:0:
56,284,196668,1,0,0:0:0:0:
172,288,196838,1,2,0:0:0:0:
56,284,197009,1,0,0:0:0:0:
368,264,197179,1,2,0:0:0:0:
448,248,197292,1,0,0:0:0:0:
488,200,197406,1,0,0:0:0:0:
492,136,197520,1,2,0:0:0:0:
452,88,197634,1,0,0:0:0:0:
388,72,197747,1,0,0:0:0:0:
192,248,197861,6,0,L|184:52,1,170,6|8,0:0|1:0,0:0:0:0:
332,68,198373,2,0,L|124:48,1,170,2|4,0:0|1:0,0:0:0:0:
340,344,198884,2,0,L|352:232,1,85,8|0,1:0|0:0,0:0:0:0:
104,304,199225,5,4,1:0:0:0:
52,224,199395,1,0,0:0:0:0:
88,136,199566,1,8,1:0:0:0:
172,92,199736,1,0,0:0:0:0:
404,316,199907,2,0,L|412:228,1,85,2|4,0:0|1:0,0:0:0:0:
180,176,200248,2,0,L|176:80,1,85,8|0,1:0|0:0,0:0:0:0:
416,328,200588,6,0,L|428:128,1,170,4|8,1:0|1:0,0:0:0:0:
288,152,201100,2,0,L|520:136,1,170,2|4,0:0|1:0,0:0:0:0:
216,256,201611,2,0,L|112:252,1,85,8|0,1:0|0:0,0:0:0:0:
372,264,201952,5,4,1:0:0:0:
492,264,202123,1,0,2:0:0:0:
252,344,202293,2,0,L|68:344,1,170,8|2,1:0|0:0,0:0:0:0:
168,340,202804,1,4,1:0:0:0:
416,340,202975,2,0,L|296:340,1,85,8|0,1:0|0:0,0:0:0:0:
80,280,203316,6,0,L|324:280,1,170,4|8,1:0|1:0,0:0:0:0:
160,204,203827,1,2,2:0:0:0:
68,124,203998,2,0,L|204:120,1,85,0|4,0:0|1:0,0:0:0:0:
396,236,204338,2,0,L|404:148,1,85,8|0,1:0|0:0,0:0:0:0:
148,268,204679,6,0,L|380:268,1,170,4|8,1:0|1:0,0:0:0:0:
232,216,205191,1,0,0:0:0:0:
148,180,205361,1,2,2:0:0:0:
232,128,205532,1,4,1:0:0:0:
472,192,205702,2,0,L|472:88,1,85,8|0,1:0|0:0,0:0:0:0:
216,40,206043,6,0,L|112:40,1,85,4|0,1:0|0:0,0:0:0:0:
280,304,206384,2,0,L|392:304,2,85,8|2|0,1:0|0:0|0:0,0:0:0:0:
143,306,206895,1,4,1:0:0:0:
388,264,207066,2,0,L|388:168,1,85,8|0,1:0|0:0,0:0:0:0:
132,256,207407,6,0,L|116:216,1,42.5,4|0,1:0|0:0,0:0:0:0:
196,160,207577,2,0,L|204:108,1,42.5
32,176,207748,2,0,P|36:104|112:52,1,170,8|2,1:0|0:0,0:0:0:0:
248,48,208259,2,0,L|184:40,1,42.5,4|0,1:0|0:0,0:0:0:0:
56,296,208429,2,0,L|48:200,1,85,8|0,1:0|0:0,0:0:0:0:
280,320,208770,6,0,P|328:256|264:200,1,170,4|8,1:0|1:0,0:0:0:0:
172,136,209282,1,2,0:0:0:0:
257,48,209452,1,0,0:0:0:0:
504,220,209623,2,0,L|512:144,1,42.5,4|0,1:0|0:0,0:0:0:0:
324,124,209793,2,0,L|248:112,1,42.5,8|0,1:0|0:0,0:0:0:0:
336,68,209963,2,0,L|392:60,1,42.5
216,320,210134,5,4,2:2:0:0:
164,268,210219,1,0,0:0:0:0:
156,184,210304,1,0,0:0:0:0:
192,112,210390,1,0,0:0:0:0:
336,184,210475,2,0,L|340:64,1,85,8|0,1:0|0:0,0:0:0:0:
236,84,210816,2,0,L|232:-16,1,85,2|4,0:0|1:0,0:0:0:0:
420,288,211157,2,0,L|424:180,1,85,8|0,1:0|0:0,0:0:0:0:
168,156,211498,6,0,L|72:148,1,85,4|0,1:0|0:0,0:0:0:0:
328,304,211838,1,8,1:0:0:0:
392,256,211924,1,0,0:0:0:0:
420,192,212009,2,0,L|408:96,1,85,2|0,0:0|0:0,0:0:0:0:
273,32,212350,1,4,1:0:0:0:
28,292,212520,2,0,L|24:204,1,85,8|0,1:0|0:0,0:0:0:0:
284,280,212861,6,0,L|296:184,1,85,4|0,1:0|1:0,0:0:0:0:
40,164,213202,2,0,P|16:121|24:64,1,85,8|0,1:0|0:0,0:0:0:0:
48,32,213458,1,0,0:0:0:0:
116,4,213543,1,2,2:0:0:0:
292,8,213713,1,4,1:0:0:0:
36,304,213884,2,0,L|28:192,1,85,8|0,1:0|0:0,0:0:0:0:
168,152,214225,6,0,L|176:60,1,85,4|0,1:0|0:0,0:0:0:0:
416,296,214566,2,0,L|424:184,1,85,8|2,1:0|0:0,0:0:0:0:
284,144,214907,2,0,L|172:124,1,85,0|4,0:0|1:0,0:0:0:0:
440,124,215248,2,0,L|448:20,1,85,8|0,1:0|0:0,0:0:0:0:
196,316,215588,6,0,L|320:304,1,85,2|0,0:0|0:0,0:0:0:0:
40,328,215929,2,0,L|20:208,1,85,8|0,1:0|0:0,0:0:0:0:
156,124,216270,1,2,0:0:0:0:
28,56,216441,1,4,1:0:0:0:
260,264,216611,2,0,L|380:264,1,85,8|0,1:0|0:0,0:0:0:0:
80,248,216952,5,4,0:0:0:0:
256,192,217123,12,4,219679,0:0:0:0:
