osu file format v14

[General]
AudioFilename: audio 1.300x (pitch raised).mp3
AudioLeadIn: 0
PreviewTime: 65623
Countdown: 0
SampleSet: None
StackLeniency: 0.7
Mode: 3
LetterboxInBreaks: 0
SpecialStyle: 0
WidescreenStoryboard: 1

[Editor]
DistanceSpacing: 0.9
BeatDivisor: 4
GridSize: 4
TimelineZoom: 2.7

[Metadata]
Title:FIRST PROMIZE
TitleUnicode:FIRST PROMIZE
Artist:TAKUMI
ArtistUnicode:TAKUMI
Creator:doohomom11
Version:1.3x
Source:
Tags:jack chordjack practice osutrainer
BeatmapID:4542002
BeatmapSetID:2155019

[Difficulty]
HPDrainRate:8
CircleSize:4
OverallDifficulty:8
ApproachRate:5.4
SliderMultiplier:1.4
SliderTickRate:1

[Events]
//Background and Video events
0,0,"1.3.jpg",0,0
//Break Periods
//Storyboard Layer 0 (Background)
//Storyboard Layer 1 (Fail)
//Storyboard Layer 2 (Pass)
//Storyboard Layer 3 (Foreground)
//Storyboard Layer 4 (Overlay)
//Storyboard Sound Samples

[TimingPoints]
392,307.692307692308,4,3,0,19,1,0

[HitObjects]
64,192,1623,5,0,0:0:0:0:
320,192,1623,1,0,0:0:0:0:
192,192,1930,1,0,0:0:0:0:
320,192,1930,1,0,0:0:0:0:
64,192,2238,1,0,0:0:0:0:
448,192,2238,1,0,0:0:0:0:
192,192,2546,1,0,0:0:0:0:
64,192,2546,1,0,0:0:0:0:
192,192,2700,1,0,0:0:0:0:
320,192,2853,1,0,0:0:0:0:
448,192,2853,1,0,0:0:0:0:
192,192,3007,1,0,0:0:0:0:
64,192,3007,1,0,0:0:0:0:
448,192,3084,1,0,0:0:0:0:
320,192,3084,1,0,0:0:0:0:
64,192,3315,1,0,0:0:0:0:
448,192,3315,1,0,0:0:0:0:
192,192,3469,1,0,0:0:0:0:
320,192,3469,1,0,0:0:0:0:
320,192,3930,1,0,0:0:0:0:
192,192,4084,1,0,0:0:0:0:
448,192,4084,1,0,0:0:0:0:
64,192,4392,1,0,0:0:0:0:
448,192,4392,1,0,0:0:0:0:
64,192,4700,1,0,0:0:0:0:
320,192,4700,1,0,0:0:0:0:
192,192,5007,1,0,0:0:0:0:
320,192,5007,1,0,0:0:0:0:
192,192,5161,1,0,0:0:0:0:
64,192,5315,1,0,0:0:0:0:
448,192,5315,1,0,0:0:0:0:
320,192,5546,1,0,0:0:0:0:
448,192,5546,1,0,0:0:0:0:
64,192,5776,1,0,0:0:0:0:
320,192,5776,1,0,0:0:0:0:
192,192,5930,1,0,0:0:0:0:
64,192,5930,1,0,0:0:0:0:
448,192,6238,1,0,0:0:0:0:
320,192,6238,1,0,0:0:0:0:
448,192,6392,1,0,0:0:0:0:
192,192,6546,1,0,0:0:0:0:
320,192,6546,1,0,0:0:0:0:
64,192,6853,1,0,0:0:0:0:
320,192,6853,1,0,0:0:0:0:
64,192,7161,1,0,0:0:0:0:
448,192,7161,1,0,0:0:0:0:
192,192,7469,1,0,0:0:0:0:
448,192,7469,1,0,0:0:0:0:
320,192,7623,1,0,0:0:0:0:
64,192,7776,1,0,0:0:0:0:
448,192,7776,1,0,0:0:0:0:
320,192,7930,1,0,0:0:0:0:
192,192,7930,1,0,0:0:0:0:
320,192,8007,1,0,0:0:0:0:
320,192,8238,1,0,0:0:0:0:
192,192,8392,1,0,0:0:0:0:
64,192,8392,1,0,0:0:0:0:
192,192,8546,1,0,0:0:0:0:
320,192,8546,1,0,0:0:0:0:
320,192,8700,1,0,0:0:0:0:
448,192,8700,1,0,0:0:0:0:
64,192,8853,1,0,0:0:0:0:
448,192,8853,1,0,0:0:0:0:
64,192,9007,1,0,0:0:0:0:
192,192,9007,1,0,0:0:0:0:
320,192,9623,1,0,0:0:0:0:
192,192,9853,1,0,0:0:0:0:
64,192,10084,1,0,0:0:0:0:
320,192,10238,1,0,0:0:0:0:
448,192,10238,1,0,0:0:0:0:
64,192,10546,1,0,0:0:0:0:
320,192,10546,1,0,0:0:0:0:
192,192,10853,1,0,0:0:0:0:
448,192,10853,1,0,0:0:0:0:
64,192,11161,1,0,0:0:0:0:
192,192,11161,1,0,0:0:0:0:
320,192,11469,1,0,0:0:0:0:
448,192,11469,128,0,12700:0:0:0:0:
192,192,13930,5,0,0:0:0:0:
64,192,13930,1,0,0:0:0:0:
448,192,13930,1,0,0:0:0:0:
320,192,14007,1,0,0:0:0:0:
64,192,14007,1,0,0:0:0:0:
192,192,14084,1,0,0:0:0:0:
320,192,14084,1,0,0:0:0:0:
64,192,14161,1,0,0:0:0:0:
448,192,14161,1,0,0:0:0:0:
192,192,14238,1,0,0:0:0:0:
320,192,14238,1,0,0:0:0:0:
64,192,14238,1,0,0:0:0:0:
192,192,14315,1,0,0:0:0:0:
448,192,14315,1,0,0:0:0:0:
320,192,14392,1,0,0:0:0:0:
64,192,14392,1,0,0:0:0:0:
192,192,14469,1,0,0:0:0:0:
320,192,14546,1,0,0:0:0:0:
448,192,14546,1,0,0:0:0:0:
64,192,14546,1,0,0:0:0:0:
320,192,14623,1,0,0:0:0:0:
448,192,14623,1,0,0:0:0:0:
192,192,14700,1,0,0:0:0:0:
64,192,14700,1,0,0:0:0:0:
320,192,14776,1,0,0:0:0:0:
64,192,14776,1,0,0:0:0:0:
320,192,14853,1,0,0:0:0:0:
448,192,14853,1,0,0:0:0:0:
192,192,14853,1,0,0:0:0:0:
192,192,14930,1,0,0:0:0:0:
448,192,14930,1,0,0:0:0:0:
64,192,15007,1,0,0:0:0:0:
320,192,15007,1,0,0:0:0:0:
448,192,15084,1,0,0:0:0:0:
192,192,15084,1,0,0:0:0:0:
192,192,15161,1,0,0:0:0:0:
64,192,15161,1,0,0:0:0:0:
448,192,15161,1,0,0:0:0:0:
192,192,15238,1,0,0:0:0:0:
64,192,15238,1,0,0:0:0:0:
320,192,15238,1,0,0:0:0:0:
448,192,15315,1,0,0:0:0:0:
320,192,15315,1,0,0:0:0:0:
192,192,15392,1,0,0:0:0:0:
64,192,15392,1,0,0:0:0:0:
320,192,15469,1,0,0:0:0:0:
448,192,15469,1,0,0:0:0:0:
192,192,15469,1,0,0:0:0:0:
64,192,15546,1,0,0:0:0:0:
448,192,15546,1,0,0:0:0:0:
192,192,15623,1,0,0:0:0:0:
320,192,15623,1,0,0:0:0:0:
192,192,15700,1,0,0:0:0:0:
448,192,15700,1,0,0:0:0:0:
64,192,15776,1,0,0:0:0:0:
320,192,15776,1,0,0:0:0:0:
448,192,15776,1,0,0:0:0:0:
192,192,15853,1,0,0:0:0:0:
64,192,15930,1,0,0:0:0:0:
448,192,15930,1,0,0:0:0:0:
320,192,16007,1,0,0:0:0:0:
192,192,16007,1,0,0:0:0:0:
192,192,16084,1,0,0:0:0:0:
64,192,16084,1,0,0:0:0:0:
448,192,16084,1,0,0:0:0:0:
64,192,16161,1,0,0:0:0:0:
448,192,16161,1,0,0:0:0:0:
192,192,16238,1,0,0:0:0:0:
320,192,16238,1,0,0:0:0:0:
192,192,16315,1,0,0:0:0:0:
320,192,16315,1,0,0:0:0:0:
320,192,16392,1,0,0:0:0:0:
448,192,16392,1,0,0:0:0:0:
64,192,16392,1,0,0:0:0:0:
192,192,16469,1,0,0:0:0:0:
64,192,16469,1,0,0:0:0:0:
320,192,16546,1,0,0:0:0:0:
448,192,16546,1,0,0:0:0:0:
320,192,16623,1,0,0:0:0:0:
448,192,16623,1,0,0:0:0:0:
64,192,16700,1,0,0:0:0:0:
192,192,16700,1,0,0:0:0:0:
320,192,16700,1,0,0:0:0:0:
192,192,16776,1,0,0:0:0:0:
448,192,16776,1,0,0:0:0:0:
64,192,16853,1,0,0:0:0:0:
320,192,16853,1,0,0:0:0:0:
192,192,16930,1,0,0:0:0:0:
64,192,16930,1,0,0:0:0:0:
64,192,17007,1,0,0:0:0:0:
192,192,17007,1,0,0:0:0:0:
448,192,17007,1,0,0:0:0:0:
320,192,17084,1,0,0:0:0:0:
448,192,17084,1,0,0:0:0:0:
192,192,17161,1,0,0:0:0:0:
320,192,17161,1,0,0:0:0:0:
192,192,17238,1,0,0:0:0:0:
64,192,17238,1,0,0:0:0:0:
320,192,17315,1,0,0:0:0:0:
448,192,17315,1,0,0:0:0:0:
64,192,17315,1,0,0:0:0:0:
192,192,17392,1,0,0:0:0:0:
320,192,17392,1,0,0:0:0:0:
320,192,17469,1,0,0:0:0:0:
448,192,17469,1,0,0:0:0:0:
64,192,17546,1,0,0:0:0:0:
192,192,17546,1,0,0:0:0:0:
192,192,17623,1,0,0:0:0:0:
64,192,17623,1,0,0:0:0:0:
320,192,17623,1,0,0:0:0:0:
192,192,17700,1,0,0:0:0:0:
320,192,17700,1,0,0:0:0:0:
64,192,17776,1,0,0:0:0:0:
448,192,17776,1,0,0:0:0:0:
192,192,17853,1,0,0:0:0:0:
320,192,17930,1,0,0:0:0:0:
448,192,17930,1,0,0:0:0:0:
64,192,17930,1,0,0:0:0:0:
192,192,18007,1,0,0:0:0:0:
448,192,18007,1,0,0:0:0:0:
192,192,18084,1,0,0:0:0:0:
320,192,18084,1,0,0:0:0:0:
64,192,18161,1,0,0:0:0:0:
448,192,18161,1,0,0:0:0:0:
192,192,18238,1,0,0:0:0:0:
64,192,18238,1,0,0:0:0:0:
320,192,18238,1,0,0:0:0:0:
192,192,18315,1,0,0:0:0:0:
320,192,18315,1,0,0:0:0:0:
192,192,18392,1,0,0:0:0:0:
448,192,18392,1,0,0:0:0:0:
64,192,18469,1,0,0:0:0:0:
320,192,18469,1,0,0:0:0:0:
192,192,18546,1,0,0:0:0:0:
64,192,18546,1,0,0:0:0:0:
448,192,18546,1,0,0:0:0:0:
192,192,18623,1,0,0:0:0:0:
448,192,18623,1,0,0:0:0:0:
320,192,18700,1,0,0:0:0:0:
64,192,18700,1,0,0:0:0:0:
192,192,18776,1,0,0:0:0:0:
448,192,18776,1,0,0:0:0:0:
320,192,18853,1,0,0:0:0:0:
192,192,18853,1,0,0:0:0:0:
64,192,18853,1,0,0:0:0:0:
320,192,18930,1,0,0:0:0:0:
448,192,18930,1,0,0:0:0:0:
448,192,19007,1,0,0:0:0:0:
64,192,19007,1,0,0:0:0:0:
192,192,19084,1,0,0:0:0:0:
320,192,19084,1,0,0:0:0:0:
320,192,19161,1,0,0:0:0:0:
448,192,19161,1,0,0:0:0:0:
64,192,19161,1,0,0:0:0:0:
192,192,19238,1,0,0:0:0:0:
64,192,19315,1,0,0:0:0:0:
448,192,19315,1,0,0:0:0:0:
192,192,19392,1,0,0:0:0:0:
448,192,19392,1,0,0:0:0:0:
320,192,19469,1,0,0:0:0:0:
192,192,19469,1,0,0:0:0:0:
64,192,19469,1,0,0:0:0:0:
64,192,19546,1,0,0:0:0:0:
320,192,19546,1,0,0:0:0:0:
192,192,19623,1,0,0:0:0:0:
448,192,19623,1,0,0:0:0:0:
192,192,19700,1,0,0:0:0:0:
448,192,19700,1,0,0:0:0:0:
320,192,19776,1,0,0:0:0:0:
448,192,19776,1,0,0:0:0:0:
64,192,19776,1,0,0:0:0:0:
192,192,19853,1,0,0:0:0:0:
320,192,19853,1,0,0:0:0:0:
192,192,19930,1,0,0:0:0:0:
64,192,19930,1,0,0:0:0:0:
320,192,20007,1,0,0:0:0:0:
448,192,20007,1,0,0:0:0:0:
192,192,20084,1,0,0:0:0:0:
64,192,20084,1,0,0:0:0:0:
448,192,20084,1,0,0:0:0:0:
64,192,20161,1,0,0:0:0:0:
320,192,20161,1,0,0:0:0:0:
192,192,20238,1,0,0:0:0:0:
320,192,20238,1,0,0:0:0:0:
448,192,20315,1,0,0:0:0:0:
64,192,20315,1,0,0:0:0:0:
192,192,20392,1,0,0:0:0:0:
64,192,20392,1,0,0:0:0:0:
320,192,20392,1,0,0:0:0:0:
448,192,20469,1,0,0:0:0:0:
192,192,20469,1,0,0:0:0:0:
320,192,20546,1,0,0:0:0:0:
64,192,20546,1,0,0:0:0:0:
192,192,20623,1,0,0:0:0:0:
64,192,20700,1,0,0:0:0:0:
320,192,20700,1,0,0:0:0:0:
448,192,20700,1,0,0:0:0:0:
320,192,20776,1,0,0:0:0:0:
448,192,20776,1,0,0:0:0:0:
192,192,20853,1,0,0:0:0:0:
64,192,20853,1,0,0:0:0:0:
64,192,20930,1,0,0:0:0:0:
448,192,20930,1,0,0:0:0:0:
192,192,21007,1,0,0:0:0:0:
320,192,21007,1,0,0:0:0:0:
448,192,21007,1,0,0:0:0:0:
192,192,21084,1,0,0:0:0:0:
320,192,21084,1,0,0:0:0:0:
64,192,21161,1,0,0:0:0:0:
448,192,21161,1,0,0:0:0:0:
64,192,21238,1,0,0:0:0:0:
448,192,21238,1,0,0:0:0:0:
320,192,21315,1,0,0:0:0:0:
192,192,21315,1,0,0:0:0:0:
64,192,21315,1,0,0:0:0:0:
192,192,21392,1,0,0:0:0:0:
448,192,21392,1,0,0:0:0:0:
320,192,21469,1,0,0:0:0:0:
448,192,21469,1,0,0:0:0:0:
320,192,21546,1,0,0:0:0:0:
64,192,21546,1,0,0:0:0:0:
192,192,21623,1,0,0:0:0:0:
64,192,21623,1,0,0:0:0:0:
448,192,21623,1,0,0:0:0:0:
192,192,21700,1,0,0:0:0:0:
448,192,21700,1,0,0:0:0:0:
320,192,21776,1,0,0:0:0:0:
64,192,21853,1,0,0:0:0:0:
448,192,21853,1,0,0:0:0:0:
64,192,21930,1,0,0:0:0:0:
192,192,21930,1,0,0:0:0:0:
320,192,21930,1,0,0:0:0:0:
192,192,22007,1,0,0:0:0:0:
448,192,22007,1,0,0:0:0:0:
64,192,22084,1,0,0:0:0:0:
448,192,22084,1,0,0:0:0:0:
64,192,22161,1,0,0:0:0:0:
320,192,22161,1,0,0:0:0:0:
192,192,22238,1,0,0:0:0:0:
320,192,22238,1,0,0:0:0:0:
448,192,22238,1,0,0:0:0:0:
448,192,22315,1,0,0:0:0:0:
64,192,22315,1,0,0:0:0:0:
192,192,22392,1,0,0:0:0:0:
320,192,22392,1,0,0:0:0:0:
448,192,22469,1,0,0:0:0:0:
192,192,22546,1,0,0:0:0:0:
64,192,22546,1,0,0:0:0:0:
320,192,22546,1,0,0:0:0:0:
64,192,22623,1,0,0:0:0:0:
448,192,22700,1,0,0:0:0:0:
192,192,22700,1,0,0:0:0:0:
320,192,22776,1,0,0:0:0:0:
192,192,22776,1,0,0:0:0:0:
320,192,22853,1,0,0:0:0:0:
448,192,22853,1,0,0:0:0:0:
64,192,22853,1,0,0:0:0:0:
64,192,22930,1,0,0:0:0:0:
448,192,22930,1,0,0:0:0:0:
320,192,23007,1,0,0:0:0:0:
192,192,23007,1,0,0:0:0:0:
192,192,23084,1,0,0:0:0:0:
64,192,23161,1,0,0:0:0:0:
320,192,23161,1,0,0:0:0:0:
448,192,23161,1,0,0:0:0:0:
64,192,23238,1,0,0:0:0:0:
192,192,23238,1,0,0:0:0:0:
320,192,23315,1,0,0:0:0:0:
448,192,23315,1,0,0:0:0:0:
192,192,23392,1,0,0:0:0:0:
320,192,23392,1,0,0:0:0:0:
192,192,23469,1,0,0:0:0:0:
64,192,23469,1,0,0:0:0:0:
448,192,23469,1,0,0:0:0:0:
448,192,23546,1,0,0:0:0:0:
64,192,23623,1,0,0:0:0:0:
192,192,23623,1,0,0:0:0:0:
320,192,23623,1,0,0:0:0:0:
320,192,23700,1,0,0:0:0:0:
64,192,23776,5,0,0:0:0:0:
192,192,23776,1,0,0:0:0:0:
448,192,23853,1,0,0:0:0:0:
64,192,23930,1,0,0:0:0:0:
320,192,23930,1,0,0:0:0:0:
192,192,24007,1,0,0:0:0:0:
320,192,24084,1,0,0:0:0:0:
448,192,24084,1,0,0:0:0:0:
64,192,24161,1,0,0:0:0:0:
192,192,24238,1,0,0:0:0:0:
64,192,24238,1,0,0:0:0:0:
320,192,24315,1,0,0:0:0:0:
448,192,24315,1,0,0:0:0:0:
192,192,24392,1,0,0:0:0:0:
448,192,24392,1,0,0:0:0:0:
192,192,24469,1,0,0:0:0:0:
64,192,24546,1,0,0:0:0:0:
320,192,24546,1,0,0:0:0:0:
320,192,24623,1,0,0:0:0:0:
64,192,24700,1,0,0:0:0:0:
448,192,24700,1,0,0:0:0:0:
64,192,24776,1,0,0:0:0:0:
320,192,24853,1,0,0:0:0:0:
192,192,24853,1,0,0:0:0:0:
192,192,24930,1,0,0:0:0:0:
64,192,25007,1,0,0:0:0:0:
448,192,25007,1,0,0:0:0:0:
192,192,25084,1,0,0:0:0:0:
320,192,25084,1,0,0:0:0:0:
64,192,25161,1,0,0:0:0:0:
192,192,25161,1,0,0:0:0:0:
64,192,25238,1,0,0:0:0:0:
320,192,25238,1,0,0:0:0:0:
192,192,25315,1,0,0:0:0:0:
448,192,25315,1,0,0:0:0:0:
320,192,25392,1,0,0:0:0:0:
64,192,25469,1,0,0:0:0:0:
192,192,25469,1,0,0:0:0:0:
448,192,25546,1,0,0:0:0:0:
320,192,25546,1,0,0:0:0:0:
64,192,25623,1,0,0:0:0:0:
448,192,25623,1,0,0:0:0:0:
192,192,25700,1,0,0:0:0:0:
64,192,25776,1,0,0:0:0:0:
320,192,25776,1,0,0:0:0:0:
448,192,25853,1,0,0:0:0:0:
192,192,25930,1,0,0:0:0:0:
64,192,25930,1,0,0:0:0:0:
192,192,26007,1,0,0:0:0:0:
64,192,26084,1,0,0:0:0:0:
320,192,26084,1,0,0:0:0:0:
320,192,26161,1,0,0:0:0:0:
192,192,26238,1,0,0:0:0:0:
448,192,26238,1,0,0:0:0:0:
64,192,26315,1,0,0:0:0:0:
320,192,26392,1,0,0:0:0:0:
448,192,26392,1,0,0:0:0:0:
64,192,26469,1,0,0:0:0:0:
192,192,26546,1,0,0:0:0:0:
448,192,26546,1,0,0:0:0:0:
320,192,26623,1,0,0:0:0:0:
64,192,26700,1,0,0:0:0:0:
448,192,26700,1,0,0:0:0:0:
192,192,26776,1,0,0:0:0:0:
320,192,26853,1,0,0:0:0:0:
192,192,26853,1,0,0:0:0:0:
320,192,26930,1,0,0:0:0:0:
64,192,27007,1,0,0:0:0:0:
448,192,27007,1,0,0:0:0:0:
448,192,27084,1,0,0:0:0:0:
192,192,27161,1,0,0:0:0:0:
64,192,27161,1,0,0:0:0:0:
192,192,27238,1,0,0:0:0:0:
64,192,27315,1,0,0:0:0:0:
320,192,27315,1,0,0:0:0:0:
64,192,27392,1,0,0:0:0:0:
320,192,27469,1,0,0:0:0:0:
448,192,27469,1,0,0:0:0:0:
192,192,27546,1,0,0:0:0:0:
448,192,27623,1,0,0:0:0:0:
64,192,27623,1,0,0:0:0:0:
320,192,27700,1,0,0:0:0:0:
192,192,27776,1,0,0:0:0:0:
448,192,27776,1,0,0:0:0:0:
64,192,27853,1,0,0:0:0:0:
320,192,27930,1,0,0:0:0:0:
192,192,27930,1,0,0:0:0:0:
448,192,28007,1,0,0:0:0:0:
64,192,28084,1,0,0:0:0:0:
320,192,28084,1,0,0:0:0:0:
192,192,28161,1,0,0:0:0:0:
64,192,28238,1,0,0:0:0:0:
448,192,28238,1,0,0:0:0:0:
192,192,28315,1,0,0:0:0:0:
320,192,28392,1,0,0:0:0:0:
448,192,28392,1,0,0:0:0:0:
64,192,28469,1,0,0:0:0:0:
64,192,28546,1,0,0:0:0:0:
192,192,28546,1,0,0:0:0:0:
320,192,28623,1,0,0:0:0:0:
448,192,28623,1,0,0:0:0:0:
64,192,28700,1,0,0:0:0:0:
448,192,28700,1,0,0:0:0:0:
192,192,28776,1,0,0:0:0:0:
448,192,28853,1,0,0:0:0:0:
64,192,28853,1,0,0:0:0:0:
320,192,28930,1,0,0:0:0:0:
64,192,29007,1,0,0:0:0:0:
192,192,29007,1,0,0:0:0:0:
320,192,29084,1,0,0:0:0:0:
192,192,29161,1,0,0:0:0:0:
448,192,29161,1,0,0:0:0:0:
64,192,29238,1,0,0:0:0:0:
320,192,29315,1,0,0:0:0:0:
448,192,29315,1,0,0:0:0:0:
192,192,29315,1,0,0:0:0:0:
192,192,29392,1,0,0:0:0:0:
64,192,29469,1,0,0:0:0:0:
320,192,29469,1,0,0:0:0:0:
448,192,29469,1,0,0:0:0:0:
448,192,29546,1,0,0:0:0:0:
192,192,29623,1,0,0:0:0:0:
64,192,29623,1,0,0:0:0:0:
320,192,29623,1,0,0:0:0:0:
192,192,29700,1,0,0:0:0:0:
64,192,29776,1,0,0:0:0:0:
448,192,29776,1,0,0:0:0:0:
320,192,29776,1,0,0:0:0:0:
64,192,29853,1,0,0:0:0:0:
320,192,29930,1,0,0:0:0:0:
448,192,29930,1,0,0:0:0:0:
64,192,30007,1,0,0:0:0:0:
64,192,30084,1,0,0:0:0:0:
192,192,30084,1,0,0:0:0:0:
320,192,30161,1,0,0:0:0:0:
192,192,30238,1,0,0:0:0:0:
320,192,30238,1,0,0:0:0:0:
448,192,30315,1,0,0:0:0:0:
64,192,30392,1,0,0:0:0:0:
448,192,30392,1,0,0:0:0:0:
192,192,30469,1,0,0:0:0:0:
64,192,30546,1,0,0:0:0:0:
192,192,30546,1,0,0:0:0:0:
448,192,30546,1,0,0:0:0:0:
320,192,30623,1,0,0:0:0:0:
64,192,30700,1,0,0:0:0:0:
448,192,30700,1,0,0:0:0:0:
192,192,30776,1,0,0:0:0:0:
320,192,30853,1,0,0:0:0:0:
448,192,30853,1,0,0:0:0:0:
192,192,30930,1,0,0:0:0:0:
64,192,31007,1,0,0:0:0:0:
448,192,31007,1,0,0:0:0:0:
320,192,31084,1,0,0:0:0:0:
192,192,31084,1,0,0:0:0:0:
64,192,31161,1,0,0:0:0:0:
448,192,31161,1,0,0:0:0:0:
192,192,31161,1,0,0:0:0:0:
320,192,31238,1,0,0:0:0:0:
448,192,31315,1,0,0:0:0:0:
192,192,31315,1,0,0:0:0:0:
320,192,31392,1,0,0:0:0:0:
64,192,31469,1,0,0:0:0:0:
448,192,31469,1,0,0:0:0:0:
192,192,31546,1,0,0:0:0:0:
448,192,31623,1,0,0:0:0:0:
64,192,31623,1,0,0:0:0:0:
192,192,31700,1,0,0:0:0:0:
320,192,31776,1,0,0:0:0:0:
448,192,31776,1,0,0:0:0:0:
64,192,31853,1,0,0:0:0:0:
192,192,31930,1,0,0:0:0:0:
448,192,31930,1,0,0:0:0:0:
192,192,32007,1,0,0:0:0:0:
320,192,32007,1,0,0:0:0:0:
64,192,32084,1,0,0:0:0:0:
448,192,32084,1,0,0:0:0:0:
64,192,32161,1,0,0:0:0:0:
320,192,32238,1,0,0:0:0:0:
192,192,32238,1,0,0:0:0:0:
320,192,32315,1,0,0:0:0:0:
64,192,32392,1,0,0:0:0:0:
448,192,32392,1,0,0:0:0:0:
192,192,32469,1,0,0:0:0:0:
320,192,32469,1,0,0:0:0:0:
192,192,32546,1,0,0:0:0:0:
64,192,32546,1,0,0:0:0:0:
320,192,32623,1,0,0:0:0:0:
448,192,32700,1,0,0:0:0:0:
192,192,32700,1,0,0:0:0:0:
64,192,32776,1,0,0:0:0:0:
320,192,32776,1,0,0:0:0:0:
64,192,32853,1,0,0:0:0:0:
448,192,32853,1,0,0:0:0:0:
192,192,32930,1,0,0:0:0:0:
64,192,33007,1,0,0:0:0:0:
320,192,33007,1,0,0:0:0:0:
448,192,33007,1,0,0:0:0:0:
192,192,33084,1,0,0:0:0:0:
320,192,33084,1,0,0:0:0:0:
64,192,33161,1,0,0:0:0:0:
448,192,33161,1,0,0:0:0:0:
192,192,33238,1,0,0:0:0:0:
320,192,33238,1,0,0:0:0:0:
192,192,33315,1,0,0:0:0:0:
320,192,33315,1,0,0:0:0:0:
448,192,33315,1,0,0:0:0:0:
64,192,33392,1,0,0:0:0:0:
448,192,33392,1,0,0:0:0:0:
192,192,33469,1,0,0:0:0:0:
320,192,33469,1,0,0:0:0:0:
64,192,33546,1,0,0:0:0:0:
448,192,33546,1,0,0:0:0:0:
192,192,33623,1,0,0:0:0:0:
320,192,33673,1,0,0:0:0:0:
192,192,33725,1,0,0:0:0:0:
320,192,33776,1,0,0:0:0:0:
192,192,33827,1,0,0:0:0:0:
320,192,33879,1,0,0:0:0:0:
192,192,33930,1,0,0:0:0:0:
64,192,33930,1,0,0:0:0:0:
448,192,34007,1,0,0:0:0:0:
320,192,34084,1,0,0:0:0:0:
192,192,34084,1,0,0:0:0:0:
64,192,34161,1,0,0:0:0:0:
448,192,34161,1,0,0:0:0:0:
192,192,34238,1,0,0:0:0:0:
320,192,34238,1,0,0:0:0:0:
448,192,34238,1,0,0:0:0:0:
192,192,34315,1,0,0:0:0:0:
64,192,34392,1,0,0:0:0:0:
448,192,34392,1,0,0:0:0:0:
320,192,34469,1,0,0:0:0:0:
192,192,34546,1,0,0:0:0:0:
320,192,34546,1,0,0:0:0:0:
192,192,34623,1,0,0:0:0:0:
64,192,34700,1,0,0:0:0:0:
320,192,34700,1,0,0:0:0:0:
192,192,34776,1,0,0:0:0:0:
448,192,34776,1,0,0:0:0:0:
320,192,34853,1,0,0:0:0:0:
448,192,34853,1,0,0:0:0:0:
192,192,34930,1,0,0:0:0:0:
64,192,35007,1,0,0:0:0:0:
448,192,35007,1,0,0:0:0:0:
320,192,35084,1,0,0:0:0:0:
64,192,35161,1,0,0:0:0:0:
448,192,35161,1,0,0:0:0:0:
192,192,35238,1,0,0:0:0:0:
320,192,35315,1,0,0:0:0:0:
448,192,35315,1,0,0:0:0:0:
320,192,35392,1,0,0:0:0:0:
64,192,35392,1,0,0:0:0:0:
192,192,35469,1,0,0:0:0:0:
64,192,35469,1,0,0:0:0:0:
448,192,35546,1,0,0:0:0:0:
64,192,35623,1,0,0:0:0:0:
192,192,35623,1,0,0:0:0:0:
320,192,35700,1,0,0:0:0:0:
64,192,35776,1,0,0:0:0:0:
448,192,35776,1,0,0:0:0:0:
192,192,35853,1,0,0:0:0:0:
448,192,35930,1,0,0:0:0:0:
64,192,35930,1,0,0:0:0:0:
320,192,36007,1,0,0:0:0:0:
192,192,36084,1,0,0:0:0:0:
64,192,36084,1,0,0:0:0:0:
192,192,36161,1,0,0:0:0:0:
64,192,36238,1,0,0:0:0:0:
448,192,36238,1,0,0:0:0:0:
320,192,36315,1,0,0:0:0:0:
192,192,36392,1,0,0:0:0:0:
448,192,36392,1,0,0:0:0:0:
192,192,36469,1,0,0:0:0:0:
64,192,36546,1,0,0:0:0:0:
320,192,36546,1,0,0:0:0:0:
448,192,36623,1,0,0:0:0:0:
192,192,36700,1,0,0:0:0:0:
64,192,36700,1,0,0:0:0:0:
192,192,36776,1,0,0:0:0:0:
320,192,36853,1,0,0:0:0:0:
448,192,36853,1,0,0:0:0:0:
320,192,36930,1,0,0:0:0:0:
64,192,37007,1,0,0:0:0:0:
448,192,37007,1,0,0:0:0:0:
448,192,37084,1,0,0:0:0:0:
192,192,37161,1,0,0:0:0:0:
320,192,37161,1,0,0:0:0:0:
192,192,37238,1,0,0:0:0:0:
64,192,37315,1,0,0:0:0:0:
320,192,37315,1,0,0:0:0:0:
448,192,37315,1,0,0:0:0:0:
448,192,37392,1,0,0:0:0:0:
64,192,37469,1,0,0:0:0:0:
192,192,37469,1,0,0:0:0:0:
320,192,37469,1,0,0:0:0:0:
320,192,37546,1,0,0:0:0:0:
192,192,37623,1,0,0:0:0:0:
64,192,37623,1,0,0:0:0:0:
448,192,37623,1,0,0:0:0:0:
64,192,37700,1,0,0:0:0:0:
192,192,37776,1,0,0:0:0:0:
320,192,37776,1,0,0:0:0:0:
448,192,37776,1,0,0:0:0:0:
192,192,37853,1,0,0:0:0:0:
320,192,37930,1,0,0:0:0:0:
448,192,37930,1,0,0:0:0:0:
64,192,38007,1,0,0:0:0:0:
192,192,38084,1,0,0:0:0:0:
448,192,38084,1,0,0:0:0:0:
320,192,38161,1,0,0:0:0:0:
192,192,38238,1,0,0:0:0:0:
64,192,38238,1,0,0:0:0:0:
320,192,38315,1,0,0:0:0:0:
448,192,38392,1,0,0:0:0:0:
64,192,38392,1,0,0:0:0:0:
64,192,38469,1,0,0:0:0:0:
192,192,38469,1,0,0:0:0:0:
320,192,38546,1,0,0:0:0:0:
448,192,38546,1,0,0:0:0:0:
192,192,38623,1,0,0:0:0:0:
64,192,38623,1,0,0:0:0:0:
320,192,38700,1,0,0:0:0:0:
64,192,38700,1,0,0:0:0:0:
192,192,38776,1,0,0:0:0:0:
448,192,38776,1,0,0:0:0:0:
448,192,38853,1,0,0:0:0:0:
64,192,38853,1,0,0:0:0:0:
320,192,38930,1,0,0:0:0:0:
192,192,38930,1,0,0:0:0:0:
192,192,39007,1,0,0:0:0:0:
448,192,39007,1,0,0:0:0:0:
320,192,39084,1,0,0:0:0:0:
64,192,39084,1,0,0:0:0:0:
192,192,39161,1,0,0:0:0:0:
64,192,39161,1,0,0:0:0:0:
320,192,39238,1,0,0:0:0:0:
448,192,39238,1,0,0:0:0:0:
192,192,39315,1,0,0:0:0:0:
320,192,39315,1,0,0:0:0:0:
64,192,39392,1,0,0:0:0:0:
448,192,39392,1,0,0:0:0:0:
192,192,39469,1,0,0:0:0:0:
64,192,39469,1,0,0:0:0:0:
320,192,39546,1,0,0:0:0:0:
64,192,39623,1,0,0:0:0:0:
448,192,39623,1,0,0:0:0:0:
192,192,39700,1,0,0:0:0:0:
64,192,39776,1,0,0:0:0:0:
448,192,39776,1,0,0:0:0:0:
320,192,39853,1,0,0:0:0:0:
192,192,39853,1,0,0:0:0:0:
192,192,39930,1,0,0:0:0:0:
64,192,39930,1,0,0:0:0:0:
320,192,40007,1,0,0:0:0:0:
448,192,40007,1,0,0:0:0:0:
448,192,40084,1,0,0:0:0:0:
192,192,40084,1,0,0:0:0:0:
64,192,40161,1,0,0:0:0:0:
320,192,40161,1,0,0:0:0:0:
64,192,40238,1,0,0:0:0:0:
448,192,40238,1,0,0:0:0:0:
192,192,40315,1,0,0:0:0:0:
320,192,40315,1,0,0:0:0:0:
192,192,40392,1,0,0:0:0:0:
64,192,40392,1,0,0:0:0:0:
448,192,40469,1,0,0:0:0:0:
320,192,40469,1,0,0:0:0:0:
448,192,40546,1,0,0:0:0:0:
192,192,40546,1,0,0:0:0:0:
64,192,40623,1,0,0:0:0:0:
320,192,40623,1,0,0:0:0:0:
192,192,40700,1,0,0:0:0:0:
320,192,40700,1,0,0:0:0:0:
192,192,40776,1,0,0:0:0:0:
64,192,40853,1,0,0:0:0:0:
448,192,40853,1,0,0:0:0:0:
448,192,40930,1,0,0:0:0:0:
320,192,40930,1,0,0:0:0:0:
192,192,41007,1,0,0:0:0:0:
64,192,41007,1,0,0:0:0:0:
320,192,41084,1,0,0:0:0:0:
192,192,41161,1,0,0:0:0:0:
448,192,41161,1,0,0:0:0:0:
64,192,41238,1,0,0:0:0:0:
192,192,41315,1,0,0:0:0:0:
320,192,41315,1,0,0:0:0:0:
448,192,41392,1,0,0:0:0:0:
64,192,41469,1,0,0:0:0:0:
320,192,41469,1,0,0:0:0:0:
192,192,41546,1,0,0:0:0:0:
64,192,41546,1,0,0:0:0:0:
320,192,41623,1,0,0:0:0:0:
448,192,41623,1,0,0:0:0:0:
192,192,41623,1,0,0:0:0:0:
448,192,41700,1,0,0:0:0:0:
64,192,41776,1,0,0:0:0:0:
192,192,41776,1,0,0:0:0:0:
320,192,41776,1,0,0:0:0:0:
192,192,41853,1,0,0:0:0:0:
64,192,41930,1,0,0:0:0:0:
320,192,41930,1,0,0:0:0:0:
448,192,41930,1,0,0:0:0:0:
64,192,42007,1,0,0:0:0:0:
192,192,42084,1,0,0:0:0:0:
320,192,42084,1,0,0:0:0:0:
448,192,42084,1,0,0:0:0:0:
320,192,42161,1,0,0:0:0:0:
64,192,42238,1,0,0:0:0:0:
192,192,42238,1,0,0:0:0:0:
448,192,42238,1,0,0:0:0:0:
64,192,42315,1,0,0:0:0:0:
320,192,42315,1,0,0:0:0:0:
192,192,42392,1,0,0:0:0:0:
320,192,42392,1,0,0:0:0:0:
448,192,42392,1,0,0:0:0:0:
192,192,42469,1,0,0:0:0:0:
64,192,42469,1,0,0:0:0:0:
320,192,42546,1,0,0:0:0:0:
64,192,42546,1,0,0:0:0:0:
448,192,42546,1,0,0:0:0:0:
192,192,42623,1,0,0:0:0:0:
448,192,42623,1,0,0:0:0:0:
64,192,42700,1,0,0:0:0:0:
320,192,42700,1,0,0:0:0:0:
448,192,42700,1,0,0:0:0:0:
192,192,42776,1,0,0:0:0:0:
320,192,42776,1,0,0:0:0:0:
192,192,42853,1,0,0:0:0:0:
64,192,42853,1,0,0:0:0:0:
320,192,42853,1,0,0:0:0:0:
64,192,42930,1,0,0:0:0:0:
448,192,42930,1,0,0:0:0:0:
192,192,43007,1,0,0:0:0:0:
320,192,43007,1,0,0:0:0:0:
192,192,43084,1,0,0:0:0:0:
448,192,43084,1,0,0:0:0:0:
64,192,43161,1,0,0:0:0:0:
320,192,43161,1,0,0:0:0:0:
448,192,43161,1,0,0:0:0:0:
192,192,43238,1,0,0:0:0:0:
64,192,43238,1,0,0:0:0:0:
320,192,43315,1,0,0:0:0:0:
64,192,43315,1,0,0:0:0:0:
448,192,43315,1,0,0:0:0:0:
448,192,43392,1,0,0:0:0:0:
192,192,43392,1,0,0:0:0:0:
64,192,43469,5,0,0:0:0:0:
192,192,43469,1,0,0:0:0:0:
448,192,43469,1,0,0:0:0:0:
320,192,43469,1,0,0:0:0:0:
64,192,43546,1,0,0:0:0:0:
320,192,43546,1,0,0:0:0:0:
192,192,43623,1,0,0:0:0:0:
320,192,43623,1,0,0:0:0:0:
64,192,43700,1,0,0:0:0:0:
448,192,43700,1,0,0:0:0:0:
448,192,43776,1,0,0:0:0:0:
320,192,43776,1,0,0:0:0:0:
192,192,43776,1,0,0:0:0:0:
64,192,43776,1,0,0:0:0:0:
192,192,43853,1,0,0:0:0:0:
320,192,43853,1,0,0:0:0:0:
320,192,43930,1,0,0:0:0:0:
448,192,43930,1,0,0:0:0:0:
192,192,44007,1,0,0:0:0:0:
64,192,44007,1,0,0:0:0:0:
64,192,44084,1,0,0:0:0:0:
192,192,44084,1,0,0:0:0:0:
448,192,44084,1,0,0:0:0:0:
320,192,44084,1,0,0:0:0:0:
64,192,44161,1,0,0:0:0:0:
320,192,44161,1,0,0:0:0:0:
192,192,44238,1,0,0:0:0:0:
448,192,44238,1,0,0:0:0:0:
320,192,44315,1,0,0:0:0:0:
448,192,44315,1,0,0:0:0:0:
64,192,44392,1,0,0:0:0:0:
192,192,44392,1,0,0:0:0:0:
320,192,44392,1,0,0:0:0:0:
448,192,44392,1,0,0:0:0:0:
64,192,44469,1,0,0:0:0:0:
320,192,44469,1,0,0:0:0:0:
192,192,44546,1,0,0:0:0:0:
64,192,44546,1,0,0:0:0:0:
448,192,44623,1,0,0:0:0:0:
320,192,44623,1,0,0:0:0:0:
64,192,44700,1,0,0:0:0:0:
192,192,44700,1,0,0:0:0:0:
320,192,44700,1,0,0:0:0:0:
448,192,44700,1,0,0:0:0:0:
64,192,44776,1,0,0:0:0:0:
320,192,44776,1,0,0:0:0:0:
192,192,44853,1,0,0:0:0:0:
448,192,44853,1,0,0:0:0:0:
320,192,44930,1,0,0:0:0:0:
64,192,44930,1,0,0:0:0:0:
64,192,45007,1,0,0:0:0:0:
192,192,45007,1,0,0:0:0:0:
320,192,45007,1,0,0:0:0:0:
448,192,45007,1,0,0:0:0:0:
192,192,45084,1,0,0:0:0:0:
320,192,45084,1,0,0:0:0:0:
192,192,45161,1,0,0:0:0:0:
448,192,45161,1,0,0:0:0:0:
320,192,45238,1,0,0:0:0:0:
64,192,45238,1,0,0:0:0:0:
64,192,45315,1,0,0:0:0:0:
192,192,45315,1,0,0:0:0:0:
320,192,45315,1,0,0:0:0:0:
448,192,45315,1,0,0:0:0:0:
192,192,45392,1,0,0:0:0:0:
64,192,45392,1,0,0:0:0:0:
320,192,45469,1,0,0:0:0:0:
448,192,45469,1,0,0:0:0:0:
64,192,45546,1,0,0:0:0:0:
192,192,45546,1,0,0:0:0:0:
320,192,45546,1,0,0:0:0:0:
448,192,45546,1,0,0:0:0:0:
320,192,45623,1,0,0:0:0:0:
448,192,45623,1,0,0:0:0:0:
192,192,45700,1,0,0:0:0:0:
64,192,45700,1,0,0:0:0:0:
64,192,45776,1,0,0:0:0:0:
192,192,45776,1,0,0:0:0:0:
320,192,45776,1,0,0:0:0:0:
448,192,45776,1,0,0:0:0:0:
192,192,45853,1,0,0:0:0:0:
64,192,45853,1,0,0:0:0:0:
320,192,45930,1,0,0:0:0:0:
448,192,45930,1,0,0:0:0:0:
192,192,45930,1,0,0:0:0:0:
64,192,45930,1,0,0:0:0:0:
320,192,46007,1,0,0:0:0:0:
448,192,46007,1,0,0:0:0:0:
192,192,46084,1,0,0:0:0:0:
320,192,46084,1,0,0:0:0:0:
192,192,46161,1,0,0:0:0:0:
64,192,46161,1,0,0:0:0:0:
64,192,46238,1,0,0:0:0:0:
320,192,46238,1,0,0:0:0:0:
448,192,46238,1,0,0:0:0:0:
192,192,46238,1,0,0:0:0:0:
320,192,46315,1,0,0:0:0:0:
64,192,46315,1,0,0:0:0:0:
192,192,46392,1,0,0:0:0:0:
448,192,46392,1,0,0:0:0:0:
192,192,46469,1,0,0:0:0:0:
320,192,46469,1,0,0:0:0:0:
64,192,46546,1,0,0:0:0:0:
192,192,46546,1,0,0:0:0:0:
448,192,46546,1,0,0:0:0:0:
320,192,46546,1,0,0:0:0:0:
64,192,46623,1,0,0:0:0:0:
448,192,46623,1,0,0:0:0:0:
192,192,46700,1,0,0:0:0:0:
320,192,46700,1,0,0:0:0:0:
192,192,46776,1,0,0:0:0:0:
448,192,46776,1,0,0:0:0:0:
64,192,46853,1,0,0:0:0:0:
320,192,46853,1,0,0:0:0:0:
448,192,46853,1,0,0:0:0:0:
192,192,46853,1,0,0:0:0:0:
320,192,46930,1,0,0:0:0:0:
448,192,46930,1,0,0:0:0:0:
64,192,47007,1,0,0:0:0:0:
192,192,47007,1,0,0:0:0:0:
192,192,47084,1,0,0:0:0:0:
320,192,47084,1,0,0:0:0:0:
64,192,47161,1,0,0:0:0:0:
192,192,47161,1,0,0:0:0:0:
320,192,47161,1,0,0:0:0:0:
448,192,47161,1,0,0:0:0:0:
64,192,47238,1,0,0:0:0:0:
448,192,47238,1,0,0:0:0:0:
192,192,47315,1,0,0:0:0:0:
448,192,47315,1,0,0:0:0:0:
192,192,47392,1,0,0:0:0:0:
320,192,47392,1,0,0:0:0:0:
448,192,47469,1,0,0:0:0:0:
192,192,47469,1,0,0:0:0:0:
320,192,47469,1,0,0:0:0:0:
64,192,47469,1,0,0:0:0:0:
320,192,47546,1,0,0:0:0:0:
64,192,47546,1,0,0:0:0:0:
192,192,47623,1,0,0:0:0:0:
64,192,47623,1,0,0:0:0:0:
320,192,47700,1,0,0:0:0:0:
448,192,47700,1,0,0:0:0:0:
64,192,47776,1,0,0:0:0:0:
320,192,47776,1,0,0:0:0:0:
448,192,47776,1,0,0:0:0:0:
192,192,47776,1,0,0:0:0:0:
192,192,47853,1,0,0:0:0:0:
320,192,47853,1,0,0:0:0:0:
64,192,47930,1,0,0:0:0:0:
448,192,47930,1,0,0:0:0:0:
320,192,48007,1,0,0:0:0:0:
192,192,48007,1,0,0:0:0:0:
192,192,48084,1,0,0:0:0:0:
64,192,48084,1,0,0:0:0:0:
320,192,48084,1,0,0:0:0:0:
448,192,48084,1,0,0:0:0:0:
64,192,48161,1,0,0:0:0:0:
320,192,48161,1,0,0:0:0:0:
192,192,48238,1,0,0:0:0:0:
64,192,48238,1,0,0:0:0:0:
448,192,48238,1,0,0:0:0:0:
192,192,48315,1,0,0:0:0:0:
320,192,48315,1,0,0:0:0:0:
448,192,48392,5,0,0:0:0:0:
64,192,48392,1,0,0:0:0:0:
320,192,48392,1,0,0:0:0:0:
192,192,48392,1,0,0:0:0:0:
448,192,48469,1,0,0:0:0:0:
64,192,48469,1,0,0:0:0:0:
320,192,48546,1,0,0:0:0:0:
192,192,48546,1,0,0:0:0:0:
448,192,48623,1,0,0:0:0:0:
320,192,48623,1,0,0:0:0:0:
64,192,48700,1,0,0:0:0:0:
192,192,48700,1,0,0:0:0:0:
320,192,48700,1,0,0:0:0:0:
448,192,48700,1,0,0:0:0:0:
320,192,48776,1,0,0:0:0:0:
192,192,48776,1,0,0:0:0:0:
192,192,48853,1,0,0:0:0:0:
64,192,48853,1,0,0:0:0:0:
320,192,48930,1,0,0:0:0:0:
448,192,48930,1,0,0:0:0:0:
448,192,49007,1,0,0:0:0:0:
320,192,49007,1,0,0:0:0:0:
64,192,49007,1,0,0:0:0:0:
192,192,49007,1,0,0:0:0:0:
448,192,49084,1,0,0:0:0:0:
192,192,49084,1,0,0:0:0:0:
320,192,49161,1,0,0:0:0:0:
64,192,49161,1,0,0:0:0:0:
192,192,49161,1,0,0:0:0:0:
64,192,49238,1,0,0:0:0:0:
448,192,49238,1,0,0:0:0:0:
448,192,49315,1,0,0:0:0:0:
320,192,49315,1,0,0:0:0:0:
192,192,49315,1,0,0:0:0:0:
64,192,49315,1,0,0:0:0:0:
448,192,49392,1,0,0:0:0:0:
192,192,49392,1,0,0:0:0:0:
320,192,49469,1,0,0:0:0:0:
448,192,49469,1,0,0:0:0:0:
64,192,49469,1,0,0:0:0:0:
64,192,49546,1,0,0:0:0:0:
192,192,49546,1,0,0:0:0:0:
448,192,49623,1,0,0:0:0:0:
320,192,49623,1,0,0:0:0:0:
192,192,49623,1,0,0:0:0:0:
64,192,49623,1,0,0:0:0:0:
448,192,49700,1,0,0:0:0:0:
192,192,49700,1,0,0:0:0:0:
320,192,49776,1,0,0:0:0:0:
64,192,49776,1,0,0:0:0:0:
192,192,49853,1,0,0:0:0:0:
320,192,49853,1,0,0:0:0:0:
448,192,49930,1,0,0:0:0:0:
320,192,49930,1,0,0:0:0:0:
192,192,49930,1,0,0:0:0:0:
64,192,49930,1,0,0:0:0:0:
64,192,50007,1,0,0:0:0:0:
192,192,50007,1,0,0:0:0:0:
320,192,50084,1,0,0:0:0:0:
64,192,50084,1,0,0:0:0:0:
192,192,50161,1,0,0:0:0:0:
448,192,50161,1,0,0:0:0:0:
448,192,50238,1,0,0:0:0:0:
320,192,50238,1,0,0:0:0:0:
192,192,50238,1,0,0:0:0:0:
64,192,50238,1,0,0:0:0:0:
64,192,50315,1,0,0:0:0:0:
448,192,50315,1,0,0:0:0:0:
320,192,50392,1,0,0:0:0:0:
192,192,50392,1,0,0:0:0:0:
320,192,50469,1,0,0:0:0:0:
448,192,50469,1,0,0:0:0:0:
64,192,50546,1,0,0:0:0:0:
192,192,50546,1,0,0:0:0:0:
320,192,50546,1,0,0:0:0:0:
448,192,50546,1,0,0:0:0:0:
64,192,50623,1,0,0:0:0:0:
192,192,50623,1,0,0:0:0:0:
64,192,50700,1,0,0:0:0:0:
320,192,50700,1,0,0:0:0:0:
192,192,50776,1,0,0:0:0:0:
448,192,50776,1,0,0:0:0:0:
64,192,50853,1,0,0:0:0:0:
192,192,50853,1,0,0:0:0:0:
320,192,50853,1,0,0:0:0:0:
448,192,50853,1,0,0:0:0:0:
448,192,50930,1,0,0:0:0:0:
64,192,50930,1,0,0:0:0:0:
320,192,51007,1,0,0:0:0:0:
192,192,51007,1,0,0:0:0:0:
320,192,51084,1,0,0:0:0:0:
448,192,51084,1,0,0:0:0:0:
448,192,51161,1,0,0:0:0:0:
192,192,51161,1,0,0:0:0:0:
64,192,51161,1,0,0:0:0:0:
320,192,51161,1,0,0:0:0:0:
192,192,51238,1,0,0:0:0:0:
448,192,51238,1,0,0:0:0:0:
320,192,51315,1,0,0:0:0:0:
64,192,51315,1,0,0:0:0:0:
320,192,51392,1,0,0:0:0:0:
192,192,51392,1,0,0:0:0:0:
448,192,51469,1,0,0:0:0:0:
320,192,51469,1,0,0:0:0:0:
64,192,51469,1,0,0:0:0:0:
192,192,51469,1,0,0:0:0:0:
448,192,51546,1,0,0:0:0:0:
64,192,51546,1,0,0:0:0:0:
320,192,51623,1,0,0:0:0:0:
192,192,51623,1,0,0:0:0:0:
320,192,51700,1,0,0:0:0:0:
64,192,51700,1,0,0:0:0:0:
448,192,51776,1,0,0:0:0:0:
192,192,51776,1,0,0:0:0:0:
64,192,51776,1,0,0:0:0:0:
320,192,51776,1,0,0:0:0:0:
192,192,51853,1,0,0:0:0:0:
64,192,51853,1,0,0:0:0:0:
448,192,51930,1,0,0:0:0:0:
320,192,51930,1,0,0:0:0:0:
320,192,52007,1,0,0:0:0:0:
192,192,52007,1,0,0:0:0:0:
448,192,52084,1,0,0:0:0:0:
320,192,52084,1,0,0:0:0:0:
192,192,52084,1,0,0:0:0:0:
64,192,52084,1,0,0:0:0:0:
448,192,52161,1,0,0:0:0:0:
64,192,52161,1,0,0:0:0:0:
320,192,52238,1,0,0:0:0:0:
64,192,52238,1,0,0:0:0:0:
320,192,52315,1,0,0:0:0:0:
192,192,52315,1,0,0:0:0:0:
64,192,52392,1,0,0:0:0:0:
320,192,52392,1,0,0:0:0:0:
192,192,52392,1,0,0:0:0:0:
448,192,52392,1,0,0:0:0:0:
192,192,52469,1,0,0:0:0:0:
448,192,52469,1,0,0:0:0:0:
320,192,52546,1,0,0:0:0:0:
448,192,52546,1,0,0:0:0:0:
192,192,52623,1,0,0:0:0:0:
64,192,52623,1,0,0:0:0:0:
448,192,52700,1,0,0:0:0:0:
192,192,52700,1,0,0:0:0:0:
64,192,52700,1,0,0:0:0:0:
320,192,52700,1,0,0:0:0:0:
320,192,52776,1,0,0:0:0:0:
192,192,52776,1,0,0:0:0:0:
448,192,52853,1,0,0:0:0:0:
64,192,52853,1,0,0:0:0:0:
192,192,52930,1,0,0:0:0:0:
320,192,52930,1,0,0:0:0:0:
320,192,53007,1,0,0:0:0:0:
448,192,53007,1,0,0:0:0:0:
192,192,53007,1,0,0:0:0:0:
64,192,53007,1,0,0:0:0:0:
448,192,53084,1,0,0:0:0:0:
192,192,53084,1,0,0:0:0:0:
64,192,53161,1,0,0:0:0:0:
320,192,53161,1,0,0:0:0:0:
448,192,53238,1,0,0:0:0:0:
192,192,53238,1,0,0:0:0:0:
448,192,53315,1,0,0:0:0:0:
192,192,53315,1,0,0:0:0:0:
64,192,53315,1,0,0:0:0:0:
320,192,53315,1,0,0:0:0:0:
192,192,53392,1,0,0:0:0:0:
64,192,53392,1,0,0:0:0:0:
320,192,53469,1,0,0:0:0:0:
64,192,53469,1,0,0:0:0:0:
320,192,53546,1,0,0:0:0:0:
448,192,53546,1,0,0:0:0:0:
64,192,53623,1,0,0:0:0:0:
192,192,53623,1,0,0:0:0:0:
320,192,53623,1,0,0:0:0:0:
448,192,53623,1,0,0:0:0:0:
192,192,53700,1,0,0:0:0:0:
64,192,53700,1,0,0:0:0:0:
320,192,53776,1,0,0:0:0:0:
448,192,53776,1,0,0:0:0:0:
192,192,53853,1,0,0:0:0:0:
320,192,53853,1,0,0:0:0:0:
64,192,53930,1,0,0:0:0:0:
192,192,53930,1,0,0:0:0:0:
320,192,53930,1,0,0:0:0:0:
448,192,53930,1,0,0:0:0:0:
192,192,54007,1,0,0:0:0:0:
448,192,54007,1,0,0:0:0:0:
64,192,54084,1,0,0:0:0:0:
320,192,54084,1,0,0:0:0:0:
192,192,54161,1,0,0:0:0:0:
320,192,54161,1,0,0:0:0:0:
64,192,54238,1,0,0:0:0:0:
192,192,54238,1,0,0:0:0:0:
320,192,54238,1,0,0:0:0:0:
448,192,54238,1,0,0:0:0:0:
64,192,54315,1,0,0:0:0:0:
192,192,54315,1,0,0:0:0:0:
320,192,54392,1,0,0:0:0:0:
448,192,54392,1,0,0:0:0:0:
192,192,54469,1,0,0:0:0:0:
64,192,54469,1,0,0:0:0:0:
64,192,54546,1,0,0:0:0:0:
192,192,54546,1,0,0:0:0:0:
320,192,54546,1,0,0:0:0:0:
448,192,54546,1,0,0:0:0:0:
64,192,54623,1,0,0:0:0:0:
320,192,54623,1,0,0:0:0:0:
192,192,54700,1,0,0:0:0:0:
320,192,54700,1,0,0:0:0:0:
192,192,54776,1,0,0:0:0:0:
448,192,54776,1,0,0:0:0:0:
64,192,54853,1,0,0:0:0:0:
192,192,54853,1,0,0:0:0:0:
320,192,54853,1,0,0:0:0:0:
448,192,54853,1,0,0:0:0:0:
448,192,54930,1,0,0:0:0:0:
320,192,54930,1,0,0:0:0:0:
64,192,55007,1,0,0:0:0:0:
320,192,55007,1,0,0:0:0:0:
192,192,55084,1,0,0:0:0:0:
448,192,55084,1,0,0:0:0:0:
64,192,55161,1,0,0:0:0:0:
320,192,55161,1,0,0:0:0:0:
448,192,55161,1,0,0:0:0:0:
192,192,55161,1,0,0:0:0:0:
64,192,55238,1,0,0:0:0:0:
192,192,55238,1,0,0:0:0:0:
64,192,55315,1,0,0:0:0:0:
448,192,55315,1,0,0:0:0:0:
320,192,55392,1,0,0:0:0:0:
448,192,55392,1,0,0:0:0:0:
64,192,55469,1,0,0:0:0:0:
192,192,55469,1,0,0:0:0:0:
448,192,55469,1,0,0:0:0:0:
320,192,55469,1,0,0:0:0:0:
64,192,55546,1,0,0:0:0:0:
320,192,55546,1,0,0:0:0:0:
192,192,55623,1,0,0:0:0:0:
448,192,55623,1,0,0:0:0:0:
64,192,55700,1,0,0:0:0:0:
448,192,55700,1,0,0:0:0:0:
64,192,55776,1,0,0:0:0:0:
320,192,55776,1,0,0:0:0:0:
448,192,55776,1,0,0:0:0:0:
192,192,55776,1,0,0:0:0:0:
192,192,55853,1,0,0:0:0:0:
320,192,55853,1,0,0:0:0:0:
192,192,55930,1,0,0:0:0:0:
64,192,55930,1,0,0:0:0:0:
192,192,56007,1,0,0:0:0:0:
448,192,56007,1,0,0:0:0:0:
64,192,56084,1,0,0:0:0:0:
192,192,56084,1,0,0:0:0:0:
320,192,56084,1,0,0:0:0:0:
448,192,56084,1,0,0:0:0:0:
320,192,56161,1,0,0:0:0:0:
448,192,56161,1,0,0:0:0:0:
192,192,56238,1,0,0:0:0:0:
64,192,56238,1,0,0:0:0:0:
192,192,56315,1,0,0:0:0:0:
320,192,56315,1,0,0:0:0:0:
64,192,56392,1,0,0:0:0:0:
192,192,56392,1,0,0:0:0:0:
320,192,56392,1,0,0:0:0:0:
448,192,56392,1,0,0:0:0:0:
448,192,56469,1,0,0:0:0:0:
64,192,56469,1,0,0:0:0:0:
320,192,56546,1,0,0:0:0:0:
448,192,56546,1,0,0:0:0:0:
448,192,56623,1,0,0:0:0:0:
192,192,56623,1,0,0:0:0:0:
64,192,56700,1,0,0:0:0:0:
192,192,56700,1,0,0:0:0:0:
320,192,56700,1,0,0:0:0:0:
448,192,56700,1,0,0:0:0:0:
64,192,56776,1,0,0:0:0:0:
320,192,56776,1,0,0:0:0:0:
192,192,56853,1,0,0:0:0:0:
320,192,56853,1,0,0:0:0:0:
64,192,56930,1,0,0:0:0:0:
448,192,56930,1,0,0:0:0:0:
64,192,57007,1,0,0:0:0:0:
192,192,57007,1,0,0:0:0:0:
320,192,57007,1,0,0:0:0:0:
448,192,57007,1,0,0:0:0:0:
320,192,57084,1,0,0:0:0:0:
64,192,57084,1,0,0:0:0:0:
192,192,57161,1,0,0:0:0:0:
320,192,57161,1,0,0:0:0:0:
320,192,57238,1,0,0:0:0:0:
448,192,57238,1,0,0:0:0:0:
192,192,57315,1,0,0:0:0:0:
64,192,57315,1,0,0:0:0:0:
320,192,57315,1,0,0:0:0:0:
448,192,57315,1,0,0:0:0:0:
64,192,57392,5,0,0:0:0:0:
448,192,57392,1,0,0:0:0:0:
192,192,57469,1,0,0:0:0:0:
64,192,57469,1,0,0:0:0:0:
192,192,57546,1,0,0:0:0:0:
320,192,57546,1,0,0:0:0:0:
64,192,57623,1,0,0:0:0:0:
192,192,57623,1,0,0:0:0:0:
448,192,57623,1,0,0:0:0:0:
320,192,57623,1,0,0:0:0:0:
320,192,57700,1,0,0:0:0:0:
448,192,57700,1,0,0:0:0:0:
448,192,57776,1,0,0:0:0:0:
64,192,57776,1,0,0:0:0:0:
192,192,57853,1,0,0:0:0:0:
320,192,57853,1,0,0:0:0:0:
64,192,57930,1,0,0:0:0:0:
192,192,57930,1,0,0:0:0:0:
320,192,57930,1,0,0:0:0:0:
448,192,57930,1,0,0:0:0:0:
64,192,58007,1,0,0:0:0:0:
320,192,58007,1,0,0:0:0:0:
192,192,58084,1,0,0:0:0:0:
320,192,58084,1,0,0:0:0:0:
448,192,58084,1,0,0:0:0:0:
64,192,58161,1,0,0:0:0:0:
448,192,58161,1,0,0:0:0:0:
64,192,58238,5,0,0:0:0:0:
192,192,58238,1,0,0:0:0:0:
320,192,58238,1,0,0:0:0:0:
448,192,58238,1,0,0:0:0:0:
192,192,58392,1,0,0:0:0:0:
64,192,58392,1,0,0:0:0:0:
448,192,58392,1,0,0:0:0:0:
64,192,58546,1,0,0:0:0:0:
320,192,58546,1,0,0:0:0:0:
448,192,58546,1,0,0:0:0:0:
192,192,58700,1,0,0:0:0:0:
320,192,58700,1,0,0:0:0:0:
448,192,58700,1,0,0:0:0:0:
192,192,58853,1,0,0:0:0:0:
320,192,58853,1,0,0:0:0:0:
64,192,58853,1,0,0:0:0:0:
192,192,59007,1,0,0:0:0:0:
64,192,59007,1,0,0:0:0:0:
448,192,59007,1,0,0:0:0:0:
448,192,59161,1,0,0:0:0:0:
64,192,59161,1,0,0:0:0:0:
320,192,59161,1,0,0:0:0:0:
64,192,59315,1,0,0:0:0:0:
448,192,59315,1,0,0:0:0:0:
320,192,59315,1,0,0:0:0:0:
448,192,59469,1,0,0:0:0:0:
64,192,59469,1,0,0:0:0:0:
192,192,59469,1,0,0:0:0:0:
192,192,59623,1,0,0:0:0:0:
320,192,59623,1,0,0:0:0:0:
448,192,59623,1,0,0:0:0:0:
320,192,59776,1,0,0:0:0:0:
192,192,59776,1,0,0:0:0:0:
64,192,59776,1,0,0:0:0:0:
64,192,59930,1,0,0:0:0:0:
192,192,59930,1,0,0:0:0:0:
448,192,59930,1,0,0:0:0:0:
320,192,60084,1,0,0:0:0:0:
448,192,60084,1,0,0:0:0:0:
64,192,60084,1,0,0:0:0:0:
192,192,60161,1,0,0:0:0:0:
320,192,60161,1,0,0:0:0:0:
64,192,60238,1,0,0:0:0:0:
192,192,60238,1,0,0:0:0:0:
320,192,60315,1,0,0:0:0:0:
448,192,60315,1,0,0:0:0:0:
64,192,60315,1,0,0:0:0:0:
192,192,60392,1,0,0:0:0:0:
448,192,60392,1,0,0:0:0:0:
320,192,60469,1,0,0:0:0:0:
192,192,60469,1,0,0:0:0:0:
64,192,60546,1,0,0:0:0:0:
320,192,60546,1,0,0:0:0:0:
448,192,60546,1,0,0:0:0:0:
192,192,60623,1,0,0:0:0:0:
64,192,60623,1,0,0:0:0:0:
192,192,60700,1,0,0:0:0:0:
64,192,60700,1,0,0:0:0:0:
448,192,60700,1,0,0:0:0:0:
320,192,60700,1,0,0:0:0:0:
320,192,60776,1,0,0:0:0:0:
448,192,60776,1,0,0:0:0:0:
64,192,60853,1,0,0:0:0:0:
320,192,60853,1,0,0:0:0:0:
192,192,60853,1,0,0:0:0:0:
192,192,60930,1,0,0:0:0:0:
448,192,60930,1,0,0:0:0:0:
64,192,61007,1,0,0:0:0:0:
320,192,61007,1,0,0:0:0:0:
448,192,61007,1,0,0:0:0:0:
192,192,61007,1,0,0:0:0:0:
192,192,61084,1,0,0:0:0:0:
64,192,61084,1,0,0:0:0:0:
192,192,61161,1,0,0:0:0:0:
320,192,61161,1,0,0:0:0:0:
448,192,61161,1,0,0:0:0:0:
320,192,61238,1,0,0:0:0:0:
64,192,61238,1,0,0:0:0:0:
192,192,61315,1,0,0:0:0:0:
64,192,61315,1,0,0:0:0:0:
448,192,61315,1,0,0:0:0:0:
320,192,61315,1,0,0:0:0:0:
192,192,61392,1,0,0:0:0:0:
64,192,61392,1,0,0:0:0:0:
192,192,61469,1,0,0:0:0:0:
320,192,61469,1,0,0:0:0:0:
448,192,61469,1,0,0:0:0:0:
64,192,61546,1,0,0:0:0:0:
448,192,61546,1,0,0:0:0:0:
320,192,61623,1,0,0:0:0:0:
192,192,61623,1,0,0:0:0:0:
64,192,61623,1,0,0:0:0:0:
192,192,61700,1,0,0:0:0:0:
320,192,61700,1,0,0:0:0:0:
64,192,61776,1,0,0:0:0:0:
320,192,61776,1,0,0:0:0:0:
448,192,61776,1,0,0:0:0:0:
192,192,61853,1,0,0:0:0:0:
448,192,61853,1,0,0:0:0:0:
64,192,61930,1,0,0:0:0:0:
192,192,61930,1,0,0:0:0:0:
320,192,61930,1,0,0:0:0:0:
64,192,62084,1,0,0:0:0:0:
448,192,62084,1,0,0:0:0:0:
320,192,62084,1,0,0:0:0:0:
192,192,62238,1,0,0:0:0:0:
320,192,62238,1,0,0:0:0:0:
448,192,62238,1,0,0:0:0:0:
192,192,62315,1,0,0:0:0:0:
64,192,62315,1,0,0:0:0:0:
64,192,62392,1,0,0:0:0:0:
320,192,62392,1,0,0:0:0:0:
448,192,62392,1,0,0:0:0:0:
192,192,62546,1,0,0:0:0:0:
320,192,62546,1,0,0:0:0:0:
64,192,62623,1,0,0:0:0:0:
192,192,62623,1,0,0:0:0:0:
448,192,62623,1,0,0:0:0:0:
64,192,62776,1,0,0:0:0:0:
320,192,62776,1,0,0:0:0:0:
320,192,62853,1,0,0:0:0:0:
192,192,62853,1,0,0:0:0:0:
448,192,62853,1,0,0:0:0:0:
192,192,62930,1,0,0:0:0:0:
64,192,62930,1,0,0:0:0:0:
448,192,62930,1,0,0:0:0:0:
320,192,63007,1,0,0:0:0:0:
64,192,63007,1,0,0:0:0:0:
192,192,63084,1,0,0:0:0:0:
64,192,63084,1,0,0:0:0:0:
448,192,63084,1,0,0:0:0:0:
320,192,63161,1,0,0:0:0:0:
448,192,63161,1,0,0:0:0:0:
192,192,63161,1,0,0:0:0:0:
64,192,63315,1,0,0:0:0:0:
320,192,63315,1,0,0:0:0:0:
192,192,63469,1,0,0:0:0:0:
448,192,63469,1,0,0:0:0:0:
64,192,63469,1,0,0:0:0:0:
192,192,63623,1,0,0:0:0:0:
448,192,63623,1,0,0:0:0:0:
64,192,63776,1,0,0:0:0:0:
320,192,63776,1,0,0:0:0:0:
320,192,63853,1,0,0:0:0:0:
448,192,63930,1,0,0:0:0:0:
64,192,63930,1,0,0:0:0:0:
192,192,64084,1,0,0:0:0:0:
320,192,64084,1,0,0:0:0:0:
64,192,64238,1,0,0:0:0:0:
192,192,64238,1,0,0:0:0:0:
320,192,64315,1,0,0:0:0:0:
448,192,64315,1,0,0:0:0:0:
64,192,64392,5,0,0:0:0:0:
192,192,64392,1,0,0:0:0:0:
320,192,64392,1,0,0:0:0:0:
448,192,64392,1,0,0:0:0:0:
64,192,64469,1,0,0:0:0:0:
192,192,64469,1,0,0:0:0:0:
64,192,64546,1,0,0:0:0:0:
192,192,64546,1,0,0:0:0:0:
320,192,64546,1,0,0:0:0:0:
448,192,64546,1,0,0:0:0:0:
320,192,64623,1,0,0:0:0:0:
448,192,64623,1,0,0:0:0:0:
64,192,64700,1,0,0:0:0:0:
192,192,64700,1,0,0:0:0:0:
448,192,64700,1,0,0:0:0:0:
320,192,64700,1,0,0:0:0:0:
64,192,64776,1,0,0:0:0:0:
320,192,64776,1,0,0:0:0:0:
448,192,64776,1,0,0:0:0:0:
192,192,64853,1,0,0:0:0:0:
64,192,64853,1,0,0:0:0:0:
320,192,64853,1,0,0:0:0:0:
448,192,64853,1,0,0:0:0:0:
192,192,64930,1,0,0:0:0:0:
64,192,64930,1,0,0:0:0:0:
320,192,64930,1,0,0:0:0:0:
64,192,65007,1,0,0:0:0:0:
192,192,65007,1,0,0:0:0:0:
320,192,65007,1,0,0:0:0:0:
448,192,65007,1,0,0:0:0:0:
192,192,65084,1,0,0:0:0:0:
64,192,65084,1,0,0:0:0:0:
448,192,65084,1,0,0:0:0:0:
64,192,65161,1,0,0:0:0:0:
192,192,65161,1,0,0:0:0:0:
320,192,65161,1,0,0:0:0:0:
448,192,65161,1,0,0:0:0:0:
448,192,65238,1,0,0:0:0:0:
192,192,65238,1,0,0:0:0:0:
320,192,65238,1,0,0:0:0:0:
64,192,65315,1,0,0:0:0:0:
192,192,65315,1,0,0:0:0:0:
320,192,65315,1,0,0:0:0:0:
448,192,65315,1,0,0:0:0:0:
192,192,65392,1,0,0:0:0:0:
448,192,65392,1,0,0:0:0:0:
320,192,65392,1,0,0:0:0:0:
64,192,65392,1,0,0:0:0:0:
64,192,65469,1,0,0:0:0:0:
192,192,65469,1,0,0:0:0:0:
320,192,65469,1,0,0:0:0:0:
448,192,65469,1,0,0:0:0:0:
64,192,65546,1,0,0:0:0:0:
320,192,65546,1,0,0:0:0:0:
192,192,65546,1,0,0:0:0:0:
448,192,65546,1,0,0:0:0:0:
64,192,65623,1,0,0:0:0:0:
192,192,65623,1,0,0:0:0:0:
320,192,65623,1,0,0:0:0:0:
448,192,65623,1,0,0:0:0:0:
192,192,65700,1,0,0:0:0:0:
320,192,65700,1,0,0:0:0:0:
448,192,65700,1,0,0:0:0:0:
64,192,65776,1,0,0:0:0:0:
320,192,65776,1,0,0:0:0:0:
448,192,65776,1,0,0:0:0:0:
192,192,65853,1,0,0:0:0:0:
64,192,65853,1,0,0:0:0:0:
320,192,65853,1,0,0:0:0:0:
64,192,65930,1,0,0:0:0:0:
192,192,65930,1,0,0:0:0:0:
320,192,65930,1,0,0:0:0:0:
448,192,65930,1,0,0:0:0:0:
64,192,66007,1,0,0:0:0:0:
448,192,66007,1,0,0:0:0:0:
192,192,66007,1,0,0:0:0:0:
192,192,66084,1,0,0:0:0:0:
320,192,66084,1,0,0:0:0:0:
448,192,66084,1,0,0:0:0:0:
320,192,66161,1,0,0:0:0:0:
192,192,66161,1,0,0:0:0:0:
64,192,66161,1,0,0:0:0:0:
64,192,66238,1,0,0:0:0:0:
192,192,66238,1,0,0:0:0:0:
320,192,66238,1,0,0:0:0:0:
448,192,66238,1,0,0:0:0:0:
320,192,66315,1,0,0:0:0:0:
448,192,66315,1,0,0:0:0:0:
64,192,66315,1,0,0:0:0:0:
192,192,66392,1,0,0:0:0:0:
64,192,66392,1,0,0:0:0:0:
320,192,66392,1,0,0:0:0:0:
192,192,66469,1,0,0:0:0:0:
448,192,66469,1,0,0:0:0:0:
64,192,66469,1,0,0:0:0:0:
64,192,66546,1,0,0:0:0:0:
192,192,66546,1,0,0:0:0:0:
320,192,66546,1,0,0:0:0:0:
448,192,66546,1,0,0:0:0:0:
320,192,66623,1,0,0:0:0:0:
448,192,66623,1,0,0:0:0:0:
64,192,66700,1,0,0:0:0:0:
192,192,66700,1,0,0:0:0:0:
448,192,66700,1,0,0:0:0:0:
320,192,66700,1,0,0:0:0:0:
64,192,66776,1,0,0:0:0:0:
192,192,66776,1,0,0:0:0:0:
64,192,66853,1,0,0:0:0:0:
192,192,66853,1,0,0:0:0:0:
320,192,66853,1,0,0:0:0:0:
448,192,66853,1,0,0:0:0:0:
64,192,66930,1,0,0:0:0:0:
448,192,66930,1,0,0:0:0:0:
320,192,66930,1,0,0:0:0:0:
192,192,67007,1,0,0:0:0:0:
320,192,67007,1,0,0:0:0:0:
448,192,67007,1,0,0:0:0:0:
64,192,67084,1,0,0:0:0:0:
192,192,67084,1,0,0:0:0:0:
64,192,67161,1,0,0:0:0:0:
192,192,67161,1,0,0:0:0:0:
320,192,67161,1,0,0:0:0:0:
448,192,67161,1,0,0:0:0:0:
192,192,67238,1,0,0:0:0:0:
64,192,67238,1,0,0:0:0:0:
320,192,67238,1,0,0:0:0:0:
320,192,67315,1,0,0:0:0:0:
448,192,67315,1,0,0:0:0:0:
64,192,67315,1,0,0:0:0:0:
192,192,67392,1,0,0:0:0:0:
448,192,67392,1,0,0:0:0:0:
192,192,67469,1,0,0:0:0:0:
320,192,67469,1,0,0:0:0:0:
448,192,67469,1,0,0:0:0:0:
64,192,67469,1,0,0:0:0:0:
448,192,67546,1,0,0:0:0:0:
320,192,67546,1,0,0:0:0:0:
64,192,67546,1,0,0:0:0:0:
320,192,67623,1,0,0:0:0:0:
192,192,67623,1,0,0:0:0:0:
64,192,67700,1,0,0:0:0:0:
320,192,67700,1,0,0:0:0:0:
448,192,67700,1,0,0:0:0:0:
64,192,67776,1,0,0:0:0:0:
192,192,67776,1,0,0:0:0:0:
320,192,67776,1,0,0:0:0:0:
448,192,67776,1,0,0:0:0:0:
192,192,67853,1,0,0:0:0:0:
64,192,67853,1,0,0:0:0:0:
320,192,67853,1,0,0:0:0:0:
192,192,67930,1,0,0:0:0:0:
448,192,67930,1,0,0:0:0:0:
192,192,68007,1,0,0:0:0:0:
64,192,68007,1,0,0:0:0:0:
320,192,68007,1,0,0:0:0:0:
64,192,68084,1,0,0:0:0:0:
192,192,68084,1,0,0:0:0:0:
320,192,68084,1,0,0:0:0:0:
448,192,68084,1,0,0:0:0:0:
320,192,68161,1,0,0:0:0:0:
448,192,68161,1,0,0:0:0:0:
64,192,68161,1,0,0:0:0:0:
64,192,68238,1,0,0:0:0:0:
192,192,68238,1,0,0:0:0:0:
448,192,68238,1,0,0:0:0:0:
192,192,68315,1,0,0:0:0:0:
320,192,68315,1,0,0:0:0:0:
64,192,68315,1,0,0:0:0:0:
64,192,68392,1,0,0:0:0:0:
320,192,68392,1,0,0:0:0:0:
192,192,68392,1,0,0:0:0:0:
448,192,68392,1,0,0:0:0:0:
320,192,68469,1,0,0:0:0:0:
448,192,68469,1,0,0:0:0:0:
192,192,68469,1,0,0:0:0:0:
320,192,68546,1,0,0:0:0:0:
448,192,68546,1,0,0:0:0:0:
64,192,68546,1,0,0:0:0:0:
192,192,68623,1,0,0:0:0:0:
64,192,68623,1,0,0:0:0:0:
448,192,68623,1,0,0:0:0:0:
64,192,68700,1,0,0:0:0:0:
192,192,68700,1,0,0:0:0:0:
320,192,68700,1,0,0:0:0:0:
448,192,68700,1,0,0:0:0:0:
320,192,68776,1,0,0:0:0:0:
192,192,68776,1,0,0:0:0:0:
64,192,68776,1,0,0:0:0:0:
320,192,68853,1,0,0:0:0:0:
192,192,68853,1,0,0:0:0:0:
448,192,68853,1,0,0:0:0:0:
64,192,68930,1,0,0:0:0:0:
448,192,68930,1,0,0:0:0:0:
320,192,68930,1,0,0:0:0:0:
192,192,69007,1,0,0:0:0:0:
64,192,69007,1,0,0:0:0:0:
320,192,69007,1,0,0:0:0:0:
448,192,69007,1,0,0:0:0:0:
192,192,69084,1,0,0:0:0:0:
448,192,69084,1,0,0:0:0:0:
64,192,69161,1,0,0:0:0:0:
320,192,69161,1,0,0:0:0:0:
448,192,69161,1,0,0:0:0:0:
192,192,69161,1,0,0:0:0:0:
64,192,69238,1,0,0:0:0:0:
320,192,69238,1,0,0:0:0:0:
64,192,69315,1,0,0:0:0:0:
448,192,69315,1,0,0:0:0:0:
192,192,69315,1,0,0:0:0:0:
320,192,69315,1,0,0:0:0:0:
192,192,69392,1,0,0:0:0:0:
320,192,69392,1,0,0:0:0:0:
448,192,69392,1,0,0:0:0:0:
64,192,69469,1,0,0:0:0:0:
192,192,69469,1,0,0:0:0:0:
320,192,69469,1,0,0:0:0:0:
448,192,69469,1,0,0:0:0:0:
192,192,69546,1,0,0:0:0:0:
64,192,69546,1,0,0:0:0:0:
448,192,69546,1,0,0:0:0:0:
64,192,69623,1,0,0:0:0:0:
192,192,69623,1,0,0:0:0:0:
448,192,69623,1,0,0:0:0:0:
320,192,69623,1,0,0:0:0:0:
64,192,69700,1,0,0:0:0:0:
192,192,69700,1,0,0:0:0:0:
320,192,69700,1,0,0:0:0:0:
64,192,69776,1,0,0:0:0:0:
192,192,69776,1,0,0:0:0:0:
320,192,69776,1,0,0:0:0:0:
448,192,69776,1,0,0:0:0:0:
192,192,69853,1,0,0:0:0:0:
320,192,69853,1,0,0:0:0:0:
448,192,69853,1,0,0:0:0:0:
64,192,69930,1,0,0:0:0:0:
192,192,69930,1,0,0:0:0:0:
448,192,69930,1,0,0:0:0:0:
320,192,69930,1,0,0:0:0:0:
64,192,70007,1,0,0:0:0:0:
448,192,70007,1,0,0:0:0:0:
320,192,70007,1,0,0:0:0:0:
192,192,70084,1,0,0:0:0:0:
320,192,70084,1,0,0:0:0:0:
448,192,70084,1,0,0:0:0:0:
64,192,70161,1,0,0:0:0:0:
192,192,70161,1,0,0:0:0:0:
448,192,70161,1,0,0:0:0:0:
64,192,70238,1,0,0:0:0:0:
192,192,70238,1,0,0:0:0:0:
320,192,70238,1,0,0:0:0:0:
448,192,70238,1,0,0:0:0:0:
192,192,70315,1,0,0:0:0:0:
320,192,70315,1,0,0:0:0:0:
64,192,70392,1,0,0:0:0:0:
192,192,70392,1,0,0:0:0:0:
320,192,70392,1,0,0:0:0:0:
448,192,70392,1,0,0:0:0:0:
64,192,70469,1,0,0:0:0:0:
320,192,70469,1,0,0:0:0:0:
448,192,70469,1,0,0:0:0:0:
64,192,70546,1,0,0:0:0:0:
192,192,70546,1,0,0:0:0:0:
320,192,70546,1,0,0:0:0:0:
448,192,70546,1,0,0:0:0:0:
192,192,70623,1,0,0:0:0:0:
64,192,70623,1,0,0:0:0:0:
320,192,70623,1,0,0:0:0:0:
192,192,70700,1,0,0:0:0:0:
64,192,70700,1,0,0:0:0:0:
448,192,70700,1,0,0:0:0:0:
320,192,70776,1,0,0:0:0:0:
448,192,70776,1,0,0:0:0:0:
192,192,70776,1,0,0:0:0:0:
64,192,70853,1,0,0:0:0:0:
192,192,70853,1,0,0:0:0:0:
320,192,70853,1,0,0:0:0:0:
448,192,70853,1,0,0:0:0:0:
320,192,70930,1,0,0:0:0:0:
448,192,70930,1,0,0:0:0:0:
64,192,70930,1,0,0:0:0:0:
192,192,71007,1,0,0:0:0:0:
64,192,71007,1,0,0:0:0:0:
448,192,71007,1,0,0:0:0:0:
192,192,71084,1,0,0:0:0:0:
64,192,71084,1,0,0:0:0:0:
320,192,71084,1,0,0:0:0:0:
320,192,71161,1,0,0:0:0:0:
448,192,71161,1,0,0:0:0:0:
192,192,71161,1,0,0:0:0:0:
64,192,71161,1,0,0:0:0:0:
320,192,71238,1,0,0:0:0:0:
64,192,71238,1,0,0:0:0:0:
448,192,71238,1,0,0:0:0:0:
192,192,71315,1,0,0:0:0:0:
320,192,71315,1,0,0:0:0:0:
448,192,71315,1,0,0:0:0:0:
64,192,71392,1,0,0:0:0:0:
192,192,71392,1,0,0:0:0:0:
320,192,71392,1,0,0:0:0:0:
64,192,71469,1,0,0:0:0:0:
192,192,71469,1,0,0:0:0:0:
320,192,71469,1,0,0:0:0:0:
448,192,71469,1,0,0:0:0:0:
64,192,71546,1,0,0:0:0:0:
448,192,71546,1,0,0:0:0:0:
64,192,71623,1,0,0:0:0:0:
192,192,71623,1,0,0:0:0:0:
320,192,71623,1,0,0:0:0:0:
448,192,71623,1,0,0:0:0:0:
192,192,71700,1,0,0:0:0:0:
320,192,71700,1,0,0:0:0:0:
64,192,71776,1,0,0:0:0:0:
320,192,71776,1,0,0:0:0:0:
448,192,71776,1,0,0:0:0:0:
192,192,71776,1,0,0:0:0:0:
64,192,71853,1,0,0:0:0:0:
192,192,71853,1,0,0:0:0:0:
320,192,71853,1,0,0:0:0:0:
64,192,71930,1,0,0:0:0:0:
448,192,71930,1,0,0:0:0:0:
320,192,71930,1,0,0:0:0:0:
192,192,72007,1,0,0:0:0:0:
448,192,72007,1,0,0:0:0:0:
64,192,72084,1,0,0:0:0:0:
192,192,72084,1,0,0:0:0:0:
448,192,72084,1,0,0:0:0:0:
320,192,72084,1,0,0:0:0:0:
320,192,72161,1,0,0:0:0:0:
448,192,72161,1,0,0:0:0:0:
192,192,72161,1,0,0:0:0:0:
320,192,72238,1,0,0:0:0:0:
64,192,72238,1,0,0:0:0:0:
448,192,72238,1,0,0:0:0:0:
192,192,72315,1,0,0:0:0:0:
64,192,72315,1,0,0:0:0:0:
192,192,72392,1,0,0:0:0:0:
64,192,72392,1,0,0:0:0:0:
320,192,72392,1,0,0:0:0:0:
448,192,72392,1,0,0:0:0:0:
192,192,72469,1,0,0:0:0:0:
320,192,72469,1,0,0:0:0:0:
64,192,72546,1,0,0:0:0:0:
320,192,72546,1,0,0:0:0:0:
448,192,72546,1,0,0:0:0:0:
192,192,72546,1,0,0:0:0:0:
320,192,72623,1,0,0:0:0:0:
64,192,72623,1,0,0:0:0:0:
64,192,72700,1,0,0:0:0:0:
192,192,72700,1,0,0:0:0:0:
320,192,72700,1,0,0:0:0:0:
448,192,72700,1,0,0:0:0:0:
448,192,72776,1,0,0:0:0:0:
64,192,72776,1,0,0:0:0:0:
64,192,72853,1,0,0:0:0:0:
320,192,72853,1,0,0:0:0:0:
448,192,72853,1,0,0:0:0:0:
192,192,72853,1,0,0:0:0:0:
448,192,72930,1,0,0:0:0:0:
320,192,72930,1,0,0:0:0:0:
320,192,73007,1,0,0:0:0:0:
448,192,73007,1,0,0:0:0:0:
64,192,73007,1,0,0:0:0:0:
192,192,73007,1,0,0:0:0:0:
64,192,73084,1,0,0:0:0:0:
192,192,73084,1,0,0:0:0:0:
320,192,73084,1,0,0:0:0:0:
192,192,73161,1,0,0:0:0:0:
320,192,73161,1,0,0:0:0:0:
448,192,73161,1,0,0:0:0:0:
64,192,73238,1,0,0:0:0:0:
448,192,73238,1,0,0:0:0:0:
64,192,73315,1,0,0:0:0:0:
192,192,73315,1,0,0:0:0:0:
320,192,73315,1,0,0:0:0:0:
448,192,73315,1,0,0:0:0:0:
192,192,73392,1,0,0:0:0:0:
64,192,73392,1,0,0:0:0:0:
448,192,73392,1,0,0:0:0:0:
192,192,73469,1,0,0:0:0:0:
320,192,73469,1,0,0:0:0:0:
448,192,73469,1,0,0:0:0:0:
320,192,73546,1,0,0:0:0:0:
64,192,73546,1,0,0:0:0:0:
64,192,73623,1,0,0:0:0:0:
192,192,73623,1,0,0:0:0:0:
320,192,73623,1,0,0:0:0:0:
448,192,73623,1,0,0:0:0:0:
192,192,73700,1,0,0:0:0:0:
448,192,73700,1,0,0:0:0:0:
320,192,73700,1,0,0:0:0:0:
64,192,73776,1,0,0:0:0:0:
192,192,73776,1,0,0:0:0:0:
448,192,73776,1,0,0:0:0:0:
192,192,73853,1,0,0:0:0:0:
64,192,73853,1,0,0:0:0:0:
320,192,73853,1,0,0:0:0:0:
64,192,73930,1,0,0:0:0:0:
192,192,73930,1,0,0:0:0:0:
320,192,73930,1,0,0:0:0:0:
448,192,73930,1,0,0:0:0:0:
320,192,74007,1,0,0:0:0:0:
448,192,74007,1,0,0:0:0:0:
64,192,74007,1,0,0:0:0:0:
192,192,74084,1,0,0:0:0:0:
64,192,74084,1,0,0:0:0:0:
448,192,74084,1,0,0:0:0:0:
192,192,74161,1,0,0:0:0:0:
320,192,74161,1,0,0:0:0:0:
448,192,74161,1,0,0:0:0:0:
64,192,74238,1,0,0:0:0:0:
192,192,74238,1,0,0:0:0:0:
320,192,74238,1,0,0:0:0:0:
448,192,74238,1,0,0:0:0:0:
192,192,74315,1,0,0:0:0:0:
64,192,74315,1,0,0:0:0:0:
448,192,74392,1,0,0:0:0:0:
192,192,74392,1,0,0:0:0:0:
320,192,74392,1,0,0:0:0:0:
64,192,74392,1,0,0:0:0:0:
320,192,74469,1,0,0:0:0:0:
448,192,74469,1,0,0:0:0:0:
64,192,74546,1,0,0:0:0:0:
320,192,74546,1,0,0:0:0:0:
448,192,74546,1,0,0:0:0:0:
192,192,74546,1,0,0:0:0:0:
192,192,74623,1,0,0:0:0:0:
64,192,74623,1,0,0:0:0:0:
64,192,74700,1,0,0:0:0:0:
192,192,74700,1,0,0:0:0:0:
448,192,74700,1,0,0:0:0:0:
320,192,74700,1,0,0:0:0:0:
320,192,74776,1,0,0:0:0:0:
448,192,74776,1,0,0:0:0:0:
64,192,74853,1,0,0:0:0:0:
192,192,74853,1,0,0:0:0:0:
320,192,74853,1,0,0:0:0:0:
448,192,74853,1,0,0:0:0:0:
64,192,74930,1,0,0:0:0:0:
192,192,74930,1,0,0:0:0:0:
320,192,74930,1,0,0:0:0:0:
192,192,75007,1,0,0:0:0:0:
320,192,75007,1,0,0:0:0:0:
448,192,75007,1,0,0:0:0:0:
64,192,75007,1,0,0:0:0:0:
192,192,75084,1,0,0:0:0:0:
64,192,75084,1,0,0:0:0:0:
448,192,75084,1,0,0:0:0:0:
448,192,75161,1,0,0:0:0:0:
64,192,75161,1,0,0:0:0:0:
192,192,75161,1,0,0:0:0:0:
320,192,75161,1,0,0:0:0:0:
64,192,75238,1,0,0:0:0:0:
192,192,75238,1,0,0:0:0:0:
320,192,75238,1,0,0:0:0:0:
448,192,75238,1,0,0:0:0:0:
64,192,75315,1,0,0:0:0:0:
192,192,75315,1,0,0:0:0:0:
320,192,75315,1,0,0:0:0:0:
448,192,75315,1,0,0:0:0:0:
64,192,75392,1,0,0:0:0:0:
192,192,75392,1,0,0:0:0:0:
320,192,75392,1,0,0:0:0:0:
448,192,75392,1,0,0:0:0:0:
64,192,75469,1,0,0:0:0:0:
192,192,75469,1,0,0:0:0:0:
320,192,75469,1,0,0:0:0:0:
448,192,75469,1,0,0:0:0:0:
448,192,75546,1,0,0:0:0:0:
320,192,75546,1,0,0:0:0:0:
64,192,75546,1,0,0:0:0:0:
192,192,75623,1,0,0:0:0:0:
320,192,75623,1,0,0:0:0:0:
448,192,75623,1,0,0:0:0:0:
192,192,75700,1,0,0:0:0:0:
64,192,75700,1,0,0:0:0:0:
320,192,75700,1,0,0:0:0:0:
64,192,75776,1,0,0:0:0:0:
192,192,75776,1,0,0:0:0:0:
448,192,75776,1,0,0:0:0:0:
320,192,75776,1,0,0:0:0:0:
192,192,75853,1,0,0:0:0:0:
64,192,75853,1,0,0:0:0:0:
448,192,75853,1,0,0:0:0:0:
64,192,75930,1,0,0:0:0:0:
192,192,75930,1,0,0:0:0:0:
320,192,75930,1,0,0:0:0:0:
64,192,76007,1,0,0:0:0:0:
320,192,76007,1,0,0:0:0:0:
448,192,76007,1,0,0:0:0:0:
64,192,76084,1,0,0:0:0:0:
192,192,76084,1,0,0:0:0:0:
320,192,76084,1,0,0:0:0:0:
448,192,76084,1,0,0:0:0:0:
192,192,76161,1,0,0:0:0:0:
320,192,76161,1,0,0:0:0:0:
448,192,76161,1,0,0:0:0:0:
64,192,76238,1,0,0:0:0:0:
192,192,76238,1,0,0:0:0:0:
448,192,76238,1,0,0:0:0:0:
320,192,76315,1,0,0:0:0:0:
448,192,76315,1,0,0:0:0:0:
64,192,76315,1,0,0:0:0:0:
64,192,76392,1,0,0:0:0:0:
192,192,76392,1,0,0:0:0:0:
320,192,76392,1,0,0:0:0:0:
448,192,76392,1,0,0:0:0:0:
320,192,76469,1,0,0:0:0:0:
192,192,76469,1,0,0:0:0:0:
64,192,76469,1,0,0:0:0:0:
64,192,76546,1,0,0:0:0:0:
320,192,76546,1,0,0:0:0:0:
448,192,76546,1,0,0:0:0:0:
192,192,76546,1,0,0:0:0:0:
192,192,76623,1,0,0:0:0:0:
320,192,76623,1,0,0:0:0:0:
448,192,76623,1,0,0:0:0:0:
64,192,76700,1,0,0:0:0:0:
192,192,76700,1,0,0:0:0:0:
320,192,76700,1,0,0:0:0:0:
448,192,76700,1,0,0:0:0:0:
192,192,76776,1,0,0:0:0:0:
64,192,76776,1,0,0:0:0:0:
448,192,76776,1,0,0:0:0:0:
64,192,76853,1,0,0:0:0:0:
192,192,76853,1,0,0:0:0:0:
320,192,76853,1,0,0:0:0:0:
320,192,76930,1,0,0:0:0:0:
448,192,76930,1,0,0:0:0:0:
64,192,77007,1,0,0:0:0:0:
192,192,77007,1,0,0:0:0:0:
320,192,77007,1,0,0:0:0:0:
448,192,77007,1,0,0:0:0:0:
64,192,77084,1,0,0:0:0:0:
448,192,77084,1,0,0:0:0:0:
320,192,77084,1,0,0:0:0:0:
192,192,77161,1,0,0:0:0:0:
64,192,77161,1,0,0:0:0:0:
320,192,77161,1,0,0:0:0:0:
192,192,77238,1,0,0:0:0:0:
448,192,77238,1,0,0:0:0:0:
192,192,77315,1,0,0:0:0:0:
320,192,77315,1,0,0:0:0:0:
448,192,77315,1,0,0:0:0:0:
64,192,77315,1,0,0:0:0:0:
320,192,77392,1,0,0:0:0:0:
448,192,77392,1,0,0:0:0:0:
64,192,77392,1,0,0:0:0:0:
192,192,77469,1,0,0:0:0:0:
320,192,77469,1,0,0:0:0:0:
448,192,77469,1,0,0:0:0:0:
320,192,77546,1,0,0:0:0:0:
448,192,77546,1,0,0:0:0:0:
64,192,77546,1,0,0:0:0:0:
192,192,77623,1,0,0:0:0:0:
64,192,77623,1,0,0:0:0:0:
448,192,77623,1,0,0:0:0:0:
192,192,77700,1,0,0:0:0:0:
64,192,77700,1,0,0:0:0:0:
320,192,77700,1,0,0:0:0:0:
192,192,77776,1,0,0:0:0:0:
320,192,77776,1,0,0:0:0:0:
448,192,77776,1,0,0:0:0:0:
64,192,77776,1,0,0:0:0:0:
320,192,77853,1,0,0:0:0:0:
448,192,77853,1,0,0:0:0:0:
192,192,77853,1,0,0:0:0:0:
64,192,77930,1,0,0:0:0:0:
192,192,77930,1,0,0:0:0:0:
448,192,77930,1,0,0:0:0:0:
320,192,77930,1,0,0:0:0:0:
64,192,78007,1,0,0:0:0:0:
320,192,78007,1,0,0:0:0:0:
448,192,78007,1,0,0:0:0:0:
192,192,78084,1,0,0:0:0:0:
64,192,78084,1,0,0:0:0:0:
448,192,78084,1,0,0:0:0:0:
320,192,78161,1,0,0:0:0:0:
448,192,78161,1,0,0:0:0:0:
64,192,78161,1,0,0:0:0:0:
64,192,78238,1,0,0:0:0:0:
192,192,78238,1,0,0:0:0:0:
320,192,78238,1,0,0:0:0:0:
448,192,78238,1,0,0:0:0:0:
192,192,78315,1,0,0:0:0:0:
320,192,78315,1,0,0:0:0:0:
448,192,78315,1,0,0:0:0:0:
192,192,78392,1,0,0:0:0:0:
320,192,78392,1,0,0:0:0:0:
64,192,78392,1,0,0:0:0:0:
192,192,78469,1,0,0:0:0:0:
320,192,78469,1,0,0:0:0:0:
448,192,78469,1,0,0:0:0:0:
64,192,78546,1,0,0:0:0:0:
192,192,78546,1,0,0:0:0:0:
320,192,78546,1,0,0:0:0:0:
448,192,78546,1,0,0:0:0:0:
192,192,78623,1,0,0:0:0:0:
64,192,78623,1,0,0:0:0:0:
448,192,78623,1,0,0:0:0:0:
192,192,78700,1,0,0:0:0:0:
64,192,78700,1,0,0:0:0:0:
320,192,78700,1,0,0:0:0:0:
192,192,78776,1,0,0:0:0:0:
64,192,78776,1,0,0:0:0:0:
448,192,78776,1,0,0:0:0:0:
64,192,78853,1,0,0:0:0:0:
320,192,78853,1,0,0:0:0:0:
448,192,78853,1,0,0:0:0:0:
192,192,78853,1,0,0:0:0:0:
320,192,78930,1,0,0:0:0:0:
448,192,78930,1,0,0:0:0:0:
64,192,78930,1,0,0:0:0:0:
192,192,79007,1,0,0:0:0:0:
64,192,79007,1,0,0:0:0:0:
448,192,79007,1,0,0:0:0:0:
320,192,79007,1,0,0:0:0:0:
192,192,79084,1,0,0:0:0:0:
320,192,79084,1,0,0:0:0:0:
448,192,79084,1,0,0:0:0:0:
64,192,79161,1,0,0:0:0:0:
320,192,79161,1,0,0:0:0:0:
448,192,79161,1,0,0:0:0:0:
192,192,79161,1,0,0:0:0:0:
64,192,79238,1,0,0:0:0:0:
192,192,79238,1,0,0:0:0:0:
320,192,79238,1,0,0:0:0:0:
448,192,79238,1,0,0:0:0:0:
192,192,79315,1,0,0:0:0:0:
64,192,79315,1,0,0:0:0:0:
320,192,79315,1,0,0:0:0:0:
192,192,79392,1,0,0:0:0:0:
64,192,79392,1,0,0:0:0:0:
448,192,79392,1,0,0:0:0:0:
64,192,79469,1,0,0:0:0:0:
320,192,79469,1,0,0:0:0:0:
448,192,79469,1,0,0:0:0:0:
192,192,79469,1,0,0:0:0:0:
64,192,79546,1,0,0:0:0:0:
192,192,79546,1,0,0:0:0:0:
320,192,79546,1,0,0:0:0:0:
448,192,79546,1,0,0:0:0:0:
320,192,79623,1,0,0:0:0:0:
448,192,79623,1,0,0:0:0:0:
64,192,79623,1,0,0:0:0:0:
192,192,79700,1,0,0:0:0:0:
320,192,79700,1,0,0:0:0:0:
448,192,79700,1,0,0:0:0:0:
64,192,79776,1,0,0:0:0:0:
320,192,79776,1,0,0:0:0:0:
448,192,79776,1,0,0:0:0:0:
192,192,79776,1,0,0:0:0:0:
64,192,79853,1,0,0:0:0:0:
192,192,79853,1,0,0:0:0:0:
320,192,79853,1,0,0:0:0:0:
64,192,79930,1,0,0:0:0:0:
192,192,79930,1,0,0:0:0:0:
448,192,79930,1,0,0:0:0:0:
320,192,79930,1,0,0:0:0:0:
320,192,80007,1,0,0:0:0:0:
448,192,80007,1,0,0:0:0:0:
64,192,80007,1,0,0:0:0:0:
64,192,80084,1,0,0:0:0:0:
192,192,80084,1,0,0:0:0:0:
320,192,80084,1,0,0:0:0:0:
448,192,80084,1,0,0:0:0:0:
192,192,80161,1,0,0:0:0:0:
64,192,80161,1,0,0:0:0:0:
448,192,80161,1,0,0:0:0:0:
320,192,80161,1,0,0:0:0:0:
192,192,80238,1,0,0:0:0:0:
320,192,80238,1,0,0:0:0:0:
448,192,80238,1,0,0:0:0:0:
64,192,80315,1,0,0:0:0:0:
192,192,80315,1,0,0:0:0:0:
320,192,80315,1,0,0:0:0:0:
448,192,80315,1,0,0:0:0:0:
64,192,80392,1,0,0:0:0:0:
192,192,80392,1,0,0:0:0:0:
320,192,80392,1,0,0:0:0:0:
448,192,80392,1,0,0:0:0:0:
192,192,80469,1,0,0:0:0:0:
64,192,80469,1,0,0:0:0:0:
448,192,80469,1,0,0:0:0:0:
192,192,80546,1,0,0:0:0:0:
64,192,80546,1,0,0:0:0:0:
320,192,80546,1,0,0:0:0:0:
64,192,80623,1,0,0:0:0:0:
320,192,80623,1,0,0:0:0:0:
448,192,80623,1,0,0:0:0:0:
64,192,80700,1,0,0:0:0:0:
320,192,80700,1,0,0:0:0:0:
448,192,80700,1,0,0:0:0:0:
192,192,80700,1,0,0:0:0:0:
192,192,80776,1,0,0:0:0:0:
320,192,80776,1,0,0:0:0:0:
448,192,80776,1,0,0:0:0:0:
192,192,80853,1,0,0:0:0:0:
64,192,80853,1,0,0:0:0:0:
320,192,80853,1,0,0:0:0:0:
192,192,80930,1,0,0:0:0:0:
64,192,80930,1,0,0:0:0:0:
448,192,80930,1,0,0:0:0:0:
64,192,81007,1,0,0:0:0:0:
320,192,81007,1,0,0:0:0:0:
448,192,81007,1,0,0:0:0:0:
192,192,81007,1,0,0:0:0:0:
320,192,81084,1,0,0:0:0:0:
448,192,81084,1,0,0:0:0:0:
192,192,81084,1,0,0:0:0:0:
64,192,81161,1,0,0:0:0:0:
320,192,81161,1,0,0:0:0:0:
448,192,81161,1,0,0:0:0:0:
64,192,81238,1,0,0:0:0:0:
192,192,81238,1,0,0:0:0:0:
320,192,81238,1,0,0:0:0:0:
64,192,81315,1,0,0:0:0:0:
192,192,81315,1,0,0:0:0:0:
320,192,81315,1,0,0:0:0:0:
448,192,81315,1,0,0:0:0:0:
192,192,81392,1,0,0:0:0:0:
64,192,81392,1,0,0:0:0:0:
448,192,81392,1,0,0:0:0:0:
320,192,81469,1,0,0:0:0:0:
64,192,81469,1,0,0:0:0:0:
448,192,81469,1,0,0:0:0:0:
192,192,81469,1,0,0:0:0:0:
192,192,81546,1,0,0:0:0:0:
320,192,81546,1,0,0:0:0:0:
448,192,81546,1,0,0:0:0:0:
64,192,81623,1,0,0:0:0:0:
192,192,81623,1,0,0:0:0:0:
320,192,81623,1,0,0:0:0:0:
448,192,81623,1,0,0:0:0:0:
64,192,81700,1,0,0:0:0:0:
320,192,81700,1,0,0:0:0:0:
192,192,81776,1,0,0:0:0:0:
64,192,81776,1,0,0:0:0:0:
448,192,81776,1,0,0:0:0:0:
320,192,81853,1,0,0:0:0:0:
448,192,81853,1,0,0:0:0:0:
192,192,81853,1,0,0:0:0:0:
64,192,81930,1,0,0:0:0:0:
192,192,81930,1,0,0:0:0:0:
320,192,81930,1,0,0:0:0:0:
448,192,81930,1,0,0:0:0:0:
448,192,82007,1,0,0:0:0:0:
64,192,82007,1,0,0:0:0:0:
320,192,82084,1,0,0:0:0:0:
192,192,82084,1,0,0:0:0:0:
64,192,82084,1,0,0:0:0:0:
192,192,82161,1,0,0:0:0:0:
320,192,82161,1,0,0:0:0:0:
448,192,82161,1,0,0:0:0:0:
64,192,82238,1,0,0:0:0:0:
192,192,82238,1,0,0:0:0:0:
320,192,82238,1,0,0:0:0:0:
448,192,82238,1,0,0:0:0:0:
64,192,82315,1,0,0:0:0:0:
192,192,82315,1,0,0:0:0:0:
448,192,82315,1,0,0:0:0:0:
64,192,82392,1,0,0:0:0:0:
192,192,82392,1,0,0:0:0:0:
320,192,82392,1,0,0:0:0:0:
448,192,82392,1,0,0:0:0:0:
320,192,82469,1,0,0:0:0:0:
448,192,82469,1,0,0:0:0:0:
64,192,82469,1,0,0:0:0:0:
64,192,82546,1,0,0:0:0:0:
192,192,82546,1,0,0:0:0:0:
320,192,82546,1,0,0:0:0:0:
448,192,82546,1,0,0:0:0:0:
192,192,82623,1,0,0:0:0:0:
320,192,82623,1,0,0:0:0:0:
448,192,82623,1,0,0:0:0:0:
192,192,82700,1,0,0:0:0:0:
64,192,82700,1,0,0:0:0:0:
320,192,82700,1,0,0:0:0:0:
448,192,82700,1,0,0:0:0:0:
192,192,82776,1,0,0:0:0:0:
64,192,82776,1,0,0:0:0:0:
320,192,82776,1,0,0:0:0:0:
192,192,82853,1,0,0:0:0:0:
64,192,82853,1,0,0:0:0:0:
320,192,82853,1,0,0:0:0:0:
448,192,82853,1,0,0:0:0:0:
64,192,82930,1,0,0:0:0:0:
448,192,82930,1,0,0:0:0:0:
64,192,83007,1,0,0:0:0:0:
192,192,83007,1,0,0:0:0:0:
320,192,83007,1,0,0:0:0:0:
448,192,83007,1,0,0:0:0:0:
192,192,83084,1,0,0:0:0:0:
320,192,83084,1,0,0:0:0:0:
64,192,83161,1,0,0:0:0:0:
192,192,83161,1,0,0:0:0:0:
320,192,83161,1,0,0:0:0:0:
448,192,83161,1,0,0:0:0:0:
448,192,83238,1,0,0:0:0:0:
320,192,83238,1,0,0:0:0:0:
64,192,83315,1,0,0:0:0:0:
192,192,83315,1,0,0:0:0:0:
320,192,83315,1,0,0:0:0:0:
448,192,83315,1,0,0:0:0:0:
192,192,83392,1,0,0:0:0:0:
64,192,83392,1,0,0:0:0:0:
64,192,83469,1,0,0:0:0:0:
192,192,83469,1,0,0:0:0:0:
320,192,83469,1,0,0:0:0:0:
448,192,83469,1,0,0:0:0:0:
64,192,83546,1,0,0:0:0:0:
192,192,83546,1,0,0:0:0:0:
448,192,83546,1,0,0:0:0:0:
320,192,83623,1,0,0:0:0:0:
448,192,83623,1,0,0:0:0:0:
192,192,83623,1,0,0:0:0:0:
64,192,83700,1,0,0:0:0:0:
192,192,83700,1,0,0:0:0:0:
320,192,83700,1,0,0:0:0:0:
448,192,83700,1,0,0:0:0:0:
320,192,83776,1,0,0:0:0:0:
448,192,83776,1,0,0:0:0:0:
64,192,83776,1,0,0:0:0:0:
192,192,83853,1,0,0:0:0:0:
64,192,83853,1,0,0:0:0:0:
320,192,83853,1,0,0:0:0:0:
64,192,83930,1,0,0:0:0:0:
192,192,83930,1,0,0:0:0:0:
320,192,83930,1,0,0:0:0:0:
448,192,83930,1,0,0:0:0:0:
192,192,84007,1,0,0:0:0:0:
320,192,84007,1,0,0:0:0:0:
448,192,84007,1,0,0:0:0:0:
64,192,84084,1,0,0:0:0:0:
192,192,84084,1,0,0:0:0:0:
320,192,84084,1,0,0:0:0:0:
448,192,84084,1,0,0:0:0:0:
192,192,84161,1,0,0:0:0:0:
64,192,84161,1,0,0:0:0:0:
320,192,84238,1,0,0:0:0:0:
448,192,84238,1,0,0:0:0:0:
192,192,84238,1,0,0:0:0:0:
64,192,84238,1,0,0:0:0:0:
64,192,84315,1,0,0:0:0:0:
320,192,84315,1,0,0:0:0:0:
448,192,84315,1,0,0:0:0:0:
64,192,84392,1,0,0:0:0:0:
192,192,84392,1,0,0:0:0:0:
448,192,84392,1,0,0:0:0:0:
320,192,84392,1,0,0:0:0:0:
192,192,84469,1,0,0:0:0:0:
448,192,84469,1,0,0:0:0:0:
192,192,84546,1,0,0:0:0:0:
64,192,84546,1,0,0:0:0:0:
320,192,84546,1,0,0:0:0:0:
448,192,84546,1,0,0:0:0:0:
320,192,84623,1,0,0:0:0:0:
192,192,84623,1,0,0:0:0:0:
64,192,84623,1,0,0:0:0:0:
64,192,84700,1,0,0:0:0:0:
320,192,84700,1,0,0:0:0:0:
448,192,84700,1,0,0:0:0:0:
192,192,84700,1,0,0:0:0:0:
320,192,84776,1,0,0:0:0:0:
448,192,84776,1,0,0:0:0:0:
64,192,84776,1,0,0:0:0:0:
192,192,84853,1,0,0:0:0:0:
320,192,84853,1,0,0:0:0:0:
448,192,84853,1,0,0:0:0:0:
192,192,84930,1,0,0:0:0:0:
64,192,84930,1,0,0:0:0:0:
448,192,84930,1,0,0:0:0:0:
64,192,85007,1,0,0:0:0:0:
192,192,85007,1,0,0:0:0:0:
320,192,85007,1,0,0:0:0:0:
448,192,85007,1,0,0:0:0:0:
320,192,85084,1,0,0:0:0:0:
192,192,85084,1,0,0:0:0:0:
64,192,85084,1,0,0:0:0:0:
64,192,85161,1,0,0:0:0:0:
192,192,85161,1,0,0:0:0:0:
448,192,85161,1,0,0:0:0:0:
320,192,85161,1,0,0:0:0:0:
320,192,85238,1,0,0:0:0:0:
448,192,85238,1,0,0:0:0:0:
64,192,85238,1,0,0:0:0:0:
192,192,85315,1,0,0:0:0:0:
64,192,85315,1,0,0:0:0:0:
320,192,85315,1,0,0:0:0:0:
448,192,85315,1,0,0:0:0:0:
192,192,85392,1,0,0:0:0:0:
320,192,85392,1,0,0:0:0:0:
64,192,85469,1,0,0:0:0:0:
320,192,85469,1,0,0:0:0:0:
192,192,85469,1,0,0:0:0:0:
448,192,85469,1,0,0:0:0:0:
64,192,85546,1,0,0:0:0:0:
192,192,85546,1,0,0:0:0:0:
192,192,85623,1,0,0:0:0:0:
64,192,85623,1,0,0:0:0:0:
320,192,85623,1,0,0:0:0:0:
448,192,85623,1,0,0:0:0:0:
64,192,85700,1,0,0:0:0:0:
320,192,85700,1,0,0:0:0:0:
64,192,85776,1,0,0:0:0:0:
192,192,85776,1,0,0:0:0:0:
320,192,85776,1,0,0:0:0:0:
448,192,85776,1,0,0:0:0:0:
320,192,85853,1,0,0:0:0:0:
448,192,85853,1,0,0:0:0:0:
64,192,85930,1,0,0:0:0:0:
192,192,85930,1,0,0:0:0:0:
448,192,85930,1,0,0:0:0:0:
320,192,85930,1,0,0:0:0:0:
192,192,86007,1,0,0:0:0:0:
448,192,86007,1,0,0:0:0:0:
64,192,86084,1,0,0:0:0:0:
320,192,86084,1,0,0:0:0:0:
448,192,86084,1,0,0:0:0:0:
192,192,86084,1,0,0:0:0:0:
192,192,86161,1,0,0:0:0:0:
320,192,86161,1,0,0:0:0:0:
64,192,86238,1,0,0:0:0:0:
192,192,86238,1,0,0:0:0:0:
448,192,86238,1,0,0:0:0:0:
320,192,86238,1,0,0:0:0:0:
64,192,86315,1,0,0:0:0:0:
448,192,86315,1,0,0:0:0:0:
64,192,86392,1,0,0:0:0:0:
192,192,86392,1,0,0:0:0:0:
320,192,86392,1,0,0:0:0:0:
448,192,86392,1,0,0:0:0:0:
64,192,86469,1,0,0:0:0:0:
320,192,86469,1,0,0:0:0:0:
64,192,86546,1,0,0:0:0:0:
320,192,86546,1,0,0:0:0:0:
192,192,86546,1,0,0:0:0:0:
448,192,86546,1,0,0:0:0:0:
192,192,86623,1,0,0:0:0:0:
320,192,86623,1,0,0:0:0:0:
448,192,86623,1,0,0:0:0:0:
64,192,86700,1,0,0:0:0:0:
192,192,86700,1,0,0:0:0:0:
448,192,86700,1,0,0:0:0:0:
64,192,86776,1,0,0:0:0:0:
320,192,86776,1,0,0:0:0:0:
448,192,86776,1,0,0:0:0:0:
64,192,86853,1,0,0:0:0:0:
192,192,86853,1,0,0:0:0:0:
320,192,86853,1,0,0:0:0:0:
448,192,86853,1,0,0:0:0:0:
192,192,86930,1,0,0:0:0:0:
64,192,86930,1,0,0:0:0:0:
320,192,86930,1,0,0:0:0:0:
192,192,87007,1,0,0:0:0:0:
320,192,87007,1,0,0:0:0:0:
448,192,87007,1,0,0:0:0:0:
64,192,87084,1,0,0:0:0:0:
192,192,87084,1,0,0:0:0:0:
448,192,87084,1,0,0:0:0:0:
64,192,87161,1,0,0:0:0:0:
192,192,87161,1,0,0:0:0:0:
320,192,87161,1,0,0:0:0:0:
448,192,87161,1,0,0:0:0:0:
320,192,87238,1,0,0:0:0:0:
448,192,87238,1,0,0:0:0:0:
64,192,87238,1,0,0:0:0:0:
192,192,87315,1,0,0:0:0:0:
448,192,87315,1,0,0:0:0:0:
320,192,87315,1,0,0:0:0:0:
64,192,87315,1,0,0:0:0:0:
192,192,87392,1,0,0:0:0:0:
64,192,87392,1,0,0:0:0:0:
320,192,87392,1,0,0:0:0:0:
64,192,87469,1,0,0:0:0:0:
192,192,87469,1,0,0:0:0:0:
320,192,87469,1,0,0:0:0:0:
448,192,87469,1,0,0:0:0:0:
448,192,87546,1,0,0:0:0:0:
320,192,87546,1,0,0:0:0:0:
192,192,87546,1,0,0:0:0:0:
64,192,87546,1,0,0:0:0:0:
64,192,87623,1,0,0:0:0:0:
448,192,87623,1,0,0:0:0:0:
320,192,87623,1,0,0:0:0:0:
192,192,87623,1,0,0:0:0:0:
64,192,87700,1,0,0:0:0:0:
192,192,87700,1,0,0:0:0:0:
320,192,87700,1,0,0:0:0:0:
448,192,87700,1,0,0:0:0:0:
192,192,87776,5,0,0:0:0:0:
64,192,87776,1,0,0:0:0:0:
448,192,87776,1,0,0:0:0:0:
320,192,87776,1,0,0:0:0:0:
192,192,87853,1,0,0:0:0:0:
448,192,87853,1,0,0:0:0:0:
320,192,87930,1,0,0:0:0:0:
192,192,87930,1,0,0:0:0:0:
448,192,88007,1,0,0:0:0:0:
64,192,88007,1,0,0:0:0:0:
320,192,88084,1,0,0:0:0:0:
192,192,88084,1,0,0:0:0:0:
448,192,88084,1,0,0:0:0:0:
320,192,88161,1,0,0:0:0:0:
64,192,88161,1,0,0:0:0:0:
192,192,88238,1,0,0:0:0:0:
448,192,88238,1,0,0:0:0:0:
320,192,88315,1,0,0:0:0:0:
64,192,88315,1,0,0:0:0:0:
192,192,88392,1,0,0:0:0:0:
64,192,88392,1,0,0:0:0:0:
448,192,88392,1,0,0:0:0:0:
192,192,88469,1,0,0:0:0:0:
64,192,88469,1,0,0:0:0:0:
320,192,88546,1,0,0:0:0:0:
448,192,88546,1,0,0:0:0:0:
192,192,88623,1,0,0:0:0:0:
448,192,88623,1,0,0:0:0:0:
192,192,88700,1,0,0:0:0:0:
64,192,88700,1,0,0:0:0:0:
320,192,88700,1,0,0:0:0:0:
320,192,88776,1,0,0:0:0:0:
64,192,88776,1,0,0:0:0:0:
448,192,88853,1,0,0:0:0:0:
192,192,88853,1,0,0:0:0:0:
64,192,88930,1,0,0:0:0:0:
320,192,88930,1,0,0:0:0:0:
320,192,89007,1,0,0:0:0:0:
448,192,89007,1,0,0:0:0:0:
64,192,89007,1,0,0:0:0:0:
320,192,89084,1,0,0:0:0:0:
448,192,89084,1,0,0:0:0:0:
192,192,89084,1,0,0:0:0:0:
64,192,89161,1,0,0:0:0:0:
192,192,89161,1,0,0:0:0:0:
320,192,89238,1,0,0:0:0:0:
448,192,89238,1,0,0:0:0:0:
192,192,89315,1,0,0:0:0:0:
64,192,89315,1,0,0:0:0:0:
320,192,89315,1,0,0:0:0:0:
448,192,89392,1,0,0:0:0:0:
64,192,89392,1,0,0:0:0:0:
320,192,89469,1,0,0:0:0:0:
192,192,89469,1,0,0:0:0:0:
320,192,89546,1,0,0:0:0:0:
64,192,89546,1,0,0:0:0:0:
448,192,89623,1,0,0:0:0:0:
192,192,89623,1,0,0:0:0:0:
64,192,89623,1,0,0:0:0:0:
320,192,89700,1,0,0:0:0:0:
192,192,89700,1,0,0:0:0:0:
448,192,89776,1,0,0:0:0:0:
64,192,89776,1,0,0:0:0:0:
192,192,89853,1,0,0:0:0:0:
320,192,89853,1,0,0:0:0:0:
320,192,89930,1,0,0:0:0:0:
448,192,89930,1,0,0:0:0:0:
64,192,89930,1,0,0:0:0:0:
448,192,90007,1,0,0:0:0:0:
64,192,90007,1,0,0:0:0:0:
320,192,90084,1,0,0:0:0:0:
192,192,90084,1,0,0:0:0:0:
320,192,90161,1,0,0:0:0:0:
192,192,90161,1,0,0:0:0:0:
192,192,90238,1,0,0:0:0:0:
64,192,90238,1,0,0:0:0:0:
448,192,90238,1,0,0:0:0:0:
320,192,90315,1,0,0:0:0:0:
448,192,90315,1,0,0:0:0:0:
192,192,90392,1,0,0:0:0:0:
64,192,90392,1,0,0:0:0:0:
192,192,90469,1,0,0:0:0:0:
64,192,90469,1,0,0:0:0:0:
448,192,90546,1,0,0:0:0:0:
320,192,90546,1,0,0:0:0:0:
192,192,90546,1,0,0:0:0:0:
320,192,90623,1,0,0:0:0:0:
64,192,90623,1,0,0:0:0:0:
448,192,90700,1,0,0:0:0:0:
192,192,90700,1,0,0:0:0:0:
320,192,90776,1,0,0:0:0:0:
448,192,90776,1,0,0:0:0:0:
448,192,90853,1,0,0:0:0:0:
320,192,90853,1,0,0:0:0:0:
64,192,90853,1,0,0:0:0:0:
192,192,90930,1,0,0:0:0:0:
64,192,90930,1,0,0:0:0:0:
320,192,91007,1,0,0:0:0:0:
192,192,91007,1,0,0:0:0:0:
320,192,91084,1,0,0:0:0:0:
448,192,91084,1,0,0:0:0:0:
192,192,91161,1,0,0:0:0:0:
64,192,91161,1,0,0:0:0:0:
448,192,91161,1,0,0:0:0:0:
320,192,91238,1,0,0:0:0:0:
192,192,91238,1,0,0:0:0:0:
192,192,91315,1,0,0:0:0:0:
64,192,91315,1,0,0:0:0:0:
448,192,91392,1,0,0:0:0:0:
320,192,91392,1,0,0:0:0:0:
320,192,91469,1,0,0:0:0:0:
448,192,91469,1,0,0:0:0:0:
192,192,91469,1,0,0:0:0:0:
320,192,91546,1,0,0:0:0:0:
192,192,91546,1,0,0:0:0:0:
448,192,91623,1,0,0:0:0:0:
64,192,91623,1,0,0:0:0:0:
320,192,91700,1,0,0:0:0:0:
192,192,91700,1,0,0:0:0:0:
192,192,91776,1,0,0:0:0:0:
64,192,91776,1,0,0:0:0:0:
448,192,91776,1,0,0:0:0:0:
320,192,91853,1,0,0:0:0:0:
64,192,91853,1,0,0:0:0:0:
320,192,91930,1,0,0:0:0:0:
192,192,91930,1,0,0:0:0:0:
448,192,92007,1,0,0:0:0:0:
64,192,92007,1,0,0:0:0:0:
320,192,92084,1,0,0:0:0:0:
448,192,92084,1,0,0:0:0:0:
192,192,92084,1,0,0:0:0:0:
320,192,92161,1,0,0:0:0:0:
192,192,92161,1,0,0:0:0:0:
320,192,92238,1,0,0:0:0:0:
64,192,92238,1,0,0:0:0:0:
448,192,92315,1,0,0:0:0:0:
192,192,92315,1,0,0:0:0:0:
320,192,92392,1,0,0:0:0:0:
448,192,92392,1,0,0:0:0:0:
64,192,92392,1,0,0:0:0:0:
320,192,92469,1,0,0:0:0:0:
64,192,92469,1,0,0:0:0:0:
192,192,92546,1,0,0:0:0:0:
448,192,92546,1,0,0:0:0:0:
320,192,92623,1,0,0:0:0:0:
64,192,92623,1,0,0:0:0:0:
192,192,92700,1,0,0:0:0:0:
320,192,92700,1,0,0:0:0:0:
448,192,92700,1,0,0:0:0:0:
192,192,92776,1,0,0:0:0:0:
64,192,92776,1,0,0:0:0:0:
64,192,92853,1,0,0:0:0:0:
448,192,92853,1,0,0:0:0:0:
320,192,92930,1,0,0:0:0:0:
192,192,92930,1,0,0:0:0:0:
192,192,93007,1,0,0:0:0:0:
64,192,93007,1,0,0:0:0:0:
448,192,93007,1,0,0:0:0:0:
320,192,93084,1,0,0:0:0:0:
192,192,93084,1,0,0:0:0:0:
448,192,93161,1,0,0:0:0:0:
64,192,93161,1,0,0:0:0:0:
320,192,93238,1,0,0:0:0:0:
64,192,93238,1,0,0:0:0:0:
192,192,93315,1,0,0:0:0:0:
320,192,93315,1,0,0:0:0:0:
448,192,93315,1,0,0:0:0:0:
448,192,93392,1,0,0:0:0:0:
192,192,93392,1,0,0:0:0:0:
320,192,93469,1,0,0:0:0:0:
64,192,93469,1,0,0:0:0:0:
320,192,93546,1,0,0:0:0:0:
64,192,93546,1,0,0:0:0:0:
192,192,93623,1,0,0:0:0:0:
64,192,93623,1,0,0:0:0:0:
448,192,93623,1,0,0:0:0:0:
320,192,93700,1,0,0:0:0:0:
192,192,93700,1,0,0:0:0:0:
320,192,93776,1,0,0:0:0:0:
448,192,93776,1,0,0:0:0:0:
192,192,93853,1,0,0:0:0:0:
64,192,93853,1,0,0:0:0:0:
320,192,93930,1,0,0:0:0:0:
448,192,93930,1,0,0:0:0:0:
64,192,93930,1,0,0:0:0:0:
448,192,94007,1,0,0:0:0:0:
192,192,94007,1,0,0:0:0:0:
320,192,94084,1,0,0:0:0:0:
192,192,94084,1,0,0:0:0:0:
64,192,94161,1,0,0:0:0:0:
448,192,94161,1,0,0:0:0:0:
320,192,94238,1,0,0:0:0:0:
448,192,94238,1,0,0:0:0:0:
192,192,94238,1,0,0:0:0:0:
64,192,94315,1,0,0:0:0:0:
320,192,94315,1,0,0:0:0:0:
192,192,94392,1,0,0:0:0:0:
448,192,94392,1,0,0:0:0:0:
320,192,94469,1,0,0:0:0:0:
64,192,94469,1,0,0:0:0:0:
448,192,94546,1,0,0:0:0:0:
192,192,94546,1,0,0:0:0:0:
64,192,94546,1,0,0:0:0:0:
192,192,94623,1,0,0:0:0:0:
64,192,94623,1,0,0:0:0:0:
320,192,94700,1,0,0:0:0:0:
448,192,94700,1,0,0:0:0:0:
448,192,94776,1,0,0:0:0:0:
64,192,94776,1,0,0:0:0:0:
320,192,94853,1,0,0:0:0:0:
192,192,94853,1,0,0:0:0:0:
64,192,94853,1,0,0:0:0:0:
320,192,94930,1,0,0:0:0:0:
192,192,94930,1,0,0:0:0:0:
448,192,95007,1,0,0:0:0:0:
64,192,95007,1,0,0:0:0:0:
448,192,95084,1,0,0:0:0:0:
64,192,95084,1,0,0:0:0:0:
192,192,95161,1,0,0:0:0:0:
320,192,95161,1,0,0:0:0:0:
448,192,95161,1,0,0:0:0:0:
320,192,95238,1,0,0:0:0:0:
64,192,95238,1,0,0:0:0:0:
192,192,95315,1,0,0:0:0:0:
64,192,95315,1,0,0:0:0:0:
192,192,95392,1,0,0:0:0:0:
448,192,95392,1,0,0:0:0:0:
320,192,95469,1,0,0:0:0:0:
448,192,95469,1,0,0:0:0:0:
64,192,95469,1,0,0:0:0:0:
320,192,95546,1,0,0:0:0:0:
64,192,95546,1,0,0:0:0:0:
192,192,95623,1,0,0:0:0:0:
320,192,95623,1,0,0:0:0:0:
448,192,95700,1,0,0:0:0:0:
64,192,95700,1,0,0:0:0:0:
448,192,95776,1,0,0:0:0:0:
320,192,95776,1,0,0:0:0:0:
192,192,95776,1,0,0:0:0:0:
320,192,95853,1,0,0:0:0:0:
64,192,95853,1,0,0:0:0:0:
448,192,95930,1,0,0:0:0:0:
64,192,95930,1,0,0:0:0:0:
448,192,96007,1,0,0:0:0:0:
192,192,96007,1,0,0:0:0:0:
320,192,96084,1,0,0:0:0:0:
192,192,96084,1,0,0:0:0:0:
64,192,96084,1,0,0:0:0:0:
64,192,96161,1,0,0:0:0:0:
448,192,96161,1,0,0:0:0:0:
320,192,96238,1,0,0:0:0:0:
192,192,96238,1,0,0:0:0:0:
64,192,96315,1,0,0:0:0:0:
448,192,96315,1,0,0:0:0:0:
320,192,96392,1,0,0:0:0:0:
448,192,96392,1,0,0:0:0:0:
192,192,96392,1,0,0:0:0:0:
448,192,96469,1,0,0:0:0:0:
64,192,96469,1,0,0:0:0:0:
64,192,96546,1,0,0:0:0:0:
320,192,96546,1,0,0:0:0:0:
192,192,96623,1,0,0:0:0:0:
320,192,96623,1,0,0:0:0:0:
192,192,96700,1,0,0:0:0:0:
64,192,96700,1,0,0:0:0:0:
448,192,96700,1,0,0:0:0:0:
448,192,96776,1,0,0:0:0:0:
64,192,96776,1,0,0:0:0:0:
192,192,96853,1,0,0:0:0:0:
320,192,96853,1,0,0:0:0:0:
320,192,96930,1,0,0:0:0:0:
64,192,96930,1,0,0:0:0:0:
448,192,97007,1,0,0:0:0:0:
192,192,97007,1,0,0:0:0:0:
64,192,97007,1,0,0:0:0:0:
448,192,97084,1,0,0:0:0:0:
320,192,97084,1,0,0:0:0:0:
192,192,97161,1,0,0:0:0:0:
64,192,97161,1,0,0:0:0:0:
320,192,97238,1,0,0:0:0:0:
192,192,97238,1,0,0:0:0:0:
320,192,97315,1,0,0:0:0:0:
448,192,97315,1,0,0:0:0:0:
64,192,97315,1,0,0:0:0:0:
192,192,97392,1,0,0:0:0:0:
448,192,97392,1,0,0:0:0:0:
192,192,97469,1,0,0:0:0:0:
64,192,97469,1,0,0:0:0:0:
320,192,97469,1,0,0:0:0:0:
64,192,97546,1,0,0:0:0:0:
320,192,97546,1,0,0:0:0:0:
448,192,97546,1,0,0:0:0:0:
448,192,97623,1,0,0:0:0:0:
64,192,97623,1,0,0:0:0:0:
192,192,97623,1,0,0:0:0:0:
320,192,97623,1,0,0:0:0:0:
