osu file format v14

[General]
AudioFilename: audio 1.200x (pitch raised).mp3
AudioLeadIn: 0
PreviewTime: 71091
Countdown: 0
SampleSet: None
StackLeniency: 0.7
Mode: 3
LetterboxInBreaks: 0
SpecialStyle: 0
WidescreenStoryboard: 1

[Editor]
DistanceSpacing: 0.9
BeatDivisor: 4
GridSize: 4
TimelineZoom: 2.7

[Metadata]
Title:FIRST PROMIZE
TitleUnicode:FIRST PROMIZE
Artist:TAKUMI
ArtistUnicode:TAKUMI
Creator:doohomom11
Version:1.2x
Source:
Tags:jack chordjack practice osutrainer
BeatmapID:4542001
BeatmapSetID:2155019

[Difficulty]
HPDrainRate:8
CircleSize:4
OverallDifficulty:8
ApproachRate:5.4
SliderMultiplier:1.4
SliderTickRate:1

[Events]
//Background and Video events
0,0,"1.2.jpg",0,0
//Break Periods
//Storyboard Layer 0 (Background)
//Storyboard Layer 1 (Fail)
//Storyboard Layer 2 (Pass)
//Storyboard Layer 3 (Foreground)
//Storyboard Layer 4 (Overlay)
//Storyboard Sound Samples

[TimingPoints]
425,333.333333333333,4,3,0,19,1,0

[HitObjects]
64,192,1758,5,0,0:0:0:0:
320,192,1758,1,0,0:0:0:0:
192,192,2091,1,0,0:0:0:0:
320,192,2091,1,0,0:0:0:0:
64,192,2425,1,0,0:0:0:0:
448,192,2425,1,0,0:0:0:0:
192,192,2758,1,0,0:0:0:0:
64,192,2758,1,0,0:0:0:0:
192,192,2925,1,0,0:0:0:0:
320,192,3091,1,0,0:0:0:0:
448,192,3091,1,0,0:0:0:0:
192,192,3258,1,0,0:0:0:0:
64,192,3258,1,0,0:0:0:0:
448,192,3341,1,0,0:0:0:0:
320,192,3341,1,0,0:0:0:0:
64,192,3591,1,0,0:0:0:0:
448,192,3591,1,0,0:0:0:0:
192,192,3758,1,0,0:0:0:0:
320,192,3758,1,0,0:0:0:0:
320,192,4258,1,0,0:0:0:0:
192,192,4425,1,0,0:0:0:0:
448,192,4425,1,0,0:0:0:0:
64,192,4758,1,0,0:0:0:0:
448,192,4758,1,0,0:0:0:0:
64,192,5091,1,0,0:0:0:0:
320,192,5091,1,0,0:0:0:0:
192,192,5425,1,0,0:0:0:0:
320,192,5425,1,0,0:0:0:0:
192,192,5591,1,0,0:0:0:0:
64,192,5758,1,0,0:0:0:0:
448,192,5758,1,0,0:0:0:0:
320,192,6008,1,0,0:0:0:0:
448,192,6008,1,0,0:0:0:0:
64,192,6258,1,0,0:0:0:0:
320,192,6258,1,0,0:0:0:0:
192,192,6425,1,0,0:0:0:0:
64,192,6425,1,0,0:0:0:0:
448,192,6758,1,0,0:0:0:0:
320,192,6758,1,0,0:0:0:0:
448,192,6925,1,0,0:0:0:0:
192,192,7091,1,0,0:0:0:0:
320,192,7091,1,0,0:0:0:0:
64,192,7425,1,0,0:0:0:0:
320,192,7425,1,0,0:0:0:0:
64,192,7758,1,0,0:0:0:0:
448,192,7758,1,0,0:0:0:0:
192,192,8091,1,0,0:0:0:0:
448,192,8091,1,0,0:0:0:0:
320,192,8258,1,0,0:0:0:0:
64,192,8425,1,0,0:0:0:0:
448,192,8425,1,0,0:0:0:0:
320,192,8591,1,0,0:0:0:0:
192,192,8591,1,0,0:0:0:0:
320,192,8675,1,0,0:0:0:0:
320,192,8925,1,0,0:0:0:0:
192,192,9091,1,0,0:0:0:0:
64,192,9091,1,0,0:0:0:0:
192,192,9258,1,0,0:0:0:0:
320,192,9258,1,0,0:0:0:0:
320,192,9425,1,0,0:0:0:0:
448,192,9425,1,0,0:0:0:0:
64,192,9591,1,0,0:0:0:0:
448,192,9591,1,0,0:0:0:0:
64,192,9758,1,0,0:0:0:0:
192,192,9758,1,0,0:0:0:0:
320,192,10425,1,0,0:0:0:0:
192,192,10675,1,0,0:0:0:0:
64,192,10925,1,0,0:0:0:0:
320,192,11091,1,0,0:0:0:0:
448,192,11091,1,0,0:0:0:0:
64,192,11425,1,0,0:0:0:0:
320,192,11425,1,0,0:0:0:0:
192,192,11758,1,0,0:0:0:0:
448,192,11758,1,0,0:0:0:0:
64,192,12091,1,0,0:0:0:0:
192,192,12091,1,0,0:0:0:0:
320,192,12425,1,0,0:0:0:0:
448,192,12425,128,0,13758:0:0:0:0:
192,192,15091,5,0,0:0:0:0:
64,192,15091,1,0,0:0:0:0:
448,192,15091,1,0,0:0:0:0:
320,192,15175,1,0,0:0:0:0:
64,192,15175,1,0,0:0:0:0:
192,192,15258,1,0,0:0:0:0:
320,192,15258,1,0,0:0:0:0:
64,192,15341,1,0,0:0:0:0:
448,192,15341,1,0,0:0:0:0:
192,192,15425,1,0,0:0:0:0:
320,192,15425,1,0,0:0:0:0:
64,192,15425,1,0,0:0:0:0:
192,192,15508,1,0,0:0:0:0:
448,192,15508,1,0,0:0:0:0:
320,192,15591,1,0,0:0:0:0:
64,192,15591,1,0,0:0:0:0:
192,192,15675,1,0,0:0:0:0:
320,192,15758,1,0,0:0:0:0:
448,192,15758,1,0,0:0:0:0:
64,192,15758,1,0,0:0:0:0:
320,192,15841,1,0,0:0:0:0:
448,192,15841,1,0,0:0:0:0:
192,192,15925,1,0,0:0:0:0:
64,192,15925,1,0,0:0:0:0:
320,192,16008,1,0,0:0:0:0:
64,192,16008,1,0,0:0:0:0:
320,192,16091,1,0,0:0:0:0:
448,192,16091,1,0,0:0:0:0:
192,192,16091,1,0,0:0:0:0:
192,192,16175,1,0,0:0:0:0:
448,192,16175,1,0,0:0:0:0:
64,192,16258,1,0,0:0:0:0:
320,192,16258,1,0,0:0:0:0:
448,192,16341,1,0,0:0:0:0:
192,192,16341,1,0,0:0:0:0:
192,192,16425,1,0,0:0:0:0:
64,192,16425,1,0,0:0:0:0:
448,192,16425,1,0,0:0:0:0:
192,192,16508,1,0,0:0:0:0:
64,192,16508,1,0,0:0:0:0:
320,192,16508,1,0,0:0:0:0:
448,192,16591,1,0,0:0:0:0:
320,192,16591,1,0,0:0:0:0:
192,192,16675,1,0,0:0:0:0:
64,192,16675,1,0,0:0:0:0:
320,192,16758,1,0,0:0:0:0:
448,192,16758,1,0,0:0:0:0:
192,192,16758,1,0,0:0:0:0:
64,192,16841,1,0,0:0:0:0:
448,192,16841,1,0,0:0:0:0:
192,192,16925,1,0,0:0:0:0:
320,192,16925,1,0,0:0:0:0:
192,192,17008,1,0,0:0:0:0:
448,192,17008,1,0,0:0:0:0:
64,192,17091,1,0,0:0:0:0:
320,192,17091,1,0,0:0:0:0:
448,192,17091,1,0,0:0:0:0:
192,192,17175,1,0,0:0:0:0:
64,192,17258,1,0,0:0:0:0:
448,192,17258,1,0,0:0:0:0:
320,192,17341,1,0,0:0:0:0:
192,192,17341,1,0,0:0:0:0:
192,192,17425,1,0,0:0:0:0:
64,192,17425,1,0,0:0:0:0:
448,192,17425,1,0,0:0:0:0:
64,192,17508,1,0,0:0:0:0:
448,192,17508,1,0,0:0:0:0:
192,192,17591,1,0,0:0:0:0:
320,192,17591,1,0,0:0:0:0:
192,192,17675,1,0,0:0:0:0:
320,192,17675,1,0,0:0:0:0:
320,192,17758,1,0,0:0:0:0:
448,192,17758,1,0,0:0:0:0:
64,192,17758,1,0,0:0:0:0:
192,192,17841,1,0,0:0:0:0:
64,192,17841,1,0,0:0:0:0:
320,192,17925,1,0,0:0:0:0:
448,192,17925,1,0,0:0:0:0:
320,192,18008,1,0,0:0:0:0:
448,192,18008,1,0,0:0:0:0:
64,192,18091,1,0,0:0:0:0:
192,192,18091,1,0,0:0:0:0:
320,192,18091,1,0,0:0:0:0:
192,192,18175,1,0,0:0:0:0:
448,192,18175,1,0,0:0:0:0:
64,192,18258,1,0,0:0:0:0:
320,192,18258,1,0,0:0:0:0:
192,192,18341,1,0,0:0:0:0:
64,192,18341,1,0,0:0:0:0:
64,192,18425,1,0,0:0:0:0:
192,192,18425,1,0,0:0:0:0:
448,192,18425,1,0,0:0:0:0:
320,192,18508,1,0,0:0:0:0:
448,192,18508,1,0,0:0:0:0:
192,192,18591,1,0,0:0:0:0:
320,192,18591,1,0,0:0:0:0:
192,192,18675,1,0,0:0:0:0:
64,192,18675,1,0,0:0:0:0:
320,192,18758,1,0,0:0:0:0:
448,192,18758,1,0,0:0:0:0:
64,192,18758,1,0,0:0:0:0:
192,192,18841,1,0,0:0:0:0:
320,192,18841,1,0,0:0:0:0:
320,192,18925,1,0,0:0:0:0:
448,192,18925,1,0,0:0:0:0:
64,192,19008,1,0,0:0:0:0:
192,192,19008,1,0,0:0:0:0:
192,192,19091,1,0,0:0:0:0:
64,192,19091,1,0,0:0:0:0:
320,192,19091,1,0,0:0:0:0:
192,192,19175,1,0,0:0:0:0:
320,192,19175,1,0,0:0:0:0:
64,192,19258,1,0,0:0:0:0:
448,192,19258,1,0,0:0:0:0:
192,192,19341,1,0,0:0:0:0:
320,192,19425,1,0,0:0:0:0:
448,192,19425,1,0,0:0:0:0:
64,192,19425,1,0,0:0:0:0:
192,192,19508,1,0,0:0:0:0:
448,192,19508,1,0,0:0:0:0:
192,192,19591,1,0,0:0:0:0:
320,192,19591,1,0,0:0:0:0:
64,192,19675,1,0,0:0:0:0:
448,192,19675,1,0,0:0:0:0:
192,192,19758,1,0,0:0:0:0:
64,192,19758,1,0,0:0:0:0:
320,192,19758,1,0,0:0:0:0:
192,192,19841,1,0,0:0:0:0:
320,192,19841,1,0,0:0:0:0:
192,192,19925,1,0,0:0:0:0:
448,192,19925,1,0,0:0:0:0:
64,192,20008,1,0,0:0:0:0:
320,192,20008,1,0,0:0:0:0:
192,192,20091,1,0,0:0:0:0:
64,192,20091,1,0,0:0:0:0:
448,192,20091,1,0,0:0:0:0:
192,192,20175,1,0,0:0:0:0:
448,192,20175,1,0,0:0:0:0:
320,192,20258,1,0,0:0:0:0:
64,192,20258,1,0,0:0:0:0:
192,192,20341,1,0,0:0:0:0:
448,192,20341,1,0,0:0:0:0:
320,192,20425,1,0,0:0:0:0:
192,192,20425,1,0,0:0:0:0:
64,192,20425,1,0,0:0:0:0:
320,192,20508,1,0,0:0:0:0:
448,192,20508,1,0,0:0:0:0:
448,192,20591,1,0,0:0:0:0:
64,192,20591,1,0,0:0:0:0:
192,192,20675,1,0,0:0:0:0:
320,192,20675,1,0,0:0:0:0:
320,192,20758,1,0,0:0:0:0:
448,192,20758,1,0,0:0:0:0:
64,192,20758,1,0,0:0:0:0:
192,192,20841,1,0,0:0:0:0:
64,192,20925,1,0,0:0:0:0:
448,192,20925,1,0,0:0:0:0:
192,192,21008,1,0,0:0:0:0:
448,192,21008,1,0,0:0:0:0:
320,192,21091,1,0,0:0:0:0:
192,192,21091,1,0,0:0:0:0:
64,192,21091,1,0,0:0:0:0:
64,192,21175,1,0,0:0:0:0:
320,192,21175,1,0,0:0:0:0:
192,192,21258,1,0,0:0:0:0:
448,192,21258,1,0,0:0:0:0:
192,192,21341,1,0,0:0:0:0:
448,192,21341,1,0,0:0:0:0:
320,192,21425,1,0,0:0:0:0:
448,192,21425,1,0,0:0:0:0:
64,192,21425,1,0,0:0:0:0:
192,192,21508,1,0,0:0:0:0:
320,192,21508,1,0,0:0:0:0:
192,192,21591,1,0,0:0:0:0:
64,192,21591,1,0,0:0:0:0:
320,192,21675,1,0,0:0:0:0:
448,192,21675,1,0,0:0:0:0:
192,192,21758,1,0,0:0:0:0:
64,192,21758,1,0,0:0:0:0:
448,192,21758,1,0,0:0:0:0:
64,192,21841,1,0,0:0:0:0:
320,192,21841,1,0,0:0:0:0:
192,192,21925,1,0,0:0:0:0:
320,192,21925,1,0,0:0:0:0:
448,192,22008,1,0,0:0:0:0:
64,192,22008,1,0,0:0:0:0:
192,192,22091,1,0,0:0:0:0:
64,192,22091,1,0,0:0:0:0:
320,192,22091,1,0,0:0:0:0:
448,192,22175,1,0,0:0:0:0:
192,192,22175,1,0,0:0:0:0:
320,192,22258,1,0,0:0:0:0:
64,192,22258,1,0,0:0:0:0:
192,192,22341,1,0,0:0:0:0:
64,192,22425,1,0,0:0:0:0:
320,192,22425,1,0,0:0:0:0:
448,192,22425,1,0,0:0:0:0:
320,192,22508,1,0,0:0:0:0:
448,192,22508,1,0,0:0:0:0:
192,192,22591,1,0,0:0:0:0:
64,192,22591,1,0,0:0:0:0:
64,192,22675,1,0,0:0:0:0:
448,192,22675,1,0,0:0:0:0:
192,192,22758,1,0,0:0:0:0:
320,192,22758,1,0,0:0:0:0:
448,192,22758,1,0,0:0:0:0:
192,192,22841,1,0,0:0:0:0:
320,192,22841,1,0,0:0:0:0:
64,192,22925,1,0,0:0:0:0:
448,192,22925,1,0,0:0:0:0:
64,192,23008,1,0,0:0:0:0:
448,192,23008,1,0,0:0:0:0:
320,192,23091,1,0,0:0:0:0:
192,192,23091,1,0,0:0:0:0:
64,192,23091,1,0,0:0:0:0:
192,192,23175,1,0,0:0:0:0:
448,192,23175,1,0,0:0:0:0:
320,192,23258,1,0,0:0:0:0:
448,192,23258,1,0,0:0:0:0:
320,192,23341,1,0,0:0:0:0:
64,192,23341,1,0,0:0:0:0:
192,192,23425,1,0,0:0:0:0:
64,192,23425,1,0,0:0:0:0:
448,192,23425,1,0,0:0:0:0:
192,192,23508,1,0,0:0:0:0:
448,192,23508,1,0,0:0:0:0:
320,192,23591,1,0,0:0:0:0:
64,192,23675,1,0,0:0:0:0:
448,192,23675,1,0,0:0:0:0:
64,192,23758,1,0,0:0:0:0:
192,192,23758,1,0,0:0:0:0:
320,192,23758,1,0,0:0:0:0:
192,192,23841,1,0,0:0:0:0:
448,192,23841,1,0,0:0:0:0:
64,192,23925,1,0,0:0:0:0:
448,192,23925,1,0,0:0:0:0:
64,192,24008,1,0,0:0:0:0:
320,192,24008,1,0,0:0:0:0:
192,192,24091,1,0,0:0:0:0:
320,192,24091,1,0,0:0:0:0:
448,192,24091,1,0,0:0:0:0:
448,192,24175,1,0,0:0:0:0:
64,192,24175,1,0,0:0:0:0:
192,192,24258,1,0,0:0:0:0:
320,192,24258,1,0,0:0:0:0:
448,192,24341,1,0,0:0:0:0:
192,192,24425,1,0,0:0:0:0:
64,192,24425,1,0,0:0:0:0:
320,192,24425,1,0,0:0:0:0:
64,192,24508,1,0,0:0:0:0:
448,192,24591,1,0,0:0:0:0:
192,192,24591,1,0,0:0:0:0:
320,192,24675,1,0,0:0:0:0:
192,192,24675,1,0,0:0:0:0:
320,192,24758,1,0,0:0:0:0:
448,192,24758,1,0,0:0:0:0:
64,192,24758,1,0,0:0:0:0:
64,192,24841,1,0,0:0:0:0:
448,192,24841,1,0,0:0:0:0:
320,192,24925,1,0,0:0:0:0:
192,192,24925,1,0,0:0:0:0:
192,192,25008,1,0,0:0:0:0:
64,192,25091,1,0,0:0:0:0:
320,192,25091,1,0,0:0:0:0:
448,192,25091,1,0,0:0:0:0:
64,192,25175,1,0,0:0:0:0:
192,192,25175,1,0,0:0:0:0:
320,192,25258,1,0,0:0:0:0:
448,192,25258,1,0,0:0:0:0:
192,192,25341,1,0,0:0:0:0:
320,192,25341,1,0,0:0:0:0:
192,192,25425,1,0,0:0:0:0:
64,192,25425,1,0,0:0:0:0:
448,192,25425,1,0,0:0:0:0:
448,192,25508,1,0,0:0:0:0:
64,192,25591,1,0,0:0:0:0:
192,192,25591,1,0,0:0:0:0:
320,192,25591,1,0,0:0:0:0:
320,192,25675,1,0,0:0:0:0:
64,192,25758,5,0,0:0:0:0:
192,192,25758,1,0,0:0:0:0:
448,192,25841,1,0,0:0:0:0:
64,192,25925,1,0,0:0:0:0:
320,192,25925,1,0,0:0:0:0:
192,192,26008,1,0,0:0:0:0:
320,192,26091,1,0,0:0:0:0:
448,192,26091,1,0,0:0:0:0:
64,192,26175,1,0,0:0:0:0:
192,192,26258,1,0,0:0:0:0:
64,192,26258,1,0,0:0:0:0:
320,192,26341,1,0,0:0:0:0:
448,192,26341,1,0,0:0:0:0:
192,192,26425,1,0,0:0:0:0:
448,192,26425,1,0,0:0:0:0:
192,192,26508,1,0,0:0:0:0:
64,192,26591,1,0,0:0:0:0:
320,192,26591,1,0,0:0:0:0:
320,192,26675,1,0,0:0:0:0:
64,192,26758,1,0,0:0:0:0:
448,192,26758,1,0,0:0:0:0:
64,192,26841,1,0,0:0:0:0:
320,192,26925,1,0,0:0:0:0:
192,192,26925,1,0,0:0:0:0:
192,192,27008,1,0,0:0:0:0:
64,192,27091,1,0,0:0:0:0:
448,192,27091,1,0,0:0:0:0:
192,192,27175,1,0,0:0:0:0:
320,192,27175,1,0,0:0:0:0:
64,192,27258,1,0,0:0:0:0:
192,192,27258,1,0,0:0:0:0:
64,192,27341,1,0,0:0:0:0:
320,192,27341,1,0,0:0:0:0:
192,192,27425,1,0,0:0:0:0:
448,192,27425,1,0,0:0:0:0:
320,192,27508,1,0,0:0:0:0:
64,192,27591,1,0,0:0:0:0:
192,192,27591,1,0,0:0:0:0:
448,192,27675,1,0,0:0:0:0:
320,192,27675,1,0,0:0:0:0:
64,192,27758,1,0,0:0:0:0:
448,192,27758,1,0,0:0:0:0:
192,192,27841,1,0,0:0:0:0:
64,192,27925,1,0,0:0:0:0:
320,192,27925,1,0,0:0:0:0:
448,192,28008,1,0,0:0:0:0:
192,192,28091,1,0,0:0:0:0:
64,192,28091,1,0,0:0:0:0:
192,192,28175,1,0,0:0:0:0:
64,192,28258,1,0,0:0:0:0:
320,192,28258,1,0,0:0:0:0:
320,192,28341,1,0,0:0:0:0:
192,192,28425,1,0,0:0:0:0:
448,192,28425,1,0,0:0:0:0:
64,192,28508,1,0,0:0:0:0:
320,192,28591,1,0,0:0:0:0:
448,192,28591,1,0,0:0:0:0:
64,192,28675,1,0,0:0:0:0:
192,192,28758,1,0,0:0:0:0:
448,192,28758,1,0,0:0:0:0:
320,192,28841,1,0,0:0:0:0:
64,192,28925,1,0,0:0:0:0:
448,192,28925,1,0,0:0:0:0:
192,192,29008,1,0,0:0:0:0:
320,192,29091,1,0,0:0:0:0:
192,192,29091,1,0,0:0:0:0:
320,192,29175,1,0,0:0:0:0:
64,192,29258,1,0,0:0:0:0:
448,192,29258,1,0,0:0:0:0:
448,192,29341,1,0,0:0:0:0:
192,192,29425,1,0,0:0:0:0:
64,192,29425,1,0,0:0:0:0:
192,192,29508,1,0,0:0:0:0:
64,192,29591,1,0,0:0:0:0:
320,192,29591,1,0,0:0:0:0:
64,192,29675,1,0,0:0:0:0:
320,192,29758,1,0,0:0:0:0:
448,192,29758,1,0,0:0:0:0:
192,192,29841,1,0,0:0:0:0:
448,192,29925,1,0,0:0:0:0:
64,192,29925,1,0,0:0:0:0:
320,192,30008,1,0,0:0:0:0:
192,192,30091,1,0,0:0:0:0:
448,192,30091,1,0,0:0:0:0:
64,192,30175,1,0,0:0:0:0:
320,192,30258,1,0,0:0:0:0:
192,192,30258,1,0,0:0:0:0:
448,192,30341,1,0,0:0:0:0:
64,192,30425,1,0,0:0:0:0:
320,192,30425,1,0,0:0:0:0:
192,192,30508,1,0,0:0:0:0:
64,192,30591,1,0,0:0:0:0:
448,192,30591,1,0,0:0:0:0:
192,192,30675,1,0,0:0:0:0:
320,192,30758,1,0,0:0:0:0:
448,192,30758,1,0,0:0:0:0:
64,192,30841,1,0,0:0:0:0:
64,192,30925,1,0,0:0:0:0:
192,192,30925,1,0,0:0:0:0:
320,192,31008,1,0,0:0:0:0:
448,192,31008,1,0,0:0:0:0:
64,192,31091,1,0,0:0:0:0:
448,192,31091,1,0,0:0:0:0:
192,192,31175,1,0,0:0:0:0:
448,192,31258,1,0,0:0:0:0:
64,192,31258,1,0,0:0:0:0:
320,192,31341,1,0,0:0:0:0:
64,192,31425,1,0,0:0:0:0:
192,192,31425,1,0,0:0:0:0:
320,192,31508,1,0,0:0:0:0:
192,192,31591,1,0,0:0:0:0:
448,192,31591,1,0,0:0:0:0:
64,192,31675,1,0,0:0:0:0:
320,192,31758,1,0,0:0:0:0:
448,192,31758,1,0,0:0:0:0:
192,192,31758,1,0,0:0:0:0:
192,192,31841,1,0,0:0:0:0:
64,192,31925,1,0,0:0:0:0:
320,192,31925,1,0,0:0:0:0:
448,192,31925,1,0,0:0:0:0:
448,192,32008,1,0,0:0:0:0:
192,192,32091,1,0,0:0:0:0:
64,192,32091,1,0,0:0:0:0:
320,192,32091,1,0,0:0:0:0:
192,192,32175,1,0,0:0:0:0:
64,192,32258,1,0,0:0:0:0:
448,192,32258,1,0,0:0:0:0:
320,192,32258,1,0,0:0:0:0:
64,192,32341,1,0,0:0:0:0:
320,192,32425,1,0,0:0:0:0:
448,192,32425,1,0,0:0:0:0:
64,192,32508,1,0,0:0:0:0:
64,192,32591,1,0,0:0:0:0:
192,192,32591,1,0,0:0:0:0:
320,192,32675,1,0,0:0:0:0:
192,192,32758,1,0,0:0:0:0:
320,192,32758,1,0,0:0:0:0:
448,192,32841,1,0,0:0:0:0:
64,192,32925,1,0,0:0:0:0:
448,192,32925,1,0,0:0:0:0:
192,192,33008,1,0,0:0:0:0:
64,192,33091,1,0,0:0:0:0:
192,192,33091,1,0,0:0:0:0:
448,192,33091,1,0,0:0:0:0:
320,192,33175,1,0,0:0:0:0:
64,192,33258,1,0,0:0:0:0:
448,192,33258,1,0,0:0:0:0:
192,192,33341,1,0,0:0:0:0:
320,192,33425,1,0,0:0:0:0:
448,192,33425,1,0,0:0:0:0:
192,192,33508,1,0,0:0:0:0:
64,192,33591,1,0,0:0:0:0:
448,192,33591,1,0,0:0:0:0:
320,192,33675,1,0,0:0:0:0:
192,192,33675,1,0,0:0:0:0:
64,192,33758,1,0,0:0:0:0:
448,192,33758,1,0,0:0:0:0:
192,192,33758,1,0,0:0:0:0:
320,192,33841,1,0,0:0:0:0:
448,192,33925,1,0,0:0:0:0:
192,192,33925,1,0,0:0:0:0:
320,192,34008,1,0,0:0:0:0:
64,192,34091,1,0,0:0:0:0:
448,192,34091,1,0,0:0:0:0:
192,192,34175,1,0,0:0:0:0:
448,192,34258,1,0,0:0:0:0:
64,192,34258,1,0,0:0:0:0:
192,192,34341,1,0,0:0:0:0:
320,192,34425,1,0,0:0:0:0:
448,192,34425,1,0,0:0:0:0:
64,192,34508,1,0,0:0:0:0:
192,192,34591,1,0,0:0:0:0:
448,192,34591,1,0,0:0:0:0:
192,192,34675,1,0,0:0:0:0:
320,192,34675,1,0,0:0:0:0:
64,192,34758,1,0,0:0:0:0:
448,192,34758,1,0,0:0:0:0:
64,192,34841,1,0,0:0:0:0:
320,192,34925,1,0,0:0:0:0:
192,192,34925,1,0,0:0:0:0:
320,192,35008,1,0,0:0:0:0:
64,192,35091,1,0,0:0:0:0:
448,192,35091,1,0,0:0:0:0:
192,192,35175,1,0,0:0:0:0:
320,192,35175,1,0,0:0:0:0:
192,192,35258,1,0,0:0:0:0:
64,192,35258,1,0,0:0:0:0:
320,192,35341,1,0,0:0:0:0:
448,192,35425,1,0,0:0:0:0:
192,192,35425,1,0,0:0:0:0:
64,192,35508,1,0,0:0:0:0:
320,192,35508,1,0,0:0:0:0:
64,192,35591,1,0,0:0:0:0:
448,192,35591,1,0,0:0:0:0:
192,192,35675,1,0,0:0:0:0:
64,192,35758,1,0,0:0:0:0:
320,192,35758,1,0,0:0:0:0:
448,192,35758,1,0,0:0:0:0:
192,192,35841,1,0,0:0:0:0:
320,192,35841,1,0,0:0:0:0:
64,192,35925,1,0,0:0:0:0:
448,192,35925,1,0,0:0:0:0:
192,192,36008,1,0,0:0:0:0:
320,192,36008,1,0,0:0:0:0:
192,192,36091,1,0,0:0:0:0:
320,192,36091,1,0,0:0:0:0:
448,192,36091,1,0,0:0:0:0:
64,192,36175,1,0,0:0:0:0:
448,192,36175,1,0,0:0:0:0:
192,192,36258,1,0,0:0:0:0:
320,192,36258,1,0,0:0:0:0:
64,192,36341,1,0,0:0:0:0:
448,192,36341,1,0,0:0:0:0:
192,192,36425,1,0,0:0:0:0:
320,192,36480,1,0,0:0:0:0:
192,192,36535,1,0,0:0:0:0:
320,192,36591,1,0,0:0:0:0:
192,192,36646,1,0,0:0:0:0:
320,192,36702,1,0,0:0:0:0:
192,192,36758,1,0,0:0:0:0:
64,192,36758,1,0,0:0:0:0:
448,192,36841,1,0,0:0:0:0:
320,192,36925,1,0,0:0:0:0:
192,192,36925,1,0,0:0:0:0:
64,192,37008,1,0,0:0:0:0:
448,192,37008,1,0,0:0:0:0:
192,192,37091,1,0,0:0:0:0:
320,192,37091,1,0,0:0:0:0:
448,192,37091,1,0,0:0:0:0:
192,192,37175,1,0,0:0:0:0:
64,192,37258,1,0,0:0:0:0:
448,192,37258,1,0,0:0:0:0:
320,192,37341,1,0,0:0:0:0:
192,192,37425,1,0,0:0:0:0:
320,192,37425,1,0,0:0:0:0:
192,192,37508,1,0,0:0:0:0:
64,192,37591,1,0,0:0:0:0:
320,192,37591,1,0,0:0:0:0:
192,192,37675,1,0,0:0:0:0:
448,192,37675,1,0,0:0:0:0:
320,192,37758,1,0,0:0:0:0:
448,192,37758,1,0,0:0:0:0:
192,192,37841,1,0,0:0:0:0:
64,192,37925,1,0,0:0:0:0:
448,192,37925,1,0,0:0:0:0:
320,192,38008,1,0,0:0:0:0:
64,192,38091,1,0,0:0:0:0:
448,192,38091,1,0,0:0:0:0:
192,192,38175,1,0,0:0:0:0:
320,192,38258,1,0,0:0:0:0:
448,192,38258,1,0,0:0:0:0:
320,192,38341,1,0,0:0:0:0:
64,192,38341,1,0,0:0:0:0:
192,192,38425,1,0,0:0:0:0:
64,192,38425,1,0,0:0:0:0:
448,192,38508,1,0,0:0:0:0:
64,192,38591,1,0,0:0:0:0:
192,192,38591,1,0,0:0:0:0:
320,192,38675,1,0,0:0:0:0:
64,192,38758,1,0,0:0:0:0:
448,192,38758,1,0,0:0:0:0:
192,192,38841,1,0,0:0:0:0:
448,192,38925,1,0,0:0:0:0:
64,192,38925,1,0,0:0:0:0:
320,192,39008,1,0,0:0:0:0:
192,192,39091,1,0,0:0:0:0:
64,192,39091,1,0,0:0:0:0:
192,192,39175,1,0,0:0:0:0:
64,192,39258,1,0,0:0:0:0:
448,192,39258,1,0,0:0:0:0:
320,192,39341,1,0,0:0:0:0:
192,192,39425,1,0,0:0:0:0:
448,192,39425,1,0,0:0:0:0:
192,192,39508,1,0,0:0:0:0:
64,192,39591,1,0,0:0:0:0:
320,192,39591,1,0,0:0:0:0:
448,192,39675,1,0,0:0:0:0:
192,192,39758,1,0,0:0:0:0:
64,192,39758,1,0,0:0:0:0:
192,192,39841,1,0,0:0:0:0:
320,192,39925,1,0,0:0:0:0:
448,192,39925,1,0,0:0:0:0:
320,192,40008,1,0,0:0:0:0:
64,192,40091,1,0,0:0:0:0:
448,192,40091,1,0,0:0:0:0:
448,192,40175,1,0,0:0:0:0:
192,192,40258,1,0,0:0:0:0:
320,192,40258,1,0,0:0:0:0:
192,192,40341,1,0,0:0:0:0:
64,192,40425,1,0,0:0:0:0:
320,192,40425,1,0,0:0:0:0:
448,192,40425,1,0,0:0:0:0:
448,192,40508,1,0,0:0:0:0:
64,192,40591,1,0,0:0:0:0:
192,192,40591,1,0,0:0:0:0:
320,192,40591,1,0,0:0:0:0:
320,192,40675,1,0,0:0:0:0:
192,192,40758,1,0,0:0:0:0:
64,192,40758,1,0,0:0:0:0:
448,192,40758,1,0,0:0:0:0:
64,192,40841,1,0,0:0:0:0:
192,192,40925,1,0,0:0:0:0:
320,192,40925,1,0,0:0:0:0:
448,192,40925,1,0,0:0:0:0:
192,192,41008,1,0,0:0:0:0:
320,192,41091,1,0,0:0:0:0:
448,192,41091,1,0,0:0:0:0:
64,192,41175,1,0,0:0:0:0:
192,192,41258,1,0,0:0:0:0:
448,192,41258,1,0,0:0:0:0:
320,192,41341,1,0,0:0:0:0:
192,192,41425,1,0,0:0:0:0:
64,192,41425,1,0,0:0:0:0:
320,192,41508,1,0,0:0:0:0:
448,192,41591,1,0,0:0:0:0:
64,192,41591,1,0,0:0:0:0:
64,192,41675,1,0,0:0:0:0:
192,192,41675,1,0,0:0:0:0:
320,192,41758,1,0,0:0:0:0:
448,192,41758,1,0,0:0:0:0:
192,192,41841,1,0,0:0:0:0:
64,192,41841,1,0,0:0:0:0:
320,192,41925,1,0,0:0:0:0:
64,192,41925,1,0,0:0:0:0:
192,192,42008,1,0,0:0:0:0:
448,192,42008,1,0,0:0:0:0:
448,192,42091,1,0,0:0:0:0:
64,192,42091,1,0,0:0:0:0:
320,192,42175,1,0,0:0:0:0:
192,192,42175,1,0,0:0:0:0:
192,192,42258,1,0,0:0:0:0:
448,192,42258,1,0,0:0:0:0:
320,192,42341,1,0,0:0:0:0:
64,192,42341,1,0,0:0:0:0:
192,192,42425,1,0,0:0:0:0:
64,192,42425,1,0,0:0:0:0:
320,192,42508,1,0,0:0:0:0:
448,192,42508,1,0,0:0:0:0:
192,192,42591,1,0,0:0:0:0:
320,192,42591,1,0,0:0:0:0:
64,192,42675,1,0,0:0:0:0:
448,192,42675,1,0,0:0:0:0:
192,192,42758,1,0,0:0:0:0:
64,192,42758,1,0,0:0:0:0:
320,192,42841,1,0,0:0:0:0:
64,192,42925,1,0,0:0:0:0:
448,192,42925,1,0,0:0:0:0:
192,192,43008,1,0,0:0:0:0:
64,192,43091,1,0,0:0:0:0:
448,192,43091,1,0,0:0:0:0:
320,192,43175,1,0,0:0:0:0:
192,192,43175,1,0,0:0:0:0:
192,192,43258,1,0,0:0:0:0:
64,192,43258,1,0,0:0:0:0:
320,192,43341,1,0,0:0:0:0:
448,192,43341,1,0,0:0:0:0:
448,192,43425,1,0,0:0:0:0:
192,192,43425,1,0,0:0:0:0:
64,192,43508,1,0,0:0:0:0:
320,192,43508,1,0,0:0:0:0:
64,192,43591,1,0,0:0:0:0:
448,192,43591,1,0,0:0:0:0:
192,192,43675,1,0,0:0:0:0:
320,192,43675,1,0,0:0:0:0:
192,192,43758,1,0,0:0:0:0:
64,192,43758,1,0,0:0:0:0:
448,192,43841,1,0,0:0:0:0:
320,192,43841,1,0,0:0:0:0:
448,192,43925,1,0,0:0:0:0:
192,192,43925,1,0,0:0:0:0:
64,192,44008,1,0,0:0:0:0:
320,192,44008,1,0,0:0:0:0:
192,192,44091,1,0,0:0:0:0:
320,192,44091,1,0,0:0:0:0:
192,192,44175,1,0,0:0:0:0:
64,192,44258,1,0,0:0:0:0:
448,192,44258,1,0,0:0:0:0:
448,192,44341,1,0,0:0:0:0:
320,192,44341,1,0,0:0:0:0:
192,192,44425,1,0,0:0:0:0:
64,192,44425,1,0,0:0:0:0:
320,192,44508,1,0,0:0:0:0:
192,192,44591,1,0,0:0:0:0:
448,192,44591,1,0,0:0:0:0:
64,192,44675,1,0,0:0:0:0:
192,192,44758,1,0,0:0:0:0:
320,192,44758,1,0,0:0:0:0:
448,192,44841,1,0,0:0:0:0:
64,192,44925,1,0,0:0:0:0:
320,192,44925,1,0,0:0:0:0:
192,192,45008,1,0,0:0:0:0:
64,192,45008,1,0,0:0:0:0:
320,192,45091,1,0,0:0:0:0:
448,192,45091,1,0,0:0:0:0:
192,192,45091,1,0,0:0:0:0:
448,192,45175,1,0,0:0:0:0:
64,192,45258,1,0,0:0:0:0:
192,192,45258,1,0,0:0:0:0:
320,192,45258,1,0,0:0:0:0:
192,192,45341,1,0,0:0:0:0:
64,192,45425,1,0,0:0:0:0:
320,192,45425,1,0,0:0:0:0:
448,192,45425,1,0,0:0:0:0:
64,192,45508,1,0,0:0:0:0:
192,192,45591,1,0,0:0:0:0:
320,192,45591,1,0,0:0:0:0:
448,192,45591,1,0,0:0:0:0:
320,192,45675,1,0,0:0:0:0:
64,192,45758,1,0,0:0:0:0:
192,192,45758,1,0,0:0:0:0:
448,192,45758,1,0,0:0:0:0:
64,192,45841,1,0,0:0:0:0:
320,192,45841,1,0,0:0:0:0:
192,192,45925,1,0,0:0:0:0:
320,192,45925,1,0,0:0:0:0:
448,192,45925,1,0,0:0:0:0:
192,192,46008,1,0,0:0:0:0:
64,192,46008,1,0,0:0:0:0:
320,192,46091,1,0,0:0:0:0:
64,192,46091,1,0,0:0:0:0:
448,192,46091,1,0,0:0:0:0:
192,192,46175,1,0,0:0:0:0:
448,192,46175,1,0,0:0:0:0:
64,192,46258,1,0,0:0:0:0:
320,192,46258,1,0,0:0:0:0:
448,192,46258,1,0,0:0:0:0:
192,192,46341,1,0,0:0:0:0:
320,192,46341,1,0,0:0:0:0:
192,192,46425,1,0,0:0:0:0:
64,192,46425,1,0,0:0:0:0:
320,192,46425,1,0,0:0:0:0:
64,192,46508,1,0,0:0:0:0:
448,192,46508,1,0,0:0:0:0:
192,192,46591,1,0,0:0:0:0:
320,192,46591,1,0,0:0:0:0:
192,192,46675,1,0,0:0:0:0:
448,192,46675,1,0,0:0:0:0:
64,192,46758,1,0,0:0:0:0:
320,192,46758,1,0,0:0:0:0:
448,192,46758,1,0,0:0:0:0:
192,192,46841,1,0,0:0:0:0:
64,192,46841,1,0,0:0:0:0:
320,192,46925,1,0,0:0:0:0:
64,192,46925,1,0,0:0:0:0:
448,192,46925,1,0,0:0:0:0:
448,192,47008,1,0,0:0:0:0:
192,192,47008,1,0,0:0:0:0:
64,192,47091,5,0,0:0:0:0:
192,192,47091,1,0,0:0:0:0:
448,192,47091,1,0,0:0:0:0:
320,192,47091,1,0,0:0:0:0:
64,192,47175,1,0,0:0:0:0:
320,192,47175,1,0,0:0:0:0:
192,192,47258,1,0,0:0:0:0:
320,192,47258,1,0,0:0:0:0:
64,192,47341,1,0,0:0:0:0:
448,192,47341,1,0,0:0:0:0:
448,192,47425,1,0,0:0:0:0:
320,192,47425,1,0,0:0:0:0:
192,192,47425,1,0,0:0:0:0:
64,192,47425,1,0,0:0:0:0:
192,192,47508,1,0,0:0:0:0:
320,192,47508,1,0,0:0:0:0:
320,192,47591,1,0,0:0:0:0:
448,192,47591,1,0,0:0:0:0:
192,192,47675,1,0,0:0:0:0:
64,192,47675,1,0,0:0:0:0:
64,192,47758,1,0,0:0:0:0:
192,192,47758,1,0,0:0:0:0:
448,192,47758,1,0,0:0:0:0:
320,192,47758,1,0,0:0:0:0:
64,192,47841,1,0,0:0:0:0:
320,192,47841,1,0,0:0:0:0:
192,192,47925,1,0,0:0:0:0:
448,192,47925,1,0,0:0:0:0:
320,192,48008,1,0,0:0:0:0:
448,192,48008,1,0,0:0:0:0:
64,192,48091,1,0,0:0:0:0:
192,192,48091,1,0,0:0:0:0:
320,192,48091,1,0,0:0:0:0:
448,192,48091,1,0,0:0:0:0:
64,192,48175,1,0,0:0:0:0:
320,192,48175,1,0,0:0:0:0:
192,192,48258,1,0,0:0:0:0:
64,192,48258,1,0,0:0:0:0:
448,192,48341,1,0,0:0:0:0:
320,192,48341,1,0,0:0:0:0:
64,192,48425,1,0,0:0:0:0:
192,192,48425,1,0,0:0:0:0:
320,192,48425,1,0,0:0:0:0:
448,192,48425,1,0,0:0:0:0:
64,192,48508,1,0,0:0:0:0:
320,192,48508,1,0,0:0:0:0:
192,192,48591,1,0,0:0:0:0:
448,192,48591,1,0,0:0:0:0:
320,192,48675,1,0,0:0:0:0:
64,192,48675,1,0,0:0:0:0:
64,192,48758,1,0,0:0:0:0:
192,192,48758,1,0,0:0:0:0:
320,192,48758,1,0,0:0:0:0:
448,192,48758,1,0,0:0:0:0:
192,192,48841,1,0,0:0:0:0:
320,192,48841,1,0,0:0:0:0:
192,192,48925,1,0,0:0:0:0:
448,192,48925,1,0,0:0:0:0:
320,192,49008,1,0,0:0:0:0:
64,192,49008,1,0,0:0:0:0:
64,192,49091,1,0,0:0:0:0:
192,192,49091,1,0,0:0:0:0:
320,192,49091,1,0,0:0:0:0:
448,192,49091,1,0,0:0:0:0:
192,192,49175,1,0,0:0:0:0:
64,192,49175,1,0,0:0:0:0:
320,192,49258,1,0,0:0:0:0:
448,192,49258,1,0,0:0:0:0:
64,192,49341,1,0,0:0:0:0:
192,192,49341,1,0,0:0:0:0:
320,192,49341,1,0,0:0:0:0:
448,192,49341,1,0,0:0:0:0:
320,192,49425,1,0,0:0:0:0:
448,192,49425,1,0,0:0:0:0:
192,192,49508,1,0,0:0:0:0:
64,192,49508,1,0,0:0:0:0:
64,192,49591,1,0,0:0:0:0:
192,192,49591,1,0,0:0:0:0:
320,192,49591,1,0,0:0:0:0:
448,192,49591,1,0,0:0:0:0:
192,192,49675,1,0,0:0:0:0:
64,192,49675,1,0,0:0:0:0:
320,192,49758,1,0,0:0:0:0:
448,192,49758,1,0,0:0:0:0:
192,192,49758,1,0,0:0:0:0:
64,192,49758,1,0,0:0:0:0:
320,192,49841,1,0,0:0:0:0:
448,192,49841,1,0,0:0:0:0:
192,192,49925,1,0,0:0:0:0:
320,192,49925,1,0,0:0:0:0:
192,192,50008,1,0,0:0:0:0:
64,192,50008,1,0,0:0:0:0:
64,192,50091,1,0,0:0:0:0:
320,192,50091,1,0,0:0:0:0:
448,192,50091,1,0,0:0:0:0:
192,192,50091,1,0,0:0:0:0:
320,192,50175,1,0,0:0:0:0:
64,192,50175,1,0,0:0:0:0:
192,192,50258,1,0,0:0:0:0:
448,192,50258,1,0,0:0:0:0:
192,192,50341,1,0,0:0:0:0:
320,192,50341,1,0,0:0:0:0:
64,192,50425,1,0,0:0:0:0:
192,192,50425,1,0,0:0:0:0:
448,192,50425,1,0,0:0:0:0:
320,192,50425,1,0,0:0:0:0:
64,192,50508,1,0,0:0:0:0:
448,192,50508,1,0,0:0:0:0:
192,192,50591,1,0,0:0:0:0:
320,192,50591,1,0,0:0:0:0:
192,192,50675,1,0,0:0:0:0:
448,192,50675,1,0,0:0:0:0:
64,192,50758,1,0,0:0:0:0:
320,192,50758,1,0,0:0:0:0:
448,192,50758,1,0,0:0:0:0:
192,192,50758,1,0,0:0:0:0:
320,192,50841,1,0,0:0:0:0:
448,192,50841,1,0,0:0:0:0:
64,192,50925,1,0,0:0:0:0:
192,192,50925,1,0,0:0:0:0:
192,192,51008,1,0,0:0:0:0:
320,192,51008,1,0,0:0:0:0:
64,192,51091,1,0,0:0:0:0:
192,192,51091,1,0,0:0:0:0:
320,192,51091,1,0,0:0:0:0:
448,192,51091,1,0,0:0:0:0:
64,192,51175,1,0,0:0:0:0:
448,192,51175,1,0,0:0:0:0:
192,192,51258,1,0,0:0:0:0:
448,192,51258,1,0,0:0:0:0:
192,192,51341,1,0,0:0:0:0:
320,192,51341,1,0,0:0:0:0:
448,192,51425,1,0,0:0:0:0:
192,192,51425,1,0,0:0:0:0:
320,192,51425,1,0,0:0:0:0:
64,192,51425,1,0,0:0:0:0:
320,192,51508,1,0,0:0:0:0:
64,192,51508,1,0,0:0:0:0:
192,192,51591,1,0,0:0:0:0:
64,192,51591,1,0,0:0:0:0:
320,192,51675,1,0,0:0:0:0:
448,192,51675,1,0,0:0:0:0:
64,192,51758,1,0,0:0:0:0:
320,192,51758,1,0,0:0:0:0:
448,192,51758,1,0,0:0:0:0:
192,192,51758,1,0,0:0:0:0:
192,192,51841,1,0,0:0:0:0:
320,192,51841,1,0,0:0:0:0:
64,192,51925,1,0,0:0:0:0:
448,192,51925,1,0,0:0:0:0:
320,192,52008,1,0,0:0:0:0:
192,192,52008,1,0,0:0:0:0:
192,192,52091,1,0,0:0:0:0:
64,192,52091,1,0,0:0:0:0:
320,192,52091,1,0,0:0:0:0:
448,192,52091,1,0,0:0:0:0:
64,192,52175,1,0,0:0:0:0:
320,192,52175,1,0,0:0:0:0:
192,192,52258,1,0,0:0:0:0:
64,192,52258,1,0,0:0:0:0:
448,192,52258,1,0,0:0:0:0:
192,192,52341,1,0,0:0:0:0:
320,192,52341,1,0,0:0:0:0:
448,192,52425,5,0,0:0:0:0:
64,192,52425,1,0,0:0:0:0:
320,192,52425,1,0,0:0:0:0:
192,192,52425,1,0,0:0:0:0:
448,192,52508,1,0,0:0:0:0:
64,192,52508,1,0,0:0:0:0:
320,192,52591,1,0,0:0:0:0:
192,192,52591,1,0,0:0:0:0:
448,192,52675,1,0,0:0:0:0:
320,192,52675,1,0,0:0:0:0:
64,192,52758,1,0,0:0:0:0:
192,192,52758,1,0,0:0:0:0:
320,192,52758,1,0,0:0:0:0:
448,192,52758,1,0,0:0:0:0:
320,192,52841,1,0,0:0:0:0:
192,192,52841,1,0,0:0:0:0:
192,192,52925,1,0,0:0:0:0:
64,192,52925,1,0,0:0:0:0:
320,192,53008,1,0,0:0:0:0:
448,192,53008,1,0,0:0:0:0:
448,192,53091,1,0,0:0:0:0:
320,192,53091,1,0,0:0:0:0:
64,192,53091,1,0,0:0:0:0:
192,192,53091,1,0,0:0:0:0:
448,192,53175,1,0,0:0:0:0:
192,192,53175,1,0,0:0:0:0:
320,192,53258,1,0,0:0:0:0:
64,192,53258,1,0,0:0:0:0:
192,192,53258,1,0,0:0:0:0:
64,192,53341,1,0,0:0:0:0:
448,192,53341,1,0,0:0:0:0:
448,192,53425,1,0,0:0:0:0:
320,192,53425,1,0,0:0:0:0:
192,192,53425,1,0,0:0:0:0:
64,192,53425,1,0,0:0:0:0:
448,192,53508,1,0,0:0:0:0:
192,192,53508,1,0,0:0:0:0:
320,192,53591,1,0,0:0:0:0:
448,192,53591,1,0,0:0:0:0:
64,192,53591,1,0,0:0:0:0:
64,192,53675,1,0,0:0:0:0:
192,192,53675,1,0,0:0:0:0:
448,192,53758,1,0,0:0:0:0:
320,192,53758,1,0,0:0:0:0:
192,192,53758,1,0,0:0:0:0:
64,192,53758,1,0,0:0:0:0:
448,192,53841,1,0,0:0:0:0:
192,192,53841,1,0,0:0:0:0:
320,192,53925,1,0,0:0:0:0:
64,192,53925,1,0,0:0:0:0:
192,192,54008,1,0,0:0:0:0:
320,192,54008,1,0,0:0:0:0:
448,192,54091,1,0,0:0:0:0:
320,192,54091,1,0,0:0:0:0:
192,192,54091,1,0,0:0:0:0:
64,192,54091,1,0,0:0:0:0:
64,192,54175,1,0,0:0:0:0:
192,192,54175,1,0,0:0:0:0:
320,192,54258,1,0,0:0:0:0:
64,192,54258,1,0,0:0:0:0:
192,192,54341,1,0,0:0:0:0:
448,192,54341,1,0,0:0:0:0:
448,192,54425,1,0,0:0:0:0:
320,192,54425,1,0,0:0:0:0:
192,192,54425,1,0,0:0:0:0:
64,192,54425,1,0,0:0:0:0:
64,192,54508,1,0,0:0:0:0:
448,192,54508,1,0,0:0:0:0:
320,192,54591,1,0,0:0:0:0:
192,192,54591,1,0,0:0:0:0:
320,192,54675,1,0,0:0:0:0:
448,192,54675,1,0,0:0:0:0:
64,192,54758,1,0,0:0:0:0:
192,192,54758,1,0,0:0:0:0:
320,192,54758,1,0,0:0:0:0:
448,192,54758,1,0,0:0:0:0:
64,192,54841,1,0,0:0:0:0:
192,192,54841,1,0,0:0:0:0:
64,192,54925,1,0,0:0:0:0:
320,192,54925,1,0,0:0:0:0:
192,192,55008,1,0,0:0:0:0:
448,192,55008,1,0,0:0:0:0:
64,192,55091,1,0,0:0:0:0:
192,192,55091,1,0,0:0:0:0:
320,192,55091,1,0,0:0:0:0:
448,192,55091,1,0,0:0:0:0:
448,192,55175,1,0,0:0:0:0:
64,192,55175,1,0,0:0:0:0:
320,192,55258,1,0,0:0:0:0:
192,192,55258,1,0,0:0:0:0:
320,192,55341,1,0,0:0:0:0:
448,192,55341,1,0,0:0:0:0:
448,192,55425,1,0,0:0:0:0:
192,192,55425,1,0,0:0:0:0:
64,192,55425,1,0,0:0:0:0:
320,192,55425,1,0,0:0:0:0:
192,192,55508,1,0,0:0:0:0:
448,192,55508,1,0,0:0:0:0:
320,192,55591,1,0,0:0:0:0:
64,192,55591,1,0,0:0:0:0:
320,192,55675,1,0,0:0:0:0:
192,192,55675,1,0,0:0:0:0:
448,192,55758,1,0,0:0:0:0:
320,192,55758,1,0,0:0:0:0:
64,192,55758,1,0,0:0:0:0:
192,192,55758,1,0,0:0:0:0:
448,192,55841,1,0,0:0:0:0:
64,192,55841,1,0,0:0:0:0:
320,192,55925,1,0,0:0:0:0:
192,192,55925,1,0,0:0:0:0:
320,192,56008,1,0,0:0:0:0:
64,192,56008,1,0,0:0:0:0:
448,192,56091,1,0,0:0:0:0:
192,192,56091,1,0,0:0:0:0:
64,192,56091,1,0,0:0:0:0:
320,192,56091,1,0,0:0:0:0:
192,192,56175,1,0,0:0:0:0:
64,192,56175,1,0,0:0:0:0:
448,192,56258,1,0,0:0:0:0:
320,192,56258,1,0,0:0:0:0:
320,192,56341,1,0,0:0:0:0:
192,192,56341,1,0,0:0:0:0:
448,192,56425,1,0,0:0:0:0:
320,192,56425,1,0,0:0:0:0:
192,192,56425,1,0,0:0:0:0:
64,192,56425,1,0,0:0:0:0:
448,192,56508,1,0,0:0:0:0:
64,192,56508,1,0,0:0:0:0:
320,192,56591,1,0,0:0:0:0:
64,192,56591,1,0,0:0:0:0:
320,192,56675,1,0,0:0:0:0:
192,192,56675,1,0,0:0:0:0:
64,192,56758,1,0,0:0:0:0:
320,192,56758,1,0,0:0:0:0:
192,192,56758,1,0,0:0:0:0:
448,192,56758,1,0,0:0:0:0:
192,192,56841,1,0,0:0:0:0:
448,192,56841,1,0,0:0:0:0:
320,192,56925,1,0,0:0:0:0:
448,192,56925,1,0,0:0:0:0:
192,192,57008,1,0,0:0:0:0:
64,192,57008,1,0,0:0:0:0:
448,192,57091,1,0,0:0:0:0:
192,192,57091,1,0,0:0:0:0:
64,192,57091,1,0,0:0:0:0:
320,192,57091,1,0,0:0:0:0:
320,192,57175,1,0,0:0:0:0:
192,192,57175,1,0,0:0:0:0:
448,192,57258,1,0,0:0:0:0:
64,192,57258,1,0,0:0:0:0:
192,192,57341,1,0,0:0:0:0:
320,192,57341,1,0,0:0:0:0:
320,192,57425,1,0,0:0:0:0:
448,192,57425,1,0,0:0:0:0:
192,192,57425,1,0,0:0:0:0:
64,192,57425,1,0,0:0:0:0:
448,192,57508,1,0,0:0:0:0:
192,192,57508,1,0,0:0:0:0:
64,192,57591,1,0,0:0:0:0:
320,192,57591,1,0,0:0:0:0:
448,192,57675,1,0,0:0:0:0:
192,192,57675,1,0,0:0:0:0:
448,192,57758,1,0,0:0:0:0:
192,192,57758,1,0,0:0:0:0:
64,192,57758,1,0,0:0:0:0:
320,192,57758,1,0,0:0:0:0:
192,192,57841,1,0,0:0:0:0:
64,192,57841,1,0,0:0:0:0:
320,192,57925,1,0,0:0:0:0:
64,192,57925,1,0,0:0:0:0:
320,192,58008,1,0,0:0:0:0:
448,192,58008,1,0,0:0:0:0:
64,192,58091,1,0,0:0:0:0:
192,192,58091,1,0,0:0:0:0:
320,192,58091,1,0,0:0:0:0:
448,192,58091,1,0,0:0:0:0:
192,192,58175,1,0,0:0:0:0:
64,192,58175,1,0,0:0:0:0:
320,192,58258,1,0,0:0:0:0:
448,192,58258,1,0,0:0:0:0:
192,192,58341,1,0,0:0:0:0:
320,192,58341,1,0,0:0:0:0:
64,192,58425,1,0,0:0:0:0:
192,192,58425,1,0,0:0:0:0:
320,192,58425,1,0,0:0:0:0:
448,192,58425,1,0,0:0:0:0:
192,192,58508,1,0,0:0:0:0:
448,192,58508,1,0,0:0:0:0:
64,192,58591,1,0,0:0:0:0:
320,192,58591,1,0,0:0:0:0:
192,192,58675,1,0,0:0:0:0:
320,192,58675,1,0,0:0:0:0:
64,192,58758,1,0,0:0:0:0:
192,192,58758,1,0,0:0:0:0:
320,192,58758,1,0,0:0:0:0:
448,192,58758,1,0,0:0:0:0:
64,192,58841,1,0,0:0:0:0:
192,192,58841,1,0,0:0:0:0:
320,192,58925,1,0,0:0:0:0:
448,192,58925,1,0,0:0:0:0:
192,192,59008,1,0,0:0:0:0:
64,192,59008,1,0,0:0:0:0:
64,192,59091,1,0,0:0:0:0:
192,192,59091,1,0,0:0:0:0:
320,192,59091,1,0,0:0:0:0:
448,192,59091,1,0,0:0:0:0:
64,192,59175,1,0,0:0:0:0:
320,192,59175,1,0,0:0:0:0:
192,192,59258,1,0,0:0:0:0:
320,192,59258,1,0,0:0:0:0:
192,192,59341,1,0,0:0:0:0:
448,192,59341,1,0,0:0:0:0:
64,192,59425,1,0,0:0:0:0:
192,192,59425,1,0,0:0:0:0:
320,192,59425,1,0,0:0:0:0:
448,192,59425,1,0,0:0:0:0:
448,192,59508,1,0,0:0:0:0:
320,192,59508,1,0,0:0:0:0:
64,192,59591,1,0,0:0:0:0:
320,192,59591,1,0,0:0:0:0:
192,192,59675,1,0,0:0:0:0:
448,192,59675,1,0,0:0:0:0:
64,192,59758,1,0,0:0:0:0:
320,192,59758,1,0,0:0:0:0:
448,192,59758,1,0,0:0:0:0:
192,192,59758,1,0,0:0:0:0:
64,192,59841,1,0,0:0:0:0:
192,192,59841,1,0,0:0:0:0:
64,192,59925,1,0,0:0:0:0:
448,192,59925,1,0,0:0:0:0:
320,192,60008,1,0,0:0:0:0:
448,192,60008,1,0,0:0:0:0:
64,192,60091,1,0,0:0:0:0:
192,192,60091,1,0,0:0:0:0:
448,192,60091,1,0,0:0:0:0:
320,192,60091,1,0,0:0:0:0:
64,192,60175,1,0,0:0:0:0:
320,192,60175,1,0,0:0:0:0:
192,192,60258,1,0,0:0:0:0:
448,192,60258,1,0,0:0:0:0:
64,192,60341,1,0,0:0:0:0:
448,192,60341,1,0,0:0:0:0:
64,192,60425,1,0,0:0:0:0:
320,192,60425,1,0,0:0:0:0:
448,192,60425,1,0,0:0:0:0:
192,192,60425,1,0,0:0:0:0:
192,192,60508,1,0,0:0:0:0:
320,192,60508,1,0,0:0:0:0:
192,192,60591,1,0,0:0:0:0:
64,192,60591,1,0,0:0:0:0:
192,192,60675,1,0,0:0:0:0:
448,192,60675,1,0,0:0:0:0:
64,192,60758,1,0,0:0:0:0:
192,192,60758,1,0,0:0:0:0:
320,192,60758,1,0,0:0:0:0:
448,192,60758,1,0,0:0:0:0:
320,192,60841,1,0,0:0:0:0:
448,192,60841,1,0,0:0:0:0:
192,192,60925,1,0,0:0:0:0:
64,192,60925,1,0,0:0:0:0:
192,192,61008,1,0,0:0:0:0:
320,192,61008,1,0,0:0:0:0:
64,192,61091,1,0,0:0:0:0:
192,192,61091,1,0,0:0:0:0:
320,192,61091,1,0,0:0:0:0:
448,192,61091,1,0,0:0:0:0:
448,192,61175,1,0,0:0:0:0:
64,192,61175,1,0,0:0:0:0:
320,192,61258,1,0,0:0:0:0:
448,192,61258,1,0,0:0:0:0:
448,192,61341,1,0,0:0:0:0:
192,192,61341,1,0,0:0:0:0:
64,192,61425,1,0,0:0:0:0:
192,192,61425,1,0,0:0:0:0:
320,192,61425,1,0,0:0:0:0:
448,192,61425,1,0,0:0:0:0:
64,192,61508,1,0,0:0:0:0:
320,192,61508,1,0,0:0:0:0:
192,192,61591,1,0,0:0:0:0:
320,192,61591,1,0,0:0:0:0:
64,192,61675,1,0,0:0:0:0:
448,192,61675,1,0,0:0:0:0:
64,192,61758,1,0,0:0:0:0:
192,192,61758,1,0,0:0:0:0:
320,192,61758,1,0,0:0:0:0:
448,192,61758,1,0,0:0:0:0:
320,192,61841,1,0,0:0:0:0:
64,192,61841,1,0,0:0:0:0:
192,192,61925,1,0,0:0:0:0:
320,192,61925,1,0,0:0:0:0:
320,192,62008,1,0,0:0:0:0:
448,192,62008,1,0,0:0:0:0:
192,192,62091,1,0,0:0:0:0:
64,192,62091,1,0,0:0:0:0:
320,192,62091,1,0,0:0:0:0:
448,192,62091,1,0,0:0:0:0:
64,192,62175,5,0,0:0:0:0:
448,192,62175,1,0,0:0:0:0:
192,192,62258,1,0,0:0:0:0:
64,192,62258,1,0,0:0:0:0:
192,192,62341,1,0,0:0:0:0:
320,192,62341,1,0,0:0:0:0:
64,192,62425,1,0,0:0:0:0:
192,192,62425,1,0,0:0:0:0:
448,192,62425,1,0,0:0:0:0:
320,192,62425,1,0,0:0:0:0:
320,192,62508,1,0,0:0:0:0:
448,192,62508,1,0,0:0:0:0:
448,192,62591,1,0,0:0:0:0:
64,192,62591,1,0,0:0:0:0:
192,192,62675,1,0,0:0:0:0:
320,192,62675,1,0,0:0:0:0:
64,192,62758,1,0,0:0:0:0:
192,192,62758,1,0,0:0:0:0:
320,192,62758,1,0,0:0:0:0:
448,192,62758,1,0,0:0:0:0:
64,192,62841,1,0,0:0:0:0:
320,192,62841,1,0,0:0:0:0:
192,192,62925,1,0,0:0:0:0:
320,192,62925,1,0,0:0:0:0:
448,192,62925,1,0,0:0:0:0:
64,192,63008,1,0,0:0:0:0:
448,192,63008,1,0,0:0:0:0:
64,192,63091,5,0,0:0:0:0:
192,192,63091,1,0,0:0:0:0:
320,192,63091,1,0,0:0:0:0:
448,192,63091,1,0,0:0:0:0:
192,192,63258,1,0,0:0:0:0:
64,192,63258,1,0,0:0:0:0:
448,192,63258,1,0,0:0:0:0:
64,192,63425,1,0,0:0:0:0:
320,192,63425,1,0,0:0:0:0:
448,192,63425,1,0,0:0:0:0:
192,192,63591,1,0,0:0:0:0:
320,192,63591,1,0,0:0:0:0:
448,192,63591,1,0,0:0:0:0:
192,192,63758,1,0,0:0:0:0:
320,192,63758,1,0,0:0:0:0:
64,192,63758,1,0,0:0:0:0:
192,192,63925,1,0,0:0:0:0:
64,192,63925,1,0,0:0:0:0:
448,192,63925,1,0,0:0:0:0:
448,192,64091,1,0,0:0:0:0:
64,192,64091,1,0,0:0:0:0:
320,192,64091,1,0,0:0:0:0:
64,192,64258,1,0,0:0:0:0:
448,192,64258,1,0,0:0:0:0:
320,192,64258,1,0,0:0:0:0:
448,192,64425,1,0,0:0:0:0:
64,192,64425,1,0,0:0:0:0:
192,192,64425,1,0,0:0:0:0:
192,192,64591,1,0,0:0:0:0:
320,192,64591,1,0,0:0:0:0:
448,192,64591,1,0,0:0:0:0:
320,192,64758,1,0,0:0:0:0:
192,192,64758,1,0,0:0:0:0:
64,192,64758,1,0,0:0:0:0:
64,192,64925,1,0,0:0:0:0:
192,192,64925,1,0,0:0:0:0:
448,192,64925,1,0,0:0:0:0:
320,192,65091,1,0,0:0:0:0:
448,192,65091,1,0,0:0:0:0:
64,192,65091,1,0,0:0:0:0:
192,192,65175,1,0,0:0:0:0:
320,192,65175,1,0,0:0:0:0:
64,192,65258,1,0,0:0:0:0:
192,192,65258,1,0,0:0:0:0:
320,192,65341,1,0,0:0:0:0:
448,192,65341,1,0,0:0:0:0:
64,192,65341,1,0,0:0:0:0:
192,192,65425,1,0,0:0:0:0:
448,192,65425,1,0,0:0:0:0:
320,192,65508,1,0,0:0:0:0:
192,192,65508,1,0,0:0:0:0:
64,192,65591,1,0,0:0:0:0:
320,192,65591,1,0,0:0:0:0:
448,192,65591,1,0,0:0:0:0:
192,192,65675,1,0,0:0:0:0:
64,192,65675,1,0,0:0:0:0:
192,192,65758,1,0,0:0:0:0:
64,192,65758,1,0,0:0:0:0:
448,192,65758,1,0,0:0:0:0:
320,192,65758,1,0,0:0:0:0:
320,192,65841,1,0,0:0:0:0:
448,192,65841,1,0,0:0:0:0:
64,192,65925,1,0,0:0:0:0:
320,192,65925,1,0,0:0:0:0:
192,192,65925,1,0,0:0:0:0:
192,192,66008,1,0,0:0:0:0:
448,192,66008,1,0,0:0:0:0:
64,192,66091,1,0,0:0:0:0:
320,192,66091,1,0,0:0:0:0:
448,192,66091,1,0,0:0:0:0:
192,192,66091,1,0,0:0:0:0:
192,192,66175,1,0,0:0:0:0:
64,192,66175,1,0,0:0:0:0:
192,192,66258,1,0,0:0:0:0:
320,192,66258,1,0,0:0:0:0:
448,192,66258,1,0,0:0:0:0:
320,192,66341,1,0,0:0:0:0:
64,192,66341,1,0,0:0:0:0:
192,192,66425,1,0,0:0:0:0:
64,192,66425,1,0,0:0:0:0:
448,192,66425,1,0,0:0:0:0:
320,192,66425,1,0,0:0:0:0:
192,192,66508,1,0,0:0:0:0:
64,192,66508,1,0,0:0:0:0:
192,192,66591,1,0,0:0:0:0:
320,192,66591,1,0,0:0:0:0:
448,192,66591,1,0,0:0:0:0:
64,192,66675,1,0,0:0:0:0:
448,192,66675,1,0,0:0:0:0:
320,192,66758,1,0,0:0:0:0:
192,192,66758,1,0,0:0:0:0:
64,192,66758,1,0,0:0:0:0:
192,192,66841,1,0,0:0:0:0:
320,192,66841,1,0,0:0:0:0:
64,192,66925,1,0,0:0:0:0:
320,192,66925,1,0,0:0:0:0:
448,192,66925,1,0,0:0:0:0:
192,192,67008,1,0,0:0:0:0:
448,192,67008,1,0,0:0:0:0:
64,192,67091,1,0,0:0:0:0:
192,192,67091,1,0,0:0:0:0:
320,192,67091,1,0,0:0:0:0:
64,192,67258,1,0,0:0:0:0:
448,192,67258,1,0,0:0:0:0:
320,192,67258,1,0,0:0:0:0:
192,192,67425,1,0,0:0:0:0:
320,192,67425,1,0,0:0:0:0:
448,192,67425,1,0,0:0:0:0:
192,192,67508,1,0,0:0:0:0:
64,192,67508,1,0,0:0:0:0:
64,192,67591,1,0,0:0:0:0:
320,192,67591,1,0,0:0:0:0:
448,192,67591,1,0,0:0:0:0:
192,192,67758,1,0,0:0:0:0:
320,192,67758,1,0,0:0:0:0:
64,192,67841,1,0,0:0:0:0:
192,192,67841,1,0,0:0:0:0:
448,192,67841,1,0,0:0:0:0:
64,192,68008,1,0,0:0:0:0:
320,192,68008,1,0,0:0:0:0:
320,192,68091,1,0,0:0:0:0:
192,192,68091,1,0,0:0:0:0:
448,192,68091,1,0,0:0:0:0:
192,192,68175,1,0,0:0:0:0:
64,192,68175,1,0,0:0:0:0:
448,192,68175,1,0,0:0:0:0:
320,192,68258,1,0,0:0:0:0:
64,192,68258,1,0,0:0:0:0:
192,192,68341,1,0,0:0:0:0:
64,192,68341,1,0,0:0:0:0:
448,192,68341,1,0,0:0:0:0:
320,192,68425,1,0,0:0:0:0:
448,192,68425,1,0,0:0:0:0:
192,192,68425,1,0,0:0:0:0:
64,192,68591,1,0,0:0:0:0:
320,192,68591,1,0,0:0:0:0:
192,192,68758,1,0,0:0:0:0:
448,192,68758,1,0,0:0:0:0:
64,192,68758,1,0,0:0:0:0:
192,192,68925,1,0,0:0:0:0:
448,192,68925,1,0,0:0:0:0:
64,192,69091,1,0,0:0:0:0:
320,192,69091,1,0,0:0:0:0:
320,192,69175,1,0,0:0:0:0:
448,192,69258,1,0,0:0:0:0:
64,192,69258,1,0,0:0:0:0:
192,192,69425,1,0,0:0:0:0:
320,192,69425,1,0,0:0:0:0:
64,192,69591,1,0,0:0:0:0:
192,192,69591,1,0,0:0:0:0:
320,192,69675,1,0,0:0:0:0:
448,192,69675,1,0,0:0:0:0:
64,192,69758,5,0,0:0:0:0:
192,192,69758,1,0,0:0:0:0:
320,192,69758,1,0,0:0:0:0:
448,192,69758,1,0,0:0:0:0:
64,192,69841,1,0,0:0:0:0:
192,192,69841,1,0,0:0:0:0:
64,192,69925,1,0,0:0:0:0:
192,192,69925,1,0,0:0:0:0:
320,192,69925,1,0,0:0:0:0:
448,192,69925,1,0,0:0:0:0:
320,192,70008,1,0,0:0:0:0:
448,192,70008,1,0,0:0:0:0:
64,192,70091,1,0,0:0:0:0:
192,192,70091,1,0,0:0:0:0:
448,192,70091,1,0,0:0:0:0:
320,192,70091,1,0,0:0:0:0:
64,192,70175,1,0,0:0:0:0:
320,192,70175,1,0,0:0:0:0:
448,192,70175,1,0,0:0:0:0:
192,192,70258,1,0,0:0:0:0:
64,192,70258,1,0,0:0:0:0:
320,192,70258,1,0,0:0:0:0:
448,192,70258,1,0,0:0:0:0:
192,192,70341,1,0,0:0:0:0:
64,192,70341,1,0,0:0:0:0:
320,192,70341,1,0,0:0:0:0:
64,192,70425,1,0,0:0:0:0:
192,192,70425,1,0,0:0:0:0:
320,192,70425,1,0,0:0:0:0:
448,192,70425,1,0,0:0:0:0:
192,192,70508,1,0,0:0:0:0:
64,192,70508,1,0,0:0:0:0:
448,192,70508,1,0,0:0:0:0:
64,192,70591,1,0,0:0:0:0:
192,192,70591,1,0,0:0:0:0:
320,192,70591,1,0,0:0:0:0:
448,192,70591,1,0,0:0:0:0:
448,192,70675,1,0,0:0:0:0:
192,192,70675,1,0,0:0:0:0:
320,192,70675,1,0,0:0:0:0:
64,192,70758,1,0,0:0:0:0:
192,192,70758,1,0,0:0:0:0:
320,192,70758,1,0,0:0:0:0:
448,192,70758,1,0,0:0:0:0:
192,192,70841,1,0,0:0:0:0:
448,192,70841,1,0,0:0:0:0:
320,192,70841,1,0,0:0:0:0:
64,192,70841,1,0,0:0:0:0:
64,192,70925,1,0,0:0:0:0:
192,192,70925,1,0,0:0:0:0:
320,192,70925,1,0,0:0:0:0:
448,192,70925,1,0,0:0:0:0:
64,192,71008,1,0,0:0:0:0:
320,192,71008,1,0,0:0:0:0:
192,192,71008,1,0,0:0:0:0:
448,192,71008,1,0,0:0:0:0:
64,192,71091,1,0,0:0:0:0:
192,192,71091,1,0,0:0:0:0:
320,192,71091,1,0,0:0:0:0:
448,192,71091,1,0,0:0:0:0:
192,192,71175,1,0,0:0:0:0:
320,192,71175,1,0,0:0:0:0:
448,192,71175,1,0,0:0:0:0:
64,192,71258,1,0,0:0:0:0:
320,192,71258,1,0,0:0:0:0:
448,192,71258,1,0,0:0:0:0:
192,192,71341,1,0,0:0:0:0:
64,192,71341,1,0,0:0:0:0:
320,192,71341,1,0,0:0:0:0:
64,192,71425,1,0,0:0:0:0:
192,192,71425,1,0,0:0:0:0:
320,192,71425,1,0,0:0:0:0:
448,192,71425,1,0,0:0:0:0:
64,192,71508,1,0,0:0:0:0:
448,192,71508,1,0,0:0:0:0:
192,192,71508,1,0,0:0:0:0:
192,192,71591,1,0,0:0:0:0:
320,192,71591,1,0,0:0:0:0:
448,192,71591,1,0,0:0:0:0:
320,192,71675,1,0,0:0:0:0:
192,192,71675,1,0,0:0:0:0:
64,192,71675,1,0,0:0:0:0:
64,192,71758,1,0,0:0:0:0:
192,192,71758,1,0,0:0:0:0:
320,192,71758,1,0,0:0:0:0:
448,192,71758,1,0,0:0:0:0:
320,192,71841,1,0,0:0:0:0:
448,192,71841,1,0,0:0:0:0:
64,192,71841,1,0,0:0:0:0:
192,192,71925,1,0,0:0:0:0:
64,192,71925,1,0,0:0:0:0:
320,192,71925,1,0,0:0:0:0:
192,192,72008,1,0,0:0:0:0:
448,192,72008,1,0,0:0:0:0:
64,192,72008,1,0,0:0:0:0:
64,192,72091,1,0,0:0:0:0:
192,192,72091,1,0,0:0:0:0:
320,192,72091,1,0,0:0:0:0:
448,192,72091,1,0,0:0:0:0:
320,192,72175,1,0,0:0:0:0:
448,192,72175,1,0,0:0:0:0:
64,192,72258,1,0,0:0:0:0:
192,192,72258,1,0,0:0:0:0:
448,192,72258,1,0,0:0:0:0:
320,192,72258,1,0,0:0:0:0:
64,192,72341,1,0,0:0:0:0:
192,192,72341,1,0,0:0:0:0:
64,192,72425,1,0,0:0:0:0:
192,192,72425,1,0,0:0:0:0:
320,192,72425,1,0,0:0:0:0:
448,192,72425,1,0,0:0:0:0:
64,192,72508,1,0,0:0:0:0:
448,192,72508,1,0,0:0:0:0:
320,192,72508,1,0,0:0:0:0:
192,192,72591,1,0,0:0:0:0:
320,192,72591,1,0,0:0:0:0:
448,192,72591,1,0,0:0:0:0:
64,192,72675,1,0,0:0:0:0:
192,192,72675,1,0,0:0:0:0:
64,192,72758,1,0,0:0:0:0:
192,192,72758,1,0,0:0:0:0:
320,192,72758,1,0,0:0:0:0:
448,192,72758,1,0,0:0:0:0:
192,192,72841,1,0,0:0:0:0:
64,192,72841,1,0,0:0:0:0:
320,192,72841,1,0,0:0:0:0:
320,192,72925,1,0,0:0:0:0:
448,192,72925,1,0,0:0:0:0:
64,192,72925,1,0,0:0:0:0:
192,192,73008,1,0,0:0:0:0:
448,192,73008,1,0,0:0:0:0:
192,192,73091,1,0,0:0:0:0:
320,192,73091,1,0,0:0:0:0:
448,192,73091,1,0,0:0:0:0:
64,192,73091,1,0,0:0:0:0:
448,192,73175,1,0,0:0:0:0:
320,192,73175,1,0,0:0:0:0:
64,192,73175,1,0,0:0:0:0:
320,192,73258,1,0,0:0:0:0:
192,192,73258,1,0,0:0:0:0:
64,192,73341,1,0,0:0:0:0:
320,192,73341,1,0,0:0:0:0:
448,192,73341,1,0,0:0:0:0:
64,192,73425,1,0,0:0:0:0:
192,192,73425,1,0,0:0:0:0:
320,192,73425,1,0,0:0:0:0:
448,192,73425,1,0,0:0:0:0:
192,192,73508,1,0,0:0:0:0:
64,192,73508,1,0,0:0:0:0:
320,192,73508,1,0,0:0:0:0:
192,192,73591,1,0,0:0:0:0:
448,192,73591,1,0,0:0:0:0:
192,192,73675,1,0,0:0:0:0:
64,192,73675,1,0,0:0:0:0:
320,192,73675,1,0,0:0:0:0:
64,192,73758,1,0,0:0:0:0:
192,192,73758,1,0,0:0:0:0:
320,192,73758,1,0,0:0:0:0:
448,192,73758,1,0,0:0:0:0:
320,192,73841,1,0,0:0:0:0:
448,192,73841,1,0,0:0:0:0:
64,192,73841,1,0,0:0:0:0:
64,192,73925,1,0,0:0:0:0:
192,192,73925,1,0,0:0:0:0:
448,192,73925,1,0,0:0:0:0:
192,192,74008,1,0,0:0:0:0:
320,192,74008,1,0,0:0:0:0:
64,192,74008,1,0,0:0:0:0:
64,192,74091,1,0,0:0:0:0:
320,192,74091,1,0,0:0:0:0:
192,192,74091,1,0,0:0:0:0:
448,192,74091,1,0,0:0:0:0:
320,192,74175,1,0,0:0:0:0:
448,192,74175,1,0,0:0:0:0:
192,192,74175,1,0,0:0:0:0:
320,192,74258,1,0,0:0:0:0:
448,192,74258,1,0,0:0:0:0:
64,192,74258,1,0,0:0:0:0:
192,192,74341,1,0,0:0:0:0:
64,192,74341,1,0,0:0:0:0:
448,192,74341,1,0,0:0:0:0:
64,192,74425,1,0,0:0:0:0:
192,192,74425,1,0,0:0:0:0:
320,192,74425,1,0,0:0:0:0:
448,192,74425,1,0,0:0:0:0:
320,192,74508,1,0,0:0:0:0:
192,192,74508,1,0,0:0:0:0:
64,192,74508,1,0,0:0:0:0:
320,192,74591,1,0,0:0:0:0:
192,192,74591,1,0,0:0:0:0:
448,192,74591,1,0,0:0:0:0:
64,192,74675,1,0,0:0:0:0:
448,192,74675,1,0,0:0:0:0:
320,192,74675,1,0,0:0:0:0:
192,192,74758,1,0,0:0:0:0:
64,192,74758,1,0,0:0:0:0:
320,192,74758,1,0,0:0:0:0:
448,192,74758,1,0,0:0:0:0:
192,192,74841,1,0,0:0:0:0:
448,192,74841,1,0,0:0:0:0:
64,192,74925,1,0,0:0:0:0:
320,192,74925,1,0,0:0:0:0:
448,192,74925,1,0,0:0:0:0:
192,192,74925,1,0,0:0:0:0:
64,192,75008,1,0,0:0:0:0:
320,192,75008,1,0,0:0:0:0:
64,192,75091,1,0,0:0:0:0:
448,192,75091,1,0,0:0:0:0:
192,192,75091,1,0,0:0:0:0:
320,192,75091,1,0,0:0:0:0:
192,192,75175,1,0,0:0:0:0:
320,192,75175,1,0,0:0:0:0:
448,192,75175,1,0,0:0:0:0:
64,192,75258,1,0,0:0:0:0:
192,192,75258,1,0,0:0:0:0:
320,192,75258,1,0,0:0:0:0:
448,192,75258,1,0,0:0:0:0:
192,192,75341,1,0,0:0:0:0:
64,192,75341,1,0,0:0:0:0:
448,192,75341,1,0,0:0:0:0:
64,192,75425,1,0,0:0:0:0:
192,192,75425,1,0,0:0:0:0:
448,192,75425,1,0,0:0:0:0:
320,192,75425,1,0,0:0:0:0:
64,192,75508,1,0,0:0:0:0:
192,192,75508,1,0,0:0:0:0:
320,192,75508,1,0,0:0:0:0:
64,192,75591,1,0,0:0:0:0:
192,192,75591,1,0,0:0:0:0:
320,192,75591,1,0,0:0:0:0:
448,192,75591,1,0,0:0:0:0:
192,192,75675,1,0,0:0:0:0:
320,192,75675,1,0,0:0:0:0:
448,192,75675,1,0,0:0:0:0:
64,192,75758,1,0,0:0:0:0:
192,192,75758,1,0,0:0:0:0:
448,192,75758,1,0,0:0:0:0:
320,192,75758,1,0,0:0:0:0:
64,192,75841,1,0,0:0:0:0:
448,192,75841,1,0,0:0:0:0:
320,192,75841,1,0,0:0:0:0:
192,192,75925,1,0,0:0:0:0:
320,192,75925,1,0,0:0:0:0:
448,192,75925,1,0,0:0:0:0:
64,192,76008,1,0,0:0:0:0:
192,192,76008,1,0,0:0:0:0:
448,192,76008,1,0,0:0:0:0:
64,192,76091,1,0,0:0:0:0:
192,192,76091,1,0,0:0:0:0:
320,192,76091,1,0,0:0:0:0:
448,192,76091,1,0,0:0:0:0:
192,192,76175,1,0,0:0:0:0:
320,192,76175,1,0,0:0:0:0:
64,192,76258,1,0,0:0:0:0:
192,192,76258,1,0,0:0:0:0:
320,192,76258,1,0,0:0:0:0:
448,192,76258,1,0,0:0:0:0:
64,192,76341,1,0,0:0:0:0:
320,192,76341,1,0,0:0:0:0:
448,192,76341,1,0,0:0:0:0:
64,192,76425,1,0,0:0:0:0:
192,192,76425,1,0,0:0:0:0:
320,192,76425,1,0,0:0:0:0:
448,192,76425,1,0,0:0:0:0:
192,192,76508,1,0,0:0:0:0:
64,192,76508,1,0,0:0:0:0:
320,192,76508,1,0,0:0:0:0:
192,192,76591,1,0,0:0:0:0:
64,192,76591,1,0,0:0:0:0:
448,192,76591,1,0,0:0:0:0:
320,192,76675,1,0,0:0:0:0:
448,192,76675,1,0,0:0:0:0:
192,192,76675,1,0,0:0:0:0:
64,192,76758,1,0,0:0:0:0:
192,192,76758,1,0,0:0:0:0:
320,192,76758,1,0,0:0:0:0:
448,192,76758,1,0,0:0:0:0:
320,192,76841,1,0,0:0:0:0:
448,192,76841,1,0,0:0:0:0:
64,192,76841,1,0,0:0:0:0:
192,192,76925,1,0,0:0:0:0:
64,192,76925,1,0,0:0:0:0:
448,192,76925,1,0,0:0:0:0:
192,192,77008,1,0,0:0:0:0:
64,192,77008,1,0,0:0:0:0:
320,192,77008,1,0,0:0:0:0:
320,192,77091,1,0,0:0:0:0:
448,192,77091,1,0,0:0:0:0:
192,192,77091,1,0,0:0:0:0:
64,192,77091,1,0,0:0:0:0:
320,192,77175,1,0,0:0:0:0:
64,192,77175,1,0,0:0:0:0:
448,192,77175,1,0,0:0:0:0:
192,192,77258,1,0,0:0:0:0:
320,192,77258,1,0,0:0:0:0:
448,192,77258,1,0,0:0:0:0:
64,192,77341,1,0,0:0:0:0:
192,192,77341,1,0,0:0:0:0:
320,192,77341,1,0,0:0:0:0:
64,192,77425,1,0,0:0:0:0:
192,192,77425,1,0,0:0:0:0:
320,192,77425,1,0,0:0:0:0:
448,192,77425,1,0,0:0:0:0:
64,192,77508,1,0,0:0:0:0:
448,192,77508,1,0,0:0:0:0:
64,192,77591,1,0,0:0:0:0:
192,192,77591,1,0,0:0:0:0:
320,192,77591,1,0,0:0:0:0:
448,192,77591,1,0,0:0:0:0:
192,192,77675,1,0,0:0:0:0:
320,192,77675,1,0,0:0:0:0:
64,192,77758,1,0,0:0:0:0:
320,192,77758,1,0,0:0:0:0:
448,192,77758,1,0,0:0:0:0:
192,192,77758,1,0,0:0:0:0:
64,192,77841,1,0,0:0:0:0:
192,192,77841,1,0,0:0:0:0:
320,192,77841,1,0,0:0:0:0:
64,192,77925,1,0,0:0:0:0:
448,192,77925,1,0,0:0:0:0:
320,192,77925,1,0,0:0:0:0:
192,192,78008,1,0,0:0:0:0:
448,192,78008,1,0,0:0:0:0:
64,192,78091,1,0,0:0:0:0:
192,192,78091,1,0,0:0:0:0:
448,192,78091,1,0,0:0:0:0:
320,192,78091,1,0,0:0:0:0:
320,192,78175,1,0,0:0:0:0:
448,192,78175,1,0,0:0:0:0:
192,192,78175,1,0,0:0:0:0:
320,192,78258,1,0,0:0:0:0:
64,192,78258,1,0,0:0:0:0:
448,192,78258,1,0,0:0:0:0:
192,192,78341,1,0,0:0:0:0:
64,192,78341,1,0,0:0:0:0:
192,192,78425,1,0,0:0:0:0:
64,192,78425,1,0,0:0:0:0:
320,192,78425,1,0,0:0:0:0:
448,192,78425,1,0,0:0:0:0:
192,192,78508,1,0,0:0:0:0:
320,192,78508,1,0,0:0:0:0:
64,192,78591,1,0,0:0:0:0:
320,192,78591,1,0,0:0:0:0:
448,192,78591,1,0,0:0:0:0:
192,192,78591,1,0,0:0:0:0:
320,192,78675,1,0,0:0:0:0:
64,192,78675,1,0,0:0:0:0:
64,192,78758,1,0,0:0:0:0:
192,192,78758,1,0,0:0:0:0:
320,192,78758,1,0,0:0:0:0:
448,192,78758,1,0,0:0:0:0:
448,192,78841,1,0,0:0:0:0:
64,192,78841,1,0,0:0:0:0:
64,192,78925,1,0,0:0:0:0:
320,192,78925,1,0,0:0:0:0:
448,192,78925,1,0,0:0:0:0:
192,192,78925,1,0,0:0:0:0:
448,192,79008,1,0,0:0:0:0:
320,192,79008,1,0,0:0:0:0:
320,192,79091,1,0,0:0:0:0:
448,192,79091,1,0,0:0:0:0:
64,192,79091,1,0,0:0:0:0:
192,192,79091,1,0,0:0:0:0:
64,192,79175,1,0,0:0:0:0:
192,192,79175,1,0,0:0:0:0:
320,192,79175,1,0,0:0:0:0:
192,192,79258,1,0,0:0:0:0:
320,192,79258,1,0,0:0:0:0:
448,192,79258,1,0,0:0:0:0:
64,192,79341,1,0,0:0:0:0:
448,192,79341,1,0,0:0:0:0:
64,192,79425,1,0,0:0:0:0:
192,192,79425,1,0,0:0:0:0:
320,192,79425,1,0,0:0:0:0:
448,192,79425,1,0,0:0:0:0:
192,192,79508,1,0,0:0:0:0:
64,192,79508,1,0,0:0:0:0:
448,192,79508,1,0,0:0:0:0:
192,192,79591,1,0,0:0:0:0:
320,192,79591,1,0,0:0:0:0:
448,192,79591,1,0,0:0:0:0:
320,192,79675,1,0,0:0:0:0:
64,192,79675,1,0,0:0:0:0:
64,192,79758,1,0,0:0:0:0:
192,192,79758,1,0,0:0:0:0:
320,192,79758,1,0,0:0:0:0:
448,192,79758,1,0,0:0:0:0:
192,192,79841,1,0,0:0:0:0:
448,192,79841,1,0,0:0:0:0:
320,192,79841,1,0,0:0:0:0:
64,192,79925,1,0,0:0:0:0:
192,192,79925,1,0,0:0:0:0:
448,192,79925,1,0,0:0:0:0:
192,192,80008,1,0,0:0:0:0:
64,192,80008,1,0,0:0:0:0:
320,192,80008,1,0,0:0:0:0:
64,192,80091,1,0,0:0:0:0:
192,192,80091,1,0,0:0:0:0:
320,192,80091,1,0,0:0:0:0:
448,192,80091,1,0,0:0:0:0:
320,192,80175,1,0,0:0:0:0:
448,192,80175,1,0,0:0:0:0:
64,192,80175,1,0,0:0:0:0:
192,192,80258,1,0,0:0:0:0:
64,192,80258,1,0,0:0:0:0:
448,192,80258,1,0,0:0:0:0:
192,192,80341,1,0,0:0:0:0:
320,192,80341,1,0,0:0:0:0:
448,192,80341,1,0,0:0:0:0:
64,192,80425,1,0,0:0:0:0:
192,192,80425,1,0,0:0:0:0:
320,192,80425,1,0,0:0:0:0:
448,192,80425,1,0,0:0:0:0:
192,192,80508,1,0,0:0:0:0:
64,192,80508,1,0,0:0:0:0:
448,192,80591,1,0,0:0:0:0:
192,192,80591,1,0,0:0:0:0:
320,192,80591,1,0,0:0:0:0:
64,192,80591,1,0,0:0:0:0:
320,192,80675,1,0,0:0:0:0:
448,192,80675,1,0,0:0:0:0:
64,192,80758,1,0,0:0:0:0:
320,192,80758,1,0,0:0:0:0:
448,192,80758,1,0,0:0:0:0:
192,192,80758,1,0,0:0:0:0:
192,192,80841,1,0,0:0:0:0:
64,192,80841,1,0,0:0:0:0:
64,192,80925,1,0,0:0:0:0:
192,192,80925,1,0,0:0:0:0:
448,192,80925,1,0,0:0:0:0:
320,192,80925,1,0,0:0:0:0:
320,192,81008,1,0,0:0:0:0:
448,192,81008,1,0,0:0:0:0:
64,192,81091,1,0,0:0:0:0:
192,192,81091,1,0,0:0:0:0:
320,192,81091,1,0,0:0:0:0:
448,192,81091,1,0,0:0:0:0:
64,192,81175,1,0,0:0:0:0:
192,192,81175,1,0,0:0:0:0:
320,192,81175,1,0,0:0:0:0:
192,192,81258,1,0,0:0:0:0:
320,192,81258,1,0,0:0:0:0:
448,192,81258,1,0,0:0:0:0:
64,192,81258,1,0,0:0:0:0:
192,192,81341,1,0,0:0:0:0:
64,192,81341,1,0,0:0:0:0:
448,192,81341,1,0,0:0:0:0:
448,192,81425,1,0,0:0:0:0:
64,192,81425,1,0,0:0:0:0:
192,192,81425,1,0,0:0:0:0:
320,192,81425,1,0,0:0:0:0:
64,192,81508,1,0,0:0:0:0:
192,192,81508,1,0,0:0:0:0:
320,192,81508,1,0,0:0:0:0:
448,192,81508,1,0,0:0:0:0:
64,192,81591,1,0,0:0:0:0:
192,192,81591,1,0,0:0:0:0:
320,192,81591,1,0,0:0:0:0:
448,192,81591,1,0,0:0:0:0:
64,192,81675,1,0,0:0:0:0:
192,192,81675,1,0,0:0:0:0:
320,192,81675,1,0,0:0:0:0:
448,192,81675,1,0,0:0:0:0:
64,192,81758,1,0,0:0:0:0:
192,192,81758,1,0,0:0:0:0:
320,192,81758,1,0,0:0:0:0:
448,192,81758,1,0,0:0:0:0:
448,192,81841,1,0,0:0:0:0:
320,192,81841,1,0,0:0:0:0:
64,192,81841,1,0,0:0:0:0:
192,192,81925,1,0,0:0:0:0:
320,192,81925,1,0,0:0:0:0:
448,192,81925,1,0,0:0:0:0:
192,192,82008,1,0,0:0:0:0:
64,192,82008,1,0,0:0:0:0:
320,192,82008,1,0,0:0:0:0:
64,192,82091,1,0,0:0:0:0:
192,192,82091,1,0,0:0:0:0:
448,192,82091,1,0,0:0:0:0:
320,192,82091,1,0,0:0:0:0:
192,192,82175,1,0,0:0:0:0:
64,192,82175,1,0,0:0:0:0:
448,192,82175,1,0,0:0:0:0:
64,192,82258,1,0,0:0:0:0:
192,192,82258,1,0,0:0:0:0:
320,192,82258,1,0,0:0:0:0:
64,192,82341,1,0,0:0:0:0:
320,192,82341,1,0,0:0:0:0:
448,192,82341,1,0,0:0:0:0:
64,192,82425,1,0,0:0:0:0:
192,192,82425,1,0,0:0:0:0:
320,192,82425,1,0,0:0:0:0:
448,192,82425,1,0,0:0:0:0:
192,192,82508,1,0,0:0:0:0:
320,192,82508,1,0,0:0:0:0:
448,192,82508,1,0,0:0:0:0:
64,192,82591,1,0,0:0:0:0:
192,192,82591,1,0,0:0:0:0:
448,192,82591,1,0,0:0:0:0:
320,192,82675,1,0,0:0:0:0:
448,192,82675,1,0,0:0:0:0:
64,192,82675,1,0,0:0:0:0:
64,192,82758,1,0,0:0:0:0:
192,192,82758,1,0,0:0:0:0:
320,192,82758,1,0,0:0:0:0:
448,192,82758,1,0,0:0:0:0:
320,192,82841,1,0,0:0:0:0:
192,192,82841,1,0,0:0:0:0:
64,192,82841,1,0,0:0:0:0:
64,192,82925,1,0,0:0:0:0:
320,192,82925,1,0,0:0:0:0:
448,192,82925,1,0,0:0:0:0:
192,192,82925,1,0,0:0:0:0:
192,192,83008,1,0,0:0:0:0:
320,192,83008,1,0,0:0:0:0:
448,192,83008,1,0,0:0:0:0:
64,192,83091,1,0,0:0:0:0:
192,192,83091,1,0,0:0:0:0:
320,192,83091,1,0,0:0:0:0:
448,192,83091,1,0,0:0:0:0:
192,192,83175,1,0,0:0:0:0:
64,192,83175,1,0,0:0:0:0:
448,192,83175,1,0,0:0:0:0:
64,192,83258,1,0,0:0:0:0:
192,192,83258,1,0,0:0:0:0:
320,192,83258,1,0,0:0:0:0:
320,192,83341,1,0,0:0:0:0:
448,192,83341,1,0,0:0:0:0:
64,192,83425,1,0,0:0:0:0:
192,192,83425,1,0,0:0:0:0:
320,192,83425,1,0,0:0:0:0:
448,192,83425,1,0,0:0:0:0:
64,192,83508,1,0,0:0:0:0:
448,192,83508,1,0,0:0:0:0:
320,192,83508,1,0,0:0:0:0:
192,192,83591,1,0,0:0:0:0:
64,192,83591,1,0,0:0:0:0:
320,192,83591,1,0,0:0:0:0:
192,192,83675,1,0,0:0:0:0:
448,192,83675,1,0,0:0:0:0:
192,192,83758,1,0,0:0:0:0:
320,192,83758,1,0,0:0:0:0:
448,192,83758,1,0,0:0:0:0:
64,192,83758,1,0,0:0:0:0:
320,192,83841,1,0,0:0:0:0:
448,192,83841,1,0,0:0:0:0:
64,192,83841,1,0,0:0:0:0:
192,192,83925,1,0,0:0:0:0:
320,192,83925,1,0,0:0:0:0:
448,192,83925,1,0,0:0:0:0:
320,192,84008,1,0,0:0:0:0:
448,192,84008,1,0,0:0:0:0:
64,192,84008,1,0,0:0:0:0:
192,192,84091,1,0,0:0:0:0:
64,192,84091,1,0,0:0:0:0:
448,192,84091,1,0,0:0:0:0:
192,192,84175,1,0,0:0:0:0:
64,192,84175,1,0,0:0:0:0:
320,192,84175,1,0,0:0:0:0:
192,192,84258,1,0,0:0:0:0:
320,192,84258,1,0,0:0:0:0:
448,192,84258,1,0,0:0:0:0:
64,192,84258,1,0,0:0:0:0:
320,192,84341,1,0,0:0:0:0:
448,192,84341,1,0,0:0:0:0:
192,192,84341,1,0,0:0:0:0:
64,192,84425,1,0,0:0:0:0:
192,192,84425,1,0,0:0:0:0:
448,192,84425,1,0,0:0:0:0:
320,192,84425,1,0,0:0:0:0:
64,192,84508,1,0,0:0:0:0:
320,192,84508,1,0,0:0:0:0:
448,192,84508,1,0,0:0:0:0:
192,192,84591,1,0,0:0:0:0:
64,192,84591,1,0,0:0:0:0:
448,192,84591,1,0,0:0:0:0:
320,192,84675,1,0,0:0:0:0:
448,192,84675,1,0,0:0:0:0:
64,192,84675,1,0,0:0:0:0:
64,192,84758,1,0,0:0:0:0:
192,192,84758,1,0,0:0:0:0:
320,192,84758,1,0,0:0:0:0:
448,192,84758,1,0,0:0:0:0:
192,192,84841,1,0,0:0:0:0:
320,192,84841,1,0,0:0:0:0:
448,192,84841,1,0,0:0:0:0:
192,192,84925,1,0,0:0:0:0:
320,192,84925,1,0,0:0:0:0:
64,192,84925,1,0,0:0:0:0:
192,192,85008,1,0,0:0:0:0:
320,192,85008,1,0,0:0:0:0:
448,192,85008,1,0,0:0:0:0:
64,192,85091,1,0,0:0:0:0:
192,192,85091,1,0,0:0:0:0:
320,192,85091,1,0,0:0:0:0:
448,192,85091,1,0,0:0:0:0:
192,192,85175,1,0,0:0:0:0:
64,192,85175,1,0,0:0:0:0:
448,192,85175,1,0,0:0:0:0:
192,192,85258,1,0,0:0:0:0:
64,192,85258,1,0,0:0:0:0:
320,192,85258,1,0,0:0:0:0:
192,192,85341,1,0,0:0:0:0:
64,192,85341,1,0,0:0:0:0:
448,192,85341,1,0,0:0:0:0:
64,192,85425,1,0,0:0:0:0:
320,192,85425,1,0,0:0:0:0:
448,192,85425,1,0,0:0:0:0:
192,192,85425,1,0,0:0:0:0:
320,192,85508,1,0,0:0:0:0:
448,192,85508,1,0,0:0:0:0:
64,192,85508,1,0,0:0:0:0:
192,192,85591,1,0,0:0:0:0:
64,192,85591,1,0,0:0:0:0:
448,192,85591,1,0,0:0:0:0:
320,192,85591,1,0,0:0:0:0:
192,192,85675,1,0,0:0:0:0:
320,192,85675,1,0,0:0:0:0:
448,192,85675,1,0,0:0:0:0:
64,192,85758,1,0,0:0:0:0:
320,192,85758,1,0,0:0:0:0:
448,192,85758,1,0,0:0:0:0:
192,192,85758,1,0,0:0:0:0:
64,192,85841,1,0,0:0:0:0:
192,192,85841,1,0,0:0:0:0:
320,192,85841,1,0,0:0:0:0:
448,192,85841,1,0,0:0:0:0:
192,192,85925,1,0,0:0:0:0:
64,192,85925,1,0,0:0:0:0:
320,192,85925,1,0,0:0:0:0:
192,192,86008,1,0,0:0:0:0:
64,192,86008,1,0,0:0:0:0:
448,192,86008,1,0,0:0:0:0:
64,192,86091,1,0,0:0:0:0:
320,192,86091,1,0,0:0:0:0:
448,192,86091,1,0,0:0:0:0:
192,192,86091,1,0,0:0:0:0:
64,192,86175,1,0,0:0:0:0:
192,192,86175,1,0,0:0:0:0:
320,192,86175,1,0,0:0:0:0:
448,192,86175,1,0,0:0:0:0:
320,192,86258,1,0,0:0:0:0:
448,192,86258,1,0,0:0:0:0:
64,192,86258,1,0,0:0:0:0:
192,192,86341,1,0,0:0:0:0:
320,192,86341,1,0,0:0:0:0:
448,192,86341,1,0,0:0:0:0:
64,192,86425,1,0,0:0:0:0:
320,192,86425,1,0,0:0:0:0:
448,192,86425,1,0,0:0:0:0:
192,192,86425,1,0,0:0:0:0:
64,192,86508,1,0,0:0:0:0:
192,192,86508,1,0,0:0:0:0:
320,192,86508,1,0,0:0:0:0:
64,192,86591,1,0,0:0:0:0:
192,192,86591,1,0,0:0:0:0:
448,192,86591,1,0,0:0:0:0:
320,192,86591,1,0,0:0:0:0:
320,192,86675,1,0,0:0:0:0:
448,192,86675,1,0,0:0:0:0:
64,192,86675,1,0,0:0:0:0:
64,192,86758,1,0,0:0:0:0:
192,192,86758,1,0,0:0:0:0:
320,192,86758,1,0,0:0:0:0:
448,192,86758,1,0,0:0:0:0:
192,192,86841,1,0,0:0:0:0:
64,192,86841,1,0,0:0:0:0:
448,192,86841,1,0,0:0:0:0:
320,192,86841,1,0,0:0:0:0:
192,192,86925,1,0,0:0:0:0:
320,192,86925,1,0,0:0:0:0:
448,192,86925,1,0,0:0:0:0:
64,192,87008,1,0,0:0:0:0:
192,192,87008,1,0,0:0:0:0:
320,192,87008,1,0,0:0:0:0:
448,192,87008,1,0,0:0:0:0:
64,192,87091,1,0,0:0:0:0:
192,192,87091,1,0,0:0:0:0:
320,192,87091,1,0,0:0:0:0:
448,192,87091,1,0,0:0:0:0:
192,192,87175,1,0,0:0:0:0:
64,192,87175,1,0,0:0:0:0:
448,192,87175,1,0,0:0:0:0:
192,192,87258,1,0,0:0:0:0:
64,192,87258,1,0,0:0:0:0:
320,192,87258,1,0,0:0:0:0:
64,192,87341,1,0,0:0:0:0:
320,192,87341,1,0,0:0:0:0:
448,192,87341,1,0,0:0:0:0:
64,192,87425,1,0,0:0:0:0:
320,192,87425,1,0,0:0:0:0:
448,192,87425,1,0,0:0:0:0:
192,192,87425,1,0,0:0:0:0:
192,192,87508,1,0,0:0:0:0:
320,192,87508,1,0,0:0:0:0:
448,192,87508,1,0,0:0:0:0:
192,192,87591,1,0,0:0:0:0:
64,192,87591,1,0,0:0:0:0:
320,192,87591,1,0,0:0:0:0:
192,192,87675,1,0,0:0:0:0:
64,192,87675,1,0,0:0:0:0:
448,192,87675,1,0,0:0:0:0:
64,192,87758,1,0,0:0:0:0:
320,192,87758,1,0,0:0:0:0:
448,192,87758,1,0,0:0:0:0:
192,192,87758,1,0,0:0:0:0:
320,192,87841,1,0,0:0:0:0:
448,192,87841,1,0,0:0:0:0:
192,192,87841,1,0,0:0:0:0:
64,192,87925,1,0,0:0:0:0:
320,192,87925,1,0,0:0:0:0:
448,192,87925,1,0,0:0:0:0:
64,192,88008,1,0,0:0:0:0:
192,192,88008,1,0,0:0:0:0:
320,192,88008,1,0,0:0:0:0:
64,192,88091,1,0,0:0:0:0:
192,192,88091,1,0,0:0:0:0:
320,192,88091,1,0,0:0:0:0:
448,192,88091,1,0,0:0:0:0:
192,192,88175,1,0,0:0:0:0:
64,192,88175,1,0,0:0:0:0:
448,192,88175,1,0,0:0:0:0:
320,192,88258,1,0,0:0:0:0:
64,192,88258,1,0,0:0:0:0:
448,192,88258,1,0,0:0:0:0:
192,192,88258,1,0,0:0:0:0:
192,192,88341,1,0,0:0:0:0:
320,192,88341,1,0,0:0:0:0:
448,192,88341,1,0,0:0:0:0:
64,192,88425,1,0,0:0:0:0:
192,192,88425,1,0,0:0:0:0:
320,192,88425,1,0,0:0:0:0:
448,192,88425,1,0,0:0:0:0:
64,192,88508,1,0,0:0:0:0:
320,192,88508,1,0,0:0:0:0:
192,192,88591,1,0,0:0:0:0:
64,192,88591,1,0,0:0:0:0:
448,192,88591,1,0,0:0:0:0:
320,192,88675,1,0,0:0:0:0:
448,192,88675,1,0,0:0:0:0:
192,192,88675,1,0,0:0:0:0:
64,192,88758,1,0,0:0:0:0:
192,192,88758,1,0,0:0:0:0:
320,192,88758,1,0,0:0:0:0:
448,192,88758,1,0,0:0:0:0:
448,192,88841,1,0,0:0:0:0:
64,192,88841,1,0,0:0:0:0:
320,192,88925,1,0,0:0:0:0:
192,192,88925,1,0,0:0:0:0:
64,192,88925,1,0,0:0:0:0:
192,192,89008,1,0,0:0:0:0:
320,192,89008,1,0,0:0:0:0:
448,192,89008,1,0,0:0:0:0:
64,192,89091,1,0,0:0:0:0:
192,192,89091,1,0,0:0:0:0:
320,192,89091,1,0,0:0:0:0:
448,192,89091,1,0,0:0:0:0:
64,192,89175,1,0,0:0:0:0:
192,192,89175,1,0,0:0:0:0:
448,192,89175,1,0,0:0:0:0:
64,192,89258,1,0,0:0:0:0:
192,192,89258,1,0,0:0:0:0:
320,192,89258,1,0,0:0:0:0:
448,192,89258,1,0,0:0:0:0:
320,192,89341,1,0,0:0:0:0:
448,192,89341,1,0,0:0:0:0:
64,192,89341,1,0,0:0:0:0:
64,192,89425,1,0,0:0:0:0:
192,192,89425,1,0,0:0:0:0:
320,192,89425,1,0,0:0:0:0:
448,192,89425,1,0,0:0:0:0:
192,192,89508,1,0,0:0:0:0:
320,192,89508,1,0,0:0:0:0:
448,192,89508,1,0,0:0:0:0:
192,192,89591,1,0,0:0:0:0:
64,192,89591,1,0,0:0:0:0:
320,192,89591,1,0,0:0:0:0:
448,192,89591,1,0,0:0:0:0:
192,192,89675,1,0,0:0:0:0:
64,192,89675,1,0,0:0:0:0:
320,192,89675,1,0,0:0:0:0:
192,192,89758,1,0,0:0:0:0:
64,192,89758,1,0,0:0:0:0:
320,192,89758,1,0,0:0:0:0:
448,192,89758,1,0,0:0:0:0:
64,192,89841,1,0,0:0:0:0:
448,192,89841,1,0,0:0:0:0:
64,192,89925,1,0,0:0:0:0:
192,192,89925,1,0,0:0:0:0:
320,192,89925,1,0,0:0:0:0:
448,192,89925,1,0,0:0:0:0:
192,192,90008,1,0,0:0:0:0:
320,192,90008,1,0,0:0:0:0:
64,192,90091,1,0,0:0:0:0:
192,192,90091,1,0,0:0:0:0:
320,192,90091,1,0,0:0:0:0:
448,192,90091,1,0,0:0:0:0:
448,192,90175,1,0,0:0:0:0:
320,192,90175,1,0,0:0:0:0:
64,192,90258,1,0,0:0:0:0:
192,192,90258,1,0,0:0:0:0:
320,192,90258,1,0,0:0:0:0:
448,192,90258,1,0,0:0:0:0:
192,192,90341,1,0,0:0:0:0:
64,192,90341,1,0,0:0:0:0:
64,192,90425,1,0,0:0:0:0:
192,192,90425,1,0,0:0:0:0:
320,192,90425,1,0,0:0:0:0:
448,192,90425,1,0,0:0:0:0:
64,192,90508,1,0,0:0:0:0:
192,192,90508,1,0,0:0:0:0:
448,192,90508,1,0,0:0:0:0:
320,192,90591,1,0,0:0:0:0:
448,192,90591,1,0,0:0:0:0:
192,192,90591,1,0,0:0:0:0:
64,192,90675,1,0,0:0:0:0:
192,192,90675,1,0,0:0:0:0:
320,192,90675,1,0,0:0:0:0:
448,192,90675,1,0,0:0:0:0:
320,192,90758,1,0,0:0:0:0:
448,192,90758,1,0,0:0:0:0:
64,192,90758,1,0,0:0:0:0:
192,192,90841,1,0,0:0:0:0:
64,192,90841,1,0,0:0:0:0:
320,192,90841,1,0,0:0:0:0:
64,192,90925,1,0,0:0:0:0:
192,192,90925,1,0,0:0:0:0:
320,192,90925,1,0,0:0:0:0:
448,192,90925,1,0,0:0:0:0:
192,192,91008,1,0,0:0:0:0:
320,192,91008,1,0,0:0:0:0:
448,192,91008,1,0,0:0:0:0:
64,192,91091,1,0,0:0:0:0:
192,192,91091,1,0,0:0:0:0:
320,192,91091,1,0,0:0:0:0:
448,192,91091,1,0,0:0:0:0:
192,192,91175,1,0,0:0:0:0:
64,192,91175,1,0,0:0:0:0:
320,192,91258,1,0,0:0:0:0:
448,192,91258,1,0,0:0:0:0:
192,192,91258,1,0,0:0:0:0:
64,192,91258,1,0,0:0:0:0:
64,192,91341,1,0,0:0:0:0:
320,192,91341,1,0,0:0:0:0:
448,192,91341,1,0,0:0:0:0:
64,192,91425,1,0,0:0:0:0:
192,192,91425,1,0,0:0:0:0:
448,192,91425,1,0,0:0:0:0:
320,192,91425,1,0,0:0:0:0:
192,192,91508,1,0,0:0:0:0:
448,192,91508,1,0,0:0:0:0:
192,192,91591,1,0,0:0:0:0:
64,192,91591,1,0,0:0:0:0:
320,192,91591,1,0,0:0:0:0:
448,192,91591,1,0,0:0:0:0:
320,192,91675,1,0,0:0:0:0:
192,192,91675,1,0,0:0:0:0:
64,192,91675,1,0,0:0:0:0:
64,192,91758,1,0,0:0:0:0:
320,192,91758,1,0,0:0:0:0:
448,192,91758,1,0,0:0:0:0:
192,192,91758,1,0,0:0:0:0:
320,192,91841,1,0,0:0:0:0:
448,192,91841,1,0,0:0:0:0:
64,192,91841,1,0,0:0:0:0:
192,192,91925,1,0,0:0:0:0:
320,192,91925,1,0,0:0:0:0:
448,192,91925,1,0,0:0:0:0:
192,192,92008,1,0,0:0:0:0:
64,192,92008,1,0,0:0:0:0:
448,192,92008,1,0,0:0:0:0:
64,192,92091,1,0,0:0:0:0:
192,192,92091,1,0,0:0:0:0:
320,192,92091,1,0,0:0:0:0:
448,192,92091,1,0,0:0:0:0:
320,192,92175,1,0,0:0:0:0:
192,192,92175,1,0,0:0:0:0:
64,192,92175,1,0,0:0:0:0:
64,192,92258,1,0,0:0:0:0:
192,192,92258,1,0,0:0:0:0:
448,192,92258,1,0,0:0:0:0:
320,192,92258,1,0,0:0:0:0:
320,192,92341,1,0,0:0:0:0:
448,192,92341,1,0,0:0:0:0:
64,192,92341,1,0,0:0:0:0:
192,192,92425,1,0,0:0:0:0:
64,192,92425,1,0,0:0:0:0:
320,192,92425,1,0,0:0:0:0:
448,192,92425,1,0,0:0:0:0:
192,192,92508,1,0,0:0:0:0:
320,192,92508,1,0,0:0:0:0:
64,192,92591,1,0,0:0:0:0:
320,192,92591,1,0,0:0:0:0:
192,192,92591,1,0,0:0:0:0:
448,192,92591,1,0,0:0:0:0:
64,192,92675,1,0,0:0:0:0:
192,192,92675,1,0,0:0:0:0:
192,192,92758,1,0,0:0:0:0:
64,192,92758,1,0,0:0:0:0:
320,192,92758,1,0,0:0:0:0:
448,192,92758,1,0,0:0:0:0:
64,192,92841,1,0,0:0:0:0:
320,192,92841,1,0,0:0:0:0:
64,192,92925,1,0,0:0:0:0:
192,192,92925,1,0,0:0:0:0:
320,192,92925,1,0,0:0:0:0:
448,192,92925,1,0,0:0:0:0:
320,192,93008,1,0,0:0:0:0:
448,192,93008,1,0,0:0:0:0:
64,192,93091,1,0,0:0:0:0:
192,192,93091,1,0,0:0:0:0:
448,192,93091,1,0,0:0:0:0:
320,192,93091,1,0,0:0:0:0:
192,192,93175,1,0,0:0:0:0:
448,192,93175,1,0,0:0:0:0:
64,192,93258,1,0,0:0:0:0:
320,192,93258,1,0,0:0:0:0:
448,192,93258,1,0,0:0:0:0:
192,192,93258,1,0,0:0:0:0:
192,192,93341,1,0,0:0:0:0:
320,192,93341,1,0,0:0:0:0:
64,192,93425,1,0,0:0:0:0:
192,192,93425,1,0,0:0:0:0:
448,192,93425,1,0,0:0:0:0:
320,192,93425,1,0,0:0:0:0:
64,192,93508,1,0,0:0:0:0:
448,192,93508,1,0,0:0:0:0:
64,192,93591,1,0,0:0:0:0:
192,192,93591,1,0,0:0:0:0:
320,192,93591,1,0,0:0:0:0:
448,192,93591,1,0,0:0:0:0:
64,192,93675,1,0,0:0:0:0:
320,192,93675,1,0,0:0:0:0:
64,192,93758,1,0,0:0:0:0:
320,192,93758,1,0,0:0:0:0:
192,192,93758,1,0,0:0:0:0:
448,192,93758,1,0,0:0:0:0:
192,192,93841,1,0,0:0:0:0:
320,192,93841,1,0,0:0:0:0:
448,192,93841,1,0,0:0:0:0:
64,192,93925,1,0,0:0:0:0:
192,192,93925,1,0,0:0:0:0:
448,192,93925,1,0,0:0:0:0:
64,192,94008,1,0,0:0:0:0:
320,192,94008,1,0,0:0:0:0:
448,192,94008,1,0,0:0:0:0:
64,192,94091,1,0,0:0:0:0:
192,192,94091,1,0,0:0:0:0:
320,192,94091,1,0,0:0:0:0:
448,192,94091,1,0,0:0:0:0:
192,192,94175,1,0,0:0:0:0:
64,192,94175,1,0,0:0:0:0:
320,192,94175,1,0,0:0:0:0:
192,192,94258,1,0,0:0:0:0:
320,192,94258,1,0,0:0:0:0:
448,192,94258,1,0,0:0:0:0:
64,192,94341,1,0,0:0:0:0:
192,192,94341,1,0,0:0:0:0:
448,192,94341,1,0,0:0:0:0:
64,192,94425,1,0,0:0:0:0:
192,192,94425,1,0,0:0:0:0:
320,192,94425,1,0,0:0:0:0:
448,192,94425,1,0,0:0:0:0:
320,192,94508,1,0,0:0:0:0:
448,192,94508,1,0,0:0:0:0:
64,192,94508,1,0,0:0:0:0:
192,192,94591,1,0,0:0:0:0:
448,192,94591,1,0,0:0:0:0:
320,192,94591,1,0,0:0:0:0:
64,192,94591,1,0,0:0:0:0:
192,192,94675,1,0,0:0:0:0:
64,192,94675,1,0,0:0:0:0:
320,192,94675,1,0,0:0:0:0:
64,192,94758,1,0,0:0:0:0:
192,192,94758,1,0,0:0:0:0:
320,192,94758,1,0,0:0:0:0:
448,192,94758,1,0,0:0:0:0:
448,192,94841,1,0,0:0:0:0:
320,192,94841,1,0,0:0:0:0:
192,192,94841,1,0,0:0:0:0:
64,192,94841,1,0,0:0:0:0:
64,192,94925,1,0,0:0:0:0:
448,192,94925,1,0,0:0:0:0:
320,192,94925,1,0,0:0:0:0:
192,192,94925,1,0,0:0:0:0:
64,192,95008,1,0,0:0:0:0:
192,192,95008,1,0,0:0:0:0:
320,192,95008,1,0,0:0:0:0:
448,192,95008,1,0,0:0:0:0:
192,192,95091,5,0,0:0:0:0:
64,192,95091,1,0,0:0:0:0:
448,192,95091,1,0,0:0:0:0:
320,192,95091,1,0,0:0:0:0:
192,192,95175,1,0,0:0:0:0:
448,192,95175,1,0,0:0:0:0:
320,192,95258,1,0,0:0:0:0:
192,192,95258,1,0,0:0:0:0:
448,192,95341,1,0,0:0:0:0:
64,192,95341,1,0,0:0:0:0:
320,192,95425,1,0,0:0:0:0:
192,192,95425,1,0,0:0:0:0:
448,192,95425,1,0,0:0:0:0:
320,192,95508,1,0,0:0:0:0:
64,192,95508,1,0,0:0:0:0:
192,192,95591,1,0,0:0:0:0:
448,192,95591,1,0,0:0:0:0:
320,192,95675,1,0,0:0:0:0:
64,192,95675,1,0,0:0:0:0:
192,192,95758,1,0,0:0:0:0:
64,192,95758,1,0,0:0:0:0:
448,192,95758,1,0,0:0:0:0:
192,192,95841,1,0,0:0:0:0:
64,192,95841,1,0,0:0:0:0:
320,192,95925,1,0,0:0:0:0:
448,192,95925,1,0,0:0:0:0:
192,192,96008,1,0,0:0:0:0:
448,192,96008,1,0,0:0:0:0:
192,192,96091,1,0,0:0:0:0:
64,192,96091,1,0,0:0:0:0:
320,192,96091,1,0,0:0:0:0:
320,192,96175,1,0,0:0:0:0:
64,192,96175,1,0,0:0:0:0:
448,192,96258,1,0,0:0:0:0:
192,192,96258,1,0,0:0:0:0:
64,192,96341,1,0,0:0:0:0:
320,192,96341,1,0,0:0:0:0:
320,192,96425,1,0,0:0:0:0:
448,192,96425,1,0,0:0:0:0:
64,192,96425,1,0,0:0:0:0:
320,192,96508,1,0,0:0:0:0:
448,192,96508,1,0,0:0:0:0:
192,192,96508,1,0,0:0:0:0:
64,192,96591,1,0,0:0:0:0:
192,192,96591,1,0,0:0:0:0:
320,192,96675,1,0,0:0:0:0:
448,192,96675,1,0,0:0:0:0:
192,192,96758,1,0,0:0:0:0:
64,192,96758,1,0,0:0:0:0:
320,192,96758,1,0,0:0:0:0:
448,192,96841,1,0,0:0:0:0:
64,192,96841,1,0,0:0:0:0:
320,192,96925,1,0,0:0:0:0:
192,192,96925,1,0,0:0:0:0:
320,192,97008,1,0,0:0:0:0:
64,192,97008,1,0,0:0:0:0:
448,192,97091,1,0,0:0:0:0:
192,192,97091,1,0,0:0:0:0:
64,192,97091,1,0,0:0:0:0:
320,192,97175,1,0,0:0:0:0:
192,192,97175,1,0,0:0:0:0:
448,192,97258,1,0,0:0:0:0:
64,192,97258,1,0,0:0:0:0:
192,192,97341,1,0,0:0:0:0:
320,192,97341,1,0,0:0:0:0:
320,192,97425,1,0,0:0:0:0:
448,192,97425,1,0,0:0:0:0:
64,192,97425,1,0,0:0:0:0:
448,192,97508,1,0,0:0:0:0:
64,192,97508,1,0,0:0:0:0:
320,192,97591,1,0,0:0:0:0:
192,192,97591,1,0,0:0:0:0:
320,192,97675,1,0,0:0:0:0:
192,192,97675,1,0,0:0:0:0:
192,192,97758,1,0,0:0:0:0:
64,192,97758,1,0,0:0:0:0:
448,192,97758,1,0,0:0:0:0:
320,192,97841,1,0,0:0:0:0:
448,192,97841,1,0,0:0:0:0:
192,192,97925,1,0,0:0:0:0:
64,192,97925,1,0,0:0:0:0:
192,192,98008,1,0,0:0:0:0:
64,192,98008,1,0,0:0:0:0:
448,192,98091,1,0,0:0:0:0:
320,192,98091,1,0,0:0:0:0:
192,192,98091,1,0,0:0:0:0:
320,192,98175,1,0,0:0:0:0:
64,192,98175,1,0,0:0:0:0:
448,192,98258,1,0,0:0:0:0:
192,192,98258,1,0,0:0:0:0:
320,192,98341,1,0,0:0:0:0:
448,192,98341,1,0,0:0:0:0:
448,192,98425,1,0,0:0:0:0:
320,192,98425,1,0,0:0:0:0:
64,192,98425,1,0,0:0:0:0:
192,192,98508,1,0,0:0:0:0:
64,192,98508,1,0,0:0:0:0:
320,192,98591,1,0,0:0:0:0:
192,192,98591,1,0,0:0:0:0:
320,192,98675,1,0,0:0:0:0:
448,192,98675,1,0,0:0:0:0:
192,192,98758,1,0,0:0:0:0:
64,192,98758,1,0,0:0:0:0:
448,192,98758,1,0,0:0:0:0:
320,192,98841,1,0,0:0:0:0:
192,192,98841,1,0,0:0:0:0:
192,192,98925,1,0,0:0:0:0:
64,192,98925,1,0,0:0:0:0:
448,192,99008,1,0,0:0:0:0:
320,192,99008,1,0,0:0:0:0:
320,192,99091,1,0,0:0:0:0:
448,192,99091,1,0,0:0:0:0:
192,192,99091,1,0,0:0:0:0:
320,192,99175,1,0,0:0:0:0:
192,192,99175,1,0,0:0:0:0:
448,192,99258,1,0,0:0:0:0:
64,192,99258,1,0,0:0:0:0:
320,192,99341,1,0,0:0:0:0:
192,192,99341,1,0,0:0:0:0:
192,192,99425,1,0,0:0:0:0:
64,192,99425,1,0,0:0:0:0:
448,192,99425,1,0,0:0:0:0:
320,192,99508,1,0,0:0:0:0:
64,192,99508,1,0,0:0:0:0:
320,192,99591,1,0,0:0:0:0:
192,192,99591,1,0,0:0:0:0:
448,192,99675,1,0,0:0:0:0:
64,192,99675,1,0,0:0:0:0:
320,192,99758,1,0,0:0:0:0:
448,192,99758,1,0,0:0:0:0:
192,192,99758,1,0,0:0:0:0:
320,192,99841,1,0,0:0:0:0:
192,192,99841,1,0,0:0:0:0:
320,192,99925,1,0,0:0:0:0:
64,192,99925,1,0,0:0:0:0:
448,192,100008,1,0,0:0:0:0:
192,192,100008,1,0,0:0:0:0:
320,192,100091,1,0,0:0:0:0:
448,192,100091,1,0,0:0:0:0:
64,192,100091,1,0,0:0:0:0:
320,192,100175,1,0,0:0:0:0:
64,192,100175,1,0,0:0:0:0:
192,192,100258,1,0,0:0:0:0:
448,192,100258,1,0,0:0:0:0:
320,192,100341,1,0,0:0:0:0:
64,192,100341,1,0,0:0:0:0:
192,192,100425,1,0,0:0:0:0:
320,192,100425,1,0,0:0:0:0:
448,192,100425,1,0,0:0:0:0:
192,192,100508,1,0,0:0:0:0:
64,192,100508,1,0,0:0:0:0:
64,192,100591,1,0,0:0:0:0:
448,192,100591,1,0,0:0:0:0:
320,192,100675,1,0,0:0:0:0:
192,192,100675,1,0,0:0:0:0:
192,192,100758,1,0,0:0:0:0:
64,192,100758,1,0,0:0:0:0:
448,192,100758,1,0,0:0:0:0:
320,192,100841,1,0,0:0:0:0:
192,192,100841,1,0,0:0:0:0:
448,192,100925,1,0,0:0:0:0:
64,192,100925,1,0,0:0:0:0:
320,192,101008,1,0,0:0:0:0:
64,192,101008,1,0,0:0:0:0:
192,192,101091,1,0,0:0:0:0:
320,192,101091,1,0,0:0:0:0:
448,192,101091,1,0,0:0:0:0:
448,192,101175,1,0,0:0:0:0:
192,192,101175,1,0,0:0:0:0:
320,192,101258,1,0,0:0:0:0:
64,192,101258,1,0,0:0:0:0:
320,192,101341,1,0,0:0:0:0:
64,192,101341,1,0,0:0:0:0:
192,192,101425,1,0,0:0:0:0:
64,192,101425,1,0,0:0:0:0:
448,192,101425,1,0,0:0:0:0:
320,192,101508,1,0,0:0:0:0:
192,192,101508,1,0,0:0:0:0:
320,192,101591,1,0,0:0:0:0:
448,192,101591,1,0,0:0:0:0:
192,192,101675,1,0,0:0:0:0:
64,192,101675,1,0,0:0:0:0:
320,192,101758,1,0,0:0:0:0:
448,192,101758,1,0,0:0:0:0:
64,192,101758,1,0,0:0:0:0:
448,192,101841,1,0,0:0:0:0:
192,192,101841,1,0,0:0:0:0:
320,192,101925,1,0,0:0:0:0:
192,192,101925,1,0,0:0:0:0:
64,192,102008,1,0,0:0:0:0:
448,192,102008,1,0,0:0:0:0:
320,192,102091,1,0,0:0:0:0:
448,192,102091,1,0,0:0:0:0:
192,192,102091,1,0,0:0:0:0:
64,192,102175,1,0,0:0:0:0:
320,192,102175,1,0,0:0:0:0:
192,192,102258,1,0,0:0:0:0:
448,192,102258,1,0,0:0:0:0:
320,192,102341,1,0,0:0:0:0:
64,192,102341,1,0,0:0:0:0:
448,192,102425,1,0,0:0:0:0:
192,192,102425,1,0,0:0:0:0:
64,192,102425,1,0,0:0:0:0:
192,192,102508,1,0,0:0:0:0:
64,192,102508,1,0,0:0:0:0:
320,192,102591,1,0,0:0:0:0:
448,192,102591,1,0,0:0:0:0:
448,192,102675,1,0,0:0:0:0:
64,192,102675,1,0,0:0:0:0:
320,192,102758,1,0,0:0:0:0:
192,192,102758,1,0,0:0:0:0:
64,192,102758,1,0,0:0:0:0:
320,192,102841,1,0,0:0:0:0:
192,192,102841,1,0,0:0:0:0:
448,192,102925,1,0,0:0:0:0:
64,192,102925,1,0,0:0:0:0:
448,192,103008,1,0,0:0:0:0:
64,192,103008,1,0,0:0:0:0:
192,192,103091,1,0,0:0:0:0:
320,192,103091,1,0,0:0:0:0:
448,192,103091,1,0,0:0:0:0:
320,192,103175,1,0,0:0:0:0:
64,192,103175,1,0,0:0:0:0:
192,192,103258,1,0,0:0:0:0:
64,192,103258,1,0,0:0:0:0:
192,192,103341,1,0,0:0:0:0:
448,192,103341,1,0,0:0:0:0:
320,192,103425,1,0,0:0:0:0:
448,192,103425,1,0,0:0:0:0:
64,192,103425,1,0,0:0:0:0:
320,192,103508,1,0,0:0:0:0:
64,192,103508,1,0,0:0:0:0:
192,192,103591,1,0,0:0:0:0:
320,192,103591,1,0,0:0:0:0:
448,192,103675,1,0,0:0:0:0:
64,192,103675,1,0,0:0:0:0:
448,192,103758,1,0,0:0:0:0:
320,192,103758,1,0,0:0:0:0:
192,192,103758,1,0,0:0:0:0:
320,192,103841,1,0,0:0:0:0:
64,192,103841,1,0,0:0:0:0:
448,192,103925,1,0,0:0:0:0:
64,192,103925,1,0,0:0:0:0:
448,192,104008,1,0,0:0:0:0:
192,192,104008,1,0,0:0:0:0:
320,192,104091,1,0,0:0:0:0:
192,192,104091,1,0,0:0:0:0:
64,192,104091,1,0,0:0:0:0:
64,192,104175,1,0,0:0:0:0:
448,192,104175,1,0,0:0:0:0:
320,192,104258,1,0,0:0:0:0:
192,192,104258,1,0,0:0:0:0:
64,192,104341,1,0,0:0:0:0:
448,192,104341,1,0,0:0:0:0:
320,192,104425,1,0,0:0:0:0:
448,192,104425,1,0,0:0:0:0:
192,192,104425,1,0,0:0:0:0:
448,192,104508,1,0,0:0:0:0:
64,192,104508,1,0,0:0:0:0:
64,192,104591,1,0,0:0:0:0:
320,192,104591,1,0,0:0:0:0:
192,192,104675,1,0,0:0:0:0:
320,192,104675,1,0,0:0:0:0:
192,192,104758,1,0,0:0:0:0:
64,192,104758,1,0,0:0:0:0:
448,192,104758,1,0,0:0:0:0:
448,192,104841,1,0,0:0:0:0:
64,192,104841,1,0,0:0:0:0:
192,192,104925,1,0,0:0:0:0:
320,192,104925,1,0,0:0:0:0:
320,192,105008,1,0,0:0:0:0:
64,192,105008,1,0,0:0:0:0:
448,192,105091,1,0,0:0:0:0:
192,192,105091,1,0,0:0:0:0:
64,192,105091,1,0,0:0:0:0:
448,192,105175,1,0,0:0:0:0:
320,192,105175,1,0,0:0:0:0:
192,192,105258,1,0,0:0:0:0:
64,192,105258,1,0,0:0:0:0:
320,192,105341,1,0,0:0:0:0:
192,192,105341,1,0,0:0:0:0:
320,192,105425,1,0,0:0:0:0:
448,192,105425,1,0,0:0:0:0:
64,192,105425,1,0,0:0:0:0:
192,192,105508,1,0,0:0:0:0:
448,192,105508,1,0,0:0:0:0:
192,192,105591,1,0,0:0:0:0:
64,192,105591,1,0,0:0:0:0:
320,192,105591,1,0,0:0:0:0:
64,192,105675,1,0,0:0:0:0:
320,192,105675,1,0,0:0:0:0:
448,192,105675,1,0,0:0:0:0:
448,192,105758,1,0,0:0:0:0:
64,192,105758,1,0,0:0:0:0:
192,192,105758,1,0,0:0:0:0:
320,192,105758,1,0,0:0:0:0:
