osu file format v14

[General]
AudioFilename: audio.mp3
AudioLeadIn: 0
PreviewTime: 39371
Countdown: 0
SampleSet: Soft
StackLeniency: 0.7
Mode: 0
LetterboxInBreaks: 0
WidescreenStoryboard: 0

[Editor]
Bookmarks: 65288,68704,74038
DistanceSpacing: 0.5
BeatDivisor: 4
GridSize: 32
TimelineZoom: 2

[Metadata]
Title:Itsuka no Yume, Matane no Yakusoku.
TitleUnicode:いつかの夢、またねの約束。
Artist:TAKU1175 ft. Yoshiko
ArtistUnicode:TAKU1175 ft. 駄々子
Creator:domSaur
Version:Kujinn's Insane
Source:SOUND VOLTEX III GRAVITY WARS
Tags:sdvx The 5th KAC Original Song Contest Episode 24 ending theme picoltex konami bemani Kujinn Left -Kyu ShogunMoon
BeatmapID:1153510
BeatmapSetID:539473

[Difficulty]
HPDrainRate:6
CircleSize:4
OverallDifficulty:8
ApproachRate:9
SliderMultiplier:1.7
SliderTickRate:1

[Events]
//Background and Video events
0,0,"bg.png",0,0
//Break Periods
2,68927,73438
//Storyboard Layer 0 (Background)
//Storyboard Layer 1 (Fail)
//Storyboard Layer 2 (Pass)
//Storyboard Layer 3 (Foreground)
//Storyboard Sound Samples

[TimingPoints]
705,333.333333333333,4,2,1,60,1,0
705,-133.333333333333,4,2,1,35,0,0
3204,-133.333333333333,4,2,1,60,0,0
3371,-100,4,2,1,60,0,0
5871,-100,4,2,1,30,0,0
6038,-133.333333333333,4,2,1,60,0,0
8038,-100,4,2,1,60,0,0
8704,-133.333333333333,4,2,1,60,0,0
16704,-100,4,2,1,60,0,0
17038,-133.333333333333,4,2,1,60,0,0
26038,-100,4,2,1,60,0,0
26204,-133.333333333333,4,2,1,60,0,0
31371,-100,4,2,1,60,0,0
32704,-133.333333333333,4,2,1,60,0,0
38038,-100,4,2,1,50,0,0
39038,-76.9230769230769,4,2,1,60,0,0
39371,-100,4,2,1,65,0,1
49538,-100,4,2,1,65,0,0
49871,-100,4,2,1,65,0,1
58038,-100,4,2,1,60,0,0
74038,-133.333333333333,4,2,0,30,0,0
79204,-133.333333333333,4,2,1,30,0,0
80538,-100,4,2,1,60,0,0
83204,-142.857142857143,4,2,1,60,0,0
83704,-133.333333333333,4,2,1,60,0,0
85204,-100,4,2,1,60,0,0
86038,-100,4,2,1,60,0,1
93204,-100,4,2,1,60,0,0
93871,-100,4,2,1,60,0,1
100538,-100,4,2,1,60,0,1
108704,-100,4,2,1,60,0,0
110538,-142.857142857143,4,2,1,60,0,0
111371,-100,4,2,1,60,0,0
116038,-100,4,2,1,30,0,0

[Colours]
Combo1 : 64,159,255
Combo2 : 254,54,159
Combo3 : 164,255,255
Combo4 : 94,255,146

[HitObjects]
72,208,705,6,0,P|60:155|71:120,2,63.7500024318696
192,351,1204,2,0,L|327:321,1,127.500004863739
409,295,1704,1,0,0:0:0:0:
225,198,1871,2,0,P|203:147|239:81,1,127.500004863739,0|0,0:0|0:0,0:0:0:0:
289,148,2371,1,0,0:0:0:0:
102,146,2538,2,0,P|42:169|35:297,1,191.250007295609,0|0,0:0|0:0,0:0:0:0:
297,353,3204,5,8,0:0:0:0:
297,353,3288,1,8,0:0:0:0:
297,353,3371,2,0,L|286:244,1,85,8|0,0:0|0:0,0:0:0:0:
277,171,3704,1,0,0:0:0:0:
183,310,3871,1,10,0:0:0:0:
429,187,4204,1,10,0:0:0:0:
199,36,4538,1,10,0:0:0:0:
256,192,4621,12,0,5871,0:0:0:0:
102,314,6038,6,0,P|86:280|90:229,1,63.7500024318696,2|0,0:0|0:0,0:0:0:0:
95,155,6371,2,0,P|111:117|134:99,1,63.7500024318696,2|0,0:0|0:0,0:0:0:0:
327,32,6704,2,0,P|323:66|301:100,1,63.7500024318696,2|0,0:0|0:0,0:0:0:0:
241,150,7038,2,0,P|209:162|166:160,1,63.7500024318696,2|0,0:0|0:0,0:0:0:0:
314,200,7371,5,2,0:0:0:0:
465,280,7704,2,0,L|463:312,3,31.8750012159348
500,244,8038,2,0,P|531:162|482:86,1,170,0|0,0:0|0:0,0:0:0:0:
236,35,8538,5,8,0:0:0:0:
236,35,8621,1,8,0:0:0:0:
236,35,8704,2,0,P|186:70|115:54,1,127.500004863739,2|0,0:0|0:0,0:0:0:0:
33,168,9204,2,0,L|164:193,1,127.500004863739,0|0,0:0|0:0,0:0:0:0:
295,270,9704,2,0,P|263:274|234:286,1,63.7500024318696
423,161,10038,6,0,P|358:160|321:86,1,127.500004863739,0|0,0:0|0:0,0:0:0:0:
314,5,10538,2,0,P|253:24|217:104,1,127.500004863739
234,285,11038,2,0,P|223:255|206:229,1,63.7500024318696
350,355,11371,6,0,L|370:211,1,127.500004863739
288,117,11871,2,0,B|221:94|234:141|162:118,1,127.500004863739
76,6,12371,2,0,P|118:5|156:29,1,63.7500024318696,0|0,0:0|0:0,0:0:0:0:
256,200,12704,6,0,L|237:340,1,127.500004863739,0|0,0:0|0:0,0:0:0:0:
81,273,13204,2,0,L|71:204,1,63.7500024318696
8,66,13538,2,0,P|57:93|127:49,1,127.500004863739,0|0,0:0|0:0,0:0:0:0:
284,31,14038,6,0,P|261:67|253:97,1,63.7500024318696,0|0,0:0|0:0,0:0:0:0:
265,194,14371,1,0,0:0:0:0:
385,177,14538,2,0,P|428:211|469:296,1,127.500004863739,0|0,0:0|0:0,0:0:0:0:
362,352,15038,2,0,P|300:350|283:343,1,63.7500024318696,0|0,0:0|0:0,0:0:0:0:
90,266,15371,6,0,P|157:255|192:189,1,127.500004863739,0|0,0:0|0:0,0:0:0:0:
239,91,15871,2,0,P|195:90|163:79,1,63.7500024318696,0|2,0:0|0:0,0:0:0:0:
62,43,16204,1,8,0:0:0:0:
212,0,16371,1,0,0:0:0:0:
90,185,16538,5,8,0:0:0:0:
90,185,16621,1,8,0:0:0:0:
90,185,16704,2,0,P|143:208|246:153,1,170,2|0,0:0|0:0,0:0:0:0:
373,29,17204,2,0,P|388:82|381:116,1,63.7500024318696,0|0,0:0|0:0,0:0:0:0:
366,236,17538,1,2,0:0:0:0:
239,164,17704,2,0,L|267:94,1,63.7500024318696,8|0,0:0|0:0,0:0:0:0:
458,235,18038,6,0,P|435:304|368:330,1,127.500004863739,2|0,0:0|0:0,0:0:0:0:
182,306,18538,2,0,P|191:268|233:235,1,63.7500024318696,2|0,0:0|0:0,0:0:0:0:
265,310,18871,1,0,0:0:0:0:
104,200,19038,2,0,L|98:132,1,63.7500024318696,8|0,0:0|0:0,0:0:0:0:
153,55,19288,5,2,0:0:0:0:
153,55,19371,2,0,P|210:65|290:44,1,127.500004863739,2|0,0:0|0:0,0:0:0:0:
398,161,19871,2,0,L|323:150,1,63.7500024318696,0|0,0:0|0:0,0:0:0:0:
441,77,20204,1,0,0:0:0:0:
466,244,20371,2,0,P|467:290|454:318,1,63.7500024318696,8|0,0:0|0:0,0:0:0:0:
265,313,20704,6,0,P|321:274|386:275,1,127.500004863739,2|0,0:0|0:0,0:0:0:0:
241,212,21204,2,0,P|218:180|215:140,1,63.7500024318696,2|0,0:0|0:0,0:0:0:0:
302,148,21538,1,2,0:0:0:0:
126,207,21704,1,8,0:0:0:0:
237,51,21871,1,8,0:0:0:0:
237,51,21954,1,8,0:0:0:0:
237,51,22038,6,0,L|365:68,1,127.500004863739,2|0,0:0|0:0,0:0:0:0:
471,206,22538,2,0,P|402:204|345:259,1,127.500004863739,2|0,0:0|0:0,0:0:0:0:
206,348,23038,2,0,P|216:313|210:269,1,63.7500024318696,8|0,0:0|0:0,0:0:0:0:
160,93,23371,6,0,P|106:102|23:64,1,127.500004863739,2|0,0:0|0:0,0:0:0:0:
272,156,23871,2,0,P|323:146|414:188,1,127.500004863739,2|0,0:0|0:0,0:0:0:0:
312,258,24371,1,8,0:0:0:0:
341,72,24538,1,0,0:0:0:0:
312,258,24704,6,0,P|268:268|229:249,1,63.7500024318696,2|0,0:0|0:0,0:0:0:0:
104,205,25038,1,0,0:0:0:0:
165,365,25204,2,0,L|311:350,1,127.500004863739,2|0,0:0|0:0,0:0:0:0:
291,351,25621,1,0,0:0:0:0:
291,351,25704,1,8,0:0:0:0:
104,205,25871,1,0,0:0:0:0:
264,134,26038,1,2,0:0:0:0:
477,357,26371,6,0,B|388:315|379:392|273:343,1,191.250007295609,4|2,0:0|0:0,0:0:0:0:
103,215,27038,1,8,0:0:0:0:
259,133,27204,1,8,0:0:0:0:
259,133,27288,1,8,0:0:0:0:
259,133,27371,6,0,P|297:170|307:255,1,127.500004863739,14|0,0:0|0:0,0:0:0:0:
103,215,27871,2,0,L|113:71,1,127.500004863739,2|2,0:0|0:0,0:0:0:0:
196,58,28371,1,8,0:0:0:0:
23,117,28538,1,0,0:0:0:0:
218,210,28704,6,0,P|276:225|330:199,1,95.6250036478044,2|2,0:0|0:0,0:0:0:0:
336,198,29038,1,0,0:0:0:0:
481,332,29204,2,0,L|339:315,1,127.500004863739,2|2,0:0|0:0,0:0:0:0:
184,342,29704,1,8,0:0:0:0:
163,335,29787,1,0,0:0:0:0:
142,335,29870,1,0,0:0:0:0:
122,342,29953,1,0,0:0:0:0:
100,352,30038,6,0,P|49:338|21:277,1,95.6250036478044,2|0,0:0|0:0,0:0:0:0:
17,274,30371,1,0,0:0:0:0:
84,140,30538,2,0,L|229:158,1,127.500004863739,2|2,0:0|0:0,0:0:0:0:
346,122,31038,1,8,0:0:0:0:
181,23,31204,1,2,0:0:0:0:
170,228,31371,6,0,P|175:266|194:313,1,85,12|0,0:0|0:0,0:0:0:0:
349,363,31704,2,0,P|364:323|370:281,1,85,12|0,0:0|0:0,0:0:0:0:
346,122,32038,2,0,P|316:151|294:188,1,85,12|0,0:0|0:0,0:0:0:0:
474,297,32371,2,0,P|452:260|422:230,1,85,8|0,0:0|0:0,0:0:0:0:
239,112,32704,6,0,P|197:128|116:75,1,127.500004863739,2|0,0:0|0:0,0:0:0:0:
189,51,33204,1,2,0:0:0:0:
117,188,33371,2,0,P|129:233|155:266,1,63.7500024318696,0|0,0:0|0:0,0:0:0:0:
250,351,33704,2,0,P|264:323|271:292,1,63.7500024318696,8|0,0:0|0:0,0:0:0:0:
323,165,34038,6,0,L|202:191,1,95.6250036478044,2|2,0:0|0:0,0:0:0:0:
212,189,34371,1,0,0:0:0:0:
382,255,34538,2,0,P|449:288|508:271,1,127.500004863739,2|2,0:0|0:0,0:0:0:0:
453,196,35038,1,8,0:0:0:0:
342,343,35204,5,0,0:0:0:0:
342,343,35288,1,0,0:0:0:0:
342,343,35371,2,0,L|195:319,1,127.500004863739,2|8,0:0|0:0,0:0:0:0:
52,291,35871,1,0,0:0:0:0:
184,177,36038,2,0,P|228:185|252:202,1,63.7500024318696,0|2,0:0|0:0,0:0:0:0:
329,242,36371,1,8,0:0:0:0:
191,261,36538,1,0,0:0:0:0:
45,197,36704,6,0,P|35:149|35:126,1,63.7500024318696,2|0,0:0|0:0,0:0:0:0:
235,13,37038,2,0,P|233:45|225:76,1,63.7500024318696,8|0,0:0|0:0,0:0:0:0:
186,189,37371,1,0,0:0:0:0:
112,53,37538,1,2,0:0:0:0:
290,148,37704,2,0,P|331:138|360:117,1,63.7500024318696,8|0,0:0|0:0,0:0:0:0:
453,42,38038,5,8,0:0:0:0:
381,209,38204,1,8,0:0:0:0:
381,209,38288,1,8,0:0:0:0:
381,209,38371,1,8,0:0:0:0:
283,54,38538,1,8,0:0:0:0:
283,54,38621,1,8,0:0:0:0:
283,54,38704,1,8,0:0:0:0:
471,123,38871,1,8,0:0:0:0:
418,307,39038,6,0,P|348:312|285:230,1,165.749992412568,2|0,0:0|0:0,0:0:0:0:
269,223,39371,6,0,P|276:177|255:133,1,85,6|2,0:0|0:0,0:0:0:0:
162,60,39704,1,8,0:0:0:0:
110,193,39871,1,0,0:0:0:0:
110,193,39954,1,8,0:0:0:0:
110,193,40038,1,2,0:0:0:0:
292,232,40204,2,0,L|408:211,1,85,2|8,0:0|0:0,0:0:0:0:
265,144,40538,1,0,0:0:0:0:
199,344,40704,6,0,P|103:340|75:257,1,170,2|8,0:0|0:0,0:0:0:0:
192,190,41204,2,0,L|147:290,1,85,0|0,0:0|0:0,0:0:0:0:
81,144,41538,2,0,L|122:58,1,85,2|8,0:0|0:0,0:0:0:0:
223,31,41871,1,0,0:0:0:0:
310,128,42038,6,0,P|365:128|403:98,1,85,2|0,0:0|0:0,0:0:0:0:
472,52,42371,1,8,0:0:0:0:
335,55,42538,1,0,0:0:0:0:
335,55,42621,1,0,0:0:0:0:
335,55,42704,1,2,0:0:0:0:
478,179,42871,2,0,P|472:234|446:276,1,85,2|8,0:0|0:0,0:0:0:0:
309,348,43204,1,0,0:0:0:0:
278,185,43371,6,0,P|345:185|374:203,1,85,2|2,0:0|0:0,0:0:0:0:
312,267,43704,1,8,0:0:0:0:
166,159,43871,2,0,L|153:48,1,85,2|0,0:0|0:0,0:0:0:0:
156,74,44121,1,8,0:0:0:0:
156,74,44204,1,2,0:0:0:0:
79,183,44371,1,8,0:0:0:0:
270,36,44538,6,0,P|350:30|398:102,1,170,4|0,0:0|0:0,0:0:0:0:
304,189,45038,2,0,P|295:142|327:97,1,85,8|0,0:0|0:0,0:0:0:0:
398,174,45371,1,2,0:0:0:0:
285,296,45538,1,2,0:0:0:0:
304,189,45704,1,8,0:0:0:0:
406,315,45871,1,0,0:0:0:0:
486,197,46038,6,0,P|486:145|463:95,1,85,2|0,0:0|0:0,0:0:0:0:
364,35,46371,1,8,0:0:0:0:
305,183,46538,1,0,0:0:0:0:
305,183,46621,1,0,0:0:0:0:
305,183,46704,1,0,0:0:0:0:
476,113,46871,1,0,0:0:0:0:
257,48,47038,1,8,0:0:0:0:
329,260,47204,1,8,0:0:0:0:
329,260,47288,1,8,0:0:0:0:
329,260,47371,6,0,P|269:279|172:225,1,170,14|8,0:0|0:0,0:0:0:0:
52,91,47871,2,0,B|131:64|131:64|230:106,1,170,14|8,0:0|0:0,0:0:0:0:
125,307,48371,2,0,P|90:232|130:158,1,170,14|8,0:0|0:0,0:0:0:0:
251,38,48871,1,14,0:0:0:0:
374,133,49038,2,0,L|381:84,3,42.5
275,214,49371,2,0,L|268:165,3,42.5,8|0|8|0,0:0|0:0|0:0|0:0,0:0:0:0:
376,282,49704,2,0,L|369:331,1,42.5,8|0,0:0|0:0,0:0:0:0:
359,347,49871,6,0,B|299:322|237:360|237:360|186:315,1,170,6|2,0:0|0:0,0:0:0:0:
70,164,50371,1,8,0:0:0:0:
209,229,50538,1,0,0:0:0:0:
209,229,50621,1,8,0:0:0:0:
209,229,50704,1,2,0:0:0:0:
106,86,50871,1,2,0:0:0:0:
51,250,51038,1,8,0:0:0:0:
184,126,51204,6,0,P|193:72|174:31,1,85,4|0,0:0|0:0,0:0:0:0:
106,86,51538,1,2,0:0:0:0:
278,53,51704,1,8,0:0:0:0:
213,226,51871,1,0,0:0:0:0:
213,226,51954,1,8,0:0:0:0:
213,226,52038,1,0,0:0:0:0:
336,142,52204,2,0,P|383:144|420:174,1,85,2|8,0:0|0:0,0:0:0:0:
369,359,52538,6,0,P|326:297|357:212,1,170,0|0,0:0|0:0,0:0:0:0:
426,281,53038,1,8,0:0:0:0:
243,342,53204,1,0,0:0:0:0:
243,342,53288,1,8,0:0:0:0:
243,342,53371,2,0,P|230:291|240:240,1,85,2|2,0:0|0:0,0:0:0:0:
284,110,53704,1,8,0:0:0:0:
121,188,53871,6,0,P|41:165|20:69,1,170,4|2,0:0|0:0,0:0:0:0:
158,33,54371,2,0,P|138:77|99:98,1,85,8|0,0:0|0:0,0:0:0:0:
81,22,54704,1,2,0:0:0:0:
220,106,54871,1,2,0:0:0:0:
43,168,55038,2,0,P|33:220|61:269,1,85,8|8,0:0|0:0,0:0:0:0:
195,326,55371,6,0,L|302:315,1,85,4|0,0:0|0:0,0:0:0:0:
378,224,55704,1,8,0:0:0:0:
392,199,55787,1,8,0:0:0:0:
399,172,55870,1,8,0:0:0:0:
396,144,55954,1,8,0:0:0:0:
386,118,56037,1,8,0:0:0:0:
367,96,56120,1,8,0:0:0:0:
343,82,56204,1,8,0:0:0:0:
316,75,56287,1,8,0:0:0:0:
288,77,56370,1,8,0:0:0:0:
262,88,56454,1,8,0:0:0:0:
237,101,56538,6,0,P|168:117|86:52,1,170,4|2,0:0|0:0,0:0:0:0:
177,24,57038,1,8,0:0:0:0:
44,133,57204,2,0,B|37:203|37:203|53:229|53:229|44:320,1,170,6|0,0:0|0:0,0:0:0:0:
146,359,57704,2,0,P|214:358|262:309,1,127.5,8|0,0:0|0:0,0:0:0:0:
275,280,58038,6,0,L|390:293,1,85,12|0,0:0|0:0,0:0:0:0:
480,299,58371,1,2,0:0:0:0:
332,191,58538,2,0,P|320:123|336:98,1,85,12|0,0:0|0:0,0:0:0:0:
377,31,58871,1,2,0:0:0:0:
249,211,59038,2,0,P|192:216|153:197,1,85,12|0,0:0|0:0,0:0:0:0:
75,164,59371,1,2,0:0:0:0:
270,302,59538,5,0,0:0:0:0:
288,297,59621,1,0,0:0:0:0:
305,290,59704,1,0,0:0:0:0:
321,280,59788,1,0,0:0:0:0:
334,266,59871,1,0,0:0:0:0:
345,251,59954,1,0,0:0:0:0:
356,234,60038,5,8,0:0:0:0:
360,216,60121,1,2,0:0:0:0:
361,197,60204,1,2,0:0:0:0:
358,178,60288,1,2,0:0:0:0:
354,149,60371,2,0,L|362:90,3,42.5,8|2|2|2,0:0|0:0|0:0|0:0,0:0:0:0:
271,81,60704,6,0,L|267:24,3,42.5,12|0|0|0,0:0|0:0|0:0|0:0,0:0:0:0:
165,9,61038,1,2,0:0:0:0:
57,122,61204,2,0,P|74:174|112:203,1,85,12|0,0:0|0:0,0:0:0:0:
176,102,61538,1,2,0:0:0:0:
299,229,61704,2,0,P|289:269|260:301,1,85,12|0,0:0|0:0,0:0:0:0:
180,209,62038,1,0,0:0:0:0:
384,273,62204,2,0,P|399:228|389:174,1,85,12|0,0:0|0:0,0:0:0:0:
285,99,62538,1,2,0:0:0:0:
151,149,62704,2,0,L|128:85,3,42.5,8|8|8|8,0:0|0:0|0:0|0:0,0:0:0:0:
110,306,63038,2,0,L|75:263,3,42.5,8|8|8|8,0:0|0:0|0:0|0:0,0:0:0:0:
150,326,63371,6,0,P|219:341|264:329,1,85,12|0,0:0|0:0,0:0:0:0:
357,276,63704,1,0,0:0:0:0:
231,124,63871,2,0,P|210:161|207:203,1,85,12|0,0:0|0:0,0:0:0:0:
312,186,64204,1,0,0:0:0:0:
110,137,64371,2,0,P|96:98|101:56,1,85,12|0,0:0|0:0,0:0:0:0:
229,6,64704,1,0,0:0:0:0:
294,139,64871,5,6,0:0:0:0:
302,155,64954,1,0,0:0:0:0:
307,174,65037,1,0,0:0:0:0:
309,192,65121,1,0,0:0:0:0:
308,211,65204,1,0,0:0:0:0:
303,229,65287,1,0,0:0:0:0:
295,247,65371,5,8,0:0:0:0:
284,262,65454,1,0,0:0:0:0:
271,275,65537,1,0,0:0:0:0:
256,286,65621,1,0,0:0:0:0:
236,298,65704,2,0,L|180:278,3,42.5,8|0|0|0,0:0|0:0|0:0|0:0,0:0:0:0:
154,259,66038,6,0,P|143:213|160:164,1,85,12|0,0:0|0:0,0:0:0:0:
274,101,66371,1,0,0:0:0:0:
361,234,66538,2,0,P|350:270|308:311,1,85,12|0,0:0|0:0,0:0:0:0:
246,214,66871,1,0,0:0:0:0:
428,190,67038,2,0,P|437:141|421:98,1,85,8|0,0:0|0:0,0:0:0:0:
275,44,67371,6,0,P|258:76|260:114,3,42.5
169,100,67704,2,0,P|175:130|200:160,3,42.5
219,154,68038,5,8,0:0:0:0:
286,193,68149,1,0,0:0:0:0:
237,255,68260,1,0,0:0:0:0:
277,321,68371,6,0,P|332:333|381:306,1,113.333333333333
452,209,68704,1,0,0:0:0:0:
184,49,74038,5,2,0:0:0:0:
35,158,74538,1,0,0:0:0:0:
78,260,74705,2,0,P|149:285|197:260,1,127.500004863739,0|0,0:0|0:0,0:0:0:0:
288,160,75204,2,0,P|303:215|296:243,1,63.7500024318696,2|0,0:0|0:0,0:0:0:0:
351,335,75538,2,0,P|388:322|407:296,1,63.7500024318696,0|0,0:0|0:0,0:0:0:0:
493,219,75871,2,0,P|447:206|429:117,1,127.500004863739,0|0,0:0|0:0,0:0:0:0:
346,106,76371,1,2,0:0:0:0:
505,135,76538,1,0,0:0:0:0:
374,230,76704,6,0,P|337:241|294:225,1,63.7500024318696,0|0,0:0|0:0,0:0:0:0:
223,185,77038,2,0,P|190:155|179:121,1,63.7500024318696,2|0,0:0|0:0,0:0:0:0:
147,42,77371,1,0,0:0:0:0:
260,109,77538,1,2,0:0:0:0:
59,203,77871,6,0,P|46:262|92:341,1,127.500004863739,0|0,0:0|0:0,0:0:0:0:
168,351,78371,2,0,P|214:342|248:312,1,63.7500024318696,2|0,0:0|0:0,0:0:0:0:
288,268,78704,2,0,P|332:291|362:292,1,63.7500024318696,2|0,0:0|0:0,0:0:0:0:
413,97,79204,6,0,P|353:73|287:107,1,127.500004863739,8|8,0:0|0:0,0:0:0:0:
188,159,79704,1,0,0:0:0:0:
240,19,79871,1,0,0:0:0:0:
352,157,80038,2,0,P|353:189|340:223,1,63.7500024318696,0|8,0:0|0:0,0:0:0:0:
274,304,80371,1,8,0:0:0:0:
477,282,80538,6,0,L|466:108,1,170,12|2,0:0|0:0,0:0:0:0:
369,42,81038,1,8,0:0:0:0:
270,173,81204,2,0,B|194:163|194:163|130:66,1,170,2|0,0:0|0:0,0:0:0:0:
32,38,81704,1,8,0:0:0:0:
32,38,81788,1,8,0:0:0:0:
32,38,81871,6,0,P|10:111|68:187,1,170,4|2,0:0|0:0,0:0:0:0:
198,236,82371,1,2,0:0:0:0:
89,101,82538,1,2,0:0:0:0:
71,259,82704,1,10,0:0:0:0:
244,162,82871,1,10,0:0:0:0:
186,330,83038,1,10,0:0:0:0:
60,183,83204,2,0,P|125:185|171:128,1,118.999996368408,10|0,0:0|0:0,0:0:0:0:
89,101,83704,5,6,0:0:0:0:
342,51,84538,6,0,P|354:107|345:137,1,63.7500024318696,6|0,0:0|0:0,0:0:0:0:
280,190,84871,1,8,0:0:0:0:
400,246,85038,1,8,0:0:0:0:
305,343,85204,1,2,0:0:0:0:
276,324,85288,1,2,0:0:0:0:
242,318,85371,1,8,0:0:0:0:
209,328,85454,1,8,0:0:0:0:
166,344,85538,2,0,L|152:295,1,42.5,2|2,0:0|0:0,0:0:0:0:
71,261,85704,2,0,L|56:196,1,42.5,8|0,0:0|0:0,0:0:0:0:
106,147,85871,2,0,L|92:84,1,42.5,8|8,0:0|0:0,0:0:0:0:
24,52,86038,6,0,P|89:67|124:45,1,85,12|2,0:0|0:0,0:0:0:0:
252,11,86371,1,8,0:0:0:0:
178,155,86538,1,0,0:0:0:0:
178,155,86621,1,2,0:0:0:0:
178,155,86704,1,8,0:0:0:0:
315,103,86871,1,2,0:0:0:0:
144,60,87038,1,8,0:0:0:0:
284,213,87204,5,2,0:0:0:0:
284,213,87288,1,0,0:0:0:0:
284,213,87371,2,0,P|342:222|383:198,1,85,12|2,0:0|0:0,0:0:0:0:
459,172,87704,1,8,0:0:0:0:
334,304,87871,1,2,0:0:0:0:
334,304,87954,1,0,0:0:0:0:
334,304,88038,1,8,0:0:0:0:
321,145,88204,1,2,0:0:0:0:
443,279,88371,1,8,0:0:0:0:
170,309,88538,5,2,0:0:0:0:
170,309,88621,1,0,0:0:0:0:
170,309,88704,2,0,P|139:292|126:212,1,85,10|2,0:0|0:0,0:0:0:0:
230,158,89038,2,0,P|223:206|192:238,1,85,8|0,0:0|0:0,0:0:0:0:
143,166,89371,1,8,0:0:0:0:
289,61,89538,1,2,0:0:0:0:
289,232,89704,1,8,0:0:0:0:
171,81,89871,1,0,0:0:0:0:
307,157,90038,6,0,P|366:147|393:114,1,85,8|2,0:0|0:0,0:0:0:0:
461,54,90371,1,8,0:0:0:0:
423,208,90538,2,0,L|398:310,1,85,2|10,0:0|0:0,0:0:0:0:
377,372,90871,1,0,0:0:0:0:
487,287,91038,1,8,0:0:0:0:
313,299,91204,1,2,0:0:0:0:
246,131,91371,5,4,0:0:0:0:
154,251,91538,1,8,0:0:0:0:
154,251,91621,1,8,0:0:0:0:
154,251,91704,1,8,0:0:0:0:
143,95,91871,1,14,0:0:0:0:
261,208,92038,1,8,0:0:0:0:
261,208,92121,1,8,0:0:0:0:
261,208,92204,1,8,0:0:0:0:
81,173,92371,1,14,0:0:0:0:
212,74,92538,5,8,0:0:0:0:
212,74,92621,1,8,0:0:0:0:
212,74,92704,2,0,L|190:161,1,85,8|14,0:0|0:0,0:0:0:0:
165,255,93038,1,8,0:0:0:0:
122,102,93204,1,8,0:0:0:0:
122,102,93288,1,0,0:0:0:0:
122,102,93371,1,8,0:0:0:0:
247,221,93538,1,8,0:0:0:0:
280,80,93704,1,8,0:0:0:0:
150,182,93871,6,0,P|85:212|-10:160,1,170,6|2,0:0|0:0,0:0:0:0:
75,117,94371,1,8,0:0:0:0:
16,287,94538,1,0,0:0:0:0:
16,287,94621,1,0,0:0:0:0:
16,287,94704,2,0,P|68:303|111:291,1,85,2|2,0:0|0:0,0:0:0:0:
211,248,95038,1,8,0:0:0:0:
384,354,95204,6,0,P|332:367|277:347,1,85,4|0,0:0|0:0,0:0:0:0:
176,326,95538,1,2,0:0:0:0:
299,251,95704,1,8,0:0:0:0:
446,331,95871,1,0,0:0:0:0:
446,331,95954,1,0,0:0:0:0:
446,331,96038,1,0,0:0:0:0:
394,151,96204,1,2,0:0:0:0:
325,283,96371,1,8,0:0:0:0:
479,194,96538,6,0,P|496:124|422:54,1,170,0|0,0:0|0:0,0:0:0:0:
283,31,97038,1,8,0:0:0:0:
239,168,97204,1,0,0:0:0:0:
239,168,97288,1,8,0:0:0:0:
239,168,97371,2,0,L|258:277,1,85,2|2,0:0|0:0,0:0:0:0:
332,151,97704,1,8,0:0:0:0:
150,294,97871,6,0,P|99:235|128:142,1,170,4|2,0:0|0:0,0:0:0:0:
177,75,98371,1,8,0:0:0:0:
199,216,98538,1,0,0:0:0:0:
199,216,98621,1,0,0:0:0:0:
199,216,98704,1,2,0:0:0:0:
36,61,98871,1,2,0:0:0:0:
190,121,99038,1,8,0:0:0:0:
114,329,99204,1,8,0:0:0:0:
114,329,99288,1,8,0:0:0:0:
114,329,99371,6,0,L|217:312,1,85,4|8,0:0|0:0,0:0:0:0:
372,254,99704,1,8,0:0:0:0:
368,224,99788,1,8,0:0:0:0:
365,194,99871,1,8,0:0:0:0:
370,164,99954,1,8,0:0:0:0:
383,137,100038,1,8,0:0:0:0:
355,127,100121,1,8,0:0:0:0:
326,120,100204,1,8,0:0:0:0:
296,112,100288,1,8,0:0:0:0:
267,103,100371,1,8,0:0:0:0:
238,95,100454,1,8,0:0:0:0:
208,90,100538,6,0,P|190:170|273:224,1,170,4|2,0:0|0:0,0:0:0:0:
275,142,101038,1,8,0:0:0:0:
138,258,101204,2,0,B|69:310|69:310|-9:260,1,170,2|2,0:0|0:0,0:0:0:0:
64,210,101704,1,8,0:0:0:0:
205,347,101871,1,8,0:0:0:0:
357,237,102038,6,0,L|368:123,1,85,4|0,0:0|0:0,0:0:0:0:
284,83,102371,1,8,0:0:0:0:
284,83,102454,1,8,0:0:0:0:
284,83,102538,1,10,0:0:0:0:
512,172,102871,1,10,0:0:0:0:
308,326,103204,6,0,P|233:347|173:280,1,170,6|2,0:0|0:0,0:0:0:0:
140,167,103704,1,8,0:0:0:0:
279,120,103871,2,0,P|296:215|243:275,1,170,2|8,0:0|0:0,0:0:0:0:
139,160,104371,1,8,0:0:0:0:
135,130,104454,1,8,0:0:0:0:
129,100,104538,1,8,0:0:0:0:
241,18,104704,6,0,L|360:32,1,85,4|2,0:0|0:0,0:0:0:0:
452,35,105038,1,8,0:0:0:0:
283,126,105204,1,0,0:0:0:0:
467,153,105371,1,8,0:0:0:0:
356,80,105538,1,8,0:0:0:0:
360,109,105621,1,8,0:0:0:0:
366,137,105704,1,8,0:0:0:0:
373,166,105788,1,8,0:0:0:0:
379,194,105871,6,0,P|342:253|402:342,1,170
425,263,106371,1,8,0:0:0:0:
263,338,106538,2,0,P|204:348|116:268,1,170,6|2,0:0|0:0,0:0:0:0:
50,140,107038,1,8,0:0:0:0:
79,145,107121,1,8,0:0:0:0:
108,149,107204,1,8,0:0:0:0:
137,154,107288,1,8,0:0:0:0:
166,158,107371,1,0,0:0:0:0:
256,192,107538,12,0,108538,0:0:0:0:
390,71,108704,5,6,0:0:0:0:
259,162,108871,2,0,L|277:272,1,85,2|8,0:0|0:0,0:0:0:0:
158,237,109204,2,0,P|120:171|155:76,1,170,2|8,0:0|0:0,0:0:0:0:
259,162,109704,1,8,0:0:0:0:
183,321,109871,2,0,B|135:348|135:348|19:311,1,170,6|8,0:0|0:0,0:0:0:0:
114,242,110371,1,0,0:0:0:0:
336,294,110538,6,0,B|304:250|332:203|332:203|384:219|384:219|427:177|400:118,1,237.999992736817,6|0,0:0|0:0,0:0:0:0:
388,57,111371,6,0,L|321:69,1,42.5,8|8,0:0|0:0,0:0:0:0:
142,100,111538,1,8,0:0:0:0:
260,10,111704,1,8,0:0:0:0:
224,212,111871,1,4,0:0:0:0:
256,192,111954,12,0,116038,0:0:0:0:
