osu file format v14

[General]
AudioFilename: bgm.mp3
AudioLeadIn: 0
PreviewTime: 45558
Countdown: 0
SampleSet: Normal
StackLeniency: 0.7
Mode: 1
LetterboxInBreaks: 0
WidescreenStoryboard: 1

[Editor]
DistanceSpacing: 1
BeatDivisor: 4
GridSize: 32
TimelineZoom: 1.7

[Metadata]
Title:Din Don Dan (Fusion Remix)
TitleUnicode:Din Don Dan (Fusion Remix)
Artist:TAKU1175 feat.Kanata.N
ArtistUnicode:TAKU1175 feat.かなたん
Creator:maziari1105
Version:Futsuu
Source:SOUND VOLTEX III GRAVITY WARS
Tags:ryu Jazz TJBC
BeatmapID:1289002
BeatmapSetID:609906

[Difficulty]
HPDrainRate:7
CircleSize:5
OverallDifficulty:4
ApproachRate:5
SliderMultiplier:1.4
SliderTickRate:1

[Events]
//Background and Video events
0,0,"bg.jpg",0,0
//Break Periods
//Storyboard Layer 0 (Background)
//Storyboard Layer 1 (Fail)
//Storyboard Layer 2 (Pass)
//Storyboard Layer 3 (Foreground)
//Storyboard Sound Samples

[TimingPoints]
582,375,4,1,0,90,1,0
582,-100,4,1,0,90,0,0
45675,-100,4,1,0,80,0,0
51488,-100,4,1,0,90,0,0
56832,375,4,1,0,90,1,0
82332,375,6,1,0,90,1,0
84582,375,4,1,0,90,1,0
84675,-100,4,1,0,75,0,0
87113,-100,4,1,0,90,0,0
87582,-100,4,1,0,90,0,1
113082,-100,4,1,0,90,0,0
114957,-100,4,1,0,60,0,0

[HitObjects]
256,192,582,5,2,0:0:0:0:
256,192,957,1,2,0:0:0:0:
256,192,1238,1,2,0:0:0:0:
256,192,1519,1,2,0:0:0:0:
256,192,2082,1,4,0:0:0:0:
256,192,3582,1,0,0:0:0:0:
256,192,4332,1,0,0:0:0:0:
256,192,4613,1,0,0:0:0:0:
256,192,4894,1,0,0:0:0:0:
256,192,5082,1,6,0:0:0:0:
256,192,6582,1,2,0:0:0:0:
256,192,7332,1,2,0:0:0:0:
256,192,8082,1,4,0:0:0:0:
256,192,8457,1,2,0:0:0:0:
256,192,9207,1,2,0:0:0:0:
256,192,9582,1,0,0:0:0:0:
256,192,9957,1,2,0:0:0:0:
256,192,10707,1,2,0:0:0:0:
256,192,10894,1,2,0:0:0:0:
256,192,11082,1,0,0:0:0:0:
256,192,11457,1,2,0:0:0:0:
256,192,12207,1,2,0:0:0:0:
256,192,12582,1,0,0:0:0:0:
256,192,12957,1,2,0:0:0:0:
256,192,13144,1,2,0:0:0:0:
256,192,13332,1,2,0:0:0:0:
256,192,13707,1,2,0:0:0:0:
256,192,14082,1,0,0:0:0:0:
256,192,14457,1,2,0:0:0:0:
256,192,15207,1,2,0:0:0:0:
256,192,15582,1,0,0:0:0:0:
256,192,15957,1,2,0:0:0:0:
256,192,16707,1,2,0:0:0:0:
256,192,16894,1,2,0:0:0:0:
256,192,17082,1,0,0:0:0:0:
256,192,17457,1,2,0:0:0:0:
256,192,18207,1,2,0:0:0:0:
256,192,18582,1,0,0:0:0:0:
256,192,19144,1,0,0:0:0:0:
256,192,19707,1,0,0:0:0:0:
256,192,20082,1,4,0:0:0:0:
256,192,20832,1,0,0:0:0:0:
256,192,21207,1,0,0:0:0:0:
256,192,21582,1,0,0:0:0:0:
256,192,22332,1,2,0:0:0:0:
256,192,22707,1,2,0:0:0:0:
256,192,23082,1,0,0:0:0:0:
256,192,23457,1,2,0:0:0:0:
256,192,24019,1,2,0:0:0:0:
256,192,24207,1,2,0:0:0:0:
256,192,24582,1,0,0:0:0:0:
256,192,24957,1,2,0:0:0:0:
256,192,25519,1,2,0:0:0:0:
256,192,25707,1,2,0:0:0:0:
256,192,26082,1,0,0:0:0:0:
256,192,26832,1,0,0:0:0:0:
256,192,27207,1,0,0:0:0:0:
256,192,27582,1,0,0:0:0:0:
256,192,28332,1,2,0:0:0:0:
256,192,28707,1,2,0:0:0:0:
256,192,29082,1,0,0:0:0:0:
256,192,29457,1,0,0:0:0:0:
256,192,29832,1,2,0:0:0:0:
256,192,30207,1,0,0:0:0:0:
256,192,30582,1,0,0:0:0:0:
256,192,30957,1,0,0:0:0:0:
256,192,31332,1,2,0:0:0:0:
256,192,31519,1,2,0:0:0:0:
256,192,31707,1,2,0:0:0:0:
256,192,32082,1,4,0:0:0:0:
256,192,32457,1,2,0:0:0:0:
256,192,32832,1,0,0:0:0:0:
256,192,33019,1,0,0:0:0:0:
256,192,33207,1,0,0:0:0:0:
256,192,33582,1,0,0:0:0:0:
256,192,33957,1,2,0:0:0:0:
256,192,34144,1,2,0:0:0:0:
256,192,34707,1,2,0:0:0:0:
256,192,35082,1,0,0:0:0:0:
256,192,35457,1,2,0:0:0:0:
256,192,35832,1,0,0:0:0:0:
256,192,36019,1,0,0:0:0:0:
256,192,36207,1,0,0:0:0:0:
256,192,36582,1,2,0:0:0:0:
256,192,36957,1,2,0:0:0:0:
256,192,37332,1,2,0:0:0:0:
256,192,37519,1,2,0:0:0:0:
256,192,37707,1,2,0:0:0:0:
256,192,38082,1,4,0:0:0:0:
256,192,38457,1,2,0:0:0:0:
256,192,38832,1,0,0:0:0:0:
256,192,39019,1,0,0:0:0:0:
256,192,39207,1,0,0:0:0:0:
256,192,39582,1,0,0:0:0:0:
256,192,39863,1,0,0:0:0:0:
256,192,40144,1,4,0:0:0:0:
256,192,40707,1,2,0:0:0:0:
256,192,40988,1,2,0:0:0:0:
256,192,41269,1,6,0:0:0:0:
256,192,41832,2,0,L|320:192,12,35
256,192,43332,1,6,0:0:0:0:
256,192,43707,1,6,0:0:0:0:
256,192,44082,1,6,0:0:0:0:
256,192,44457,1,6,0:0:0:0:
256,192,44832,1,0,0:0:0:0:
256,192,45019,1,0,0:0:0:0:
256,192,45207,1,2,0:0:0:0:
256,192,45582,1,4,0:0:0:0:
256,192,47082,1,0,0:0:0:0:
256,192,48582,1,0,0:0:0:0:
256,192,50082,1,0,0:0:0:0:
256,192,51582,1,0,0:0:0:0:
256,192,51957,1,2,0:0:0:0:
256,192,52707,1,2,0:0:0:0:
256,192,53082,1,0,0:0:0:0:
256,192,53457,1,2,0:0:0:0:
256,192,54207,1,2,0:0:0:0:
256,192,54394,1,2,0:0:0:0:
256,192,54582,1,0,0:0:0:0:
256,192,54957,1,2,0:0:0:0:
256,192,55707,1,2,0:0:0:0:
256,192,56082,1,0,0:0:0:0:
256,192,56269,1,0,0:0:0:0:
256,192,56457,1,0,0:0:0:0:
256,192,56832,1,4,0:0:0:0:
256,192,57207,1,2,0:0:0:0:
256,192,57769,1,2,0:0:0:0:
256,192,57957,1,2,0:0:0:0:
256,192,58332,1,0,0:0:0:0:
256,192,58894,1,0,0:0:0:0:
256,192,59832,1,0,0:0:0:0:
256,192,60207,1,2,0:0:0:0:
256,192,60769,1,2,0:0:0:0:
256,192,60957,1,2,0:0:0:0:
256,192,61519,1,2,0:0:0:0:
256,192,61894,1,0,0:0:0:0:
256,192,62082,1,0,0:0:0:0:
256,192,62457,1,2,0:0:0:0:
256,192,62832,1,4,0:0:0:0:
256,192,63207,1,2,0:0:0:0:
256,192,63769,1,2,0:0:0:0:
256,192,63957,1,2,0:0:0:0:
256,192,64332,1,0,0:0:0:0:
256,192,64894,1,0,0:0:0:0:
256,192,65269,1,2,0:0:0:0:
256,192,65457,1,2,0:0:0:0:
256,192,65832,1,0,0:0:0:0:
256,192,66207,1,0,0:0:0:0:
256,192,66394,1,0,0:0:0:0:
256,192,66769,1,2,0:0:0:0:
256,192,66957,1,2,0:0:0:0:
256,192,67332,12,0,68457,0:0:0:0:
256,192,69207,5,6,0:0:0:0:
256,192,69957,1,2,0:0:0:0:
256,192,70332,1,0,0:0:0:0:
256,192,70707,1,2,0:0:0:0:
256,192,71269,1,2,0:0:0:0:
256,192,71457,1,2,0:0:0:0:
256,192,71832,1,0,0:0:0:0:
256,192,72207,1,2,0:0:0:0:
256,192,72769,1,2,0:0:0:0:
256,192,72957,1,2,0:0:0:0:
256,192,73332,1,0,0:0:0:0:
256,192,73707,1,2,0:0:0:0:
256,192,73894,1,2,0:0:0:0:
256,192,74082,1,2,0:0:0:0:
256,192,74457,1,2,0:0:0:0:
256,192,74832,1,4,0:0:0:0:
256,192,75207,1,0,0:0:0:0:
256,192,75582,1,6,0:0:0:0:
256,192,75957,1,2,0:0:0:0:
256,192,76332,1,4,0:0:0:0:
256,192,76707,1,0,0:0:0:0:
256,192,77082,1,6,0:0:0:0:
256,192,77457,1,2,0:0:0:0:
256,192,77832,1,4,0:0:0:0:
256,192,78207,1,2,0:0:0:0:
256,192,78769,1,2,0:0:0:0:
256,192,78957,1,2,0:0:0:0:
256,192,79332,1,4,0:0:0:0:
256,192,79707,1,4,0:0:0:0:
256,192,80082,1,4,0:0:0:0:
256,192,80457,1,4,0:0:0:0:
256,192,80832,1,4,0:0:0:0:
256,192,81769,1,2,0:0:0:0:
256,192,81957,1,2,0:0:0:0:
256,192,82332,12,0,83832,0:0:0:0:
256,192,84582,5,4,0:0:0:0:
256,192,86082,1,2,0:0:0:0:
256,192,87207,1,2,0:0:0:0:
256,192,87582,1,4,0:0:0:0:
256,192,87957,1,2,0:0:0:0:
256,192,88332,1,0,0:0:0:0:
256,192,88519,1,0,0:0:0:0:
256,192,88707,1,2,0:0:0:0:
256,192,89082,1,0,0:0:0:0:
256,192,89457,1,2,0:0:0:0:
256,192,89832,1,0,0:0:0:0:
256,192,90582,1,4,0:0:0:0:
256,192,90957,1,2,0:0:0:0:
256,192,91332,1,0,0:0:0:0:
256,192,91519,1,0,0:0:0:0:
256,192,91707,1,2,0:0:0:0:
256,192,92082,1,0,0:0:0:0:
256,192,92457,1,2,0:0:0:0:
256,192,92644,1,2,0:0:0:0:
256,192,92832,1,2,0:0:0:0:
256,192,93582,1,0,0:0:0:0:
256,192,93957,1,2,0:0:0:0:
256,192,94332,1,0,0:0:0:0:
256,192,94519,1,0,0:0:0:0:
256,192,94707,1,2,0:0:0:0:
256,192,95082,1,0,0:0:0:0:
256,192,95457,1,2,0:0:0:0:
256,192,95832,1,0,0:0:0:0:
256,192,96582,1,4,0:0:0:0:
256,192,96957,1,2,0:0:0:0:
256,192,97332,1,0,0:0:0:0:
256,192,97519,1,0,0:0:0:0:
256,192,97707,1,2,0:0:0:0:
256,192,98082,1,0,0:0:0:0:
256,192,98457,1,2,0:0:0:0:
256,192,98644,1,2,0:0:0:0:
256,192,98832,1,2,0:0:0:0:
256,192,99582,1,0,0:0:0:0:
256,192,99769,1,0,0:0:0:0:
256,192,99957,1,0,0:0:0:0:
256,192,100332,1,2,0:0:0:0:
256,192,100519,1,2,0:0:0:0:
256,192,100707,1,2,0:0:0:0:
256,192,101082,1,0,0:0:0:0:
256,192,101832,1,2,0:0:0:0:
256,192,102207,1,2,0:0:0:0:
256,192,102582,1,4,0:0:0:0:
256,192,102957,1,2,0:0:0:0:
256,192,103332,1,0,0:0:0:0:
256,192,103519,1,0,0:0:0:0:
256,192,103707,1,2,0:0:0:0:
256,192,104082,1,0,0:0:0:0:
256,192,104457,1,2,0:0:0:0:
256,192,104644,1,2,0:0:0:0:
256,192,104832,1,2,0:0:0:0:
256,192,105582,1,0,0:0:0:0:
256,192,105957,1,2,0:0:0:0:
256,192,106144,1,2,0:0:0:0:
256,192,106332,1,2,0:0:0:0:
256,192,106707,1,2,0:0:0:0:
256,192,107082,1,4,0:0:0:0:
256,192,107457,1,2,0:0:0:0:
256,192,107832,1,0,0:0:0:0:
256,192,108019,1,0,0:0:0:0:
256,192,108207,1,0,0:0:0:0:
256,192,108582,1,0,0:0:0:0:
256,192,109332,1,0,0:0:0:0:
256,192,109707,1,6,0:0:0:0:
256,192,110082,1,2,0:0:0:0:
256,192,110363,1,2,0:0:0:0:
256,192,110644,1,2,0:0:0:0:
256,192,110925,1,2,0:0:0:0:
256,192,111207,1,2,0:0:0:0:
256,192,111488,1,2,0:0:0:0:
256,192,111675,1,2,0:0:0:0:
256,192,111863,1,2,0:0:0:0:
256,192,112144,1,4,0:0:0:0:
256,192,115332,1,0,0:0:0:0:
