osu file format v14

[General]
AudioFilename: audio.mp3
AudioLeadIn: 0
PreviewTime: 90704
Countdown: 0
SampleSet: Soft
StackLeniency: 0.7
Mode: 0
LetterboxInBreaks: 0
WidescreenStoryboard: 0

[Editor]
DistanceSpacing: 0.5
BeatDivisor: 8
GridSize: 8
TimelineZoom: 2.1

[Metadata]
Title:Kimi to Mita Sora no Uta
TitleUnicode:君と見たソラの歌
Artist:TAKU1175 & Ryota Kikuchi
ArtistUnicode:TAKU1175 & Ryota Kikuchi
Creator:Megpoi
Version:Insane
Source:VOEZ
Tags:
BeatmapID:999888
BeatmapSetID:467313

[Difficulty]
HPDrainRate:7
CircleSize:4.1
OverallDifficulty:7
ApproachRate:9.3
SliderMultiplier:1.4
SliderTickRate:2

[Events]
//Background and Video events
0,0,"background.jpg",0,0
//Break Periods
2,16005,23444
2,70044,84060
//Storyboard Layer 0 (Background)
//Storyboard Layer 1 (Fail)
//Storyboard Layer 2 (Pass)
//Storyboard Layer 3 (Foreground)
//Storyboard Sound Samples

[TimingPoints]
1078,307.692307692308,4,2,0,40,1,0
5001,-100,4,2,0,30,0,0
5154,-100,4,2,0,20,0,0
5308,-100,4,2,0,10,0,0
5539,-100,4,2,0,40,0,0
8154,307.692307692308,4,2,0,40,1,0
8923,307.692307692308,4,2,0,40,1,0
9999,307.692307692308,4,2,0,40,1,0
10255,-133.333333333333,4,2,0,40,0,0
10768,307.692307692308,4,2,0,40,1,0
15735,-100,4,1,0,5,0,0
23998,-100,4,1,0,35,0,0
24460,-100,4,1,0,65,0,0
25537,-100,4,1,0,80,0,0
29146,-100,4,1,0,5,0,0
29224,-100,4,1,0,100,0,0
29804,-100,4,1,0,5,0,0
29881,-100,4,1,0,100,0,0
39465,-100,4,1,0,80,0,0
40345,-100,4,1,0,90,0,0
44822,-100,4,2,0,5,0,0
45075,-100,4,2,0,65,0,1
52665,-100,4,1,0,5,0,1
52897,-100,4,1,0,5,0,1
52936,-100,4,1,0,100,0,1
53168,-100,4,1,0,5,0,1
53400,-100,4,1,0,100,0,1
53632,-100,4,1,0,5,0,1
53748,-100,4,1,0,5,0,1
53786,-100,4,1,0,100,0,1
53941,-100,4,1,0,5,0,1
54173,-100,4,1,0,100,0,1
54998,-100,4,1,0,100,0,0
62306,-133.333333333333,4,1,0,100,0,0
62768,-100,4,1,0,100,0,0
64856,-100,4,2,0,40,0,0
84625,-100,4,1,0,100,0,0
87037,-66.6666666666667,4,1,0,100,0,0
91921,-100,4,1,0,100,0,1
101691,-100,4,1,0,80,0,0
115229,307.692307692308,4,2,0,40,1,0
115803,-66.6666666666667,4,1,0,100,0,0
115891,-66.6666666666667,4,1,0,5,0,0
115968,-66.6666666666667,4,1,0,5,0,0

[Colours]
Combo1 : 255,255,0
Combo2 : 0,128,255
Combo3 : 255,0,0
Combo4 : 0,255,0

[HitObjects]
208,80,1078,6,0,L|64:80,1,140
249,191,1693,2,0,L|401:191,1,140
304,320,2308,2,0,L|160:320,1,140
72,248,2770,1,0,0:0:0:0:
64,232,2924,1,0,0:0:0:0:
232,96,3154,1,0,0:0:0:0:
88,112,3385,1,0,0:0:0:0:
176,192,3539,1,0,0:0:0:0:
304,264,3847,1,0,0:0:0:0:
432,158,4001,2,0,P|417:208|384:248,1,105
256,176,4616,6,0,L|360:80,1,140
344,72,5001,1,0,0:0:0:0:
304,56,5078,1,0,0:0:0:0:
272,48,5154,1,0,0:0:0:0:
240,48,5231,1,0,0:0:0:0:
208,64,5308,1,0,0:0:0:0:
192,88,5385,1,0,0:0:0:0:
144,168,5539,1,0,0:0:0:0:
120,288,5693,1,0,0:0:0:0:
256,296,6001,6,0,P|336:248|360:192,1,140
256,56,6462,1,0,0:0:0:0:
88,256,6924,5,0,0:0:0:0:
112,280,7001,1,0,0:0:0:0:
136,304,7078,1,0,0:0:0:0:
160,328,7154,2,0,L|240:344,1,70
304,192,7693,2,0,L|248:240,1,70
112,112,8154,2,0,P|192:152|240:144,1,140
248,120,8538,1,0,0:0:0:0:
256,104,8615,1,0,0:0:0:0:
392,96,8769,1,0,0:0:0:0:
408,120,8846,1,0,0:0:0:0:
424,152,8923,2,0,P|416:200|336:256,1,140
246,146,9538,5,0,0:0:0:0:
112,184,9653,1,0,0:0:0:0:
240,128,9807,1,0,0:0:0:0:
136,224,9961,1,0,0:0:0:0:
360,272,10229,2,0,P|288:264|200:200,1,175,0|4,0:0|0:0,0:0:0:0:
328,288,11075,6,0,L|240:256,1,70,2|0,0:0|0:0,0:0:0:0:
160,168,11383,2,0,L|224:136,1,70
320,72,11691,2,0,L|232:32,1,70
64,80,11998,2,0,L|144:128,1,70,2|0,0:0|0:0,0:0:0:0:
192,216,12306,2,0,L|120:256,1,70
352,264,12614,2,0,L|288:208,1,70
296,120,12921,2,0,L|384:88,1,70,2|2,0:0|0:0,0:0:0:0:
160,96,13229,1,0,0:0:0:0:
72,152,13383,5,0,0:0:0:0:
88,256,13537,2,0,L|176:208,2,70
264,296,13998,1,0,0:0:0:0:
328,208,14152,1,2,0:0:0:0:
296,128,14306,2,0,L|224:176,1,70
136,200,14614,1,0,0:0:0:0:
96,168,14691,1,0,0:0:0:0:
64,136,14768,2,0,L|144:80,1,70,0|2,0:0|0:0,0:0:0:0:
256,64,15075,1,0,0:0:0:0:
400,144,15191,5,2,0:0:0:0:
408,168,15268,1,0,0:0:0:0:
408,208,15344,1,0,0:0:0:0:
392,240,15421,1,0,0:0:0:0:
368,272,15498,2,0,P|288:296|208:296,1,140,2|0,0:0|0:0,0:0:0:0:
344,80,23998,6,0,L|296:80,1,35
288,80,24152,1,0,0:0:0:0:
136,80,24306,2,0,L|88:160,1,70
104,256,24614,1,0,0:0:0:0:
200,320,24768,1,0,0:0:0:0:
216,120,25075,1,0,0:0:0:0:
394,135,25383,1,0,0:0:0:0:
280,112,25537,5,0,0:0:0:0:
272,144,25614,1,0,0:0:0:0:
264,168,25691,1,0,0:0:0:0:
168,256,25844,2,0,P|112:256|96:240,2,70
256,160,26306,1,0,0:0:0:0:
168,64,26460,2,0,P|120:56|96:64,2,70
352,248,26921,2,0,L|432:280,1,70
248,160,27229,1,0,0:0:0:0:
344,80,27383,2,0,L|440:64,1,70
184,80,27691,6,0,P|128:96|104:112,1,70
72,192,27998,1,0,0:0:0:0:
72,216,28075,1,0,0:0:0:0:
72,240,28152,1,0,0:0:0:0:
96,336,28306,2,0,L|176:336,2,70
248,328,28768,1,0,0:0:0:0:
336,272,28921,2,0,P|376:248|416:200,1,105
280,104,29383,1,0,0:0:0:0:
120,80,29652,2,0,P|88:128|80:168,1,87.5
160,304,30152,6,0,P|112:256|96:176,1,140
200,56,30768,2,0,L|360:104,1,140
272,168,31229,2,0,L|224:112,1,70
432,192,31498,1,0,0:0:0:0:
384,288,31691,2,0,L|304:312,1,70
232,320,31998,2,0,P|168:296|136:224,1,140
160,144,32575,1,0,0:0:0:0:
232,96,32921,6,0,L|296:64,1,70
264,176,33383,1,0,0:0:0:0:
152,232,33691,1,0,0:0:0:0:
384,152,33998,1,0,0:0:0:0:
192,112,35383,6,0,L|96:136,1,70,2|0,0:0|0:0,0:0:0:0:
104,224,35691,1,2,0:0:0:0:
240,320,35998,1,2,0:0:0:0:
344,224,36306,1,2,0:0:0:0:
304,104,36614,2,0,P|256:72|104:88,1,210,2|0,0:0|0:0,0:0:0:0:
104,272,37844,6,0,P|152:312|296:328,1,210,2|0,0:0|0:0,0:0:0:0:
296,224,38614,1,0,0:0:0:0:
136,176,38921,1,0,0:0:0:0:
96,88,39075,2,0,P|200:64|303:88,1,210,2|0,0:0|0:0,0:0:0:0:
304,104,39614,1,0,0:0:0:0:
304,120,39691,1,0,0:0:0:0:
328,312,39998,6,0,P|224:336|168:320,1,140
208,240,40460,1,0,0:0:0:0:
224,152,40614,1,0,0:0:0:0:
240,56,40768,2,0,P|160:72|120:128,1,140
128,216,41229,2,0,P|152:280|216:312,1,140
288,296,41691,1,0,0:0:0:0:
376,208,41844,1,0,0:0:0:0:
248,80,41998,2,0,P|192:104|176:120,2,70
256,192,42537,12,0,43768,0:0:0:0:
256,120,43883,6,0,L|256:256,1,122.5
320,144,44844,6,0,L|232:208,1,105
160,248,45229,6,0,L|80:304,1,70
168,152,45537,2,0,L|96:176,1,70
272,256,45844,2,0,L|200:320,1,70
304,136,46152,2,0,L|232:168,1,70
248,56,46460,2,0,L|168:64,1,70
368,288,46768,2,0,L|440:264,1,70
392,176,47075,2,0,L|488:192,1,70
328,96,47383,2,0,L|424:72,1,70
392,64,47614,1,0,0:0:0:0:
384,48,47691,5,0,0:0:0:0:
216,48,47844,1,0,0:0:0:0:
96,160,47998,1,0,0:0:0:0:
120,88,48152,1,0,0:0:0:0:
208,256,48306,1,0,0:0:0:0:
136,224,48460,1,0,0:0:0:0:
288,296,48614,2,0,L|368:280,1,70
392,208,48921,5,0,0:0:0:0:
408,120,49075,1,0,0:0:0:0:
344,56,49229,1,2,0:0:0:0:
240,48,49383,2,0,P|192:56|152:64,1,70,0|2,0:0|0:0,0:0:0:0:
88,160,49691,5,0,0:0:0:0:
128,272,49844,2,0,P|208:288|272:256,1,140,2|0,0:0|0:0,0:0:0:0:
344,176,50306,1,0,0:0:0:0:
256,64,50460,1,0,0:0:0:0:
160,168,50614,1,0,0:0:0:0:
208,112,50768,1,0,0:0:0:0:
112,256,50921,2,0,L|192:272,1,70
320,288,51229,2,0,P|360:264|392:168,1,140
368,72,51691,5,0,0:0:0:0:
368,72,51844,1,0,0:0:0:0:
320,184,51998,2,0,P|248:248|184:256,1,140
64,192,52537,2,0,P|32:128|64:40,1,157.5
112,56,53075,2,0,P|136:96|216:152,1,140
256,192,53537,2,0,P|296:256|288:272,1,87.5
208,312,53844,2,0,P|136:304|80:248,1,140
48,136,54306,1,0,0:0:0:0:
160,56,54614,5,0,0:0:0:0:
184,64,54768,2,0,P|256:64|272:56,1,70,4|0,0:0|0:0,0:0:0:0:
400,144,55229,1,0,0:0:0:0:
416,224,55383,1,0,0:0:0:0:
352,296,55537,2,0,L|272:328,1,70
56,336,55998,6,0,L|136:296,1,70,4|0,0:0|0:0,0:0:0:0:
168,200,56306,1,0,0:0:0:0:
256,144,56460,1,0,0:0:0:0:
120,144,56614,1,0,0:0:0:0:
304,208,56768,1,0,0:0:0:0:
472,264,56921,1,0,0:0:0:0:
424,320,57229,6,0,L|480:248,1,70
488,168,57537,2,0,L|448:96,1,70
376,56,57844,1,0,0:0:0:0:
288,48,57998,1,0,0:0:0:0:
216,96,58152,1,0,0:0:0:0:
160,160,58306,1,0,0:0:0:0:
168,256,58460,2,0,L|216:296,1,35
72,176,58768,5,0,0:0:0:0:
56,88,58921,1,0,0:0:0:0:
128,40,59075,1,0,0:0:0:0:
208,80,59229,2,0,L|256:144,1,70,2|4,0:0|0:0,0:0:0:0:
424,80,59844,6,0,P|368:96|344:104,1,70
64,64,60614,1,0,0:0:0:0:
72,88,60691,1,0,0:0:0:0:
80,104,60768,1,0,0:0:0:0:
88,128,60844,1,0,0:0:0:0:
96,152,60921,2,0,L|48:208,1,70,0|8,0:0|0:0,0:0:0:0:
160,296,61383,1,8,0:0:0:0:
296,240,61691,1,8,0:0:0:0:
408,48,62306,6,0,L|304:72,1,105
240,128,62768,2,0,L|272:208,1,70
208,280,63075,2,0,L|112:288,1,70
56,224,63383,1,0,0:0:0:0:
48,136,63537,1,0,0:0:0:0:
128,56,63844,2,0,L|288:72,1,140,8|4,0:0|0:0,0:0:0:0:
112,112,64921,5,0,0:0:0:0:
120,152,64998,1,0,0:0:0:0:
120,192,65075,1,0,0:0:0:0:
112,232,65152,1,0,0:0:0:0:
120,272,65229,1,0,0:0:0:0:
144,304,65306,1,0,0:0:0:0:
176,320,65383,1,0,0:0:0:0:
216,320,65460,1,0,0:0:0:0:
256,304,65537,1,0,0:0:0:0:
272,256,65614,1,0,0:0:0:0:
272,208,65691,5,0,0:0:0:0:
240,176,65768,1,0,0:0:0:0:
208,144,65844,1,0,0:0:0:0:
184,112,65921,1,0,0:0:0:0:
200,72,65998,1,0,0:0:0:0:
240,56,66075,1,0,0:0:0:0:
288,64,66152,6,0,L|328:88,1,35
363,207,66383,2,0,L|331:191,1,35
192,208,66691,2,0,L|191:242,1,35
168,264,66844,1,0,0:0:0:0:
136,272,66921,1,0,0:0:0:0:
104,256,66998,1,0,0:0:0:0:
80,224,67075,1,0,0:0:0:0:
56,184,67152,1,0,0:0:0:0:
48,144,67229,2,0,L|56:96,2,35
64,88,67460,1,0,0:0:0:0:
96,80,67537,1,0,0:0:0:0:
128,95,67614,5,0,0:0:0:0:
152,120,67691,1,0,0:0:0:0:
168,152,67768,1,0,0:0:0:0:
184,176,67844,1,0,0:0:0:0:
200,200,67921,2,0,L|208:240,3,35
232,256,68229,1,0,0:0:0:0:
272,264,68306,1,0,0:0:0:0:
312,248,68383,1,0,0:0:0:0:
344,224,68460,1,0,0:0:0:0:
352,184,68537,1,4,0:0:0:0:
248,64,69075,5,0,0:0:0:0:
232,88,69152,1,0,0:0:0:0:
208,96,69229,2,0,L|136:120,1,70
120,144,69537,2,0,L|64:200,1,70
64,224,69844,1,12,0:0:0:0:
96,112,84614,5,0,0:0:0:0:
176,264,84921,1,0,0:0:0:0:
328,192,85229,1,0,0:0:0:0:
256,56,85537,1,0,0:0:0:0:
80,168,85844,1,0,0:0:0:0:
264,288,86152,1,0,0:0:0:0:
344,128,86460,1,0,0:0:0:0:
192,48,86768,1,0,0:0:0:0:
168,152,87075,6,0,L|64:192,1,105.000004005432
224,248,87537,2,0,L|160:344,1,105.000004005432
344,112,87998,2,0,L|480:72,1,105.000004005432
224,128,88460,2,0,L|288:16,1,105.000004005432
136,128,88921,1,0,0:0:0:0:
128,136,88998,1,0,0:0:0:0:
120,144,89075,1,0,0:0:0:0:
112,152,89152,1,0,0:0:0:0:
104,160,89229,1,0,0:0:0:0:
240,240,89460,6,0,L|320:200|384:168,1,157.500006008148
352,104,89844,2,0,L|232:144,1,105.000004005432
176,160,90152,1,0,0:0:0:0:
272,232,90306,1,0,0:0:0:0:
136,216,90460,1,0,0:0:0:0:
272,232,90614,1,0,0:0:0:0:
363,180,91383,5,0,0:0:0:0:
363,180,91460,1,0,0:0:0:0:
384,200,91537,1,0,0:0:0:0:
384,200,91614,1,0,0:0:0:0:
384,200,91691,1,0,0:0:0:0:
384,200,91768,1,0,0:0:0:0:
384,200,91844,1,0,0:0:0:0:
384,200,91921,2,0,P|400:144|384:104,1,70
216,128,92152,6,0,L|296:96,1,70
112,152,92460,2,0,L|40:120,1,70
224,224,92768,1,0,0:0:0:0:
152,248,92921,1,0,0:0:0:0:
296,104,93075,1,0,0:0:0:0:
216,128,93229,1,0,0:0:0:0:
400,152,93383,2,0,L|440:216,1,70
304,352,93691,2,0,L|352:272,1,70
336,272,93921,1,0,0:0:0:0:
328,240,93998,1,0,0:0:0:0:
144,288,94152,2,0,L|176:200,1,70
88,144,94460,5,0,0:0:0:0:
240,64,94614,2,0,L|184:112,1,70
128,192,94921,1,0,0:0:0:0:
144,296,95075,1,0,0:0:0:0:
248,336,95229,1,0,0:0:0:0:
328,264,95383,1,0,0:0:0:0:
304,160,95537,1,0,0:0:0:0:
168,88,95691,2,0,L|80:72,2,70
344,48,96152,1,0,0:0:0:0:
272,128,96268,1,0,0:0:0:0:
448,152,96460,1,0,0:0:0:0:
424,168,96537,1,0,0:0:0:0:
392,176,96614,6,0,L|320:176,1,70
104,96,96921,2,0,L|167:67,1,70
191,243,97229,2,0,L|128:272,1,70
256,96,97537,2,0,L|319:67,1,70
338,211,97844,1,0,0:0:0:0:
266,263,97998,1,0,0:0:0:0:
256,144,98152,1,0,0:0:0:0:
328,88,98306,1,0,0:0:0:0:
160,105,98460,1,0,0:0:0:0:
252,32,98614,1,0,0:0:0:0:
208,200,98768,6,0,P|232:280|232:288,1,70
256,264,98998,1,0,0:0:0:0:
280,240,99075,1,0,0:0:0:0:
368,80,99229,2,0,P|256:64|192:64,1,175
96,112,99729,1,0,0:0:0:0:
104,216,99844,2,0,P|160:256|296:336,1,210
432,280,100460,1,0,0:0:0:0:
472,136,100614,2,0,P|408:104|320:104,1,140
232,32,101075,1,0,0:0:0:0:
112,128,101191,5,0,0:0:0:0:
104,152,101268,1,0,0:0:0:0:
104,176,101344,1,0,0:0:0:0:
104,200,101421,1,0,0:0:0:0:
104,224,101498,1,0,0:0:0:0:
104,248,101575,1,0,0:0:0:0:
184,328,101691,6,0,L|296:248,1,122.5
312,152,102152,1,0,0:0:0:0:
415,125,102306,1,0,0:0:0:0:
312,152,102460,1,0,0:0:0:0:
192,88,102614,2,0,L|152:96,2,35
75,159,102921,2,0,P|131:247|155:279,1,140,6|0,0:0|0:0,0:0:0:0:
256,224,103383,1,0,0:0:0:0:
368,192,103537,1,0,0:0:0:0:
256,192,103691,1,0,0:0:0:0:
184,88,103844,2,0,L|136:120,2,35
96,192,104152,5,0,0:0:0:0:
256,296,104460,5,0,0:0:0:0:
336,272,104614,1,0,0:0:0:0:
384,200,104768,1,0,0:0:0:0:
400,120,104921,1,0,0:0:0:0:
304,56,105075,2,0,L|224:48,2,70
48,192,105691,1,0,0:0:0:0:
208,256,105844,1,0,0:0:0:0:
80,224,105998,1,0,0:0:0:0:
208,264,106152,1,0,0:0:0:0:
352,240,106460,5,0,0:0:0:0:
368,208,106537,1,0,0:0:0:0:
368,176,106614,2,0,L|320:104,1,70
136,88,107383,5,0,0:0:0:0:
120,112,107460,1,0,0:0:0:0:
104,136,107537,2,0,L|144:200,1,70
240,72,107844,1,0,0:0:0:0:
259,250,108152,1,0,0:0:0:0:
390,169,108460,1,0,0:0:0:0:
240,80,108998,6,0,L|104:88,1,105
80,136,109383,2,0,L|56:208,1,70
88,272,109691,1,0,0:0:0:0:
120,312,109768,1,0,0:0:0:0:
168,328,109844,1,0,0:0:0:0:
216,312,109921,1,0,0:0:0:0:
264,280,109998,1,0,0:0:0:0:
288,232,110075,1,0,0:0:0:0:
296,176,110152,1,0,0:0:0:0:
200,104,110306,5,0,0:0:0:0:
344,72,110614,1,0,0:0:0:0:
432,216,110921,1,0,0:0:0:0:
224,312,111229,5,0,0:0:0:0:
192,296,111306,1,0,0:0:0:0:
160,272,111383,2,0,L|120:200,1,70
112,112,111691,1,0,0:0:0:0:
200,80,111844,2,0,L|248:64,2,35
384,120,112152,5,0,0:0:0:0:
400,152,112229,1,0,0:0:0:0:
408,184,112306,1,0,0:0:0:0:
408,224,112383,1,0,0:0:0:0:
392,256,112460,1,0,0:0:0:0:
368,288,112537,1,0,0:0:0:0:
336,304,112614,1,0,0:0:0:0:
224,304,112768,6,0,L|144:272,1,70
113,197,113075,2,0,L|233:173,2,105
225,82,113691,2,0,L|145:66,2,70
128,80,114152,5,0,0:0:0:0:
72,200,114306,1,0,0:0:0:0:
160,320,114460,1,0,0:0:0:0:
296,312,114614,1,0,0:0:0:0:
360,168,114768,1,0,0:0:0:0:
256,64,114921,1,0,0:0:0:0:
200,184,115075,1,0,0:0:0:0:
200,184,115229,1,0,0:0:0:0:
200,176,115536,6,0,L|200:104,1,70
200,80,115844,2,0,L|200:144,1,52.5000020027161
