osu file format v14

[General]
AudioFilename: audio.mp3
AudioLeadIn: 0
PreviewTime: 90704
Countdown: 0
SampleSet: Soft
StackLeniency: 0.7
Mode: 0
LetterboxInBreaks: 0
WidescreenStoryboard: 1

[Editor]
DistanceSpacing: 0.5
BeatDivisor: 8
GridSize: 8
TimelineZoom: 1.900001

[Metadata]
Title:Kimi to Mita Sora no Uta
TitleUnicode:君と見たソラの歌
Artist:TAKU1175 & Ryota Kikuchi
ArtistUnicode:TAKU1175 & Ryota Kikuchi
Creator:Megpoi
Version:Hard
Source:VOEZ
Tags:jyu ryuki voez gumi
BeatmapID:999887
BeatmapSetID:467313

[Difficulty]
HPDrainRate:6
CircleSize:3.5
OverallDifficulty:6
ApproachRate:7
SliderMultiplier:1.4
SliderTickRate:2

[Events]
//Background and Video events
0,0,"background.jpg",0,0
//Break Periods
2,15890,22944
2,28659,29868
2,70044,83714
//Storyboard Layer 0 (Background)
//Storyboard Layer 1 (Fail)
//Storyboard Layer 2 (Pass)
//Storyboard Layer 3 (Foreground)
//Storyboard Sound Samples

[TimingPoints]
1078,307.692307692308,4,2,0,40,1,0
1132,-100,4,2,0,40,0,0
5802,-133.333333333333,4,2,0,40,0,0
6523,-100,4,2,0,40,0,0
8154,307.692307692308,4,2,0,40,1,0
8923,307.692307692308,4,2,0,40,1,0
9999,307.692307692308,4,2,0,40,1,0
10255,-133.333333333333,4,2,0,40,0,0
10768,307.692307692308,4,2,0,40,1,0
11067,-100,4,1,0,100,0,0
39962,-100,4,1,0,70,0,0
40345,-133.333333333333,4,1,0,80,0,0
44921,-100,4,2,0,65,0,1
54921,-100,4,1,0,100,0,0
60272,-100,4,1,0,5,0,0
60464,-100,4,1,0,100,0,0
64741,-200,4,2,0,50,0,0
64933,-200,4,2,0,20,0,0
69727,-200,4,2,0,70,0,0
84574,-133.333333333333,4,1,0,100,0,0
86998,-100,4,1,0,100,0,0
91844,-100,4,1,0,100,0,1
94079,-100,4,1,0,5,0,1
94229,-100,4,1,0,100,0,1
101691,-100,4,1,0,70,0,0
115229,307.692307692308,4,2,0,40,1,0

[Colours]
Combo1 : 255,255,0
Combo2 : 0,128,255
Combo3 : 255,0,0
Combo4 : 0,255,0

[HitObjects]
200,120,1078,6,0,L|64:80,1,140
160,200,1693,2,0,L|312:216,1,140
392,136,2308,2,0,L|240:104,1,140
216,104,2770,1,0,0:0:0:0:
160,104,2924,1,0,0:0:0:0:
128,160,3154,1,0,0:0:0:0:
152,240,3385,1,0,0:0:0:0:
248,280,3539,6,0,L|352:280,1,105
480,296,4001,2,0,L|480:184,1,105
400,64,4616,2,0,P|336:64|184:72,1,210
112,128,5231,1,0,0:0:0:0:
104,232,5462,1,0,0:0:0:0:
104,240,6001,6,0,P|152:264|272:224,1,183.750007009506
408,216,6924,6,0,L|448:248,4,35
408,200,7270,2,0,P|376:144|360:120,1,70
248,56,7693,2,0,L|200:128,1,70
104,152,8001,2,0,L|48:96,1,70
80,304,8615,1,0,0:0:0:0:
80,304,8692,1,0,0:0:0:0:
80,304,8769,1,0,0:0:0:0:
224,312,8923,1,0,0:0:0:0:
224,312,9230,1,0,0:0:0:0:
352,304,9538,2,0,L|440:304,3,70
488,208,10152,1,0,0:0:0:0:
448,80,10460,6,0,P|344:56|336:56,1,105.000004005432
240,80,11075,2,0,L|104:128,1,140
176,232,11691,1,0,0:0:0:0:
288,296,11998,2,0,L|384:184,1,140
360,80,12614,1,0,0:0:0:0:
248,64,12921,6,0,P|160:80|112:112,1,140
240,184,13537,1,0,0:0:0:0:
352,232,13844,2,0,P|344:296|280:344,1,140
184,296,14460,1,0,0:0:0:0:
88,336,14768,1,0,0:0:0:0:
40,232,15075,1,0,0:0:0:0:
64,120,15383,2,0,P|112:88|192:96,1,140
256,48,23844,5,0,0:0:0:0:
152,80,23998,1,0,0:0:0:0:
96,160,24152,1,0,0:0:0:0:
128,240,24306,2,0,L|72:312,2,70
232,208,24768,2,0,L|264:280,2,70
392,72,25383,2,0,P|416:128|376:208,1,140
328,304,25844,5,0,0:0:0:0:
224,272,26152,2,0,L|152:256,2,70
352,296,26614,2,0,P|384:256|432:192,1,105
400,136,27075,1,0,0:0:0:0:
304,64,27383,2,0,P|240:48|168:56,1,140
96,272,27998,2,0,P|176:320|304:304,1,210
360,232,30768,6,0,P|384:168|376:96,1,140
304,112,31229,1,0,0:0:0:0:
232,136,31383,1,0,0:0:0:0:
152,128,31537,2,0,L|104:192,2,70
136,56,31998,2,0,P|184:48|280:64,1,140
384,96,32614,1,0,0:0:0:0:
368,240,32921,2,0,P|320:272|216:264,1,157.5
152,232,33383,1,0,0:0:0:0:
216,128,33691,1,0,0:0:0:0:
72,64,33998,1,0,0:0:0:0:
168,144,35383,5,0,0:0:0:0:
168,288,35691,1,0,0:0:0:0:
312,200,35998,1,0,0:0:0:0:
168,144,36306,1,0,0:0:0:0:
168,288,36614,1,0,0:0:0:0:
312,200,36921,1,0,0:0:0:0:
176,160,37229,2,0,L|80:48,1,140
64,192,37844,5,0,0:0:0:0:
208,136,38152,1,0,0:0:0:0:
88,48,38460,1,0,0:0:0:0:
64,192,38768,1,0,0:0:0:0:
208,136,39075,1,0,0:0:0:0:
88,48,39383,2,0,L|248:48,1,140
336,88,39998,2,0,L|376:176,1,70
352,232,40306,5,0,0:0:0:0:
280,280,40460,1,0,0:0:0:0:
192,296,40614,2,0,P|136:280|96:232,1,105.000004005432
104,48,41229,1,0,0:0:0:0:
112,64,41306,1,0,0:0:0:0:
128,80,41383,2,0,L|184:112,1,52.5000020027161
320,144,41844,1,0,0:0:0:0:
352,224,41998,1,0,0:0:0:0:
296,280,42152,2,0,P|208:304|176:296,1,105.000004005432
256,192,42614,12,0,43844,0:0:0:0:
112,96,45075,5,0,0:0:0:0:
128,240,45229,2,0,L|72:296,2,70
392,288,45691,2,0,L|416:216,2,70
256,256,46152,1,0,0:0:0:0:
256,128,46306,2,0,L|336:80,2,70
288,240,46768,1,0,0:0:0:0:
352,272,46921,1,0,0:0:0:0:
416,240,47075,1,0,0:0:0:0:
248,128,47383,2,0,L|200:184,1,70
408,120,47844,2,0,L|368:56,2,70
408,224,48306,5,0,0:0:0:0:
352,288,48460,1,0,0:0:0:0:
272,312,48614,1,0,0:0:0:0:
187,312,48768,1,0,0:0:0:0:
128,256,48921,2,0,L|69:129,2,140
176,296,49844,2,0,L|224:240,2,70
88,232,50460,2,0,P|64:160|64:88,1,140
152,64,51075,6,0,L|232:48,1,70
376,176,51614,2,0,L|288:216,1,70
192,240,52152,1,0,0:0:0:0:
128,240,52306,2,0,P|80:176|80:64,1,192.5
168,104,52998,2,0,P|200:152|248:216,1,122.5
344,280,53498,1,0,0:0:0:0:
424,208,53691,2,0,P|432:144|392:64,1,140
304,64,54306,2,0,P|296:112|360:184,1,140
400,144,54921,6,0,P|432:240|400:272,1,140
344,288,55383,1,0,0:0:0:0:
264,296,55537,2,0,P|216:280|184:240,1,70
104,72,56152,6,0,P|72:128|80:208,1,140
112,248,56614,1,0,0:0:0:0:
160,288,56768,1,0,0:0:0:0:
224,296,56921,2,0,P|264:272|288:224,1,87.5
288,112,57383,1,0,0:0:0:0:
400,80,57691,6,0,L|464:48,2,70
408,168,58152,2,0,L|480:184,1,70
488,256,58460,1,0,0:0:0:0:
400,232,58614,1,0,0:0:0:0:
296,280,58921,1,0,0:0:0:0:
240,232,59075,1,0,0:0:0:0:
208,168,59229,1,0,0:0:0:0:
192,88,59383,2,0,P|123:97|32:88,1,140
72,224,59998,6,0,B|96:264|136:304|216:320,1,175
352,304,60614,1,0,0:0:0:0:
352,304,60691,1,0,0:0:0:0:
352,304,60768,1,0,0:0:0:0:
376,176,61075,2,0,L|304:104,1,70
251,136,61383,1,0,0:0:0:0:
176,152,61537,2,0,L|112:216,1,70
280,304,62306,6,0,P|344:272|352:256,1,70
312,192,62614,2,0,L|272:128,2,70
368,120,63075,2,0,L|400:48,2,70
272,64,63537,1,0,0:0:0:0:
192,184,63844,1,0,0:0:0:0:
264,288,64152,1,0,0:0:0:0:
192,56,64768,6,0,B|136:64|64:168|112:256|176:272,1,280
184,290,66075,2,0,L|204:305,1,17.5
304,248,66306,2,0,L|320:296,2,35
368,160,66768,2,0,L|416:168,2,35
328,48,67229,2,0,P|240:32|80:128,1,280
96,208,68768,2,0,P|96:248|88:280,2,70
128,136,69537,1,0,0:0:0:0:
192,88,69691,1,0,0:0:0:0:
272,72,69844,1,4,0:0:0:0:
234,288,84614,6,0,P|314:232|328:224,1,105.000004005432
221,110,85229,2,0,L|128:168,1,105.000004005432
342,187,85844,2,0,L|264:104,1,105.000004005432
144,184,86460,2,0,L|224:264,1,105.000004005432
336,288,87075,6,0,P|376:240|392:152,1,140
336,72,87537,2,0,P|312:104|304:200,1,140
400,200,87998,2,0,P|368:120|304:72,1,140
240,96,88460,2,0,P|248:160|336:200,1,140
392,208,88921,1,0,0:0:0:0:
304,296,89229,1,0,0:0:0:0:
208,296,89537,2,0,L|160:224,3,70
169,237,90152,5,0,0:0:0:0:
169,237,90306,1,0,0:0:0:0:
169,237,90460,1,0,0:0:0:0:
169,237,90614,1,0,0:0:0:0:
368,176,91383,6,0,L|424:144,5,35
360,192,91844,2,0,L|304:264,1,70
248,296,92152,1,0,0:0:0:0:
160,304,92306,1,0,0:0:0:0:
80,272,92460,2,0,P|48:232|48:176,1,105
208,80,93075,2,0,P|240:96|280:120,1,70
296,192,93383,2,0,L|320:272,2,70
208,160,93844,1,0,0:0:0:0:
128,128,93998,2,0,L|32:112,1,70
200,336,94614,5,0,0:0:0:0:
280,304,94768,1,0,0:0:0:0:
328,232,94921,1,0,0:0:0:0:
328,152,95075,2,0,L|328:72,2,70
272,232,95537,2,0,P|216:264|128:256,1,140
72,192,95998,2,0,L|32:112,2,70
136,264,96460,2,0,P|232:288|288:304,1,140
360,248,96921,6,0,L|416:216,1,35
176,112,97383,2,0,L|160:184,1,70
248,304,97844,2,0,P|288:304|360:232,1,140
384,152,98460,2,0,L|400:64,2,70
320,216,99075,2,0,P|256:240|168:224,1,140
104,168,99691,2,0,L|72:96,1,70
168,288,100306,2,0,B|192:352|288:360|368:232|272:184,1,280
176,168,101075,2,0,B|176:112|240:64|336:80|368:120,1,210
384,208,101691,6,0,P|376:256|232:288,1,210
160,256,102306,1,0,0:0:0:0:
120,184,102460,2,0,L|88:104,1,70
192,80,102921,2,0,P|240:72|328:104,1,140
368,168,103383,1,0,0:0:0:0:
352,240,103537,1,0,0:0:0:0:
288,280,103691,2,0,L|208:280,1,70
216,240,104152,6,0,L|208:120,1,105
184,80,104460,6,0,L|96:96,2,70
280,112,104921,1,0,0:0:0:0:
344,168,105075,1,0,0:0:0:0:
336,248,105229,2,0,L|272:296,1,70
200,296,105537,1,0,0:0:0:0:
136,248,105691,2,0,L|120:168,2,70
200,296,106152,2,0,P|256:288|320:224,1,140
352,168,106614,5,0,0:0:0:0:
328,96,106768,2,0,P|280:80|112:80,1,210
112,88,107306,1,0,0:0:0:0:
96,96,107383,1,0,0:0:0:0:
168,296,107844,1,0,0:0:0:0:
264,192,108152,1,0,0:0:0:0:
128,152,108460,1,0,0:0:0:0:
344,256,109075,6,0,L|376:304,1,35
344,232,109229,2,0,P|312:160|256:128,1,140
176,160,109691,2,0,L|104:184,1,70
136,264,109998,1,0,0:0:0:0:
240,304,110152,2,0,L|272:224,1,70
232,120,110614,1,0,0:0:0:0:
384,96,110921,1,0,0:0:0:0:
360,272,111537,5,0,0:0:0:0:
264,256,111691,2,0,L|96:192,1,175
144,96,112306,2,0,L|232:88,2,70
112,192,112768,1,0,0:0:0:0:
152,280,113075,1,0,0:0:0:0:
256,288,113383,1,0,0:0:0:0:
336,208,113691,2,0,L|376:136,2,70
216,232,114306,6,0,L|200:160,2,70
128,216,114768,2,0,L|56:192,2,70
168,312,115229,1,0,0:0:0:0:
368,248,115536,6,0,P|368:192|336:96,1,140
