osu file format v14

[General]
AudioFilename: audio.mp3
AudioLeadIn: 0
PreviewTime: 90704
Countdown: 0
SampleSet: Soft
StackLeniency: 0.7
Mode: 0
LetterboxInBreaks: 0
WidescreenStoryboard: 1

[Editor]
DistanceSpacing: 0.5
BeatDivisor: 8
GridSize: 8
TimelineZoom: 1.7

[Metadata]
Title:Kimi to Mita Sora no Uta
TitleUnicode:君と見たソラの歌
Artist:TAKU1175 & Ryota Kikuchi
ArtistUnicode:TAKU1175 & Ryota Kikuchi
Creator:Megpoi
Version:Gazing
Source:VOEZ
Tags:
BeatmapID:1001823
BeatmapSetID:467313

[Difficulty]
HPDrainRate:7.5
CircleSize:4.3
OverallDifficulty:7.1
ApproachRate:9.5
SliderMultiplier:1.6
SliderTickRate:2

[Events]
//Background and Video events
0,0,"background.jpg",0,0
//Break Periods
2,16006,23319
2,70454,79166
//Storyboard Layer 0 (Background)
//Storyboard Layer 1 (Fail)
//Storyboard Layer 2 (Pass)
//Storyboard Layer 3 (Foreground)
//Storyboard Sound Samples

[TimingPoints]
1078,307.692307692308,4,2,0,40,1,0
6020,-100,4,2,0,60,0,0
8154,307.692307692308,4,2,0,40,1,0
8417,-100,4,2,0,20,0,0
8572,-100,4,2,0,40,0,0
8923,307.692307692308,4,2,0,40,1,0
9999,307.692307692308,4,2,0,40,1,0
10041,-133.333333333333,4,2,0,40,0,0
10255,-133.333333333333,4,2,0,40,0,0
10768,307.692307692308,4,2,0,40,1,0
15735,-100,4,1,0,5,0,0
23691,-100,4,1,0,40,0,0
27987,-100,4,1,0,50,0,0
28103,-100,4,1,0,80,0,0
29146,-100,4,1,0,5,0,0
29224,-100,4,1,0,80,0,0
29804,-100,4,1,0,5,0,0
29881,-100,4,1,0,80,0,0
34366,-100,4,1,0,30,0,0
40345,-100,4,1,0,80,0,0
40773,-100,4,1,0,80,0,0
43675,-100,4,2,0,5,0,0
43751,-100,4,2,0,80,0,0
44784,-100,4,2,0,5,0,0
44921,-100,4,2,0,65,0,1
49882,-100,4,1,0,100,0,1
52897,-100,4,1,0,5,0,1
52936,-100,4,1,0,100,0,1
53168,-100,4,1,0,75,0,1
53400,-100,4,1,0,100,0,1
53632,-100,4,1,0,65,0,1
53748,-100,4,1,0,75,0,1
53786,-100,4,1,0,100,0,1
53941,-100,4,1,0,5,0,1
54173,-100,4,1,0,100,0,1
54921,-100,4,1,0,100,0,0
64460,-100,4,2,0,25,0,0
69361,-100,4,1,0,50,0,0
69844,-133.333333333333,4,2,0,20,0,0
70188,-133.333333333333,4,2,0,5,0,0
70341,-133.333333333333,4,1,0,10,0,0
79677,-133.333333333333,4,1,0,40,0,0
80383,-133.333333333333,4,1,0,5,0,0
80488,-133.333333333333,4,2,0,20,0,0
84614,-100,4,2,0,50,0,0
85229,-100,4,2,0,60,0,0
85844,-100,4,2,0,80,0,0
86460,-100,4,2,0,90,0,0
86998,-66.6666666666667,4,1,0,100,0,0
91844,-100,4,1,0,100,0,1
101691,-100,4,1,0,70,0,0
115229,307.692307692308,4,2,0,40,1,0
115464,-133.333333333333,4,1,0,100,0,0
115847,-66.6666666666667,4,1,0,100,0,0

[Colours]
Combo1 : 255,255,0
Combo2 : 0,128,255
Combo3 : 255,0,0
Combo4 : 0,255,0

[HitObjects]
96,104,1078,6,0,P|88:144|96:200,1,80
192,280,1385,2,0,P|216:232|216:192,1,80,2|0,0:0|0:0,0:0:0:0:
344,88,1693,2,0,P|360:128|392:160,1,80,2|0,0:0|0:0,0:0:0:0:
496,184,2001,2,0,P|472:136|440:112,1,80
200,232,2308,2,0,P|232:280|264:296,1,80,2|0,0:0|0:0,0:0:0:0:
304,208,2616,2,0,P|280:168|240:152,1,80,2|2,0:0|0:0,0:0:0:0:
192,32,2924,1,0,0:0:0:0:
54,113,3154,1,0,0:0:0:0:
216,165,3308,1,2,0:0:0:0:
69,256,3539,1,2,0:0:0:0:
400,104,3847,6,0,L|360:72,1,40,2|0,0:0|0:0,0:0:0:0:
336,80,4001,1,0,0:0:0:0:
80,184,4308,2,0,P|96:240|120:256,1,80
216,200,4616,2,0,L|168:120,1,80,2|0,0:0|0:0,0:0:0:0:
176,112,4885,1,0,0:0:0:0:
184,88,4962,1,0,0:0:0:0:
195,69,5039,2,0,P|251:61|296:80,1,100
320,240,5385,1,2,0:0:0:0:
432,120,5539,2,0,L|408:152,1,40,2|0,0:0|0:0,0:0:0:0:
88,272,6001,5,2,0:0:0:0:
240,232,6154,1,2,0:0:0:0:
184,320,6308,1,0,0:0:0:0:
112,152,6462,2,0,P|144:80|240:64,1,160,2|0,0:0|0:0,0:0:0:0:
368,88,6924,5,0,0:0:0:0:
392,112,7001,1,0,0:0:0:0:
408,152,7078,2,0,P|368:192|336:192,1,80
288,72,7385,1,4,0:0:0:0:
256,240,7539,2,0,P|216:248|160:232,1,80
232,80,7847,1,4,0:0:0:0:
112,184,8001,2,4,P|80:144|168:24,1,220,0|0,0:0|0:0,0:0:0:0:
282,131,8615,5,0,0:0:0:0:
282,131,8692,1,0,0:0:0:0:
282,131,8769,1,0,0:0:0:0:
296,304,8923,2,0,L|256:216,1,80
144,288,9230,1,0,0:0:0:0:
56,144,9538,1,0,0:0:0:0:
272,64,9692,1,0,0:0:0:0:
440,208,9846,1,0,0:0:0:0:
256,112,9999,5,0,0:0:0:0:
176,296,10306,2,0,B|152:272|104:184|144:128,1,180.000006866455
224,256,10921,1,0,0:0:0:0:
192,104,11229,6,0,L|120:56,1,80
416,296,11537,2,0,L|336:224,1,80
72,240,11844,2,0,L|168:192,1,80
352,112,12152,2,0,L|432:72,1,80
456,232,12460,6,0,L|360:208,1,80,2|2,0:0|0:0,0:0:0:0:
152,136,12768,2,0,L|72:112,1,80,0|2,0:0|0:0,0:0:0:0:
192,16,13075,2,0,L|224:112,1,80,0|4,0:0|0:0,0:0:0:0:
272,264,13383,2,0,L|312:360,1,80
128,304,13691,5,0,0:0:0:0:
184,240,13844,1,0,0:0:0:0:
296,104,13998,1,0,0:0:0:0:
336,40,14152,1,0,0:0:0:0:
432,168,14306,1,2,0:0:0:0:
336,184,14460,1,2,0:0:0:0:
112,200,14614,6,0,L|32:208,1,80
96,56,14921,1,8,0:0:0:0:
176,128,15075,1,8,0:0:0:0:
336,272,15229,2,0,L|400:320,1,80,0|8,0:0|0:0,0:0:0:0:
440,168,15537,6,0,L|296:168,1,140,4|0,0:0|0:0,0:0:0:0:
112,192,23844,5,0,0:0:0:0:
328,312,23998,1,0,0:0:0:0:
328,72,24152,1,0,0:0:0:0:
296,232,24460,5,2,0:0:0:0:
184,168,24614,1,2,0:0:0:0:
280,112,24768,1,2,0:0:0:0:
304,120,24845,1,0,0:0:0:0:
320,144,24922,1,0,0:0:0:0:
216,272,25075,1,0,0:0:0:0:
192,264,25152,1,0,0:0:0:0:
176,240,25229,1,0,0:0:0:0:
168,104,25383,2,0,P|128:136|136:232,1,140,4|0,0:0|0:0,0:0:0:0:
304,280,25844,5,0,0:0:0:0:
368,152,26075,1,0,0:0:0:0:
384,152,26152,2,0,L|464:112,2,80
272,192,26614,2,0,P|184:192|144:144,1,140
96,40,27075,1,8,0:0:0:0:
104,264,27229,1,0,0:0:0:0:
224,120,27383,1,0,0:0:0:0:
432,240,27691,2,0,P|384:289|317:306,2,140,8|0|0,0:0|0:0|0:0,0:0:0:0:
432,216,28306,2,0,P|400:160|328:96,1,160
112,72,28768,5,2,0:0:0:0:
224,288,28921,2,0,P|224:216|272:144,1,160
424,176,29383,1,2,0:0:0:0:
384,296,29537,2,0,P|352:264|264:184,1,160
96,160,29998,1,0,0:0:0:0:
88,192,30075,1,0,0:0:0:0:
88,224,30152,2,0,P|120:256|256:248,1,160,2|0,0:0|0:0,0:0:0:0:
400,112,30768,6,0,P|368:88|312:80,1,80
288,72,30998,1,0,0:0:0:0:
240,96,31075,1,0,0:0:0:0:
160,176,31229,1,0,0:0:0:0:
368,181,31383,1,0,0:0:0:0:
152,216,31537,2,0,P|200:256|280:272,2,120,0|0|8,0:0|0:0|0:0,0:0:0:0:
72,128,32306,1,0,0:0:0:0:
304,64,32614,2,0,L|392:120,1,80
360,282,32921,2,0,P|320:306|264:304,1,80
136,208,33229,5,0,0:0:0:0:
112,216,33306,1,8,0:0:0:0:
88,224,33383,1,0,0:0:0:0:
168,80,33614,1,0,0:0:0:0:
112,296,34306,5,0,0:0:0:0:
88,256,34383,1,0,0:0:0:0:
64,208,34460,1,0,0:0:0:0:
167,105,34768,2,0,L|224:48,2,80
65,173,35229,1,0,0:0:0:0:
136,288,35383,6,0,P|184:304|288:272,1,160,4|0,0:0|0:0,0:0:0:0:
458,164,35998,1,0,0:0:0:0:
168,112,36306,1,0,0:0:0:0:
320,320,36614,1,0,0:0:0:0:
328,64,36921,1,0,0:0:0:0:
192,256,37229,1,0,0:0:0:0:
184,40,37537,6,0,L|112:184,1,160
296,96,38152,1,0,0:0:0:0:
48,264,38460,1,0,0:0:0:0:
304,232,38768,1,0,0:0:0:0:
96,64,39075,1,0,0:0:0:0:
176,296,39383,1,0,0:0:0:0:
304,280,39537,6,0,L|344:232,1,40
328,216,39691,1,0,0:0:0:0:
168,96,39921,2,0,L|72:192,1,120
120,304,40306,5,2,0:0:0:0:
240,328,40460,1,0,0:0:0:0:
352,304,40614,1,0,0:0:0:0:
412,216,40768,2,2,P|408:128|444:64,1,160
272,120,41229,6,0,L|368:80,1,80,2|0,0:0|0:0,0:0:0:0:
80,128,41691,5,2,0:0:0:0:
192,248,41845,1,0,0:0:0:0:
176,72,41998,2,0,P|192:112|304:168,1,160
411,215,42460,1,0,0:0:0:0:
256,192,42614,12,0,43691,0:0:0:0:
176,128,43844,5,0,0:0:0:0:
160,152,43920,1,0,0:0:0:0:
144,168,43997,1,0,0:0:0:0:
359,227,44152,1,12,0:0:0:0:
168,264,44844,6,0,P|224:288|296:264,1,120
368,176,45229,2,0,L|440:104,1,80
248,104,45537,2,0,L|248:16,1,80,2|0,0:0|0:0,0:0:0:0:
248,272,45844,2,0,L|248:360,1,80
152,120,46152,6,0,L|72:48,1,80,2|0,0:0|0:0,0:0:0:0:
336,232,46460,2,0,L|416:280,1,80
136,208,46768,2,0,L|48:208,1,80,2|0,0:0|0:0,0:0:0:0:
344,152,47075,2,0,L|432:96,1,80
192,264,47383,5,0,0:0:0:0:
168,296,47460,1,0,0:0:0:0:
144,328,47537,1,2,0:0:0:0:
272,112,47691,1,0,0:0:0:0:
280,24,47844,1,0,0:0:0:0:
288,256,47998,1,2,0:0:0:0:
320,336,48152,1,2,0:0:0:0:
168,136,48306,5,0,0:0:0:0:
96,96,48460,1,0,0:0:0:0:
352,176,48614,2,0,L|456:176,1,80,0|2,0:0|0:0,0:0:0:0:
144,216,48921,2,0,L|64:256,2,80,0|0|8,0:0|0:0|0:0,0:0:0:0:
312,112,49383,1,8,0:0:0:0:
376,248,49537,1,8,0:0:0:0:
128,304,49921,6,0,P|88:256|112:176,1,120
280,296,50306,2,0,L|224:240,1,80
384,288,50614,1,0,0:0:0:0:
408,264,50691,1,0,0:0:0:0:
432,232,50768,2,0,P|448:192|440:144,1,80
320,72,51075,1,0,0:0:0:0:
160,128,51229,2,0,L|272:112,1,80
296,216,51537,1,0,0:0:0:0:
96,216,51691,2,0,L|168:288,1,80,8|0,0:0|0:0,0:0:0:0:
256,288,51998,1,8,0:0:0:0:
336,224,52152,1,0,0:0:0:0:
200,56,52306,6,2,P|144:80|152:240,1,240,0|0,0:0|0:0,0:0:0:0:
304,160,52921,2,0,P|352:104|328:24,1,160
144,232,53383,2,0,P|160:280|256:328,1,160
344,240,53844,1,0,0:0:0:0:
280,48,53998,2,0,P|224:56|160:136,1,160
168,136,54383,2,0,B|136:192|104:208|104:208|120:256,1,120
352,304,54921,6,0,P|368:264|368:192,1,80
200,256,55229,1,2,0:0:0:0:
288,320,55383,1,2,0:0:0:0:
216,136,55537,1,2,0:0:0:0:
200,272,55691,1,0,0:0:0:0:
424,72,55998,2,0,P|352:56|248:56,1,160
296,248,56460,1,2,0:0:0:0:
336,152,56614,1,2,0:0:0:0:
280,64,56768,1,2,0:0:0:0:
176,56,56921,1,2,0:0:0:0:
96,208,57075,5,0,0:0:0:0:
88,232,57152,1,0,0:0:0:0:
64,248,57229,1,0,0:0:0:0:
160,304,57383,2,0,B|152:240|192:200|248:192,1,160
312,224,57844,2,0,L|384:160,1,80
424,56,58152,1,2,0:0:0:0:
304,128,58306,2,0,L|224:176,1,80,2|0,0:0|0:0,0:0:0:0:
144,224,58614,1,0,0:0:0:0:
64,88,58921,1,2,0:0:0:0:
144,32,59075,2,0,P|192:24|248:32,2,80,2|2|0,0:0|0:0|0:0,0:0:0:0:
208,288,59691,5,0,0:0:0:0:
280,224,59844,2,0,L|312:144,1,80,0|4,0:0|0:0,0:0:0:0:
120,72,60614,5,0,0:0:0:0:
104,96,60691,1,0,0:0:0:0:
96,120,60768,1,0,0:0:0:0:
88,152,60844,1,0,0:0:0:0:
96,184,60921,2,0,P|120:264|120:272,1,80,0|8,0:0|0:0,0:0:0:0:
272,96,61383,1,8,0:0:0:0:
456,192,61691,1,8,0:0:0:0:
80,216,61998,6,0,L|32:144,2,80
184,320,62460,1,8,0:0:0:0:
192,136,62614,2,0,L|176:48,1,80
296,240,62921,2,0,L|384:288,2,80,0|8|0,0:0|0:0|0:0,0:0:0:0:
96,152,63383,1,0,0:0:0:0:
320,48,63537,2,0,L|216:80,1,80,8|0,0:0|0:0,0:0:0:0:
168,216,63844,5,12,0:0:0:0:
432,160,64152,2,0,L|360:160,1,40,12|0,0:0|0:0,0:0:0:0:
368,240,64460,5,2,0:0:0:0:
352,240,64537,1,2,0:0:0:0:
336,240,64614,1,2,0:0:0:0:
320,240,64691,1,2,0:0:0:0:
304,240,64768,1,2,0:0:0:0:
280,208,64844,5,0,0:0:0:0:
264,168,64921,1,0,0:0:0:0:
248,128,64998,1,0,0:0:0:0:
216,104,65075,1,2,0:0:0:0:
176,96,65152,1,0,0:0:0:0:
138,112,65229,1,2,0:0:0:0:
104,136,65306,1,0,0:0:0:0:
88,168,65383,1,0,0:0:0:0:
96,208,65460,1,0,0:0:0:0:
112,248,65537,1,2,0:0:0:0:
144,272,65614,5,0,0:0:0:0:
184,280,65691,1,2,0:0:0:0:
224,264,65768,1,0,0:0:0:0:
240,224,65844,1,0,0:0:0:0:
232,184,65921,2,0,L|216:136,1,40,2|2,0:0|0:0,0:0:0:0:
320,272,66152,6,0,L|360:296,1,40,2|2,0:0|0:0,0:0:0:0:
208,128,66460,2,0,L|160:120,1,40,2|2,0:0|0:0,0:0:0:0:
280,40,66691,2,0,L|328:40,1,40
344,72,66844,1,0,0:0:0:0:
360,112,66921,1,0,0:0:0:0:
352,160,66998,1,0,0:0:0:0:
320,200,67075,1,0,0:0:0:0:
272,216,67152,1,0,0:0:0:0:
232,200,67229,2,0,L|184:168,6,40
160,144,67768,1,0,0:0:0:0:
144,96,67844,1,0,0:0:0:0:
160,48,67921,5,0,0:0:0:0:
209,24,67998,1,2,0:0:0:0:
256,48,68075,1,2,0:0:0:0:
272,96,68152,1,2,0:0:0:0:
248,135,68229,1,2,0:0:0:0:
232,184,68306,1,2,0:0:0:0:
240,232,68383,1,0,0:0:0:0:
273,273,68460,1,2,0:0:0:0:
432,112,68921,2,0,L|488:88,1,40
240,184,69383,5,8,0:0:0:0:
344,64,69537,1,8,0:0:0:0:
144,88,69691,1,8,0:0:0:0:
80,224,69844,6,0,P|120:256|232:272,1,160,4|0,0:0|0:0,0:0:0:0:
264,320,79691,6,0,B|256:280|384:176|464:96,1,300.000011444092,4|0,0:0|0:0,0:0:0:0:
80,112,81075,1,0,0:0:0:0:
152,248,81383,1,0,0:0:0:0:
304,272,81614,2,0,L|344:184,1,90.0000034332277
368,40,81998,2,0,B|304:32|208:72|208:160|144:176,1,270.000010299683
87,280,82921,6,0,L|64:312,1,30.0000011444092,0|2,0:0|0:0,0:0:0:0:
248,272,83152,2,0,L|256:312,1,30.0000011444092,0|2,0:0|0:0,0:0:0:0:
392,192,83383,2,0,L|432:192,1,30.0000011444092,0|2,0:0|0:0,0:0:0:0:
304,88,83691,2,0,L|352:32,2,60.0000022888184,2|2|2,0:0|0:0|0:0,0:0:0:0:
136,216,84152,2,0,L|80:272,2,60.0000022888184,0|0|2,0:0|0:0|0:0,0:0:0:0:
176,80,84614,5,0,0:0:0:0:
440,200,84921,1,0,0:0:0:0:
160,312,85229,1,0,0:0:0:0:
400,112,85537,1,0,0:0:0:0:
136,120,85844,1,0,0:0:0:0:
272,312,86152,1,0,0:0:0:0:
80,152,86460,1,0,0:0:0:0:
432,264,86768,1,0,0:0:0:0:
123,75,87075,6,0,P|242:65|360:88,1,240.000009155274
344,192,87537,2,0,L|107:152,1,240.000009155274
104,256,87998,2,0,P|203:288|352:280,1,240.000009155274
424,240,88460,1,0,0:0:0:0:
448,208,88537,1,0,0:0:0:0:
448,168,88614,1,0,0:0:0:0:
440,128,88691,1,0,0:0:0:0:
416,96,88768,2,0,P|368:72|296:56,1,120.000004577637
280,80,88998,5,0,0:0:0:0:
248,104,89075,1,0,0:0:0:0:
208,104,89152,1,0,0:0:0:0:
176,80,89229,1,0,0:0:0:0:
144,88,89306,1,0,0:0:0:0:
112,112,89383,2,0,P|184:200|312:240,1,240.000009155274,0|8,0:0|0:0,0:0:0:0:
328,144,89844,5,8,0:0:0:0:
256,56,89998,1,8,0:0:0:0:
136,56,90152,1,8,0:0:0:0:
87,145,90306,2,0,L|128:280,1,120.000004577637,8|8,0:0|0:0,0:0:0:0:
203,152,90614,1,4,0:0:0:0:
312,296,91383,5,0,0:0:0:0:
336,264,91460,1,0,0:0:0:0:
352,224,91537,1,0,0:0:0:0:
352,176,91614,1,0,0:0:0:0:
344,136,91691,1,0,0:0:0:0:
320,104,91768,1,0,0:0:0:0:
272,88,91845,1,0,0:0:0:0:
224,88,91921,6,0,L|152:128,1,80
136,136,92152,1,0,0:0:0:0:
120,136,92229,1,0,0:0:0:0:
160,264,92306,2,0,L|224:208,1,80
376,136,92614,2,0,L|344:216,1,80,2|0,0:0|0:0,0:0:0:0:
328,224,92844,1,0,0:0:0:0:
312,240,92921,1,0,0:0:0:0:
184,176,93075,6,0,L|208:88,2,80
248,288,93537,1,0,0:0:0:0:
328,144,93691,1,0,0:0:0:0:
312,32,93844,2,0,P|232:40|104:152,1,240,2|0,0:0|0:0,0:0:0:0:
456,216,94537,2,0,L|344:296,1,120
232,280,94998,1,0,0:0:0:0:
152,160,95152,1,0,0:0:0:0:
176,48,95306,1,0,0:0:0:0:
200,40,95383,1,0,0:0:0:0:
232,32,95460,2,0,P|296:48|328:96,1,120
272,248,95844,1,0,0:0:0:0:
336,56,95998,2,0,L|352:224,1,160
176,320,96768,5,8,0:0:0:0:
64,192,96921,1,8,0:0:0:0:
144,64,97075,1,0,0:0:0:0:
328,64,97229,2,0,L|224:80,1,80,0|8,0:0|0:0,0:0:0:0:
184,176,97537,2,0,L|88:160,1,80,8|0,0:0|0:0,0:0:0:0:
240,312,97844,2,2,L|320:272,2,80
88,272,98306,5,8,0:0:0:0:
368,296,98460,1,8,0:0:0:0:
216,168,98614,1,0,0:0:0:0:
416,280,98768,1,8,0:0:0:0:
432,248,98844,1,0,0:0:0:0:
432,199,98921,1,0,0:0:0:0:
399,97,99075,2,0,L|448:32,1,80,8|8,0:0|0:0,0:0:0:0:
336,32,99383,5,0,0:0:0:0:
304,40,99460,1,0,0:0:0:0:
288,64,99537,1,0,0:0:0:0:
280,104,99614,1,0,0:0:0:0:
272,144,99691,2,0,L|232:216,2,80,0|8|0,0:0|0:0|0:0,0:0:0:0:
128,96,100075,1,0,0:0:0:0:
80,224,100229,5,0,0:0:0:0:
104,272,100306,1,0,0:0:0:0:
136,304,100383,1,0,0:0:0:0:
184,320,100460,1,0,0:0:0:0:
232,304,100537,1,0,0:0:0:0:
264,264,100614,1,0,0:0:0:0:
288,216,100691,1,0,0:0:0:0:
320,176,100768,2,0,L|360:160,1,40
464,208,100998,6,0,P|424:240|392:256,1,80
296,96,101306,1,0,0:0:0:0:
448,192,101460,1,0,0:0:0:0:
432,224,101537,1,0,0:0:0:0:
408,248,101614,6,0,P|352:280|264:264,1,140,4|0,0:0|0:0,0:0:0:0:
144,232,102152,1,0,0:0:0:0:
136,112,102306,1,0,0:0:0:0:
240,48,102460,1,2,0:0:0:0:
392,280,102768,6,4,P|424:240|440:200,1,80
424,176,103075,1,0,0:0:0:0:
360,72,103229,2,0,P|408:64|448:72,2,80
288,264,103691,2,2,P|312:216|248:72,1,220,2|4,0:0|0:0,0:0:0:0:
192,320,104460,5,0,0:0:0:0:
272,272,104614,1,0,0:0:0:0:
312,184,104768,1,0,0:0:0:0:
288,96,104921,2,0,P|264:64|216:32,2,80
320,192,105383,1,0,0:0:0:0:
120,96,105614,1,8,0:0:0:0:
200,184,105806,1,8,0:0:0:0:
344,184,105998,1,8,0:0:0:0:
208,240,106152,2,0,L|104:272,1,80,8|0,0:0|0:0,0:0:0:0:
424,80,106460,5,0,0:0:0:0:
400,64,106537,1,0,0:0:0:0:
368,64,106614,2,0,P|312:96|304:128,1,80
304,304,107229,6,0,L|320:264,1,40
320,232,107383,1,0,0:0:0:0:
304,200,107460,1,0,0:0:0:0:
272,184,107537,2,0,L|192:168,1,80
56,104,107844,2,0,L|152:80,1,80,8|0,0:0|0:0,0:0:0:0:
200,272,108152,2,0,L|120:240,1,80,8|0,0:0|0:0,0:0:0:0:
299,104,108460,1,8,0:0:0:0:
144,304,109075,5,0,0:0:0:0:
264,304,109229,2,0,L|320:216,1,80
336,64,109537,1,0,0:0:0:0:
288,56,109614,1,0,0:0:0:0:
240,64,109691,1,0,0:0:0:0:
208,96,109768,1,0,0:0:0:0:
192,136,109844,2,0,P|200:184|232:224,1,80
384,288,110152,6,0,L|360:216,1,40
368,208,110306,1,8,0:0:0:0:
360,168,110383,2,0,P|320:112|264:80,1,120,0|8,0:0|0:0,0:0:0:0:
120,120,110768,2,0,P|152:160|176:192,1,80,0|8,0:0|0:0,0:0:0:0:
350,316,111075,1,0,0:0:0:0:
464,248,111229,1,0,0:0:0:0:
408,152,111383,1,0,0:0:0:0:
288,80,111537,2,0,P|232:64|144:64,1,140
112,80,111921,6,0,L|80:136,1,40
88,144,112075,2,0,L|96:200,1,40
104,216,112229,2,0,L|152:264,1,40
168,264,112383,1,0,0:0:0:0:
200,280,112460,1,0,0:0:0:0:
248,288,112537,1,0,0:0:0:0:
288,279,112614,2,0,P|352:255|360:232,1,80,2|2,0:0|0:0,0:0:0:0:
368,72,112921,2,0,L|288:72,1,80,2|0,0:0|0:0,0:0:0:0:
136,328,113229,2,0,L|232:304,1,80,2|0,0:0|0:0,0:0:0:0:
144,88,113537,1,0,0:0:0:0:
408,312,113691,1,0,0:0:0:0:
64,296,113844,1,0,0:0:0:0:
376,80,113998,1,0,0:0:0:0:
416,296,114152,1,0,0:0:0:0:
176,248,114306,6,2,L|80:200,2,80
96,88,114768,1,2,0:0:0:0:
344,128,114921,1,2,0:0:0:0:
232,32,115075,1,2,0:0:0:0:
376,152,115229,1,0,0:0:0:0:
272,296,115536,2,2,L|128:320,1,120.000004577637,2|6,0:0|0:0,0:0:0:0:
