osu file format v14

[General]
AudioFilename: audio.mp3
AudioLeadIn: 0
PreviewTime: 48018
Countdown: 0
SampleSet: Soft
StackLeniency: 0.4
Mode: 0
LetterboxInBreaks: 0
WidescreenStoryboard: 0

[Editor]
DistanceSpacing: 1.4
BeatDivisor: 6
GridSize: 32
TimelineZoom: 3.299999

[Metadata]
Title:3-ji 12-fun
TitleUnicode:3時12分
Artist:TAKU INOUE & Hoshimachi Suisei
ArtistUnicode:TAKU INOUE & 星街すいせい
Creator:Mir
Version:Fleeting
Source:
Tags:3 12 3:12 時 分 ホロライブ hololive idol vtuber virtual youtuber japanese pop j-pop jpop electronic zelq inotaku sanji juunihun juunifun
BeatmapID:3166883
BeatmapSetID:1549675

[Difficulty]
HPDrainRate:5
CircleSize:4
OverallDifficulty:8
ApproachRate:9
SliderMultiplier:1.8
SliderTickRate:1

[Events]
//Background and Video events
0,0,"312am.jpg",0,0
//Break Periods
2,127852,134131
//Storyboard Layer 0 (Background)
//Storyboard Layer 1 (Fail)
//Storyboard Layer 2 (Pass)
//Storyboard Layer 3 (Foreground)
//Storyboard Layer 4 (Overlay)
//Storyboard Sound Samples

[TimingPoints]
3617,674.157303370787,4,2,1,35,1,0
3617,-250,4,2,1,35,0,0
22493,-500,4,2,1,35,0,0
24347,-500,4,2,1,5,0,0
24515,-500,4,2,1,45,0,0
25181,674.157303370787,4,2,2,45,1,0
25181,-83.3333333333333,4,2,2,45,0,0
35293,-55.5555555555556,4,2,2,45,0,0
35967,-66.6666666666667,4,2,2,45,0,0
44057,-133.333333333333,4,2,2,45,0,0
46754,-43.4782608695652,4,2,1,50,0,0
47428,-40,4,2,1,50,0,0
48102,-37.037037037037,4,2,1,50,0,0
48776,-200,4,2,1,60,0,0
49450,-37.037037037037,4,2,1,75,0,1
51697,-100,4,2,1,75,0,1
52147,-41.6666666666667,4,2,1,75,0,1
57540,-90.9090909090909,4,2,1,75,0,1
58214,-125,4,2,1,75,0,1
58888,-45.4545454545454,4,2,1,75,0,1
59563,-45.4545454545455,4,2,1,75,0,1
59900,-133.333333333333,4,2,1,75,0,1
60124,-133.333333333333,4,2,1,75,0,0
60237,-133.333333333333,4,2,1,75,0,1
60574,-40,4,2,1,75,0,1
62596,-100,4,2,1,75,0,1
62933,-40,4,2,1,75,0,1
63607,-66.6666666666667,4,2,1,75,0,1
64282,-40,4,2,1,75,0,1
64619,-50,4,2,1,75,0,1
64956,-133.333333333333,4,2,1,75,0,1
65630,-40,4,2,1,75,0,1
66641,-52.6315789473684,4,2,1,75,0,1
66978,-40,4,2,1,75,0,1
67315,-66.6666666666667,4,2,1,75,0,1
67652,-200,4,2,1,75,0,1
68214,-200,4,2,1,55,0,0
73720,-200,4,2,1,35,0,0
74057,-100,4,2,1,45,0,0
74394,-66.6666666666667,4,2,1,45,0,0
74731,-50,4,2,1,70,0,0
76416,-62.5,4,2,1,70,0,0
76641,-62.5,4,2,1,70,0,0
77091,-125,4,2,1,70,0,0
77428,-35.7142857142857,4,2,1,70,0,0
78102,-35.7142857142857,4,2,1,70,0,0
78439,-31.25,4,2,1,70,0,0
79113,-133.333333333333,4,2,1,70,0,0
79787,-200,4,2,1,70,0,0
80124,-40,4,2,1,70,0,0
80798,-45.4545454545455,4,2,1,70,0,0
81810,-37.037037037037,4,2,1,70,0,0
82484,-100,4,2,1,70,0,0
82821,-100,4,2,1,70,0,0
83383,-28.5714285714286,4,2,1,70,0,0
84506,-133.333333333333,4,2,2,70,0,0
85518,-33.3333333333333,4,2,1,70,0,0
86529,-100,4,2,1,70,0,0
87203,-40,4,2,1,70,0,0
87540,-28.5714285714286,4,2,1,70,0,0
88102,-41.6666666666667,4,2,1,70,0,0
88551,-100,4,2,1,70,0,0
89900,-43.4782608695652,4,2,1,70,0,0
91079,-43.4782608695652,4,2,2,70,0,0
91585,-43.4782608695652,4,2,1,70,0,0
92091,-62.5,4,2,1,70,0,0
92596,-45.4545454545455,4,2,1,70,0,0
95293,-55.5555555555556,4,2,1,70,0,0
103495,-55.5555555555556,4,2,0,15,0,0
103832,-55.5555555555556,4,2,0,28,0,0
104169,-55.5555555555556,4,2,0,43,0,0
104506,-55.5555555555556,4,2,0,50,0,0
104787,-55.5555555555556,4,2,0,20,0,0
105068,-55.5555555555556,4,2,0,10,0,0
106079,-250,4,2,1,20,0,0
122259,-250,4,2,1,30,0,0
124843,-55.5555555555556,4,2,1,15,0,0
125181,-55.5555555555556,4,2,1,28,0,0
125518,-55.5555555555556,4,2,1,43,0,0
125855,-55.5555555555556,4,2,1,60,0,0
126136,-55.5555555555556,4,2,1,20,0,0
126416,-55.5555555555556,4,2,1,10,0,0
126978,-200,4,2,1,50,0,0
128327,-142.857142857143,4,2,1,55,0,0
130349,-500,4,2,1,55,0,0
134731,-55.5555555555556,4,2,1,20,0,0
135068,-55.5555555555556,4,2,1,30,0,0
135405,-55.5555555555556,4,2,1,40,0,0
135742,-43.4782608695652,4,2,1,55,0,0
136416,-40,4,2,1,55,0,0
137091,-37.037037037037,4,2,1,55,0,0
138439,-58.8235294117647,4,2,2,55,0,0
141023,-133.333333333333,4,2,2,55,0,0
147203,-222.222222222221,4,2,2,55,0,0
148551,-50,4,2,1,80,0,1
149225,-133.333333333333,4,2,1,80,0,1
149563,-37.037037037037,4,2,3,80,0,1
151473,-100,4,2,3,80,0,1
152147,-37.037037037037,4,2,3,80,0,1
155967,-33.3333333333333,4,2,3,80,0,1
156304,-40,4,2,3,80,0,1
157315,-153.846153846153,4,2,3,80,0,1
157989,-79.9999999999999,4,2,3,80,0,1
158664,-57.1428571428571,4,2,3,80,0,1
159338,-33.8983050847458,4,2,3,80,0,1
159900,-33.8983050847458,4,2,3,80,0,0
160012,-133.333333333333,4,2,3,80,0,1
160349,-37.037037037037,4,2,3,80,0,1
162259,-66.6666666666667,4,2,3,80,0,1
162709,-37.037037037037,4,2,3,80,0,1
163383,-28.5714285714286,4,2,3,80,0,1
164057,-33.3333333333333,4,2,3,80,0,1
164731,-66.6666666666667,4,2,3,80,0,1
165405,-40,4,2,3,80,0,1
166754,-50,4,2,1,80,0,0
167091,-100,4,2,1,80,0,0
167428,-200,4,2,1,80,0,0
168439,-100,4,2,1,80,0,0
169450,-40,4,2,1,80,0,0
170798,-38.4615384615385,4,2,3,80,0,1
172484,-71.4285714285714,4,2,3,80,0,1
172821,-142.857142857143,4,2,1,80,0,1
173383,-142.857142857143,4,2,1,80,0,0
180237,674.157303370787,4,2,1,80,1,0
180349,-76.9230769230769,4,2,3,80,0,0

[Colours]
Combo1 : 232,200,134
Combo2 : 132,189,208
Combo3 : 249,243,174
Combo4 : 159,207,255

[HitObjects]
18,253,3617,6,0,P|14:311|162:320,1,243,2|0,0:2|0:2,0:2:0:0:
182,224,6313,2,0,P|289:260|327:161,1,240,2|0,0:2|0:2,0:2:0:0:
267,105,9010,6,0,P|206:121|128:139,1,126,2|0,0:2|0:2,0:2:0:0:
116,63,10358,2,0,P|57:49|0:34,1,120,2|0,0:2|0:2,0:2:0:0:
181,22,11706,6,0,P|193:18|210:14,2,27,2|0|0,0:2|0:2|0:2,0:2:0:0:
116,63,12381,2,0,P|104:59|87:55,2,27,2|0|0,0:2|0:2|0:2,0:2:0:0:
185,100,13055,2,0,P|189:113|190:129,1,27,2|0,0:2|0:2,0:2:0:0:
189,126,13729,2,0,P|182:161|181:181,1,54,0|0,0:2|0:2,0:2:0:0:
204,259,14403,6,0,P|242:266|419:321,1,216,2|0,0:2|0:2,0:2:0:0:
415,327,16650,1,0,0:2:0:0:
512,329,17100,6,0,P|474:336|340:385,1,180,2|0,0:2|0:2,0:2:0:0:
268,351,19122,6,0,P|262:366|261:380,2,27,0|0|0,0:2|0:2|0:2,0:2:0:0:
222,282,19796,1,2,0:2:0:0:
222,282,20470,6,0,P|219:268|214:256,2,27,2|0|0,0:2|0:2|0:2,0:2:0:0:
299,236,21145,2,0,P|301:222|306:210,2,27,2|0|0,0:2|0:2|0:2,0:2:0:0:
230,176,21819,2,0,P|227:162|222:150,2,27,2|0|0,0:2|0:2|0:2,0:2:0:0:
229,185,22493,1,2,0:2:0:0:
256,192,23167,12,0,24347,0:2:0:0:
256,194,24515,6,0,L|252:166,1,27,2|0,0:2|0:2,0:2:0:0:
252,167,25181,6,0,P|189:157|28:129,1,215.999993408203,2|8,3:2|3:2,0:2:0:0:
8,61,26023,5,0,0:2:0:0:
65,13,26192,1,2,0:2:0:0:
135,40,26360,1,0,0:2:0:0:
252,167,26529,5,2,3:2:0:0:
304,110,26697,1,0,0:2:0:0:
306,15,26866,5,2,0:2:0:0:
232,34,27034,1,0,0:2:0:0:
252,167,27203,5,10,0:2:0:0:
369,188,27456,1,2,0:2:0:0:
487,210,27709,1,2,0:2:0:0:
487,210,27793,1,2,0:2:0:0:
487,210,27877,6,0,P|502:272|372:319,1,215.999993408203,0|8,3:2|0:2,0:2:0:0:
306,343,28720,6,0,P|263:352|176:370,1,107.999996704102,2|0,0:2|0:2,0:2:0:0:
75,291,29225,5,2,0:2:0:0:
146,304,29394,1,0,0:2:0:0:
237,227,29563,5,2,3:2:0:0:
258,154,29731,1,0,0:2:0:0:
123,233,29900,5,10,0:2:0:0:
313,208,30152,1,2,0:2:0:0:
196,59,30405,1,2,0:2:0:0:
211,155,30574,6,0,B|295:152|255:81|355:75,1,161.999995056153,2|0,3:2|0:2,0:2:0:0:
428,112,31248,5,10,0:2:0:0:
196,59,31501,1,2,0:2:0:0:
414,24,31754,1,2,0:2:0:0:
311,0,31922,6,0,P|307:48|300:133,1,107.999996704102,2|0,0:2|3:2,0:2:0:0:
302,107,32596,5,10,0:2:0:0:
314,184,32849,1,2,0:2:0:0:
326,261,33102,1,2,0:2:0:0:
379,132,33270,5,2,3:2:0:0:
252,236,33523,1,2,0:2:0:0:
399,291,33776,1,2,0:2:0:0:
302,107,33945,5,10,0:2:0:0:
392,209,34197,1,2,0:2:0:0:
252,236,34450,1,2,0:2:0:0:
365,55,34619,5,2,0:2:0:0:
399,291,34787,2,0,P|466:306|514:319,1,107.999996704102,2|0,0:2|0:2,0:2:0:0:
243,241,35293,2,0,P|154:264|-6:325,1,242.999992584229,10|2,0:2|0:3,0:2:0:0:
7,299,35883,1,2,0:3:0:0:
11,281,35967,6,0,B|194:283|52:378|252:385,1,270.000010299683,2|8,3:2|3:2,0:2:0:0:
290,246,36810,5,0,0:2:0:0:
214,202,36978,1,2,0:2:0:0:
214,289,37147,1,0,0:2:0:0:
85,63,37315,5,2,3:2:0:0:
193,91,37568,1,2,0:2:0:0:
114,170,37821,1,2,0:2:0:0:
398,218,37989,5,10,0:2:0:0:
290,246,38242,1,2,0:2:0:0:
369,325,38495,1,2,0:2:0:0:
185,384,38664,6,0,P|194:319|218:108,1,270.000010299683,0|8,3:2|0:2,0:2:0:0:
208,37,39506,5,0,0:2:0:0:
131,23,39675,1,2,0:2:0:0:
98,92,39843,1,0,0:2:0:0:
217,115,40012,5,2,0:2:0:0:
330,88,40265,1,2,0:2:0:0:
429,156,40518,1,2,0:2:0:0:
421,288,40686,5,2,0:2:0:0:
310,196,40911,1,2,0:2:0:0:
313,222,41023,1,2,0:2:0:0:
335,207,41136,1,2,0:2:0:0:
435,292,41360,6,0,P|377:300|187:355,1,202.500007724762,2|0,3:2|0:2,0:2:0:0:
177,380,42034,5,10,0:2:0:0:
236,254,42287,1,2,0:2:0:0:
135,167,42540,1,2,0:2:0:0:
135,167,42709,6,0,P|67:180|-9:195,1,135.000005149842,2|0,0:2|3:2,0:2:0:0:
296,133,43383,5,8,0:3:0:0:
215,71,43551,1,4,0:3:0:0:
284,7,44057,1,2,0:2:0:0:
341,196,46079,6,0,L|343:181,14,8.43750032186509,0|0|0|0|0|0|0|0|0|0|0|0|0|0|0,0:2|0:2|0:2|0:2|0:2|0:2|0:2|0:2|0:2|0:2|0:2|0:2|0:2|0:2|0:2,0:2:0:0:
427,118,46754,6,0,B|315:21|286:99|254:202|144:120|238:52|293:108,1,310.500005922318,12|0,3:2|0:2,0:2:0:0:
234,367,47428,2,0,B|389:312|330:240|247:152|389:91|402:220|316:242,1,337.5,12|0,3:2|0:2,0:2:0:0:
116,55,48102,2,0,B|83:224|178:208|302:179|284:340|159:284|184:194,1,364.500001390457,12|0,3:2|0:2,0:2:0:0:
228,107,48776,5,0,1:2:0:0:
272,95,48888,1,0,1:2:0:0:
262,139,49001,1,0,1:2:0:0:
245,88,49113,5,0,1:2:0:0:
277,120,49225,1,0,1:2:0:0:
234,133,49338,1,0,1:2:0:0:
253,116,49450,6,0,P|346:135|447:154,1,162.000000617981,4|0,3:2|0:2,0:2:0:0:
512,267,49787,2,0,P|408:265|394:331,1,162.000000617981,2|0,0:2|0:2,0:2:0:0:
426,376,50124,1,10,3:2:0:0:
260,244,50349,5,2,0:2:0:0:
214,309,50461,2,0,P|119:331|40:349,1,162.000000617981,2|0,0:2|0:2,0:2:0:0:
25,187,50798,2,0,P|129:185|143:251,1,162.000000617981,2|0,3:2|0:2,0:2:0:0:
121,296,51136,1,2,0:2:0:0:
263,232,51360,6,0,P|278:149|297:55,1,162.000000617981,2|0,0:2|0:2,0:2:0:0:
256,5,51697,2,0,P|207:17|149:31,1,90,2|0,0:2|0:2,0:2:0:0:
98,51,52147,1,2,3:2:0:0:
385,157,52372,5,2,0:2:0:0:
427,232,52484,2,0,P|500:201|493:125,1,143.999995605469,2|0,0:2|0:2,0:2:0:0:
512,63,52821,2,0,P|438:33|389:91,1,143.999995605469,10|0,0:2|0:2,0:2:0:0:
295,118,53158,2,0,P|353:189|330:234,1,143.999995605469,2|0,3:2|0:2,0:2:0:0:
270,270,53495,1,2,0:2:0:0:
154,0,53720,5,2,0:2:0:0:
78,15,53832,2,0,P|68:57|109:101,1,71.9999978027344,2|0,3:2|0:2,0:2:0:0:
186,193,54057,5,2,0:2:0:0:
211,119,54169,2,0,P|179:89|121:102,1,71.9999978027344,10|0,0:2|0:2,0:2:0:0:
0,124,54394,5,2,0:2:0:0:
51,182,54506,2,0,P|92:169|109:112,1,71.9999978027344,2|0,0:3|0:2,0:2:0:0:
211,119,54731,1,2,0:2:0:0:
126,4,54843,6,0,P|111:97|108:148,1,143.999995605469,2|0,3:2|0:2,0:2:0:0:
186,193,55181,2,0,P|214:264|138:298,1,143.999995605469,2|0,0:2|0:2,0:2:0:0:
103,358,55518,2,0,P|19:320|-27:310,2,71.9999978027344,10|0|0,0:2|0:2|0:2,0:2:0:0:
302,240,55855,2,0,P|386:202|432:192,2,71.9999978027344,2|0|0,0:2|0:2|0:2,0:2:0:0:
281,318,56192,1,2,0:2:0:0:
497,325,56416,5,2,0:2:0:0:
432,384,56529,2,0,P|411:307|398:273,1,71.9999978027344,2|0,3:2|0:2,0:2:0:0:
301,149,56754,5,2,0:2:0:0:
366,208,56867,2,0,P|387:131|400:97,1,71.9999978027344,10|0,0:2|0:2,0:2:0:0:
512,11,57091,5,2,0:2:0:0:
447,70,57203,2,0,P|426:-7|413:-41,1,71.9999978027344,2|0,1:3|0:2,0:2:0:0:
500,194,57428,1,0,1:3:0:0:
445,249,57540,6,0,P|337:225|270:217,1,165.000005035401,2|0,3:2|0:2,0:2:0:0:
220,157,58214,2,0,P|175:159|90:185,1,120,8|0,3:2|0:2,0:2:0:0:
392,378,58888,6,2,B|231:361|335:235|137:244,1,264.000008056641,2|0,3:2|0:2,0:1:0:0:
98,262,59450,2,2,P|69:278|59:314,2,66.0000020141602,0|8|0,0:2|3:2|0:2,0:1:0:0:
373,279,59787,5,0,0:2:0:0:
387,268,59900,2,2,L|398:213,1,45.0000017166138,2|0,0:3|0:2,0:1:0:0:
432,74,60237,1,4,3:2:0:0:
432,74,60461,5,2,0:2:0:0:
512,136,60574,2,0,P|429:152|384:160,1,75,2|0,0:2|0:2,0:2:0:0:
273,149,60798,5,2,0:2:0:0:
192,211,60911,2,0,P|276:227|321:235,1,75,10|0,0:2|0:2,0:2:0:0:
395,223,61136,5,2,0:2:0:0:
476,285,61249,2,0,P|392:301|288:319,1,150,2|0,0:2|0:2,0:2:0:0:
263,362,61585,6,0,P|201:336|200:288,1,75,2|0,0:2|0:2,0:2:0:0:
119,181,61810,1,2,0:2:0:0:
184,142,61922,2,0,P|192:208|151:233,1,75,2|0,3:2|0:2,0:2:0:0:
86,362,62147,1,2,0:2:0:0:
19,325,62259,2,0,P|72:284|114:307,1,75,10|0,0:2|0:2,0:2:0:0:
149,275,62484,5,2,0:2:0:0:
156,279,62596,2,0,P|165:321|169:345,1,60,2|0,0:2|0:2,0:2:0:0:
0,223,62933,6,0,P|92:243|402:318,1,375,2|0,3:2|0:2,0:2:0:0:
407,134,63607,2,0,P|474:138|484:226,1,135.000005149842,8|0,0:2|3:2,0:2:0:0:
483,208,64169,1,0,0:2:0:0:
399,144,64282,6,2,B|300:134|357:211|213:168,1,150,2|0,0:2|0:2,0:1:0:0:
181,175,64619,2,0,P|127:144|130:65,1,120,0|0,3:2|0:2,0:2:0:0:
154,21,64956,2,2,P|195:20|236:78,1,112.500004291535,10|0,0:2|1:1,0:3:0:0:
259,179,65630,6,0,P|242:292|228:390,1,150,2|0,3:3|0:1,0:0:0:0:
301,378,65967,2,2,B|438:369|342:280|495:272,2,225,2|8|0,0:2|0:2|0:2,0:3:0:0:
139,113,66866,5,0,3:2:0:0:
67,147,66978,2,0,P|72:215|164:230,1,150,2|0,0:2|0:2,0:2:0:0:
202,187,67315,2,0,P|236:157|287:193,1,90.0000034332277,2|0,3:2|0:2,0:2:0:0:
325,226,67652,2,0,P|326:266|306:290,1,60,10|0,0:2|0:2,0:2:0:0:
246,311,68214,1,2,3:3:0:0:
256,192,71023,12,0,73383,0:2:0:0:
187,285,73636,5,2,0:2:0:0:
175,276,73720,2,0,L|171:258,3,11.25,2|0|0|0,0:2|0:2|0:2|0:2,0:2:0:0:
105,306,74057,2,0,L|100:328,3,22.5,2|0|0|0,0:2|0:2|0:2|0:2,0:2:0:0:
29,297,74394,2,0,L|20:251,3,33.7500012874604,2|0|0|0,0:2|0:2|0:2|0:2,0:2:0:0:
187,285,74731,5,2,0:2:0:0:
230,275,74815,1,2,0:2:0:0:
274,264,74900,1,2,0:2:0:0:
317,254,74984,1,2,0:2:0:0:
325,238,75068,5,2,0:2:0:0:
294,231,75152,1,2,0:2:0:0:
264,223,75237,1,2,0:2:0:0:
233,216,75321,1,2,0:2:0:0:
247,205,75405,6,0,L|297:193,3,45,2|2|2|2,3:2|0:2|0:2|0:2,0:2:0:0:
365,175,75700,6,2,L|415:163,1,45,2|2,0:2|0:2,0:2:0:0:
168,130,75869,2,2,L|118:118,1,45,2|2,0:2|0:2,0:2:0:0:
362,95,76037,2,2,L|412:83,1,45,2|2,0:2|0:2,0:2:0:0:
128,43,76206,2,2,L|78:31,1,45,2|2,0:2|0:2,0:2:0:0:
237,15,76374,5,2,0:2:0:0:
272,57,76459,1,2,0:2:0:0:
243,101,76543,1,2,0:2:0:0:
259,122,76627,1,2,1:2:0:0:
251,147,76711,1,2,1:2:0:0:
258,167,76796,1,2,1:2:0:0:
249,185,76880,1,2,1:2:0:0:
258,207,76978,2,0,L|273:267,3,48,0|8|0|0,1:2|0:2|1:2|1:2,0:2:0:0:
243,324,77428,1,0,3:2:0:0:
408,344,77596,5,4,0:3:0:0:
408,344,77681,1,4,0:3:0:0:
408,344,77765,2,0,P|475:328|492:324,3,62.9999980773926,0|0|0|0,1:2|1:2|1:2|1:2,1:2:0:0:
436,240,78102,2,0,L|542:258,2,62.9999980773926,0|4|4,3:2|0:3|0:3,0:2:0:0:
470,109,78439,6,2,B|359:138|359:138|343:234|343:234|251:258,1,288,8|0,0:2|0:2,0:1:0:0:
6,125,79001,1,2,0:1:0:0:
59,65,79113,2,0,L|135:84,1,67.5000025749208,2|0,3:1|0:2,0:2:0:0:
135,98,79563,1,4,0:3:0:0:
145,117,79675,1,4,0:3:0:0:
156,136,79787,1,8,0:2:0:0:
234,384,80124,6,2,B|241:279|272:-3,1,375,4|0,3:2|0:2,0:1:0:0:
273,0,80761,5,2,0:2:0:0:
287,21,80836,5,2,0:2:0:0:
278,41,80911,5,2,0:2:0:0:
257,53,80986,5,2,0:2:0:0:
248,73,81061,5,2,0:2:0:0:
262,93,81136,6,0,L|276:152,3,33.0000010070801,8|0|0|0,0:2|0:2|0:2|0:2,0:2:0:0:
273,224,81388,5,2,0:2:0:0:
273,224,81473,1,2,0:2:0:0:
273,224,81557,2,0,P|336:237|402:254,1,99.0000030212403,2|0,0:2|0:2,0:2:0:0:
512,296,81810,6,2,L|317:338,1,162.000000617981,4|0,3:2|0:2,0:1:0:0:
278,347,82147,2,2,P|201:365|179:249,1,162.000000617981,0|0,0:2|3:2,0:1:0:0:
92,267,82484,2,0,L|73:314,2,30,8|0|0,0:2|0:2|0:2,0:2:0:0:
271,165,82821,6,0,L|264:241,1,60,0|0,3:2|0:2,0:2:0:0:
264,240,83158,5,8,0:2:0:0:
399,133,83383,6,0,B|445:106|445:106|366:128,1,105.000001001358,4|0,3:2|0:2,0:0:0:0:
191,314,83607,2,0,B|168:362|168:362|200:321,1,105.000001001358,4|0,3:2|0:2,0:0:0:0:
252,45,83832,2,0,B|241:-8|241:-8|238:42,1,105.000001001358,4|0,3:2|0:2,0:0:0:0:
370,290,84057,2,0,B|399:334|399:334|360:298,1,105.000001001358,4|0,3:2|0:2,0:0:0:0:
124,157,84282,2,0,B|70:150|70:150|117:167,1,105.000001001358,4|0,3:2|0:2,0:0:0:0:
249,246,84506,6,2,L|264:126,1,112.500004291535,4|0,3:1|3:2,0:0:0:0:
263,134,85181,1,0,1:2:0:0:
263,134,85349,1,0,1:2:0:0:
294,331,85518,6,2,B|364:219|501:304|420:410|386:437|247:411|215:269|95:208|69:239|-29:419|173:474|221:286,1,675.000025749208,4|0,3:2|3:2,0:1:0:0:
243,279,86445,1,0,3:2:0:0:
243,279,86529,1,8,3:2:0:0:
263,1,86754,6,2,P|254:99|246:212,1,180,4|0,3:2|0:2,0:1:0:0:
66,120,87540,6,2,B|124:238|171:85|283:213,1,210.000002002716,4|0,3:2|0:2,0:1:0:0:
238,258,87877,1,8,0:2:0:0:
445,167,88102,2,2,B|356:265|350:106|209:200,1,215.999993408203,4|0,3:2|0:2,0:1:0:0:
238,258,88551,6,2,P|234:301|229:339,1,60,4|0,3:2|0:2,0:1:0:0:
155,338,88888,6,0,L|164:380,2,30,0|0|0,1:2|1:2|1:2,1:2:0:0:
298,358,89225,2,0,L|280:397,2,30,0|0|0,3:2|1:2|1:2,0:2:0:0:
252,294,89525,5,2,0:2:0:0:
242,290,89600,5,2,0:2:0:0:
232,286,89675,5,2,0:2:0:0:
222,282,89750,5,2,3:2:0:0:
118,259,89900,6,2,P|218:240|334:217,1,207.000003948212,2|0,0:2|0:2,0:1:0:0:
389,177,90405,2,0,P|493:188|477:279,1,207.000003948212,2|8,0:1|0:3,0:1:0:0:
437,325,90827,1,0,1:2:0:0:
437,325,90911,1,0,3:2:0:0:
247,135,91136,5,0,1:2:0:0:
251,100,91248,1,0,1:2:0:0:
254,66,91360,1,0,1:2:0:0:
258,31,91472,1,0,1:2:0:0:
290,49,91585,6,0,L|126:72,1,138.000002632141,0|0,3:2|0:2,0:2:0:0:
90,23,91922,2,0,L|7:2,2,69.0000013160706,8|0|0,1:2|1:2|3:2,0:2:0:0:
13,298,92372,5,4,0:3:0:0:
13,298,92484,1,4,0:3:0:0:
13,298,92596,2,0,B|142:285|62:371|228:342,1,198.000006042481,4|2,3:2|0:2,0:2:0:0:
267,310,93046,5,2,0:2:0:0:
292,282,93158,1,2,0:2:0:0:
291,241,93270,2,0,P|277:162|274:124,1,99.0000030212403,10|0,0:2|0:2,0:2:0:0:
263,150,93495,2,0,P|259:105|261:71,1,66.0000020141602,2|0,0:2|3:2,0:2:0:0:
512,59,93776,2,0,P|493:123|398:136,1,165.000005035401,2|0,0:2|0:2,0:2:0:0:
392,63,94169,5,0,1:2:0:0:
343,25,94282,1,0,1:2:0:0:
286,34,94394,1,0,1:2:0:0:
259,84,94506,1,0,1:2:0:0:
185,126,94619,5,8,0:3:0:0:
144,127,94731,1,0,1:2:0:0:
130,90,94843,1,0,1:2:0:0:
75,29,94956,5,8,0:3:0:0:
34,28,95068,1,4,0:3:0:0:
20,65,95180,1,4,0:3:0:0:
31,75,95293,5,4,3:1:0:0:
256,192,95461,12,0,100574,0:2:0:0:
204,212,103495,6,0,L|201:168,30,26.9999991760254,0|0|0|0|0|0|0|0|0|0|0|0|0|0|0|0|0|0|0|0|0|0|0|0|0|0|0|0|0|0|0,3:0|3:0|3:0|3:0|3:0|3:0|3:0|3:0|3:0|3:0|3:0|3:0|3:0|3:0|3:0|3:0|3:0|3:0|3:0|3:0|3:0|3:0|3:0|3:0|3:0|3:0|3:0|3:0|3:0|3:0|3:0,3:0:0:0:
0,361,106079,6,0,P|134:339|272:320,1,270,2|0,0:3|0:2,0:2:0:0:
276,245,108776,2,0,P|142:223|4:204,1,270,2|0,0:2|0:2,0:2:0:0:
9,39,111473,6,0,P|60:39|107:90,1,126,2|0,0:2|0:2,0:2:0:0:
102,164,112821,2,0,P|139:211|200:215,1,126,2|0,0:2|0:2,0:2:0:0:
271,176,114169,6,0,P|281:152|285:145,2,27,2|0|0,0:2|0:2|0:2,0:2:0:0:
347,203,114843,2,0,P|368:194|375:193,2,27,2|0|0,0:2|0:2|0:2,0:2:0:0:
396,269,115518,2,0,P|419:279|425:283,1,24,2|0,0:2|0:2,0:2:0:0:
419,279,116192,2,0,P|450:277|470:250,1,54,2|0,0:2|0:2,0:2:0:0:
465,261,116866,6,0,P|402:272|248:306,1,216,2|0,0:2|0:2,0:2:0:0:
244,310,119141,1,0,0:2:0:0:
128,384,119506,6,0,P|147:297|170:108,1,276,2|0,0:2|0:2,0:2:0:0:
142,40,122259,6,0,P|120:36|41:97,1,126,2|0,0:2|0:2,0:2:0:0:
42,92,123607,2,0,P|56:149|63:201,1,108,2|0,0:2|0:2,0:2:0:0:
63,273,124843,6,0,L|60:317,36,26.9999991760254,2|0|0|0|0|0|0|0|0|0|0|0|0|0|0|0|0|0|0|0|0|0|0|0|0|0|0|0|0|0|0|0|0|0|0|0|0,0:2|0:2|0:2|0:2|0:2|0:2|0:2|0:2|0:2|0:2|0:2|0:2|0:2|0:2|0:2|0:2|0:2|0:2|0:2|0:2|0:2|0:2|0:2|0:2|0:2|0:2|0:2|0:2|0:2|0:2|0:2|0:2|0:2|0:2|0:2|0:2|0:2,0:2:0:0:
62,197,126978,2,0,P|58:162|50:100,1,90,2|4,0:3|3:1,0:2:0:0:
269,129,134731,6,0,L|265:161,22,20.2499993820191,0|0|0|0|0|0|0|0|0|0|0|0|0|0|0|0|0|0|0|0|0|0|0,1:2|1:2|1:2|1:2|1:2|1:2|1:2|1:2|1:2|1:2|1:2|1:2|1:2|1:2|1:2|1:2|1:2|1:2|1:2|1:2|1:2|1:2|1:2,1:2:0:0:
314,62,135742,6,0,B|380:53|465:24|465:24|401:74|343:159,1,310.500005922318,4|0,3:2|0:2,0:2:0:0:
224,219,136416,2,0,B|259:291|271:379|271:379|290:283|318:216,1,337.5,4|0,3:2|0:2,0:2:0:0:
219,58,137091,2,0,B|131:52|43:17|43:17|123:86|171:148,1,364.500001390457,4|0,3:2|0:2,0:2:0:0:
263,151,137765,5,0,1:2:0:0:
263,133,137877,1,0,1:2:0:0:
277,142,137989,1,0,1:2:0:0:
257,142,138102,5,0,1:2:0:0:
273,133,138214,1,0,1:2:0:0:
272,150,138326,1,0,1:2:0:0:
268,142,138439,5,4,3:2:0:0:
261,221,139113,1,8,0:1:0:0:
268,142,139787,1,0,0:2:0:0:
261,221,140461,1,8,0:1:0:0:
251,302,141023,6,0,P|308:313|354:326,1,90.0000034332277,2|0,0:3|0:2,0:2:0:0:
406,359,141810,1,8,0:1:0:0:
261,246,142484,6,0,P|204:257|134:277,1,112.500004291535,2|0,0:3|0:2,0:2:0:0:
89,318,143158,2,0,P|66:314|29:307,1,45.0000017166138,8|0,0:1|0:2,0:2:0:0:
259,168,143720,6,0,P|268:112|278:66,1,90.0000034332277,2|0,0:3|0:2,0:2:0:0:
236,14,144506,1,8,0:1:0:0:
236,14,144843,1,0,0:2:0:0:
348,134,145181,6,0,P|391:122|435:114,1,90.0000034332277,2|0,0:3|0:2,0:2:0:0:
512,209,145855,2,0,P|477:199|429:193,1,67.5000025749208,8|0,0:1|0:2,0:2:0:0:
380,242,146416,6,0,P|363:279|267:291,1,135.000005149842,2|0,0:3|0:2,0:2:0:0:
265,292,147203,2,0,B|220:296|244:328|187:334,1,80.9999975280763,8|0,0:1|0:2,0:2:0:0:
84,77,148551,5,0,1:2:0:0:
154,56,148664,1,0,1:2:0:0:
199,112,148776,1,0,1:2:0:0:
178,183,148888,5,0,1:2:0:0:
223,240,149000,1,0,1:2:0:0:
293,219,149113,1,0,1:2:0:0:
300,145,149225,6,0,P|296:124|289:88,1,45.0000017166138,4|0,3:2|0:2,0:2:0:0:
512,1,149563,6,0,B|406:11|488:80|368:86,1,162.000000617981,2|0,0:2|0:2,0:2:0:0:
292,100,149900,2,0,P|200:72|148:60,1,81.0000003089905,10|0,3:2|0:2,0:2:0:0:
34,223,150124,5,2,0:2:0:0:
102,187,150237,2,0,B|208:197|126:266|246:272,1,162.000000617981,2|0,0:2|0:2,0:2:0:0:
249,349,150574,2,0,P|296:329|296:272,1,81.0000003089905,2|0,3:2|0:2,0:2:0:0:
480,141,150798,5,2,0:2:0:0:
415,186,150911,2,0,L|326:167,1,81.0000003089905,2|0,0:2|0:2,0:2:0:0:
296,100,151136,2,0,L|123:107,1,162.000000617981,2|0,0:2|0:2,0:2:0:0:
0,55,151473,6,0,L|98:36,1,90,2|0,0:2|0:2,0:2:0:0:
163,21,151922,1,0,3:2:0:0:
242,185,152147,5,2,0:2:0:0:
185,236,152259,2,0,P|186:315|261:318,1,162.000000617981,2|0,0:2|0:2,0:2:0:0:
325,369,152596,2,0,P|398:356|394:282,1,162.000000617981,10|0,3:2|0:2,0:2:0:0:
359,109,152933,2,0,P|308:182|230:179,1,162.000000617981,2|0,0:2|0:2,0:2:0:0:
184,137,153270,1,2,3:2:0:0:
314,262,153495,5,2,0:2:0:0:
359,198,153607,2,0,L|437:180,1,81.0000003089905,2|0,0:2|0:2,0:2:0:0:
146,205,153832,5,2,0:2:0:0:
101,141,153944,2,0,L|23:123,1,81.0000003089905,10|0,3:2|0:2,0:2:0:0:
359,109,154169,5,2,0:2:0:0:
404,45,154281,2,0,L|482:27,1,81.0000003089905,2|0,0:2|0:2,0:2:0:0:
215,1,154506,1,2,0:2:0:0:
274,51,154619,6,0,L|244:265,1,162.000000617981,0|0,3:2|0:2,0:2:0:0:
242,285,154956,2,0,P|324:361|377:318,1,162.000000617981,2|0,0:2|0:2,0:2:0:0:
402,286,155293,1,10,3:2:0:0:
402,286,155630,2,0,L|501:271,1,81.0000003089905,2|0,0:2|0:2,0:2:0:0:
251,211,155855,5,0,0:2:0:0:
179,239,155967,2,0,P|61:209|-31:187,1,180.000006866455,2|0,3:2|0:2,0:2:0:0:
0,116,156304,1,2,0:2:0:0:
186,158,156529,5,2,0:2:0:0:
223,93,156641,2,0,P|269:86|319:78,1,75,10|0,3:2|0:2,0:2:0:0:
429,140,156866,5,2,0:2:0:0:
494,101,156978,1,2,0:2:0:0:
240,320,157203,5,2,0:2:0:0:
317,278,157315,2,0,L|307:375,1,97.4999955368044,0|0,3:2|0:2,0:2:0:0:
394,248,157989,6,0,P|377:180|350:44,1,187.5,8|0,3:2|0:2,0:2:0:0:
83,121,158664,6,2,P|193:114|282:-33,1,262.500002503395,6|0,3:2|0:2,0:1:0:0:
498,171,159338,6,2,P|388:150|141:294,1,354.000011478424,4|0,3:1|0:2,0:0:0:0:
130,310,159900,1,8,0:2:0:0:
0,268,160012,6,0,P|0:250|8:265,1,45.0000017166138,4|0,3:2|0:2,0:2:0:0:
50,325,160349,6,0,L|150:306,1,81.0000003089905,2|0,0:2|0:2,0:2:0:0:
282,203,160574,5,2,0:2:0:0:
355,219,160686,2,0,L|434:234,1,81.0000003089905,10|0,3:2|0:2,0:2:0:0:
306,372,160911,5,2,0:2:0:0:
235,344,161023,2,0,L|218:254,1,81.0000003089905,2|0,0:2|0:2,0:2:0:0:
188,93,161248,5,2,0:2:0:0:
117,122,161360,2,0,L|100:212,1,81.0000003089905,2|0,3:2|0:2,0:2:0:0:
264,7,161585,5,2,0:2:0:0:
335,35,161697,2,0,L|352:125,1,81.0000003089905,2|0,0:2|0:2,0:2:0:0:
434,234,161922,5,2,0:2:0:0:
504,206,162034,1,10,3:2:0:0:
299,176,162259,2,0,B|219:195|269:239|162:248,1,135.000005149842,2|0,0:2|0:2,0:2:0:0:
46,187,162709,6,0,P|245:222|464:288,1,405.000001544952,2|0,3:2|0:2,0:2:0:0:
510,278,163383,6,0,B|295:218|295:218|208:232|208:232|82:209|-15:199,1,525.00000500679,8|0,3:2|0:2,0:2:0:0:
173,384,164057,6,2,B|116:149|401:253|334:-9,1,450.000017166138,0|0,3:2|0:2,0:1:0:0:
120,45,164731,6,2,P|218:72|289:94,1,135.000005149842,10|0,3:2|0:2,0:1:0:0:
249,81,165293,1,8,0:2:0:0:
295,182,165405,6,2,B|340:41|554:50|557:154|493:234|367:163,1,375,2|0,3:2|0:2,0:1:0:0:
418,174,166079,2,0,P|405:100|380:-12,1,150,8|0,3:2|0:2,0:2:0:0:
396,0,166416,1,0,0:2:0:0:
120,164,166641,5,0,0:2:0:0:
163,225,166754,2,0,L|302:261,1,120,0|0,3:2|0:2,0:2:0:0:
331,312,167091,2,0,L|389:296,1,60,2|0,0:3|0:2,0:2:0:0:
29,250,167428,6,0,L|96:234,1,60,8|0,0:2|0:2,0:2:0:0:
120,164,167989,1,0,3:2:0:0:
331,54,168327,5,0,1:2:0:0:
341,44,168439,2,0,L|352:-1,2,30,0|0|0,1:2|1:2|1:2,0:2:0:0:
394,115,168776,5,0,3:2:0:0:
431,93,168888,1,0,1:2:0:0:
475,105,169001,1,0,1:2:0:0:
483,122,169113,6,0,L|522:146,2,30,0|0|0,1:2|1:2|1:2,0:2:0:0:
491,34,169450,2,0,B|337:34|469:159|244:140,1,225,4|0,3:2|0:2,0:2:0:0:
63,67,170012,5,0,1:2:0:0:
104,40,170124,1,0,1:2:0:0:
147,47,170237,1,0,1:2:0:0:
175,93,170349,1,0,1:2:0:0:
213,161,170461,5,8,0:3:0:0:
229,181,170574,1,4,0:3:0:0:
257,172,170686,1,4,0:3:0:0:
261,89,170798,6,0,P|236:170|204:392,1,233.999989288331,4|0,3:2|0:2,0:2:0:0:
27,363,171360,5,0,0:2:0:0:
37,284,171473,2,0,L|144:309,1,77.9999964294435,8|4,3:2|0:3,0:2:0:0:
325,247,171697,5,8,0:3:0:0:
375,305,171810,2,0,L|482:280,2,77.9999964294435,8|8|8,0:3|0:3|0:3,0:2:0:0:
202,370,172147,5,8,0:3:0:0:
242,308,172259,1,4,0:3:0:0:
191,254,172372,1,4,0:3:0:0:
221,183,172484,1,8,0:2:0:0:
266,40,172709,5,0,3:2:0:0:
213,173,172821,2,0,L|200:74,1,83.9999974365235,8|0,0:2|0:2,0:2:0:0:
190,11,173383,1,4,3:2:0:0:
368,124,174731,5,2,0:2:0:0:
368,124,174787,1,2,0:2:0:0:
368,124,174843,1,2,3:2:0:0:
256,192,174900,12,0,180237,3:2:0:0:
