osu file format v14

[General]
AudioFilename: SINister Evolution.mp3
AudioLeadIn: 3000
PreviewTime: 37046
Countdown: 1
SampleSet: Soft
StackLeniency: 1
Mode: 3
LetterboxInBreaks: 0
CountdownOffset: 3
SpecialStyle: 1
WidescreenStoryboard: 1

[Editor]
Bookmarks: 95080
DistanceSpacing: 0.8
BeatDivisor: 4
GridSize: 32
TimelineZoom: 1

[Metadata]
Title:SINister Evolution
TitleUnicode:SINister Evolution
Artist:TAK
ArtistUnicode:TAK
Creator:Seyren Windsor
Version:5K NM
Source:DJMAX RAY
Tags:Seyren, DJMAX, SIN,
BeatmapID:548386
BeatmapSetID:87062

[Difficulty]
HPDrainRate:7
CircleSize:5
OverallDifficulty:8
ApproachRate:10
SliderMultiplier:1.00000000596046
SliderTickRate:1

[Events]
//Background and Video events
0,0,"evolution.png",0,0
//Break Periods
//Storyboard Layer 0 (Background)
//Storyboard Layer 1 (Fail)
//Storyboard Layer 2 (Pass)
//Storyboard Layer 3 (Foreground)
//Storyboard Sound Samples
Sample,100,0,"1-vox1-01.ogg",70
Sample,201,0,"1-vox1-01.ogg",70
Sample,302,0,"1-vox1-02.ogg",70
Sample,1711,0,"1-vox1-01.ogg",70
Sample,1812,0,"1-vox1-01.ogg",70
Sample,1912,0,"1-vox1-02.ogg",70
Sample,3322,0,"1-vox1-01.ogg",70
Sample,3322,0,"1-vox1-01.ogg",70
Sample,3422,0,"1-vox1-01.ogg",70
Sample,3422,0,"1-vox1-01.ogg",70
Sample,3523,0,"1-vox1-02.ogg",70
Sample,3523,0,"1-vox1-02.ogg",70
Sample,5335,0,"1-vox1-11.ogg",70
Sample,5436,0,"1-vox1-10.ogg",70
Sample,5536,0,"1-vox1-11.ogg",70
Sample,5738,0,"1-vox1-15.ogg",70
Sample,5838,0,"1-vox1-17.ogg",70
Sample,5939,0,"1-vox1-16.ogg",70
Sample,6040,0,"1-vox1-08.ogg",70
Sample,6140,0,"1-vox1-08.ogg",70
Sample,6241,0,"1-vox1-08.ogg",70
Sample,6342,0,"1-vox1-08.ogg",70
Sample,6442,0,"1-vox2-01.ogg",70
Sample,6442,0,"1-vox1-01.ogg",70
Sample,6543,0,"1-vox1-01.ogg",70
Sample,6543,0,"1-vox2-01.ogg",70
Sample,6644,0,"1-vox2-01.ogg",70
Sample,6644,0,"1-vox1-01.ogg",70
Sample,6744,0,"1-vox1-02.ogg",70
Sample,6744,0,"1-vox2-02.ogg",70
Sample,7046,0,"1-vox2-02.ogg",70
Sample,7046,0,"1-vox1-02.ogg",70
Sample,7348,0,"1-vox1-02.ogg",70
Sample,7348,0,"1-vox2-02.ogg",70
Sample,7651,0,"1-vox2-03.ogg",70
Sample,7651,0,"1-vox1-04.ogg",70
Sample,7751,0,"1-loop2-09.ogg",70
Sample,8053,0,"1-vox2-04.ogg",70
Sample,8053,0,"1-vox1-01.ogg",70
Sample,8154,0,"1-vox1-01.ogg",70
Sample,8154,0,"1-vox2-04.ogg",70
Sample,8255,0,"1-vox2-04.ogg",70
Sample,8255,0,"1-vox1-01.ogg",70
Sample,8355,0,"1-vox1-02.ogg",70
Sample,8355,0,"1-vox2-05.ogg",70
Sample,8657,0,"1-vox2-05.ogg",70
Sample,8657,0,"1-vox1-02.ogg",70
Sample,8959,0,"1-vox1-02.ogg",70
Sample,8959,0,"1-vox2-05.ogg",70
Sample,9261,0,"1-vox2-05.ogg",70
Sample,9261,0,"1-vox1-04.ogg",70
Sample,9664,0,"1-vox1-05.ogg",70
Sample,10067,0,"1-loop2-25.ogg",70
Sample,10167,0,"1-vox1-11.ogg",70
Sample,10167,0,"1-loop2-26.ogg",70
Sample,10268,0,"1-loop2-27.ogg",70
Sample,10268,0,"1-vox1-10.ogg",70
Sample,10369,0,"1-vox1-11.ogg",70
Sample,10369,0,"1-loop2-28.ogg",70
Sample,10469,0,"1-loop2-29.ogg",70
Sample,10570,0,"1-loop2-30.ogg",70
Sample,10570,0,"1-vox1-15.ogg",70
Sample,10671,0,"1-loop2-31.ogg",70
Sample,10671,0,"1-vox1-17.ogg",70
Sample,10771,0,"1-loop2-32.ogg",70
Sample,10771,0,"1-vox1-16.ogg",70
Sample,10872,0,"1-loop2-33.ogg",70
Sample,10973,0,"1-vox1-19.ogg",70
Sample,10973,0,"1-loop2-34.ogg",70
Sample,11073,0,"1-loop2-33.ogg",70
Sample,11073,0,"1-vox1-20.ogg",70
Sample,11174,0,"1-loop2-34.ogg",70
Sample,11174,0,"1-vox1-21.ogg",70
Sample,11275,0,"1-loop2-37.ogg",70
Sample,12885,0,"1-bass-01.ogg",70
Sample,12885,0,"1-loop3-01.ogg",70
Sample,13691,0,"1-loop3-03.ogg",70
Sample,14496,0,"1-loop3-03.ogg",70
Sample,14496,0,"1-bass-02.ogg",70
Sample,15302,0,"1-bass-03.ogg",70
Sample,15302,0,"1-loop3-03.ogg",70
Sample,15503,0,"1-bass-04.ogg",70
Sample,15704,0,"1-bass-05.ogg",70
Sample,15906,0,"1-bass-06.ogg",70
Sample,15906,0,"1-loop3-04.ogg",70
Sample,16107,0,"1-loop3-01.ogg",70
Sample,16107,0,"1-bass-07.ogg",70
Sample,16510,0,"1-fx-09.ogg",70
Sample,16711,0,"1-bass-08.ogg",70
Sample,16912,0,"1-loop3-03.ogg",70
Sample,16912,0,"1-bass-09.ogg",70
Sample,17114,0,"1-bass-10.ogg",70
Sample,17315,0,"1-bass-11.ogg",70
Sample,17516,0,"1-bass-12.ogg",70
Sample,17718,0,"1-loop3-03.ogg",70
Sample,17718,0,"1-bass-13.ogg",70
Sample,17718,0,"1-vox1-01.ogg",70
Sample,17818,0,"1-vox1-01.ogg",70
Sample,17919,0,"1-vox1-01.ogg",70
Sample,18020,0,"1-vox1-02.ogg",70
Sample,18322,0,"1-vox1-02.ogg",70
Sample,18523,0,"1-loop3-03.ogg",70
Sample,18624,0,"1-vox1-02.ogg",70
Sample,18926,0,"1-vox1-04.ogg",70
Sample,19127,0,"1-loop3-04.ogg",70
Sample,19328,0,"1-bass-14.ogg",70
Sample,19328,0,"1-loop3-01.ogg",70
Sample,20134,0,"1-bass-15.ogg",70
Sample,20134,0,"1-loop3-03.ogg",70
Sample,20939,0,"1-loop3-03.ogg",70
Sample,20939,0,"1-bass-16.ogg",70
Sample,21744,0,"1-bass-17.ogg",70
Sample,21744,0,"1-loop3-03.ogg",70
Sample,22147,0,"1-bass-18.ogg",70
Sample,22147,0,"1-loop3-13.ogg",70
Sample,22348,0,"1-loop3-04.ogg",70
Sample,22550,0,"1-loop3-01.ogg",70
Sample,22550,0,"1-bass-19.ogg",70
Sample,22751,0,"1-bass-20.ogg",70
Sample,22953,0,"1-bass-21.ogg",70
Sample,22953,0,"1-snare-05.ogg",70
Sample,23087,0,"1-snare-05.ogg",70
Sample,23154,0,"1-bass-22.ogg",70
Sample,23221,0,"1-snare-05.ogg",70
Sample,23355,0,"1-snare-05.ogg",70
Sample,23355,0,"1-bass-23.ogg",70
Sample,23355,0,"1-loop3-05.ogg",70
Sample,23355,0,"1-loop3-03.ogg",70
Sample,23624,0,"1-loop3-06.ogg",70
Sample,23758,0,"1-snare-05.ogg",70
Sample,23892,0,"1-snare-05.ogg",70
Sample,23892,0,"1-loop3-07.ogg",70
Sample,24026,0,"1-snare-05.ogg",70
Sample,24161,0,"1-loop3-03.ogg",70
Sample,24161,0,"1-loop3-08.ogg",70
Sample,24161,0,"1-snare-05.ogg",70
Sample,24261,0,"1-gtsolo-02.ogg",70
Sample,24362,0,"1-gtsolo-03.ogg",70
Sample,24429,0,"1-snare-05.ogg",70
Sample,24429,0,"1-loop3-09.ogg",70
Sample,24463,0,"1-gtsolo-06.ogg",70
Sample,24563,0,"1-snare-05.ogg",70
Sample,24664,0,"1-gtsolo-06.ogg",70
Sample,24697,0,"1-loop3-10.ogg",70
Sample,24765,0,"1-gtsolo-09.ogg",70
Sample,24832,0,"1-snare-05.ogg",70
Sample,24865,0,"1-gtsolo-08.ogg",70
Sample,24966,0,"1-snare-05.ogg",70
Sample,24966,0,"1-loop1-08.ogg",70
Sample,24966,0,"1-loop3-08.ogg",70
Sample,24966,0,"1-loop3-03.ogg",70
Sample,25067,0,"1-gtsolo-08.ogg",70
Sample,25067,0,"1-loop1-09.ogg",70
Sample,25100,0,"1-snare-05.ogg",70
Sample,25167,0,"1-loop1-02.ogg",70
Sample,25167,0,"1-gtsolo-11.ogg",70
Sample,25234,0,"1-loop3-09.ogg",70
Sample,25234,0,"1-snare-05.ogg",70
Sample,25268,0,"1-loop1-03.ogg",70
Sample,25268,0,"1-gtsolo-12.ogg",70
Sample,25369,0,"1-snare-06.ogg",70
Sample,25369,0,"1-loop1-04.ogg",70
Sample,25469,0,"1-gtsolo-14.ogg",70
Sample,25469,0,"1-loop1-05.ogg",70
Sample,25503,0,"1-loop3-13.ogg",70
Sample,25570,0,"1-gtsolo-15.ogg",70
Sample,25570,0,"1-loop1-06.ogg",70
Sample,25671,0,"1-gtsolo-12.ogg",70
Sample,25671,0,"1-loop1-07.ogg",70
Sample,25771,0,"1-backing-01.ogg",70
Sample,25771,0,"1-kick-01.ogg",70
Sample,25771,0,"1-snare-03.ogg",70
Sample,25771,0,"1-loop1-01.ogg",70
Sample,25973,0,"1-loop1-02.ogg",70
Sample,25973,0,"1-backing-02.ogg",70
Sample,26073,0,"1-backing-03.ogg",70
Sample,26073,0,"1-loop1-03.ogg",70
Sample,26174,0,"1-backing-01.ogg",70
Sample,26174,0,"1-kick-01.ogg",70
Sample,26174,0,"1-loop1-04.ogg",70
Sample,26275,0,"1-loop1-05.ogg",70
Sample,26375,0,"1-loop1-06.ogg",70
Sample,26375,0,"1-backing-02.ogg",70
Sample,26476,0,"1-loop1-07.ogg",70
Sample,26476,0,"1-backing-03.ogg",70
Sample,26577,0,"1-loop1-01.ogg",70
Sample,26577,0,"1-backing-02.ogg",70
Sample,26577,0,"1-kick-01.ogg",70
Sample,26677,0,"1-backing-03.ogg",70
Sample,26778,0,"1-loop1-02.ogg",70
Sample,26778,0,"1-backing-01.ogg",70
Sample,26879,0,"1-loop1-03.ogg",70
Sample,26979,0,"1-kick-01.ogg",70
Sample,26979,0,"1-backing-02.ogg",70
Sample,26979,0,"1-loop1-04.ogg",70
Sample,27080,0,"1-loop1-05.ogg",70
Sample,27080,0,"1-backing-03.ogg",70
Sample,27181,0,"1-backing-01.ogg",70
Sample,27281,0,"1-loop1-07.ogg",70
Sample,27382,0,"1-backing-04.ogg",70
Sample,27382,0,"1-kick-01.ogg",70
Sample,27382,0,"1-loop1-01.ogg",70
Sample,27583,0,"1-loop1-02.ogg",70
Sample,27583,0,"1-backing-05.ogg",70
Sample,27684,0,"1-backing-06.ogg",70
Sample,27684,0,"1-loop1-03.ogg",70
Sample,27785,0,"1-backing-04.ogg",70
Sample,27785,0,"1-loop1-04.ogg",70
Sample,27785,0,"1-kick-01.ogg",70
Sample,27885,0,"1-loop1-05.ogg",70
Sample,27986,0,"1-backing-05.ogg",70
Sample,27986,0,"1-loop1-06.ogg",70
Sample,28087,0,"1-loop1-07.ogg",70
Sample,28087,0,"1-backing-06.ogg",70
Sample,28187,0,"1-backing-05.ogg",70
Sample,28187,0,"1-loop1-01.ogg",70
Sample,28288,0,"1-backing-06.ogg",70
Sample,28389,0,"1-backing-04.ogg",70
Sample,28389,0,"1-loop1-02.ogg",70
Sample,28489,0,"1-loop1-03.ogg",70
Sample,28590,0,"1-kick-01.ogg",70
Sample,28590,0,"1-loop1-04.ogg",70
Sample,28590,0,"1-backing-05.ogg",70
Sample,28691,0,"1-backing-06.ogg",70
Sample,28691,0,"1-loop1-05.ogg",70
Sample,28791,0,"1-backing-04.ogg",70
Sample,28892,0,"1-loop1-07.ogg",70
Sample,28993,0,"1-kick-01.ogg",70
Sample,28993,0,"1-backing-07.ogg",70
Sample,28993,0,"1-loop1-01.ogg",70
Sample,29194,0,"1-loop1-02.ogg",70
Sample,29194,0,"1-backing-08.ogg",70
Sample,29295,0,"1-backing-09.ogg",70
Sample,29295,0,"1-loop1-03.ogg",70
Sample,29395,0,"1-backing-07.ogg",70
Sample,29395,0,"1-loop1-04.ogg",70
Sample,29496,0,"1-loop1-05.ogg",70
Sample,29597,0,"1-backing-08.ogg",70
Sample,29697,0,"1-loop1-07.ogg",70
Sample,29697,0,"1-backing-09.ogg",70
Sample,29798,0,"1-backing-08.ogg",70
Sample,29798,0,"1-kick-01.ogg",70
Sample,29798,0,"1-loop1-01.ogg",70
Sample,29899,0,"1-backing-09.ogg",70
Sample,30000,0,"1-backing-07.ogg",70
Sample,30100,0,"1-loop1-03.ogg",70
Sample,30201,0,"1-loop1-04.ogg",70
Sample,30201,0,"1-backing-08.ogg",70
Sample,30302,0,"1-loop1-05.ogg",70
Sample,30302,0,"1-backing-09.ogg",70
Sample,30402,0,"1-backing-07.ogg",70
Sample,30503,0,"1-loop1-07.ogg",70
Sample,30604,0,"1-loop1-01.ogg",70
Sample,30604,0,"1-snare-03.ogg",70
Sample,30604,0,"1-kick-01.ogg",70
Sample,30604,0,"1-backing-10.ogg",70
Sample,30805,0,"1-loop1-02.ogg",70
Sample,30805,0,"1-backing-11.ogg",70
Sample,30906,0,"1-backing-11.ogg",70
Sample,30906,0,"1-loop1-03.ogg",70
Sample,31006,0,"1-backing-10.ogg",70
Sample,31006,0,"1-kick-01.ogg",70
Sample,31006,0,"1-loop1-04.ogg",70
Sample,31107,0,"1-loop1-05.ogg",70
Sample,31208,0,"1-backing-11.ogg",70
Sample,31308,0,"1-loop1-07.ogg",70
Sample,31308,0,"1-backing-11.ogg",70
Sample,31409,0,"1-backing-11.ogg",70
Sample,31409,0,"1-loop1-01.ogg",70
Sample,31409,0,"1-snare-03.ogg",70
Sample,31510,0,"1-backing-11.ogg",70
Sample,31610,0,"1-backing-10.ogg",70
Sample,31711,0,"1-loop1-03.ogg",70
Sample,31812,0,"1-loop1-04.ogg",70
Sample,31812,0,"1-backing-11.ogg",70
Sample,31912,0,"1-backing-11.ogg",70
Sample,31912,0,"1-loop1-05.ogg",70
Sample,32013,0,"1-backing-10.ogg",70
Sample,32013,0,"1-loop1-06.ogg",70
Sample,32013,0,"1-kick-01.ogg",70
Sample,32114,0,"1-loop1-07.ogg",70
Sample,32214,0,"1-snare-03.ogg",70
Sample,32214,0,"1-loop1-01.ogg",70
Sample,32348,0,"1-loop1-02.ogg",70
Sample,32483,0,"1-backing-14.ogg",70
Sample,32516,0,"1-loop1-03.ogg",70
Sample,32617,0,"1-loop1-04.ogg",70
Sample,32617,0,"1-snare-03.ogg",70
Sample,32718,0,"1-loop1-05.ogg",70
Sample,32751,0,"1-backing-15.ogg",70
Sample,32818,0,"1-loop1-06.ogg",70
Sample,32919,0,"1-loop1-07.ogg",70
Sample,33020,0,"1-backing-16.ogg",70
Sample,33020,0,"1-snare-03.ogg",70
Sample,33020,0,"1-loop1-01.ogg",70
Sample,33221,0,"1-loop1-02.ogg",70
Sample,33288,0,"1-backing-13.ogg",70
Sample,33322,0,"1-loop1-03.ogg",70
Sample,33422,0,"1-snare-03.ogg",70
Sample,33422,0,"1-loop1-04.ogg",70
Sample,33523,0,"1-loop1-05.ogg",70
Sample,33557,0,"1-backing-15.ogg",70
Sample,33624,0,"1-loop1-06.ogg",70
Sample,33724,0,"1-loop1-07.ogg",70
Sample,33825,0,"1-backing-19.ogg",70
Sample,33825,0,"1-loop1-01.ogg",70
Sample,34026,0,"1-loop1-02.ogg",70
Sample,34093,0,"1-backing-20.ogg",70
Sample,34127,0,"1-loop1-03.ogg",70
Sample,34228,0,"1-loop1-04.ogg",70
Sample,34228,0,"1-snare-03.ogg",70
Sample,34328,0,"1-loop1-05.ogg",70
Sample,34362,0,"1-backing-21.ogg",70
Sample,34429,0,"1-loop1-06.ogg",70
Sample,34530,0,"1-loop1-07.ogg",70
Sample,34630,0,"1-loop1-01.ogg",70
Sample,34630,0,"1-snare-03.ogg",70
Sample,34630,0,"1-backing-22.ogg",70
Sample,34832,0,"1-loop1-02.ogg",70
Sample,34899,0,"1-backing-19.ogg",70
Sample,34932,0,"1-loop1-03.ogg",70
Sample,35033,0,"1-loop1-04.ogg",70
Sample,35033,0,"1-snare-03.ogg",70
Sample,35134,0,"1-loop1-05.ogg",70
Sample,35167,0,"1-backing-20.ogg",70
Sample,35234,0,"1-loop1-06.ogg",70
Sample,35335,0,"1-loop1-07.ogg",70
Sample,35436,0,"1-loop1-01.ogg",70
Sample,35436,0,"1-backing-25.ogg",70
Sample,35436,0,"1-snare-03.ogg",70
Sample,35704,0,"1-backing-26.ogg",70
Sample,35838,0,"1-snare-03.ogg",70
Sample,35973,0,"1-backing-27.ogg",70
Sample,36241,0,"1-snare-03.ogg",70
Sample,36241,0,"1-backing-26.ogg",70
Sample,36308,0,"1-kick-03.ogg",70
Sample,36375,0,"1-kick-03.ogg",70
Sample,36442,0,"1-kick-03.ogg",70
Sample,36510,0,"1-kick-03.ogg",70
Sample,36510,0,"1-backing-25.ogg",70
Sample,36577,0,"1-kick-03.ogg",70
Sample,36644,0,"1-snare-03.ogg",70
Sample,36711,0,"1-kick-04.ogg",70
Sample,36778,0,"1-backing-30.ogg",70
Sample,36778,0,"1-kick-04.ogg",70
Sample,36845,0,"1-kick-04.ogg",70
Sample,36912,0,"1-kick-04.ogg",70
Sample,36979,0,"1-kick-04.ogg",70
Sample,37046,0,"1-bass-24.ogg",70
Sample,38724,0,"0-blank.ogg",70
Sample,38791,0,"0-blank.ogg",70
Sample,38859,0,"0-blank.ogg",70
Sample,38926,0,"0-blank.ogg",70
Sample,38993,0,"0-blank.ogg",70
Sample,39060,0,"0-blank.ogg",70
Sample,39127,0,"0-blank.ogg",70
Sample,39194,0,"0-blank.ogg",70
Sample,39261,0,"0-blank.ogg",70
Sample,39328,0,"0-blank.ogg",70
Sample,39395,0,"0-blank.ogg",70
Sample,39463,0,"1-bass-32.ogg",70
Sample,39463,0,"1-loop1-10.ogg",70
Sample,39530,0,"0-blank.ogg",70
Sample,39597,0,"0-blank.ogg",70
Sample,39664,0,"0-blank.ogg",70
Sample,39731,0,"0-blank.ogg",70
Sample,39798,0,"0-blank.ogg",70
Sample,39865,0,"0-blank.ogg",70
Sample,39865,0,"1-loop1-11.ogg",70
Sample,40067,0,"1-loop1-12.ogg",70
Sample,40268,0,"1-loop1-13.ogg",70
Sample,40268,0,"1-arp-01.ogg",70
Sample,40369,0,"1-arp-02.ogg",70
Sample,40469,0,"1-arp-03.ogg",70
Sample,40570,0,"1-arp-04.ogg",70
Sample,40671,0,"1-arp-05.ogg",70
Sample,40771,0,"1-arp-06.ogg",70
Sample,40872,0,"1-arp-01.ogg",70
Sample,40973,0,"1-arp-02.ogg",70
Sample,41073,0,"1-arp-03.ogg",70
Sample,41073,0,"1-loop1-10.ogg",70
Sample,41174,0,"1-arp-04.ogg",70
Sample,41275,0,"1-arp-05.ogg",70
Sample,41375,0,"1-arp-06.ogg",70
Sample,41476,0,"1-arp-01.ogg",70
Sample,41577,0,"1-arp-02.ogg",70
Sample,41677,0,"1-arp-03.ogg",70
Sample,41778,0,"1-arp-04.ogg",70
Sample,41879,0,"1-fx-03.ogg",70
Sample,41879,0,"1-loop1-13.ogg",70
Sample,42281,0,"1-fx-04.ogg",70
Sample,42382,0,"1-kick-06.ogg",70
Sample,42382,0,"1-fx-05.ogg",70
Sample,42483,0,"1-fx-06.ogg",70
Sample,42583,0,"1-kick-06.ogg",70
Sample,42583,0,"1-bass2-02.ogg",70
Sample,42583,0,"1-fx-07.ogg",70
Sample,42684,0,"1-bass2-03.ogg",70
Sample,42684,0,"1-loop1-10.ogg",70
Sample,42785,0,"1-bass2-04.ogg",70
Sample,42885,0,"1-bass2-15.ogg",70
Sample,42986,0,"1-bass2-16.ogg",70
Sample,43489,0,"1-arp-08.ogg",70
Sample,43489,0,"1-loop1-13.ogg",70
Sample,43557,0,"1-arp-09.ogg",70
Sample,43624,0,"1-arp-33.ogg",70
Sample,43691,0,"1-arp-25.ogg",70
Sample,43758,0,"1-arp-26.ogg",70
Sample,43825,0,"1-arp-08.ogg",70
Sample,43892,0,"1-arp-09.ogg",70
Sample,43959,0,"1-arp-24.ogg",70
Sample,44026,0,"1-arp-25.ogg",70
Sample,44093,0,"1-arp-26.ogg",70
Sample,44161,0,"1-arp-18.ogg",70
Sample,44228,0,"1-arp-19.ogg",70
Sample,44295,0,"1-loop1-10.ogg",70
Sample,44295,0,"1-arp-20.ogg",70
Sample,44362,0,"1-arp-21.ogg",70
Sample,44429,0,"1-arp-08.ogg",70
Sample,44496,0,"1-arp-23.ogg",70
Sample,44563,0,"1-arp-24.ogg",70
Sample,44630,0,"1-arp-25.ogg",70
Sample,44697,0,"1-arp-26.ogg",70
Sample,44765,0,"1-arp-27.ogg",70
Sample,44832,0,"1-arp-29.ogg",70
Sample,44899,0,"1-arp-29.ogg",70
Sample,44966,0,"1-arp-30.ogg",70
Sample,45033,0,"1-arp-31.ogg",70
Sample,45100,0,"1-loop1-13.ogg",70
Sample,45100,0,"1-bass2-01.ogg",70
Sample,45167,0,"0-blank.ogg",70
Sample,45234,0,"0-blank.ogg",70
Sample,45302,0,"0-blank.ogg",70
Sample,45369,0,"0-blank.ogg",70
Sample,45436,0,"0-blank.ogg",70
Sample,45503,0,"0-blank.ogg",70
Sample,45906,0,"1-bass2-06.ogg",70
Sample,46006,0,"1-bass2-07.ogg",70
Sample,46107,0,"1-bass2-08.ogg",70
Sample,46208,0,"1-bass2-09.ogg",70
Sample,46308,0,"1-bass2-10.ogg",70
Sample,46409,0,"1-bass2-11.ogg",70
Sample,46510,0,"1-bass2-11.ogg",70
Sample,46610,0,"1-bass2-13.ogg",70
Sample,46711,0,"1-loop1-13.ogg",70
Sample,46711,0,"1-arp-01.ogg",70
Sample,46778,0,"1-arp-02.ogg",70
Sample,46812,0,"1-arp-02.ogg",70
Sample,46912,0,"1-arp-03.ogg",70
Sample,47013,0,"1-arp-04.ogg",70
Sample,47114,0,"1-arp-05.ogg",70
Sample,47214,0,"1-arp-06.ogg",70
Sample,47315,0,"1-arp-01.ogg",70
Sample,47416,0,"1-arp-02.ogg",70
Sample,47516,0,"1-arp-03.ogg",70
Sample,47516,0,"1-loop1-10.ogg",70
Sample,47617,0,"1-arp-04.ogg",70
Sample,47718,0,"1-arp-05.ogg",70
Sample,47818,0,"1-arp-06.ogg",70
Sample,47919,0,"1-arp-01.ogg",70
Sample,48020,0,"1-arp-02.ogg",70
Sample,48120,0,"1-arp-03.ogg",70
Sample,48221,0,"1-arp-04.ogg",70
Sample,49127,0,"1-bass-36.ogg",70
Sample,49127,0,"1-snare-04.ogg",70
Sample,49530,0,"1-loop1-11.ogg",70
Sample,49731,0,"1-loop1-12.ogg",70
Sample,49932,0,"1-loop1-13.ogg",70
Sample,49932,0,"1-bass-37.ogg",70
Sample,50134,0,"1-loop1-14.ogg",70
Sample,50335,0,"1-loop1-15.ogg",70
Sample,50536,0,"1-loop1-16.ogg",70
Sample,50738,0,"1-snare-04.ogg",70
Sample,50738,0,"1-bass-38.ogg",70
Sample,51140,0,"1-loop1-11.ogg",70
Sample,51342,0,"1-loop1-12.ogg",70
Sample,51543,0,"1-loop1-13.ogg",70
Sample,51744,0,"1-loop1-14.ogg",70
Sample,51946,0,"1-loop1-15.ogg",70
Sample,52147,0,"1-loop1-16.ogg",70
Sample,52348,0,"1-loop1-10.ogg",70
Sample,53154,0,"1-arp-01.ogg",70
Sample,53154,0,"1-loop1-13.ogg",70
Sample,53255,0,"1-arp-02.ogg",70
Sample,53355,0,"1-arp-03.ogg",70
Sample,53456,0,"1-arp-04.ogg",70
Sample,53557,0,"1-arp-05.ogg",70
Sample,53657,0,"1-arp-06.ogg",70
Sample,53758,0,"1-arp-01.ogg",70
Sample,53859,0,"1-arp-02.ogg",70
Sample,53959,0,"1-loop1-10.ogg",70
Sample,53959,0,"1-arp-03.ogg",70
Sample,54060,0,"1-arp-04.ogg",70
Sample,54161,0,"1-arp-05.ogg",70
Sample,54261,0,"1-arp-06.ogg",70
Sample,54362,0,"1-arp-01.ogg",70
Sample,54463,0,"1-arp-02.ogg",70
Sample,54563,0,"1-arp-03.ogg",70
Sample,54664,0,"1-arp-04.ogg",70
Sample,54765,0,"1-bass-29.ogg",70
Sample,54765,0,"1-loop1-13.ogg",70
Sample,54966,0,"1-loop1-14.ogg",70
Sample,55167,0,"1-loop1-15.ogg",70
Sample,55268,0,"1-kick-06.ogg",70
Sample,55268,0,"1-fx-05.ogg",70
Sample,55369,0,"1-loop1-16.ogg",70
Sample,55369,0,"1-kick-06.ogg",70
Sample,55369,0,"1-fx-06.ogg",70
Sample,55469,0,"1-fx-07.ogg",70
Sample,55469,0,"1-kick-06.ogg",70
Sample,55570,0,"1-loop1-10.ogg",70
Sample,55570,0,"1-snare-04.ogg",70
Sample,55973,0,"1-loop1-11.ogg",70
Sample,56174,0,"1-loop1-12.ogg",70
Sample,56375,0,"1-bass-43.ogg",70
Sample,56375,0,"1-arp-08.ogg",70
Sample,56375,0,"1-kick-05.ogg",70
Sample,56442,0,"1-arp-09.ogg",70
Sample,56510,0,"1-arp-33.ogg",70
Sample,56577,0,"1-arp-25.ogg",70
Sample,56644,0,"1-arp-26.ogg",70
Sample,56711,0,"1-arp-08.ogg",70
Sample,56778,0,"1-arp-09.ogg",70
Sample,56845,0,"1-arp-24.ogg",70
Sample,56912,0,"1-arp-25.ogg",70
Sample,56979,0,"1-arp-26.ogg",70
Sample,56979,0,"1-bass-44.ogg",70
Sample,57046,0,"1-arp-18.ogg",70
Sample,57114,0,"1-arp-19.ogg",70
Sample,57181,0,"1-arp-20.ogg",70
Sample,57248,0,"1-arp-21.ogg",70
Sample,57315,0,"1-arp-08.ogg",70
Sample,57382,0,"1-arp-23.ogg",70
Sample,57449,0,"1-arp-24.ogg",70
Sample,57516,0,"1-arp-25.ogg",70
Sample,57583,0,"1-arp-26.ogg",70
Sample,57651,0,"1-arp-27.ogg",70
Sample,57718,0,"1-arp-29.ogg",70
Sample,57785,0,"1-arp-29.ogg",70
Sample,57852,0,"1-arp-30.ogg",70
Sample,57919,0,"1-arp-31.ogg",70
Sample,57986,0,"1-arp-32.ogg",70
Sample,58053,0,"1-arp-33.ogg",70
Sample,58120,0,"1-arp-50.ogg",70
Sample,58187,0,"1-arp-35.ogg",70
Sample,58255,0,"1-arp-41.ogg",70
Sample,58322,0,"1-arp-37.ogg",70
Sample,58389,0,"1-arp-24.ogg",70
Sample,58456,0,"1-arp-50.ogg",70
Sample,58523,0,"1-arp-35.ogg",70
Sample,58590,0,"1-arp-41.ogg",70
Sample,58657,0,"1-arp-42.ogg",70
Sample,58724,0,"1-arp-43.ogg",70
Sample,58791,0,"1-arp-44.ogg",70
Sample,58859,0,"1-arp-45.ogg",70
Sample,58926,0,"1-arp-46.ogg",70
Sample,58993,0,"1-arp-47.ogg",70
Sample,59060,0,"1-arp-48.ogg",70
Sample,59127,0,"1-arp-33.ogg",70
Sample,59194,0,"1-arp-50.ogg",70
Sample,59261,0,"1-arp-35.ogg",70
Sample,59328,0,"1-arp-52.ogg",70
Sample,59395,0,"1-arp-53.ogg",70
Sample,59463,0,"1-arp-33.ogg",70
Sample,59530,0,"1-arp-55.ogg",70
Sample,59597,0,"1-arp-56.ogg",70
Sample,59664,0,"1-arp-57.ogg",70
Sample,59731,0,"1-arp-58.ogg",70
Sample,59798,0,"1-arp-59.ogg",70
Sample,59865,0,"1-arp-60.ogg",70
Sample,59932,0,"1-arp-61.ogg",70
Sample,60000,0,"1-arp-62.ogg",70
Sample,60067,0,"1-arp-63.ogg",70
Sample,60134,0,"1-arp-64.ogg",70
Sample,60201,0,"1-arp-65.ogg",70
Sample,60268,0,"1-arp-66.ogg",70
Sample,60335,0,"1-arp-67.ogg",70
Sample,60402,0,"1-arp-68.ogg",70
Sample,60469,0,"1-arp-69.ogg",70
Sample,60536,0,"1-arp-71.ogg",70
Sample,60604,0,"1-arp-72.ogg",70
Sample,60671,0,"1-arp-73.ogg",70
Sample,60738,0,"1-arp-74.ogg",70
Sample,60805,0,"1-arp-75.ogg",70
Sample,60872,0,"1-arp-76.ogg",70
Sample,60939,0,"1-arp-77.ogg",70
Sample,61006,0,"1-arp-78.ogg",70
Sample,61073,0,"1-arp-79.ogg",70
Sample,62818,0,"1-loop4-01.ogg",70
Sample,63020,0,"1-loop4-02.ogg",70
Sample,63221,0,"1-loop4-03.ogg",70
Sample,63624,0,"1-loop4-04.ogg",70
Sample,63825,0,"1-loop4-05.ogg",70
Sample,64026,0,"1-loop4-06.ogg",70
Sample,64228,0,"1-loop4-07.ogg",70
Sample,75704,0,"1-organ-07.ogg",70
Sample,75704,0,"1-loop4-01.ogg",70
Sample,75704,0,"1-vox1-05.ogg",70
Sample,75906,0,"1-loop4-02.ogg",70
Sample,76107,0,"1-vox1-10.ogg",70
Sample,76107,0,"1-loop4-03.ogg",70
Sample,76208,0,"1-vox1-11.ogg",70
Sample,76308,0,"1-vox1-10.ogg",70
Sample,76409,0,"1-vox1-11.ogg",70
Sample,76510,0,"1-loop4-04.ogg",70
Sample,76510,0,"1-vox1-14.ogg",70
Sample,76510,0,"1-organ-08.ogg",70
Sample,76610,0,"1-vox1-15.ogg",70
Sample,76711,0,"1-vox1-17.ogg",70
Sample,76711,0,"1-loop4-05.ogg",70
Sample,76812,0,"1-vox1-16.ogg",70
Sample,76912,0,"1-loop4-06.ogg",70
Sample,76912,0,"1-vox1-08.ogg",70
Sample,77013,0,"1-vox1-08.ogg",70
Sample,77114,0,"1-loop4-07.ogg",70
Sample,77114,0,"1-vox1-08.ogg",70
Sample,77214,0,"1-vox1-08.ogg",70
Sample,77315,0,"1-piano-01.ogg",70
Sample,77315,0,"1-organ-01.ogg",70
Sample,77315,0,"1-loop1-01.ogg",70
Sample,77315,0,"1-loop3-01.ogg",70
Sample,77416,0,"1-piano-02.ogg",70
Sample,77516,0,"1-piano-03.ogg",70
Sample,77617,0,"1-piano-04.ogg",70
Sample,77617,0,"1-loop1-03.ogg",70
Sample,77718,0,"1-snare-03.ogg",70
Sample,77718,0,"1-piano-05.ogg",70
Sample,77818,0,"1-loop1-05.ogg",70
Sample,77818,0,"1-piano-06.ogg",70
Sample,77919,0,"1-piano-07.ogg",70
Sample,78020,0,"1-piano-08.ogg",70
Sample,78020,0,"1-loop1-07.ogg",70
Sample,78120,0,"1-piano-09.ogg",70
Sample,78120,0,"1-loop3-03.ogg",70
Sample,78120,0,"1-organ-02.ogg",70
Sample,78120,0,"1-snare-03.ogg",70
Sample,78221,0,"1-piano-10.ogg",70
Sample,78322,0,"1-piano-11.ogg",70
Sample,78422,0,"1-piano-12.ogg",70
Sample,78422,0,"1-loop1-03.ogg",70
Sample,78523,0,"1-piano-13.ogg",70
Sample,78523,0,"1-kick-01.ogg",70
Sample,78624,0,"1-loop1-05.ogg",70
Sample,78624,0,"1-piano-14.ogg",70
Sample,78724,0,"1-piano-15.ogg",70
Sample,78825,0,"1-piano-16.ogg",70
Sample,78825,0,"1-loop1-07.ogg",70
Sample,78926,0,"1-loop3-03.ogg",70
Sample,78926,0,"1-loop1-01.ogg",70
Sample,78926,0,"1-piano-17.ogg",70
Sample,78926,0,"1-organ-03.ogg",70
Sample,79026,0,"1-piano-18.ogg",70
Sample,79127,0,"1-piano-19.ogg",70
Sample,79228,0,"1-loop1-03.ogg",70
Sample,79228,0,"1-piano-20.ogg",70
Sample,79328,0,"1-kick-01.ogg",70
Sample,79328,0,"1-piano-21.ogg",70
Sample,79429,0,"1-loop1-05.ogg",70
Sample,79429,0,"1-piano-22.ogg",70
Sample,79530,0,"1-piano-23.ogg",70
Sample,79630,0,"1-piano-24.ogg",70
Sample,79630,0,"1-loop1-07.ogg",70
Sample,79731,0,"1-piano-25.ogg",70
Sample,79731,0,"1-loop1-01.ogg",70
Sample,79731,0,"1-organ-04.ogg",70
Sample,79731,0,"1-loop3-03.ogg",70
Sample,79832,0,"1-piano-26.ogg",70
Sample,79932,0,"1-piano-27.ogg",70
Sample,80033,0,"1-piano-28.ogg",70
Sample,80033,0,"1-loop1-03.ogg",70
Sample,80134,0,"1-piano-29.ogg",70
Sample,80134,0,"1-loop1-04.ogg",70
Sample,80234,0,"1-piano-30.ogg",70
Sample,80234,0,"1-loop1-05.ogg",70
Sample,80335,0,"1-loop3-04.ogg",70
Sample,80335,0,"1-piano-31.ogg",70
Sample,80436,0,"1-piano-32.ogg",70
Sample,80436,0,"1-loop1-07.ogg",70
Sample,80536,0,"1-organ-05.ogg",70
Sample,80536,0,"1-piano-33.ogg",70
Sample,80536,0,"1-loop3-01.ogg",70
Sample,80536,0,"1-loop1-01.ogg",70
Sample,80637,0,"1-piano-34.ogg",70
Sample,80738,0,"1-piano-35.ogg",70
Sample,80838,0,"1-loop1-03.ogg",70
Sample,80838,0,"1-piano-36.ogg",70
Sample,80939,0,"1-piano-37.ogg",70
Sample,80939,0,"1-loop1-04.ogg",70
Sample,81040,0,"1-piano-38.ogg",70
Sample,81040,0,"1-loop1-05.ogg",70
Sample,81140,0,"1-piano-39.ogg",70
Sample,81241,0,"1-loop1-07.ogg",70
Sample,81241,0,"1-piano-40.ogg",70
Sample,81342,0,"1-organ-06.ogg",70
Sample,81342,0,"1-piano-41.ogg",70
Sample,81342,0,"1-loop1-01.ogg",70
Sample,81342,0,"1-loop3-03.ogg",70
Sample,81442,0,"1-piano-42.ogg",70
Sample,81543,0,"1-piano-43.ogg",70
Sample,81644,0,"1-loop1-03.ogg",70
Sample,81644,0,"1-piano-44.ogg",70
Sample,81744,0,"1-piano-45.ogg",70
Sample,81744,0,"1-loop1-04.ogg",70
Sample,81845,0,"1-piano-46.ogg",70
Sample,81845,0,"1-loop1-05.ogg",70
Sample,81946,0,"1-piano-47.ogg",70
Sample,82046,0,"1-piano-48.ogg",70
Sample,82046,0,"1-loop1-07.ogg",70
Sample,82147,0,"1-loop1-01.ogg",70
Sample,82147,0,"1-organ-07.ogg",70
Sample,82147,0,"1-piano-49.ogg",70
Sample,82147,0,"1-loop3-03.ogg",70
Sample,82248,0,"1-piano-50.ogg",70
Sample,82348,0,"1-piano-51.ogg",70
Sample,82449,0,"1-piano-52.ogg",70
Sample,82449,0,"1-loop1-03.ogg",70
Sample,82550,0,"1-piano-53.ogg",70
Sample,82550,0,"1-loop1-04.ogg",70
Sample,82651,0,"1-piano-54.ogg",70
Sample,82651,0,"1-loop1-05.ogg",70
Sample,82751,0,"1-piano-55.ogg",70
Sample,82852,0,"1-piano-56.ogg",70
Sample,82852,0,"1-loop1-07.ogg",70
Sample,82953,0,"1-loop3-03.ogg",70
Sample,82953,0,"1-piano-57.ogg",70
Sample,82953,0,"1-loop1-01.ogg",70
Sample,82953,0,"1-organ-08.ogg",70
Sample,83053,0,"1-piano-58.ogg",70
Sample,83154,0,"1-piano-59.ogg",70
Sample,83255,0,"1-piano-60.ogg",70
Sample,83255,0,"1-loop1-03.ogg",70
Sample,83355,0,"1-snare-03.ogg",70
Sample,83355,0,"1-organ-09.ogg",70
Sample,83355,0,"1-piano-61.ogg",70
Sample,83456,0,"1-piano-62.ogg",70
Sample,83456,0,"1-loop1-05.ogg",70
Sample,83557,0,"1-piano-63.ogg",70
Sample,83557,0,"1-loop3-04.ogg",70
Sample,83657,0,"1-piano-64.ogg",70
Sample,83657,0,"1-loop1-07.ogg",70
Sample,83758,0,"1-piano-65.ogg",70
Sample,83758,0,"1-organ-01.ogg",70
Sample,83758,0,"1-loop1-01.ogg",70
Sample,83758,0,"1-loop3-01.ogg",70
Sample,83859,0,"1-piano-66.ogg",70
Sample,83959,0,"1-piano-67.ogg",70
Sample,84060,0,"1-piano-68.ogg",70
Sample,84060,0,"1-kick-01.ogg",70
Sample,84060,0,"1-loop1-03.ogg",70
Sample,84161,0,"1-piano-69.ogg",70
Sample,84261,0,"1-loop1-05.ogg",70
Sample,84261,0,"1-piano-70.ogg",70
Sample,84362,0,"1-piano-71.ogg",70
Sample,84362,0,"1-loop1-06.ogg",70
Sample,84463,0,"1-piano-72.ogg",70
Sample,84463,0,"1-loop1-07.ogg",70
Sample,84563,0,"1-piano-73.ogg",70
Sample,84563,0,"1-organ-02.ogg",70
Sample,84563,0,"1-loop3-03.ogg",70
Sample,84664,0,"1-piano-74.ogg",70
Sample,84664,0,"1-kick-01.ogg",70
Sample,84765,0,"1-piano-75.ogg",70
Sample,84865,0,"1-piano-76.ogg",70
Sample,84865,0,"1-loop1-03.ogg",70
Sample,84966,0,"1-snare-03.ogg",70
Sample,84966,0,"1-piano-77.ogg",70
Sample,85067,0,"1-piano-78.ogg",70
Sample,85067,0,"1-loop1-05.ogg",70
Sample,85167,0,"1-piano-79.ogg",70
Sample,85268,0,"1-loop1-07.ogg",70
Sample,85268,0,"1-piano-80.ogg",70
Sample,85268,0,"1-kick-02.ogg",70
Sample,85369,0,"1-piano-81.ogg",70
Sample,85369,0,"1-loop3-03.ogg",70
Sample,85369,0,"1-organ-03.ogg",70
Sample,85469,0,"1-piano-82.ogg",70
Sample,85570,0,"1-piano-83.ogg",70
Sample,85570,0,"1-loop1-02.ogg",70
Sample,85671,0,"1-loop1-03.ogg",70
Sample,85671,0,"1-piano-84.ogg",70
Sample,85771,0,"1-snare-03.ogg",70
Sample,85771,0,"1-piano-85.ogg",70
Sample,85872,0,"1-piano-86.ogg",70
Sample,85872,0,"1-loop1-05.ogg",70
Sample,85872,0,"1-kick-02.ogg",70
Sample,85973,0,"1-piano-87.ogg",70
Sample,86073,0,"1-loop1-07.ogg",70
Sample,86073,0,"1-piano-88.ogg",70
Sample,86174,0,"1-piano-89.ogg",70
Sample,86174,0,"1-loop1-01.ogg",70
Sample,86174,0,"1-organ-04.ogg",70
Sample,86174,0,"1-loop3-03.ogg",70
Sample,86275,0,"1-piano-90.ogg",70
Sample,86375,0,"1-piano-91.ogg",70
Sample,86476,0,"1-loop1-03.ogg",70
Sample,86476,0,"1-kick-02.ogg",70
Sample,86476,0,"1-piano-92.ogg",70
Sample,86577,0,"1-piano-93.ogg",70
Sample,86677,0,"1-piano-94.ogg",70
Sample,86677,0,"1-loop1-05.ogg",70
Sample,86778,0,"1-piano-95.ogg",70
Sample,86778,0,"1-loop3-04.ogg",70
Sample,86879,0,"1-loop1-07.ogg",70
Sample,86879,0,"1-piano-96.ogg",70
Sample,86979,0,"1-piano-97.ogg",70
Sample,86979,0,"1-loop3-01.ogg",70
Sample,86979,0,"1-organ-05.ogg",70
Sample,87080,0,"1-piano-98.ogg",70
Sample,87080,0,"1-kick-02.ogg",70
Sample,87181,0,"1-kick-02.ogg",70
Sample,87181,0,"1-piano-99.ogg",70
Sample,87281,0,"1-kick-02.ogg",70
Sample,87281,0,"1-piano-100.ogg",70
Sample,87382,0,"1-snare-03.ogg",70
Sample,87382,0,"1-kick-02.ogg",70
Sample,87382,0,"1-piano-101.ogg",70
Sample,87483,0,"1-piano-102.ogg",70
Sample,87483,0,"1-kick-02.ogg",70
Sample,87583,0,"1-kick-02.ogg",70
Sample,87583,0,"1-piano-103.ogg",70
Sample,87684,0,"1-kick-02.ogg",70
Sample,87684,0,"1-piano-104.ogg",70
Sample,87785,0,"1-piano-105.ogg",70
Sample,87785,0,"1-organ-06.ogg",70
Sample,87785,0,"1-snare-03.ogg",70
Sample,87785,0,"1-loop3-03.ogg",70
Sample,87852,0,"1-kick-03.ogg",70
Sample,87885,0,"1-piano-106.ogg",70
Sample,87919,0,"1-kick-03.ogg",70
Sample,87986,0,"1-piano-107.ogg",70
Sample,87986,0,"1-kick-03.ogg",70
Sample,88053,0,"1-kick-03.ogg",70
Sample,88087,0,"1-piano-108.ogg",70
Sample,88120,0,"1-kick-03.ogg",70
Sample,88187,0,"1-piano-109.ogg",70
Sample,88187,0,"1-snare-03.ogg",70
Sample,88187,0,"1-kick-04.ogg",70
Sample,88255,0,"1-kick-04.ogg",70
Sample,88288,0,"1-piano-110.ogg",70
Sample,88322,0,"1-kick-04.ogg",70
Sample,88389,0,"1-piano-111.ogg",70
Sample,88389,0,"1-kick-04.ogg",70
Sample,88456,0,"1-kick-04.ogg",70
Sample,88489,0,"1-piano-112.ogg",70
Sample,88523,0,"1-kick-04.ogg",70
Sample,88657,0,"1-piano-114.ogg",70
Sample,88724,0,"1-piano-115.ogg",70
Sample,88791,0,"1-piano-116.ogg",70
Sample,88859,0,"1-piano-117.ogg",70
Sample,88926,0,"1-piano-118.ogg",70
Sample,88993,0,"1-piano-119.ogg",70
Sample,89060,0,"1-piano-120.ogg",70
Sample,89127,0,"1-piano-121.ogg",70
Sample,89194,0,"1-piano-122.ogg",70
Sample,89261,0,"1-piano-123.ogg",70
Sample,89328,0,"1-piano-124.ogg",70
Sample,89395,0,"1-piano-125.ogg",70
Sample,89463,0,"1-piano-126.ogg",70
Sample,89530,0,"1-piano-127.ogg",70
Sample,89597,0,"1-piano-128.ogg",70
Sample,89664,0,"1-piano-129.ogg",70
Sample,89731,0,"1-piano-130.ogg",70
Sample,89798,0,"1-piano-131.ogg",70
Sample,89865,0,"1-piano-132.ogg",70
Sample,89932,0,"1-piano-133.ogg",70
Sample,90000,0,"1-piano-134.ogg",70
Sample,90067,0,"1-piano-135.ogg",70
Sample,90134,0,"1-piano-136.ogg",70
Sample,90201,0,"1-piano-137.ogg",70
Sample,90268,0,"1-piano-138.ogg",70
Sample,95100,0,"0-blank.ogg",70
Sample,95167,0,"0-blank.ogg",70
Sample,95234,0,"0-blank.ogg",70
Sample,95302,0,"0-blank.ogg",70
Sample,95369,0,"0-blank.ogg",70
Sample,95436,0,"0-blank.ogg",70
Sample,95503,0,"0-blank.ogg",70
Sample,95570,0,"0-blank.ogg",70
Sample,95637,0,"0-blank.ogg",70
Sample,95704,0,"0-blank.ogg",70
Sample,95771,0,"0-blank.ogg",70
Sample,95838,0,"1-bass-32.ogg",70
Sample,95838,0,"1-loop1-10.ogg",70
Sample,95906,0,"0-blank.ogg",70
Sample,95973,0,"0-blank.ogg",70
Sample,96040,0,"0-blank.ogg",70
Sample,96107,0,"0-blank.ogg",70
Sample,96174,0,"0-blank.ogg",70
Sample,96241,0,"0-blank.ogg",70
Sample,96241,0,"1-loop1-11.ogg",70
Sample,96442,0,"1-loop1-12.ogg",70
Sample,96644,0,"1-loop1-13.ogg",70
Sample,96644,0,"1-arp-01.ogg",70
Sample,96744,0,"1-arp-02.ogg",70
Sample,96845,0,"1-arp-03.ogg",70
Sample,96946,0,"1-arp-04.ogg",70
Sample,97046,0,"1-arp-05.ogg",70
Sample,97147,0,"1-arp-06.ogg",70
Sample,97248,0,"1-arp-01.ogg",70
Sample,97348,0,"1-arp-02.ogg",70
Sample,97449,0,"1-arp-03.ogg",70
Sample,97449,0,"1-loop1-10.ogg",70
Sample,97550,0,"1-arp-04.ogg",70
Sample,97651,0,"1-arp-05.ogg",70
Sample,97751,0,"1-arp-06.ogg",70
Sample,97852,0,"1-arp-01.ogg",70
Sample,97953,0,"1-arp-02.ogg",70
Sample,98053,0,"1-arp-03.ogg",70
Sample,98154,0,"1-arp-04.ogg",70
Sample,98255,0,"1-fx-03.ogg",70
Sample,98255,0,"1-loop1-13.ogg",70
Sample,98657,0,"1-fx-04.ogg",70
Sample,98758,0,"1-kick-06.ogg",70
Sample,98758,0,"1-fx-05.ogg",70
Sample,98859,0,"1-fx-06.ogg",70
Sample,98959,0,"1-bass2-02.ogg",70
Sample,98959,0,"1-kick-06.ogg",70
Sample,98959,0,"1-fx-07.ogg",70
Sample,99060,0,"1-bass2-03.ogg",70
Sample,99060,0,"1-loop1-10.ogg",70
Sample,99161,0,"1-bass2-04.ogg",70
Sample,99261,0,"1-bass2-15.ogg",70
Sample,99362,0,"1-bass2-16.ogg",70
Sample,99865,0,"1-arp-08.ogg",70
Sample,99865,0,"1-loop1-13.ogg",70
Sample,99932,0,"1-arp-09.ogg",70
Sample,100000,0,"1-arp-33.ogg",70
Sample,100067,0,"1-arp-25.ogg",70
Sample,100134,0,"1-arp-26.ogg",70
Sample,100201,0,"1-arp-08.ogg",70
Sample,100268,0,"1-arp-09.ogg",70
Sample,100335,0,"1-arp-24.ogg",70
Sample,100402,0,"1-arp-25.ogg",70
Sample,100469,0,"1-arp-26.ogg",70
Sample,100536,0,"1-arp-18.ogg",70
Sample,100604,0,"1-arp-19.ogg",70
Sample,100671,0,"1-arp-20.ogg",70
Sample,100671,0,"1-loop1-10.ogg",70
Sample,100738,0,"1-arp-21.ogg",70
Sample,100805,0,"1-arp-08.ogg",70
Sample,100872,0,"1-arp-23.ogg",70
Sample,100939,0,"1-arp-24.ogg",70
Sample,101006,0,"1-arp-25.ogg",70
Sample,101073,0,"1-arp-26.ogg",70
Sample,101140,0,"1-arp-27.ogg",70
Sample,101208,0,"1-arp-29.ogg",70
Sample,101275,0,"1-arp-29.ogg",70
Sample,101342,0,"1-arp-30.ogg",70
Sample,101409,0,"1-arp-31.ogg",70
Sample,101476,0,"1-loop1-13.ogg",70
Sample,101476,0,"1-bass2-01.ogg",70
Sample,101543,0,"0-blank.ogg",70
Sample,101610,0,"0-blank.ogg",70
Sample,101677,0,"0-blank.ogg",70
Sample,101744,0,"0-blank.ogg",70
Sample,101812,0,"0-blank.ogg",70
Sample,101879,0,"0-blank.ogg",70
Sample,102281,0,"1-bass2-06.ogg",70
Sample,102382,0,"1-bass2-07.ogg",70
Sample,102483,0,"1-bass2-08.ogg",70
Sample,102583,0,"1-bass2-09.ogg",70
Sample,102684,0,"1-bass2-10.ogg",70
Sample,102785,0,"1-bass2-11.ogg",70
Sample,102885,0,"1-bass2-11.ogg",70
Sample,102986,0,"1-bass2-13.ogg",70
Sample,103087,0,"1-loop1-13.ogg",70
Sample,103087,0,"1-arp-01.ogg",70
Sample,103154,0,"1-arp-02.ogg",70
Sample,103187,0,"1-arp-02.ogg",70
Sample,103288,0,"1-arp-03.ogg",70
Sample,103389,0,"1-arp-04.ogg",70
Sample,103489,0,"1-arp-05.ogg",70
Sample,103590,0,"1-arp-06.ogg",70
Sample,103691,0,"1-arp-01.ogg",70
Sample,103791,0,"1-arp-02.ogg",70
Sample,103892,0,"1-arp-03.ogg",70
Sample,103892,0,"1-loop1-10.ogg",70
Sample,103993,0,"1-arp-04.ogg",70
Sample,104093,0,"1-arp-05.ogg",70
Sample,104194,0,"1-arp-06.ogg",70
Sample,104295,0,"1-arp-01.ogg",70
Sample,104395,0,"1-arp-02.ogg",70
Sample,104496,0,"1-arp-03.ogg",70
Sample,104597,0,"1-arp-04.ogg",70
Sample,105503,0,"1-bass-36.ogg",70
Sample,105503,0,"1-snare-04.ogg",70
Sample,105906,0,"1-loop1-11.ogg",70
Sample,106107,0,"1-loop1-12.ogg",70
Sample,106308,0,"1-loop1-13.ogg",70
Sample,106308,0,"1-bass-37.ogg",70
Sample,106510,0,"1-loop1-14.ogg",70
Sample,106711,0,"1-loop1-15.ogg",70
Sample,106912,0,"1-loop1-16.ogg",70
Sample,107114,0,"1-snare-04.ogg",70
Sample,107114,0,"1-bass-38.ogg",70
Sample,107516,0,"1-loop1-11.ogg",70
Sample,107718,0,"1-loop1-12.ogg",70
Sample,107919,0,"1-loop1-13.ogg",70
Sample,108120,0,"1-loop1-14.ogg",70
Sample,108322,0,"1-loop1-15.ogg",70
Sample,108523,0,"1-loop1-16.ogg",70
Sample,108724,0,"1-loop1-10.ogg",70
Sample,109530,0,"1-arp-01.ogg",70
Sample,109530,0,"1-loop1-13.ogg",70
Sample,109630,0,"1-arp-02.ogg",70
Sample,109731,0,"1-arp-03.ogg",70
Sample,109832,0,"1-arp-04.ogg",70
Sample,109932,0,"1-arp-05.ogg",70
Sample,110033,0,"1-arp-06.ogg",70
Sample,110134,0,"1-arp-01.ogg",70
Sample,110234,0,"1-arp-02.ogg",70
Sample,110335,0,"1-loop1-10.ogg",70
Sample,110335,0,"1-arp-03.ogg",70
Sample,110436,0,"1-arp-04.ogg",70
Sample,110536,0,"1-arp-05.ogg",70
Sample,110637,0,"1-arp-06.ogg",70
Sample,110738,0,"1-arp-01.ogg",70
Sample,110838,0,"1-arp-02.ogg",70
Sample,110939,0,"1-arp-03.ogg",70
Sample,111040,0,"1-arp-04.ogg",70
Sample,111140,0,"1-bass-29.ogg",70
Sample,111140,0,"1-loop1-13.ogg",70
Sample,111342,0,"1-loop1-14.ogg",70
Sample,111543,0,"1-loop1-15.ogg",70
Sample,111644,0,"1-kick-06.ogg",70
Sample,111644,0,"1-fx-05.ogg",70
Sample,111744,0,"1-fx-06.ogg",70
Sample,111744,0,"1-loop1-16.ogg",70
Sample,111744,0,"1-kick-06.ogg",70
Sample,111845,0,"1-fx-07.ogg",70
Sample,111845,0,"1-kick-06.ogg",70
Sample,111946,0,"1-loop1-10.ogg",70
Sample,111946,0,"1-snare-04.ogg",70
Sample,112348,0,"1-loop1-11.ogg",70
Sample,112550,0,"1-loop1-12.ogg",70
Sample,112751,0,"1-arp-08.ogg",70
Sample,112751,0,"1-kick-05.ogg",70
Sample,112751,0,"1-bass-43.ogg",70
Sample,112818,0,"1-arp-09.ogg",70
Sample,112885,0,"1-arp-33.ogg",70
Sample,112953,0,"1-arp-25.ogg",70
Sample,113020,0,"1-arp-26.ogg",70
Sample,113087,0,"1-arp-08.ogg",70
Sample,113154,0,"1-arp-09.ogg",70
Sample,113221,0,"1-arp-24.ogg",70
Sample,113288,0,"1-arp-25.ogg",70
Sample,113355,0,"1-arp-26.ogg",70
Sample,113355,0,"1-bass-44.ogg",70
Sample,113422,0,"1-arp-18.ogg",70
Sample,113489,0,"1-arp-19.ogg",70
Sample,113557,0,"1-arp-20.ogg",70
Sample,113624,0,"1-arp-21.ogg",70
Sample,113691,0,"1-arp-08.ogg",70
Sample,113758,0,"1-arp-23.ogg",70
Sample,113825,0,"1-arp-24.ogg",70
Sample,113892,0,"1-arp-25.ogg",70
Sample,113959,0,"1-arp-26.ogg",70
Sample,114026,0,"1-arp-27.ogg",70
Sample,114093,0,"1-arp-29.ogg",70
Sample,114161,0,"1-arp-29.ogg",70
Sample,114228,0,"1-arp-30.ogg",70
Sample,114295,0,"1-arp-31.ogg",70
Sample,114362,0,"1-arp-32.ogg",70
Sample,114429,0,"1-arp-33.ogg",70
Sample,114496,0,"1-arp-50.ogg",70
Sample,114563,0,"1-arp-35.ogg",70
Sample,114630,0,"1-arp-41.ogg",70
Sample,114697,0,"1-arp-37.ogg",70
Sample,114765,0,"1-arp-24.ogg",70
Sample,114832,0,"1-arp-50.ogg",70
Sample,114899,0,"1-arp-35.ogg",70
Sample,114966,0,"1-arp-41.ogg",70
Sample,115033,0,"1-arp-42.ogg",70
Sample,115100,0,"1-arp-43.ogg",70
Sample,115167,0,"1-arp-44.ogg",70
Sample,115234,0,"1-arp-45.ogg",70
Sample,115302,0,"1-arp-46.ogg",70
Sample,115369,0,"1-arp-47.ogg",70
Sample,115436,0,"1-arp-48.ogg",70
Sample,115503,0,"1-arp-33.ogg",70
Sample,115570,0,"1-arp-50.ogg",70
Sample,115637,0,"1-arp-35.ogg",70
Sample,115704,0,"1-arp-52.ogg",70
Sample,115771,0,"1-arp-53.ogg",70
Sample,115838,0,"1-arp-33.ogg",70
Sample,115906,0,"1-arp-55.ogg",70
Sample,115973,0,"1-arp-56.ogg",70
Sample,116040,0,"1-arp-57.ogg",70
Sample,116107,0,"1-arp-58.ogg",70
Sample,116174,0,"1-arp-59.ogg",70
Sample,116241,0,"1-arp-60.ogg",70
Sample,116308,0,"1-arp-61.ogg",70
Sample,116375,0,"1-arp-62.ogg",70
Sample,116442,0,"1-arp-63.ogg",70
Sample,116510,0,"1-arp-64.ogg",70
Sample,116577,0,"1-arp-65.ogg",70
Sample,116644,0,"1-arp-66.ogg",70
Sample,116711,0,"1-arp-67.ogg",70
Sample,116778,0,"1-arp-68.ogg",70
Sample,116845,0,"1-arp-69.ogg",70
Sample,116912,0,"1-arp-71.ogg",70
Sample,116979,0,"1-arp-72.ogg",70
Sample,117046,0,"1-arp-73.ogg",70
Sample,117114,0,"1-arp-74.ogg",70
Sample,117181,0,"1-arp-75.ogg",70
Sample,117248,0,"1-arp-76.ogg",70
Sample,117315,0,"1-arp-77.ogg",70
Sample,117382,0,"1-arp-78.ogg",70
Sample,117449,0,"1-arp-79.ogg",70
Sample,119194,0,"1-loop4-01.ogg",70
Sample,119395,0,"1-loop4-02.ogg",70
Sample,119597,0,"1-loop4-03.ogg",70
Sample,120000,0,"1-loop4-04.ogg",70
Sample,120201,0,"1-loop4-05.ogg",70
Sample,120402,0,"1-loop4-06.ogg",70
Sample,120604,0,"1-loop4-07.ogg",70

[TimingPoints]
0,402.684563758389,4,2,0,70,1,0

[HitObjects]
51,192,0,128,0,302:0:0:0:0:1-vox1-01.ogg
51,192,604,1,0,0:0:0:0:1-vox1-02.ogg
51,192,906,1,0,0:0:0:0:1-vox1-02.ogg
51,192,1208,1,0,0:0:0:0:1-vox1-04.ogg
460,192,1610,128,0,1912:0:0:0:0:1-vox1-01.ogg
460,192,2214,1,0,0:0:0:0:1-vox1-02.ogg
460,192,2516,1,0,0:0:0:0:1-vox1-02.ogg
460,192,2818,1,0,0:0:0:0:1-vox1-04.ogg
153,192,3221,128,0,3523:0:0:0:0:1-vox1-01.ogg
358,192,3221,128,0,3523:0:0:0:0:1-vox1-01.ogg
153,192,3825,1,0,0:0:0:0:1-vox1-02.ogg
358,192,3825,1,0,0:0:0:0:1-vox1-02.ogg
153,192,4127,1,0,0:0:0:0:1-vox1-02.ogg
358,192,4127,1,0,0:0:0:0:1-vox1-02.ogg
153,192,4429,1,0,0:0:0:0:1-vox1-04.ogg
358,192,4429,1,0,0:0:0:0:1-vox1-04.ogg
153,192,4832,128,0,5234:0:0:0:0:1-vox1-05.ogg
51,192,5234,128,0,5637:0:0:0:0:1-vox1-10.ogg
460,192,5637,128,0,6442:0:0:0:0:1-vox1-14.ogg
51,192,6442,1,0,0:0:0:0:1-loop2-01.ogg
460,192,6644,1,0,0:0:0:0:1-loop2-02.ogg
51,192,6845,1,0,0:0:0:0:1-loop2-03.ogg
153,192,7046,1,0,0:0:0:0:1-loop2-04.ogg
256,192,7147,1,0,0:0:0:0:1-loop2-05.ogg
358,192,7348,1,0,0:0:0:0:1-loop2-06.ogg
51,192,7449,1,0,0:0:0:0:1-loop2-07.ogg
460,192,7651,1,0,0:0:0:0:1-loop2-08.ogg
358,192,7852,1,0,0:0:0:0:1-loop2-10.ogg
153,192,7953,1,0,0:0:0:0:1-loop2-11.ogg
256,192,8053,1,0,0:0:0:0:1-loop2-12.ogg
153,192,8255,1,0,0:0:0:0:1-loop2-13.ogg
358,192,8456,1,0,0:0:0:0:1-loop2-14.ogg
153,192,8657,1,0,0:0:0:0:1-loop2-04.ogg
358,192,8758,1,0,0:0:0:0:1-loop2-05.ogg
153,192,8959,1,0,0:0:0:0:1-loop2-06.ogg
460,192,9060,1,0,0:0:0:0:1-loop2-18.ogg
51,192,9161,1,0,0:0:0:0:1-loop2-19.ogg
358,192,9261,1,0,0:0:0:0:1-loop2-08.ogg
153,192,9362,1,0,0:0:0:0:1-loop2-09.ogg
460,192,9463,1,0,0:0:0:0:1-loop2-10.ogg
153,192,9563,1,0,0:0:0:0:1-loop2-11.ogg
51,192,9664,128,0,10067:0:0:0:0:1-loop2-24.ogg
358,192,10067,128,0,10469:0:0:0:0:1-vox1-10.ogg
460,192,10469,128,0,10872:0:0:0:0:1-vox1-14.ogg
153,192,10872,128,0,11275:0:0:0:0:1-vox1-18.ogg
460,192,11275,128,0,12080:0:0:0:0:1-fx-01.ogg
256,192,12080,1,0,0:0:0:0:1-snare-01.ogg
51,192,12080,128,0,12885:0:0:0:0:1-fx-02.ogg
358,192,12885,1,0,0:0:0:0:1-impact-01.ogg
153,192,12885,128,0,15302:0:0:0:0:1-cho1-01.ogg
460,192,13691,1,0,0:0:0:0:1-snare-02.ogg
358,192,14496,1,0,0:0:0:0:1-impact-01.ogg
460,192,15302,1,0,0:0:0:0:1-snare-02.ogg
358,192,15302,128,0,15704:0:0:0:0:1-cho1-02.ogg
153,192,15704,128,0,16107:0:0:0:0:1-cho1-03.ogg
256,192,16107,1,0,0:0:0:0:1-impact-01.ogg
460,192,16107,128,0,17718:0:0:0:0:1-cho1-04.ogg
51,192,16912,1,0,0:0:0:0:1-snare-02.ogg
256,192,17718,1,0,0:0:0:0:1-impact-01.ogg
51,192,17718,128,0,19328:0:0:0:0:1-cho1-05.ogg
460,192,18523,1,0,0:0:0:0:1-snare-02.ogg
256,192,19328,1,0,0:0:0:0:1-impact-01.ogg
153,192,19328,128,0,22550:0:0:0:0:1-cho1-06.ogg
460,192,20134,1,0,0:0:0:0:1-snare-02.ogg
256,192,20939,1,0,0:0:0:0:1-impact-01.ogg
358,192,21744,1,0,0:0:0:0:1-snare-02.ogg
256,192,22550,1,0,0:0:0:0:1-impact-01.ogg
358,192,22550,128,0,24161:0:0:0:0:1-cho1-07.ogg
51,192,23355,1,0,0:0:0:0:1-snare-02.ogg
153,192,24161,1,0,0:0:0:0:1-gtsolo-03.ogg
460,192,24161,128,0,25771:0:0:0:0:1-cho1-08.ogg
51,192,24563,1,0,0:0:0:0:1-gtsolo-09.ogg
358,192,24966,1,0,0:0:0:0:1-gtsolo-09.ogg
153,192,25369,1,0,0:0:0:0:1-gtsolo-11.ogg
51,192,25771,128,0,27382:0:0:0:0:1-gtsolo-17.ogg
256,192,26174,1,0,0:0:0:0:1-snare-03.ogg
358,192,26577,1,0,0:0:0:0:1-snare-03.ogg
153,192,26979,1,0,0:0:0:0:1-snare-03.ogg
358,192,27181,1,0,0:0:0:0:1-loop1-06.ogg
256,192,27382,1,0,0:0:0:0:1-snare-03.ogg
460,192,27382,128,0,28993:0:0:0:0:1-gtsolo-18.ogg
51,192,27785,1,0,0:0:0:0:1-snare-03.ogg
51,192,28187,1,0,0:0:0:0:1-snare-03.ogg
256,192,28187,1,0,0:0:0:0:1-kick-01.ogg
153,192,28590,1,0,0:0:0:0:1-snare-03.ogg
358,192,28791,1,0,0:0:0:0:1-loop1-06.ogg
256,192,28993,1,0,0:0:0:0:1-snare-03.ogg
51,192,28993,128,0,30604:0:0:0:0:1-gtsolo-19.ogg
153,192,29395,1,0,0:0:0:0:1-kick-01.ogg
358,192,29395,1,0,0:0:0:0:1-snare-03.ogg
460,192,29597,1,0,0:0:0:0:1-loop1-06.ogg
256,192,29798,1,0,0:0:0:0:1-snare-03.ogg
153,192,30000,1,0,0:0:0:0:1-loop1-02.ogg
358,192,30201,1,0,0:0:0:0:1-kick-01.ogg
460,192,30201,1,0,0:0:0:0:1-snare-03.ogg
153,192,30402,1,0,0:0:0:0:1-loop1-06.ogg
358,192,30604,1,0,0:0:0:0:1-gtsolo-20.ogg
51,192,31006,1,0,0:0:0:0:1-snare-03.ogg
460,192,31006,128,0,32214:0:0:0:0:1-gtsolo-21.ogg
358,192,31208,1,0,0:0:0:0:1-loop1-06.ogg
256,192,31409,1,0,0:0:0:0:1-kick-01.ogg
51,192,31610,1,0,0:0:0:0:1-loop1-02.ogg
153,192,31812,1,0,0:0:0:0:1-snare-03.ogg
358,192,31812,1,0,0:0:0:0:1-kick-01.ogg
256,192,32013,1,0,0:0:0:0:1-gtsolo-22.ogg
153,192,32214,1,0,0:0:0:0:1-backing-13.ogg
358,192,32214,1,0,0:0:0:0:1-kick-01.ogg
51,192,32214,128,0,33825:0:0:0:0:1-gtsolo-23.ogg
358,192,32516,1,0,0:0:0:0:1-kick-01.ogg
460,192,32818,1,0,0:0:0:0:1-kick-01.ogg
358,192,33120,1,0,0:0:0:0:1-kick-01.ogg
460,192,33422,1,0,0:0:0:0:1-kick-01.ogg
358,192,33724,1,0,0:0:0:0:1-kick-02.ogg
256,192,33825,1,0,0:0:0:0:1-snare-03.ogg
460,192,33825,128,0,35436:0:0:0:0:1-gtsolo-24.ogg
51,192,34026,1,0,0:0:0:0:1-kick-02.ogg
153,192,34328,1,0,0:0:0:0:1-kick-02.ogg
51,192,34630,1,0,0:0:0:0:1-kick-02.ogg
153,192,34932,1,0,0:0:0:0:1-kick-02.ogg
256,192,35436,1,0,0:0:0:0:1-kick-02.ogg
51,192,35436,128,0,37046:0:0:0:0:1-gtsolo-25.ogg
153,192,35536,1,0,0:0:0:0:1-kick-02.ogg
358,192,35637,1,0,0:0:0:0:1-kick-02.ogg
153,192,35738,1,0,0:0:0:0:1-kick-02.ogg
358,192,35838,1,0,0:0:0:0:1-kick-02.ogg
153,192,35939,1,0,0:0:0:0:1-kick-02.ogg
358,192,36040,1,0,0:0:0:0:1-kick-02.ogg
153,192,36140,1,0,0:0:0:0:1-kick-02.ogg
460,192,36241,128,0,36644:0:0:0:0:1-kick-03.ogg
153,192,36644,128,0,37046:0:0:0:0:1-kick-04.ogg
460,192,37046,128,0,37852:0:0:0:0:1-gtsolo-26.ogg
256,192,37852,1,0,0:0:0:0:1-fx-08.ogg
153,192,38657,128,0,39060:0:0:0:0:1-bass-25.ogg
51,192,39060,128,0,39463:0:0:0:0:0-blank.ogg
256,192,39463,1,0,0:0:0:0:1-snare-04.ogg
460,192,39463,128,0,40268:0:0:0:0:1-bass2-01.ogg
256,192,40268,1,0,0:0:0:0:1-kick-05.ogg
51,192,40268,128,0,41073:0:0:0:0:1-bass-27.ogg
153,192,40469,1,0,0:0:0:0:1-loop1-14.ogg
358,192,40671,1,0,0:0:0:0:1-loop1-15.ogg
460,192,40872,1,0,0:0:0:0:1-loop1-16.ogg
256,192,41073,1,0,0:0:0:0:1-snare-04.ogg
460,192,41073,128,0,41879:0:0:0:0:1-bass-27.ogg
153,192,41476,1,0,0:0:0:0:1-loop1-11.ogg
51,192,41677,1,0,0:0:0:0:1-loop1-12.ogg
153,192,41879,1,0,0:0:0:0:1-kick-05.ogg
358,192,41879,128,0,42684:0:0:0:0:1-bass-29.ogg
51,192,42080,1,0,0:0:0:0:1-loop1-14.ogg
153,192,42281,1,0,0:0:0:0:1-loop1-15.ogg
153,192,42483,1,0,0:0:0:0:1-kick-06.ogg
51,192,42483,1,0,0:0:0:0:1-loop1-16.ogg
256,192,42684,1,0,0:0:0:0:1-snare-04.ogg
51,192,43087,1,0,0:0:0:0:1-loop1-11.ogg
460,192,43087,128,0,43288:0:0:0:0:1-bass2-05.ogg
153,192,43288,1,0,0:0:0:0:1-loop1-12.ogg
256,192,43489,1,0,0:0:0:0:1-kick-05.ogg
51,192,43489,128,0,44295:0:0:0:0:1-bass-30.ogg
358,192,43691,1,0,0:0:0:0:1-loop1-14.ogg
460,192,43892,1,0,0:0:0:0:1-loop1-15.ogg
358,192,44093,1,0,0:0:0:0:1-loop1-16.ogg
256,192,44295,1,0,0:0:0:0:1-snare-04.ogg
460,192,44295,128,0,45100:0:0:0:0:1-bass-31.ogg
51,192,44697,1,0,0:0:0:0:1-loop1-11.ogg
153,192,44899,1,0,0:0:0:0:1-loop1-12.ogg
256,192,45100,1,0,0:0:0:0:1-kick-05.ogg
51,192,45100,128,0,45906:0:0:0:0:1-bass-32.ogg
358,192,45302,1,0,0:0:0:0:1-loop1-14.ogg
460,192,45503,1,0,0:0:0:0:1-loop1-15.ogg
358,192,45704,1,0,0:0:0:0:1-loop1-16.ogg
256,192,45906,1,0,0:0:0:0:1-loop1-10.ogg
460,192,45906,1,0,0:0:0:0:1-snare-04.ogg
153,192,46308,1,0,0:0:0:0:1-loop1-11.ogg
358,192,46510,1,0,0:0:0:0:1-loop1-12.ogg
256,192,46711,1,0,0:0:0:0:1-kick-05.ogg
51,192,46711,128,0,47516:0:0:0:0:1-bass-33.ogg
358,192,46912,1,0,0:0:0:0:1-loop1-14.ogg
460,192,47114,1,0,0:0:0:0:1-loop1-15.ogg
358,192,47315,1,0,0:0:0:0:1-loop1-16.ogg
256,192,47516,1,0,0:0:0:0:1-snare-04.ogg
460,192,47516,128,0,48322:0:0:0:0:1-bass-34.ogg
153,192,47919,1,0,0:0:0:0:1-loop1-11.ogg
358,192,48120,1,0,0:0:0:0:1-loop1-12.ogg
51,192,48322,128,0,48590:0:0:0:0:1-bass-35.ogg
153,192,48926,1,0,0:0:0:0:1-kick-06.ogg
358,192,49026,1,0,0:0:0:0:1-kick-06.ogg
256,192,49127,1,0,0:0:0:0:1-loop1-10.ogg
460,192,49127,1,0,0:0:0:0:1-lead-01.ogg
358,192,49395,1,0,0:0:0:0:1-lead-02.ogg
153,192,49664,1,0,0:0:0:0:1-lead-03.ogg
256,192,49932,1,0,0:0:0:0:1-kick-05.ogg
358,192,49932,1,0,0:0:0:0:1-lead-04.ogg
153,192,50201,1,0,0:0:0:0:1-lead-05.ogg
51,192,50469,1,0,0:0:0:0:1-lead-06.ogg
256,192,50738,1,0,0:0:0:0:1-loop1-10.ogg
460,192,50738,1,0,0:0:0:0:1-lead-07.ogg
358,192,51006,1,0,0:0:0:0:1-lead-06.ogg
153,192,51275,1,0,0:0:0:0:1-lead-09.ogg
256,192,51543,1,0,0:0:0:0:1-bass-39.ogg
460,192,51543,1,0,0:0:0:0:1-lead-10.ogg
51,192,51543,1,0,0:0:0:0:1-kick-05.ogg
256,192,51812,1,0,0:0:0:0:1-bass-39.ogg
460,192,51812,1,0,0:0:0:0:1-lead-10.ogg
51,192,51812,1,0,0:0:0:0:1-kick-05.ogg
256,192,52080,1,0,0:0:0:0:1-bass-39.ogg
460,192,52080,1,0,0:0:0:0:1-lead-10.ogg
51,192,52080,1,0,0:0:0:0:1-kick-05.ogg
256,192,52348,1,0,0:0:0:0:1-snare-04.ogg
460,192,52348,128,0,52953:0:0:0:0:1-lead-16.ogg
51,192,52348,128,0,52953:0:0:0:0:1-gtsolo-27.ogg
256,192,53154,1,0,0:0:0:0:1-kick-05.ogg
51,192,53154,128,0,53959:0:0:0:0:1-bass-27.ogg
460,192,53355,1,0,0:0:0:0:1-loop1-14.ogg
358,192,53557,1,0,0:0:0:0:1-loop1-15.ogg
153,192,53758,1,0,0:0:0:0:1-loop1-16.ogg
256,192,53959,1,0,0:0:0:0:1-snare-04.ogg
460,192,53959,128,0,54765:0:0:0:0:1-bass-27.ogg
153,192,54362,1,0,0:0:0:0:1-loop1-11.ogg
358,192,54563,1,0,0:0:0:0:1-loop1-12.ogg
256,192,54765,1,0,0:0:0:0:1-kick-05.ogg
51,192,54765,128,0,55067:0:0:0:0:1-fx-03.ogg
153,192,55167,128,0,55436:0:0:0:0:1-fx-04.ogg
358,192,55570,1,0,0:0:0:0:1-bass2-14.ogg
153,192,55704,1,0,0:0:0:0:1-bass2-14.ogg
358,192,55838,1,0,0:0:0:0:1-bass2-14.ogg
460,192,55973,128,0,56375:0:0:0:0:1-bass2-05.ogg
256,192,56375,1,0,0:0:0:0:1-loop1-13.ogg
460,192,56577,1,0,0:0:0:0:1-loop1-14.ogg
153,192,56778,1,0,0:0:0:0:1-loop1-15.ogg
358,192,56979,1,0,0:0:0:0:1-loop1-16.ogg
256,192,57181,1,0,0:0:0:0:1-snare-04.ogg
460,192,57181,1,0,0:0:0:0:1-bass-31.ogg
51,192,57181,1,0,0:0:0:0:1-loop1-10.ogg
358,192,57583,1,0,0:0:0:0:1-loop1-11.ogg
153,192,57785,1,0,0:0:0:0:1-loop1-12.ogg
256,192,57986,1,0,0:0:0:0:1-loop1-13.ogg
460,192,57986,1,0,0:0:0:0:1-bass-46.ogg
51,192,57986,1,0,0:0:0:0:1-kick-05.ogg
153,192,58187,1,0,0:0:0:0:1-loop1-14.ogg
358,192,58389,1,0,0:0:0:0:1-loop1-15.ogg
153,192,58590,1,0,0:0:0:0:1-loop1-16.ogg
256,192,58791,1,0,0:0:0:0:1-loop1-10.ogg
358,192,58791,1,0,0:0:0:0:1-snare-04.ogg
153,192,59194,1,0,0:0:0:0:1-loop1-11.ogg
358,192,59395,1,0,0:0:0:0:1-loop1-12.ogg
256,192,59597,1,0,0:0:0:0:1-loop1-13.ogg
460,192,59597,1,0,0:0:0:0:1-bass-46.ogg
51,192,59597,1,0,0:0:0:0:1-kick-05.ogg
358,192,59798,1,0,0:0:0:0:1-loop1-14.ogg
153,192,60000,1,0,0:0:0:0:1-loop1-15.ogg
358,192,60201,1,0,0:0:0:0:1-loop1-16.ogg
256,192,60402,1,0,0:0:0:0:1-snare-04.ogg
460,192,60402,1,0,0:0:0:0:1-bass-48.ogg
51,192,60402,1,0,0:0:0:0:1-loop1-10.ogg
153,192,60805,1,0,0:0:0:0:1-loop1-11.ogg
358,192,61006,1,0,0:0:0:0:1-loop1-12.ogg
153,192,61610,128,0,62416:0:0:0:0:1-lead-11.ogg
358,192,62416,128,0,62818:0:0:0:0:1-lead-12.ogg
51,192,62818,128,0,63624:0:0:0:0:1-lead-13.ogg
153,192,63624,128,0,64026:0:0:0:0:1-lead-14.ogg
460,192,63624,128,0,64026:0:0:0:0:1-bass-49.ogg
358,192,64026,128,0,64429:0:0:0:0:1-bass-50.ogg
51,192,64026,128,0,64429:0:0:0:0:1-lead-15.ogg
153,192,64429,1,0,0:0:0:0:1-impact-02.ogg
460,192,64429,1,0,0:0:0:0:1-ep-01.ogg
358,192,66040,1,0,0:0:0:0:1-ep-02.ogg
153,192,67651,1,0,0:0:0:0:1-ep-03.ogg
460,192,69261,1,0,0:0:0:0:1-ep-04.ogg
358,192,70067,1,0,0:0:0:0:1-ep-05.ogg
51,192,70067,128,0,70872:0:0:0:0:1-fx-01.ogg
358,192,70872,1,0,0:0:0:0:1-arp-80.ogg
460,192,70872,128,0,71677:0:0:0:0:1-organ-01.ogg
153,192,71073,1,0,0:0:0:0:1-arp-81.ogg
51,192,71275,1,0,0:0:0:0:1-arp-80.ogg
153,192,71476,1,0,0:0:0:0:1-arp-83.ogg
358,192,71677,128,0,72483:0:0:0:0:1-organ-02.ogg
51,192,71677,128,0,72281:0:0:0:0:1-arp-84.ogg
153,192,72281,128,0,72483:0:0:0:0:1-arp-85.ogg
256,192,72483,128,0,73288:0:0:0:0:1-organ-03.ogg
358,192,72684,1,0,0:0:0:0:1-arp-86.ogg
460,192,72885,1,0,0:0:0:0:1-arp-87.ogg
358,192,73087,1,0,0:0:0:0:1-arp-88.ogg
153,192,73288,128,0,74093:0:0:0:0:1-arp-89.ogg
51,192,73288,128,0,74093:0:0:0:0:1-organ-04.ogg
358,192,74093,1,0,0:0:0:0:1-arp-90.ogg
460,192,74093,128,0,74899:0:0:0:0:1-organ-05.ogg
153,192,74295,1,0,0:0:0:0:1-arp-91.ogg
358,192,74496,1,0,0:0:0:0:1-arp-92.ogg
153,192,74697,1,0,0:0:0:0:1-arp-90.ogg
256,192,74899,128,0,75201:0:0:0:0:1-arp-94.ogg
358,192,74899,128,0,75503:0:0:0:0:1-organ-06.ogg
153,192,75201,128,0,75503:0:0:0:0:1-arp-95.ogg
51,192,75503,1,0,0:0:0:0:1-arp-101.ogg
358,192,75704,1,0,0:0:0:0:1-arp-97.ogg
153,192,75906,1,0,0:0:0:0:1-arp-98.ogg
460,192,76107,1,0,0:0:0:0:1-arp-99.ogg
358,192,76308,1,0,0:0:0:0:1-arp-100.ogg
153,192,76409,1,0,0:0:0:0:1-arp-101.ogg
460,192,76510,1,0,0:0:0:0:1-arp-102.ogg
358,192,76711,1,0,0:0:0:0:1-arp-103.ogg
153,192,76812,1,0,0:0:0:0:1-arp-101.ogg
51,192,76912,128,0,77315:0:0:0:0:1-arp-105.ogg
460,192,76912,128,0,77315:0:0:0:0:1-organ-09.ogg
256,192,77315,1,0,0:0:0:0:1-kick-01.ogg
358,192,77315,1,0,0:0:0:0:1-snare-03.ogg
153,192,77516,1,0,0:0:0:0:1-loop1-02.ogg
358,192,77718,1,0,0:0:0:0:1-kick-01.ogg
460,192,77718,1,0,0:0:0:0:1-loop1-04.ogg
153,192,77919,1,0,0:0:0:0:1-loop1-06.ogg
256,192,78120,1,0,0:0:0:0:1-kick-01.ogg
51,192,78120,1,0,0:0:0:0:1-loop1-01.ogg
358,192,78322,1,0,0:0:0:0:1-loop1-02.ogg
153,192,78523,1,0,0:0:0:0:1-loop1-04.ogg
460,192,78523,1,0,0:0:0:0:1-snare-03.ogg
51,192,78724,1,0,0:0:0:0:1-loop1-06.ogg
256,192,78926,1,0,0:0:0:0:1-kick-01.ogg
460,192,78926,1,0,0:0:0:0:1-snare-03.ogg
153,192,79127,1,0,0:0:0:0:1-loop1-02.ogg
51,192,79328,1,0,0:0:0:0:1-snare-03.ogg
460,192,79328,1,0,0:0:0:0:1-loop1-04.ogg
153,192,79530,1,0,0:0:0:0:1-loop1-06.ogg
256,192,79731,1,0,0:0:0:0:1-kick-01.ogg
358,192,79731,1,0,0:0:0:0:1-snare-03.ogg
153,192,79932,1,0,0:0:0:0:1-loop1-02.ogg
358,192,80134,1,0,0:0:0:0:1-kick-01.ogg
51,192,80134,1,0,0:0:0:0:1-snare-03.ogg
460,192,80335,1,0,0:0:0:0:1-loop1-06.ogg
256,192,80536,1,0,0:0:0:0:1-kick-01.ogg
51,192,80536,1,0,0:0:0:0:1-snare-03.ogg
460,192,80738,1,0,0:0:0:0:1-loop1-02.ogg
51,192,80939,1,0,0:0:0:0:1-snare-03.ogg
358,192,80939,1,0,0:0:0:0:1-kick-01.ogg
460,192,81140,1,0,0:0:0:0:1-loop1-06.ogg
256,192,81342,1,0,0:0:0:0:1-kick-01.ogg
51,192,81342,1,0,0:0:0:0:1-snare-03.ogg
460,192,81543,1,0,0:0:0:0:1-loop1-02.ogg
153,192,81744,1,0,0:0:0:0:1-snare-03.ogg
358,192,81744,1,0,0:0:0:0:1-kick-01.ogg
460,192,81946,1,0,0:0:0:0:1-loop1-06.ogg
256,192,82147,1,0,0:0:0:0:1-kick-01.ogg
51,192,82147,1,0,0:0:0:0:1-snare-03.ogg
358,192,82348,1,0,0:0:0:0:1-loop1-02.ogg
51,192,82550,1,0,0:0:0:0:1-kick-01.ogg
460,192,82550,1,0,0:0:0:0:1-snare-03.ogg
153,192,82751,1,0,0:0:0:0:1-loop1-06.ogg
256,192,82953,1,0,0:0:0:0:1-kick-01.ogg
460,192,82953,1,0,0:0:0:0:1-snare-03.ogg
153,192,83154,1,0,0:0:0:0:1-loop1-02.ogg
51,192,83355,1,0,0:0:0:0:1-kick-01.ogg
358,192,83355,1,0,0:0:0:0:1-loop1-04.ogg
153,192,83557,1,0,0:0:0:0:1-loop1-06.ogg
256,192,83758,1,0,0:0:0:0:1-snare-03.ogg
358,192,83758,1,0,0:0:0:0:1-kick-01.ogg
153,192,83959,1,0,0:0:0:0:1-loop1-02.ogg
358,192,84161,1,0,0:0:0:0:1-loop1-04.ogg
460,192,84362,1,0,0:0:0:0:1-kick-01.ogg
51,192,84563,1,0,0:0:0:0:1-loop1-01.ogg
256,192,84563,1,0,0:0:0:0:1-snare-03.ogg
153,192,84765,1,0,0:0:0:0:1-loop1-02.ogg
51,192,84966,1,0,0:0:0:0:1-loop1-04.ogg
460,192,84966,1,0,0:0:0:0:1-kick-01.ogg
358,192,85167,1,0,0:0:0:0:1-loop1-06.ogg
51,192,85369,1,0,0:0:0:0:1-loop1-01.ogg
256,192,85369,1,0,0:0:0:0:1-snare-03.ogg
153,192,85570,1,0,0:0:0:0:1-kick-02.ogg
358,192,85771,1,0,0:0:0:0:1-loop1-04.ogg
153,192,85973,1,0,0:0:0:0:1-loop1-06.ogg
256,192,86174,1,0,0:0:0:0:1-snare-03.ogg
460,192,86174,1,0,0:0:0:0:1-kick-02.ogg
153,192,86375,1,0,0:0:0:0:1-loop1-02.ogg
460,192,86577,1,0,0:0:0:0:1-loop1-04.ogg
358,192,86778,1,0,0:0:0:0:1-loop1-06.ogg
460,192,86979,1,0,0:0:0:0:1-snare-03.ogg
51,192,86979,128,0,87785:0:0:0:0:1-kick-02.ogg
460,192,87785,128,0,88590:0:0:0:0:1-kick-03.ogg
153,192,88590,128,0,90302:0:0:0:0:1-organ-10.ogg
358,192,88590,128,0,90302:0:0:0:0:1-piano-113.ogg
153,192,91812,128,0,93422:0:0:0:0:1-organ-11.ogg
358,192,91812,128,0,93422:0:0:0:0:1-gtsolo-25.ogg
460,192,93422,128,0,94228:0:0:0:0:1-gtsolo-26.ogg
51,192,93422,128,0,94228:0:0:0:0:1-bass-24.ogg
358,192,94228,128,0,95033:0:0:0:0:1-fx-08.ogg
153,192,95033,128,0,95436:0:0:0:0:1-bass-25.ogg
51,192,95436,128,0,95838:0:0:0:0:0-blank.ogg
256,192,95838,1,0,0:0:0:0:1-snare-04.ogg
460,192,95838,128,0,96644:0:0:0:0:1-bass2-01.ogg
256,192,96644,1,0,0:0:0:0:1-kick-05.ogg
51,192,96644,128,0,97449:0:0:0:0:1-bass-27.ogg
153,192,96845,1,0,0:0:0:0:1-loop1-14.ogg
358,192,97046,1,0,0:0:0:0:1-loop1-15.ogg
460,192,97248,1,0,0:0:0:0:1-loop1-16.ogg
256,192,97449,1,0,0:0:0:0:1-snare-04.ogg
460,192,97449,128,0,98255:0:0:0:0:1-bass-27.ogg
153,192,97852,1,0,0:0:0:0:1-loop1-11.ogg
51,192,98053,1,0,0:0:0:0:1-loop1-12.ogg
256,192,98255,1,0,0:0:0:0:1-kick-05.ogg
358,192,98255,128,0,99060:0:0:0:0:1-bass-29.ogg
51,192,98456,1,0,0:0:0:0:1-loop1-14.ogg
153,192,98657,1,0,0:0:0:0:1-loop1-15.ogg
153,192,98859,1,0,0:0:0:0:1-kick-06.ogg
51,192,98859,1,0,0:0:0:0:1-loop1-16.ogg
256,192,99060,1,0,0:0:0:0:1-snare-04.ogg
51,192,99463,1,0,0:0:0:0:1-loop1-11.ogg
460,192,99463,128,0,99664:0:0:0:0:1-bass2-05.ogg
153,192,99664,1,0,0:0:0:0:1-loop1-12.ogg
256,192,99865,1,0,0:0:0:0:1-kick-05.ogg
51,192,99865,128,0,100671:0:0:0:0:1-bass-30.ogg
153,192,100067,1,0,0:0:0:0:1-loop1-14.ogg
358,192,100268,1,0,0:0:0:0:1-loop1-15.ogg
153,192,100469,1,0,0:0:0:0:1-loop1-16.ogg
256,192,100671,1,0,0:0:0:0:1-snare-04.ogg
460,192,100671,128,0,101476:0:0:0:0:1-bass-31.ogg
153,192,101073,1,0,0:0:0:0:1-loop1-11.ogg
358,192,101275,1,0,0:0:0:0:1-loop1-12.ogg
256,192,101476,1,0,0:0:0:0:1-kick-05.ogg
51,192,101476,128,0,102281:0:0:0:0:1-bass-32.ogg
358,192,101677,1,0,0:0:0:0:1-loop1-14.ogg
460,192,101879,1,0,0:0:0:0:1-loop1-15.ogg
358,192,102080,1,0,0:0:0:0:1-loop1-16.ogg
256,192,102281,1,0,0:0:0:0:1-loop1-10.ogg
460,192,102281,1,0,0:0:0:0:1-snare-04.ogg
358,192,102684,1,0,0:0:0:0:1-loop1-11.ogg
460,192,102885,1,0,0:0:0:0:1-loop1-12.ogg
256,192,103087,1,0,0:0:0:0:1-kick-05.ogg
51,192,103087,128,0,103892:0:0:0:0:1-bass-33.ogg
358,192,103288,1,0,0:0:0:0:1-loop1-14.ogg
358,192,103489,1,0,0:0:0:0:1-loop1-15.ogg
153,192,103691,1,0,0:0:0:0:1-loop1-16.ogg
256,192,103892,1,0,0:0:0:0:1-snare-04.ogg
460,192,103892,128,0,104697:0:0:0:0:1-bass-34.ogg
153,192,104295,1,0,0:0:0:0:1-loop1-11.ogg
358,192,104496,1,0,0:0:0:0:1-loop1-12.ogg
51,192,104697,128,0,104966:0:0:0:0:1-bass-35.ogg
153,192,105302,1,0,0:0:0:0:1-kick-06.ogg
358,192,105402,1,0,0:0:0:0:1-kick-06.ogg
256,192,105503,1,0,0:0:0:0:1-loop1-10.ogg
460,192,105503,1,0,0:0:0:0:1-lead-01.ogg
358,192,105771,1,0,0:0:0:0:1-lead-02.ogg
153,192,106040,1,0,0:0:0:0:1-lead-03.ogg
256,192,106308,1,0,0:0:0:0:1-kick-05.ogg
358,192,106308,1,0,0:0:0:0:1-lead-04.ogg
153,192,106577,1,0,0:0:0:0:1-lead-05.ogg
51,192,106845,1,0,0:0:0:0:1-lead-06.ogg
256,192,107114,1,0,0:0:0:0:1-loop1-10.ogg
358,192,107114,1,0,0:0:0:0:1-lead-07.ogg
460,192,107382,1,0,0:0:0:0:1-lead-06.ogg
358,192,107651,1,0,0:0:0:0:1-lead-09.ogg
256,192,107919,1,0,0:0:0:0:1-bass-39.ogg
460,192,107919,1,0,0:0:0:0:1-lead-10.ogg
51,192,107919,1,0,0:0:0:0:1-kick-05.ogg
256,192,108187,1,0,0:0:0:0:1-bass-39.ogg
460,192,108187,1,0,0:0:0:0:1-lead-10.ogg
51,192,108187,1,0,0:0:0:0:1-kick-05.ogg
256,192,108456,1,0,0:0:0:0:1-bass-39.ogg
460,192,108456,1,0,0:0:0:0:1-lead-10.ogg
51,192,108456,1,0,0:0:0:0:1-kick-05.ogg
256,192,108724,1,0,0:0:0:0:1-snare-04.ogg
460,192,108724,128,0,109328:0:0:0:0:1-lead-16.ogg
51,192,108724,128,0,109328:0:0:0:0:1-gtsolo-27.ogg
256,192,109530,1,0,0:0:0:0:1-kick-05.ogg
51,192,109530,128,0,110335:0:0:0:0:1-bass-27.ogg
460,192,109731,1,0,0:0:0:0:1-loop1-14.ogg
358,192,109932,1,0,0:0:0:0:1-loop1-15.ogg
153,192,110134,1,0,0:0:0:0:1-loop1-16.ogg
256,192,110335,1,0,0:0:0:0:1-snare-04.ogg
460,192,110335,128,0,111140:0:0:0:0:1-bass-27.ogg
153,192,110738,1,0,0:0:0:0:1-loop1-11.ogg
153,192,110939,1,0,0:0:0:0:1-loop1-12.ogg
256,192,111140,1,0,0:0:0:0:1-kick-05.ogg
51,192,111140,128,0,111409:0:0:0:0:1-fx-03.ogg
153,192,111543,128,0,111812:0:0:0:0:1-fx-04.ogg
358,192,111946,1,0,0:0:0:0:1-bass2-14.ogg
153,192,112080,1,0,0:0:0:0:1-bass2-14.ogg
358,192,112214,1,0,0:0:0:0:1-bass2-14.ogg
460,192,112348,128,0,112751:0:0:0:0:1-bass2-05.ogg
256,192,112751,1,0,0:0:0:0:1-loop1-13.ogg
460,192,112953,1,0,0:0:0:0:1-loop1-14.ogg
153,192,113154,1,0,0:0:0:0:1-loop1-15.ogg
358,192,113355,1,0,0:0:0:0:1-loop1-16.ogg
256,192,113557,1,0,0:0:0:0:1-snare-04.ogg
460,192,113557,1,0,0:0:0:0:1-bass-31.ogg
51,192,113557,1,0,0:0:0:0:1-loop1-10.ogg
358,192,113959,1,0,0:0:0:0:1-loop1-11.ogg
153,192,114161,1,0,0:0:0:0:1-loop1-12.ogg
256,192,114362,1,0,0:0:0:0:1-loop1-13.ogg
460,192,114362,1,0,0:0:0:0:1-bass-46.ogg
51,192,114362,1,0,0:0:0:0:1-kick-05.ogg
153,192,114563,1,0,0:0:0:0:1-loop1-14.ogg
51,192,114765,1,0,0:0:0:0:1-loop1-15.ogg
153,192,114966,1,0,0:0:0:0:1-loop1-16.ogg
256,192,115167,1,0,0:0:0:0:1-loop1-10.ogg
460,192,115167,1,0,0:0:0:0:1-snare-04.ogg
153,192,115570,1,0,0:0:0:0:1-loop1-11.ogg
358,192,115771,1,0,0:0:0:0:1-loop1-12.ogg
256,192,115973,1,0,0:0:0:0:1-loop1-13.ogg
460,192,115973,1,0,0:0:0:0:1-bass-46.ogg
51,192,115973,1,0,0:0:0:0:1-kick-05.ogg
358,192,116174,1,0,0:0:0:0:1-loop1-14.ogg
153,192,116375,1,0,0:0:0:0:1-loop1-15.ogg
358,192,116577,1,0,0:0:0:0:1-loop1-16.ogg
256,192,116778,1,0,0:0:0:0:1-snare-04.ogg
460,192,116778,1,0,0:0:0:0:1-bass-48.ogg
51,192,116778,1,0,0:0:0:0:1-loop1-10.ogg
153,192,117181,1,0,0:0:0:0:1-loop1-11.ogg
358,192,117382,1,0,0:0:0:0:1-loop1-12.ogg
153,192,117986,128,0,118791:0:0:0:0:1-lead-11.ogg
358,192,118791,128,0,119194:0:0:0:0:1-lead-12.ogg
51,192,119194,128,0,119999:0:0:0:0:1-lead-13.ogg
153,192,120000,128,0,120402:0:0:0:0:1-lead-14.ogg
358,192,120000,128,0,120402:0:0:0:0:1-bass-49.ogg
460,192,120402,128,0,120805:0:0:0:0:1-bass-50.ogg
51,192,120402,128,0,120805:0:0:0:0:1-lead-15.ogg
153,192,120805,128,0,124026:0:0:0:0:1-impact-02.ogg
358,192,120805,128,0,124026:0:0:0:0:0-blank.ogg
