osu file format v14

[General]
AudioFilename: audio_1.3.mp3
AudioLeadIn: 0
PreviewTime: 38126
Countdown: 0
SampleSet: Normal
StackLeniency: 0.7
Mode: 3
LetterboxInBreaks: 0
SpecialStyle: 0
WidescreenStoryboard: 0

[Editor]
Bookmarks: 19070,28598,38126,55993
DistanceSpacing: 0.5
BeatDivisor: 4
GridSize: 4
TimelineZoom: 1.7

[Metadata]
Title:GREMORI
TitleUnicode:GREMORI
Artist:TAIRA
ArtistUnicode:TAIRA
Creator:Remuring
Version:BMS LV.21 x1.3
Source:Closers
Tags:
BeatmapID:1851283
BeatmapSetID:885759

[Difficulty]
HPDrainRate:8
CircleSize:7
OverallDifficulty:8
ApproachRate:5
SliderMultiplier:1.4
SliderTickRate:1

[Events]
//Background and Video events
0,0,"bg.png",0,0
//Break Periods
//Storyboard Layer 0 (Background)
//Storyboard Layer 1 (Fail)
//Storyboard Layer 2 (Pass)
//Storyboard Layer 3 (Foreground)
//Storyboard Sound Samples

[TimingPoints]
13,297.766749379652,4,1,0,0,1,0

[HitObjects]
182,192,13,5,0,0:0:0:0:
36,192,13,1,0,0:0:0:0:
329,192,13,1,0,0:0:0:0:
475,192,13,1,0,0:0:0:0:
36,192,310,1,0,0:0:0:0:
109,192,310,1,0,0:0:0:0:
256,192,310,1,0,0:0:0:0:
402,192,310,1,0,0:0:0:0:
182,192,608,1,0,0:0:0:0:
329,192,608,1,0,0:0:0:0:
475,192,608,1,0,0:0:0:0:
109,192,608,1,0,0:0:0:0:
109,192,831,1,0,0:0:0:0:
182,192,831,1,0,0:0:0:0:
329,192,831,1,0,0:0:0:0:
475,192,906,1,0,0:0:0:0:
36,192,906,1,0,0:0:0:0:
256,192,906,1,0,0:0:0:0:
402,192,906,1,0,0:0:0:0:
182,192,1054,1,0,0:0:0:0:
36,192,1054,1,0,0:0:0:0:
329,192,1054,1,0,0:0:0:0:
475,192,1054,1,0,0:0:0:0:
109,192,1203,1,0,0:0:0:0:
256,192,1203,1,0,0:0:0:0:
402,192,1203,1,0,0:0:0:0:
475,192,1203,1,0,0:0:0:0:
109,192,1352,1,0,0:0:0:0:
256,192,1352,1,0,0:0:0:0:
402,192,1352,1,0,0:0:0:0:
475,192,1352,1,0,0:0:0:0:
329,192,1501,1,0,0:0:0:0:
402,192,1501,1,0,0:0:0:0:
109,192,1501,1,0,0:0:0:0:
36,192,1501,1,0,0:0:0:0:
109,192,1799,1,0,0:0:0:0:
182,192,1799,1,0,0:0:0:0:
329,192,1799,1,0,0:0:0:0:
402,192,1799,1,0,0:0:0:0:
182,192,1948,1,0,0:0:0:0:
256,192,1985,1,0,0:0:0:0:
329,192,2022,1,0,0:0:0:0:
109,192,2022,1,0,0:0:0:0:
402,192,2060,1,0,0:0:0:0:
256,192,2096,1,0,0:0:0:0:
475,192,2096,1,0,0:0:0:0:
36,192,2096,1,0,0:0:0:0:
109,192,2246,1,0,0:0:0:0:
182,192,2246,1,0,0:0:0:0:
329,192,2246,1,0,0:0:0:0:
402,192,2246,1,0,0:0:0:0:
182,192,2394,1,0,0:0:0:0:
36,192,2394,1,0,0:0:0:0:
329,192,2394,1,0,0:0:0:0:
475,192,2394,1,0,0:0:0:0:
475,192,2692,1,0,0:0:0:0:
402,192,2692,1,0,0:0:0:0:
256,192,2692,1,0,0:0:0:0:
109,192,2692,1,0,0:0:0:0:
329,192,2990,1,0,0:0:0:0:
182,192,2990,1,0,0:0:0:0:
36,192,2990,1,0,0:0:0:0:
402,192,2990,1,0,0:0:0:0:
402,192,3213,1,0,0:0:0:0:
329,192,3213,1,0,0:0:0:0:
182,192,3213,1,0,0:0:0:0:
36,192,3288,1,0,0:0:0:0:
475,192,3288,1,0,0:0:0:0:
256,192,3288,1,0,0:0:0:0:
109,192,3288,1,0,0:0:0:0:
329,192,3436,1,0,0:0:0:0:
475,192,3436,1,0,0:0:0:0:
182,192,3436,1,0,0:0:0:0:
36,192,3436,1,0,0:0:0:0:
402,192,3586,1,0,0:0:0:0:
256,192,3586,1,0,0:0:0:0:
109,192,3586,1,0,0:0:0:0:
36,192,3586,1,0,0:0:0:0:
329,192,3660,1,0,0:0:0:0:
402,192,3734,1,0,0:0:0:0:
256,192,3734,1,0,0:0:0:0:
109,192,3734,1,0,0:0:0:0:
36,192,3734,1,0,0:0:0:0:
182,192,3883,1,0,0:0:0:0:
109,192,3883,1,0,0:0:0:0:
402,192,3883,1,0,0:0:0:0:
475,192,3883,1,0,0:0:0:0:
256,192,4032,1,0,0:0:0:0:
36,192,4032,1,0,0:0:0:0:
182,192,4106,1,0,0:0:0:0:
475,192,4106,1,0,0:0:0:0:
36,192,4181,1,0,0:0:0:0:
402,192,4181,1,0,0:0:0:0:
329,192,4181,1,0,0:0:0:0:
109,192,4181,1,0,0:0:0:0:
256,192,4330,1,0,0:0:0:0:
475,192,4330,1,0,0:0:0:0:
182,192,4330,1,0,0:0:0:0:
109,192,4404,1,0,0:0:0:0:
329,192,4404,1,0,0:0:0:0:
402,192,4404,1,0,0:0:0:0:
36,192,4479,1,0,0:0:0:0:
182,192,4479,1,0,0:0:0:0:
256,192,4479,1,0,0:0:0:0:
475,192,4479,1,0,0:0:0:0:
402,192,4516,1,0,0:0:0:0:
329,192,4553,1,0,0:0:0:0:
256,192,4590,1,0,0:0:0:0:
182,192,4627,1,0,0:0:0:0:
402,192,4627,1,0,0:0:0:0:
329,192,4665,1,0,0:0:0:0:
256,192,4702,1,0,0:0:0:0:
182,192,4740,1,0,0:0:0:0:
109,192,4776,1,0,0:0:0:0:
36,192,4776,1,0,0:0:0:0:
402,192,4776,1,0,0:0:0:0:
475,192,4776,1,0,0:0:0:0:
109,192,5074,1,0,0:0:0:0:
182,192,5074,1,0,0:0:0:0:
329,192,5074,1,0,0:0:0:0:
402,192,5074,1,0,0:0:0:0:
182,192,5372,1,0,0:0:0:0:
329,192,5372,1,0,0:0:0:0:
475,192,5372,1,0,0:0:0:0:
36,192,5372,1,0,0:0:0:0:
109,192,5596,1,0,0:0:0:0:
182,192,5596,1,0,0:0:0:0:
36,192,5596,1,0,0:0:0:0:
475,192,5670,1,0,0:0:0:0:
256,192,5670,1,0,0:0:0:0:
329,192,5670,1,0,0:0:0:0:
402,192,5670,1,0,0:0:0:0:
182,192,5819,1,0,0:0:0:0:
36,192,5819,1,0,0:0:0:0:
329,192,5819,1,0,0:0:0:0:
475,192,5819,1,0,0:0:0:0:
109,192,5967,1,0,0:0:0:0:
256,192,5967,1,0,0:0:0:0:
402,192,5967,1,0,0:0:0:0:
475,192,5967,1,0,0:0:0:0:
109,192,6116,1,0,0:0:0:0:
256,192,6116,1,0,0:0:0:0:
402,192,6116,1,0,0:0:0:0:
475,192,6116,1,0,0:0:0:0:
329,192,6266,1,0,0:0:0:0:
402,192,6266,1,0,0:0:0:0:
109,192,6266,1,0,0:0:0:0:
36,192,6266,1,0,0:0:0:0:
109,192,6563,1,0,0:0:0:0:
182,192,6563,1,0,0:0:0:0:
329,192,6563,1,0,0:0:0:0:
402,192,6563,1,0,0:0:0:0:
182,192,6712,1,0,0:0:0:0:
256,192,6750,1,0,0:0:0:0:
329,192,6786,1,0,0:0:0:0:
109,192,6786,1,0,0:0:0:0:
402,192,6823,1,0,0:0:0:0:
256,192,6861,1,0,0:0:0:0:
475,192,6861,1,0,0:0:0:0:
36,192,6861,1,0,0:0:0:0:
109,192,7010,1,0,0:0:0:0:
182,192,7010,1,0,0:0:0:0:
329,192,7010,1,0,0:0:0:0:
402,192,7010,1,0,0:0:0:0:
182,192,7159,1,0,0:0:0:0:
36,192,7159,1,0,0:0:0:0:
329,192,7159,1,0,0:0:0:0:
475,192,7159,1,0,0:0:0:0:
329,192,7307,1,0,0:0:0:0:
36,192,7307,1,0,0:0:0:0:
475,192,7456,1,0,0:0:0:0:
402,192,7456,1,0,0:0:0:0:
256,192,7456,1,0,0:0:0:0:
109,192,7456,1,0,0:0:0:0:
329,192,7754,1,0,0:0:0:0:
182,192,7754,1,0,0:0:0:0:
36,192,7754,1,0,0:0:0:0:
402,192,7754,1,0,0:0:0:0:
109,192,7903,1,0,0:0:0:0:
475,192,7903,1,0,0:0:0:0:
402,192,7977,1,0,0:0:0:0:
329,192,7977,1,0,0:0:0:0:
182,192,7977,1,0,0:0:0:0:
36,192,8052,1,0,0:0:0:0:
475,192,8052,1,0,0:0:0:0:
256,192,8052,1,0,0:0:0:0:
109,192,8052,1,0,0:0:0:0:
329,192,8201,1,0,0:0:0:0:
475,192,8201,1,0,0:0:0:0:
182,192,8201,1,0,0:0:0:0:
36,192,8201,1,0,0:0:0:0:
256,192,8275,1,0,0:0:0:0:
402,192,8350,1,0,0:0:0:0:
329,192,8350,1,0,0:0:0:0:
109,192,8350,1,0,0:0:0:0:
36,192,8350,1,0,0:0:0:0:
402,192,8499,1,0,0:0:0:0:
329,192,8499,1,0,0:0:0:0:
109,192,8499,1,0,0:0:0:0:
36,192,8499,1,0,0:0:0:0:
256,192,8499,1,0,0:0:0:0:
182,192,8647,1,0,0:0:0:0:
109,192,8647,1,0,0:0:0:0:
402,192,8647,1,0,0:0:0:0:
475,192,8647,1,0,0:0:0:0:
256,192,8796,1,0,0:0:0:0:
36,192,8796,1,0,0:0:0:0:
329,192,8796,1,0,0:0:0:0:
182,192,8796,1,0,0:0:0:0:
475,192,8796,1,0,0:0:0:0:
109,192,8945,1,0,0:0:0:0:
402,192,8945,1,0,0:0:0:0:
475,192,8945,1,0,0:0:0:0:
256,192,8945,1,0,0:0:0:0:
36,192,9094,1,0,0:0:0:0:
182,192,9094,1,0,0:0:0:0:
329,192,9094,1,0,0:0:0:0:
109,192,9169,1,0,0:0:0:0:
256,192,9169,1,0,0:0:0:0:
402,192,9169,1,0,0:0:0:0:
329,192,9243,1,0,0:0:0:0:
475,192,9243,1,0,0:0:0:0:
182,192,9243,1,0,0:0:0:0:
36,192,9243,1,0,0:0:0:0:
109,192,9317,1,0,0:0:0:0:
402,192,9317,1,0,0:0:0:0:
182,192,9392,1,0,0:0:0:0:
329,192,9392,1,0,0:0:0:0:
402,192,9466,1,0,0:0:0:0:
109,192,9466,1,0,0:0:0:0:
256,192,9541,1,0,0:0:0:0:
36,192,9541,1,0,0:0:0:0:
475,192,9541,1,0,0:0:0:0:
329,192,9541,1,0,0:0:0:0:
182,192,9615,1,0,0:0:0:0:
109,192,9690,1,0,0:0:0:0:
402,192,9690,1,0,0:0:0:0:
256,192,9764,1,0,0:0:0:0:
182,192,9839,1,0,0:0:0:0:
36,192,9839,1,0,0:0:0:0:
329,192,9839,1,0,0:0:0:0:
402,192,9839,1,0,0:0:0:0:
475,192,9913,1,0,0:0:0:0:
36,192,9987,1,0,0:0:0:0:
256,192,9987,1,0,0:0:0:0:
109,192,10062,1,0,0:0:0:0:
182,192,10136,1,0,0:0:0:0:
329,192,10136,1,0,0:0:0:0:
475,192,10136,1,0,0:0:0:0:
256,192,10211,1,0,0:0:0:0:
402,192,10285,1,0,0:0:0:0:
109,192,10285,1,0,0:0:0:0:
182,192,10360,1,0,0:0:0:0:
329,192,10360,1,0,0:0:0:0:
475,192,10360,1,0,0:0:0:0:
402,192,10434,1,0,0:0:0:0:
256,192,10434,1,0,0:0:0:0:
36,192,10434,1,0,0:0:0:0:
109,192,10434,1,0,0:0:0:0:
475,192,10509,1,0,0:0:0:0:
36,192,10583,1,0,0:0:0:0:
182,192,10583,1,0,0:0:0:0:
329,192,10583,1,0,0:0:0:0:
402,192,10657,1,0,0:0:0:0:
256,192,10732,1,0,0:0:0:0:
36,192,10732,1,0,0:0:0:0:
109,192,10732,1,0,0:0:0:0:
329,192,10806,1,0,0:0:0:0:
36,192,10881,1,0,0:0:0:0:
109,192,10881,1,0,0:0:0:0:
256,192,10881,1,0,0:0:0:0:
329,192,10955,1,0,0:0:0:0:
109,192,11030,1,0,0:0:0:0:
182,192,11030,1,0,0:0:0:0:
402,192,11030,1,0,0:0:0:0:
475,192,11030,1,0,0:0:0:0:
256,192,11104,1,0,0:0:0:0:
329,192,11179,1,0,0:0:0:0:
36,192,11179,1,0,0:0:0:0:
109,192,11253,1,0,0:0:0:0:
329,192,11327,1,0,0:0:0:0:
475,192,11327,1,0,0:0:0:0:
182,192,11327,1,0,0:0:0:0:
256,192,11402,1,0,0:0:0:0:
109,192,11476,1,0,0:0:0:0:
402,192,11476,1,0,0:0:0:0:
182,192,11550,1,0,0:0:0:0:
329,192,11550,1,0,0:0:0:0:
36,192,11550,1,0,0:0:0:0:
402,192,11625,1,0,0:0:0:0:
475,192,11625,1,0,0:0:0:0:
256,192,11625,1,0,0:0:0:0:
109,192,11625,1,0,0:0:0:0:
36,192,11700,1,0,0:0:0:0:
475,192,11774,1,0,0:0:0:0:
182,192,11774,1,0,0:0:0:0:
329,192,11774,1,0,0:0:0:0:
109,192,11849,1,0,0:0:0:0:
36,192,11923,1,0,0:0:0:0:
256,192,11923,1,0,0:0:0:0:
402,192,11923,1,0,0:0:0:0:
475,192,11923,1,0,0:0:0:0:
182,192,11997,1,0,0:0:0:0:
256,192,12072,1,0,0:0:0:0:
36,192,12072,1,0,0:0:0:0:
329,192,12146,1,0,0:0:0:0:
109,192,12220,1,0,0:0:0:0:
182,192,12220,1,0,0:0:0:0:
402,192,12220,1,0,0:0:0:0:
475,192,12220,1,0,0:0:0:0:
256,192,12295,1,0,0:0:0:0:
329,192,12370,1,0,0:0:0:0:
36,192,12370,1,0,0:0:0:0:
109,192,12444,1,0,0:0:0:0:
182,192,12519,1,0,0:0:0:0:
256,192,12519,1,0,0:0:0:0:
475,192,12519,1,0,0:0:0:0:
402,192,12593,1,0,0:0:0:0:
329,192,12667,1,0,0:0:0:0:
109,192,12667,1,0,0:0:0:0:
36,192,12742,1,0,0:0:0:0:
256,192,12742,1,0,0:0:0:0:
402,192,12742,1,0,0:0:0:0:
182,192,12816,1,0,0:0:0:0:
109,192,12816,1,0,0:0:0:0:
329,192,12816,1,0,0:0:0:0:
475,192,12816,1,0,0:0:0:0:
256,192,12890,1,0,0:0:0:0:
329,192,12965,1,0,0:0:0:0:
109,192,12965,1,0,0:0:0:0:
36,192,12965,1,0,0:0:0:0:
182,192,13040,1,0,0:0:0:0:
256,192,13114,1,0,0:0:0:0:
402,192,13114,1,0,0:0:0:0:
475,192,13114,1,0,0:0:0:0:
109,192,13189,1,0,0:0:0:0:
182,192,13263,1,0,0:0:0:0:
329,192,13263,1,0,0:0:0:0:
402,192,13263,1,0,0:0:0:0:
36,192,13337,1,0,0:0:0:0:
109,192,13412,1,0,0:0:0:0:
182,192,13412,1,0,0:0:0:0:
475,192,13412,1,0,0:0:0:0:
402,192,13412,1,0,0:0:0:0:
329,192,13486,1,0,0:0:0:0:
256,192,13560,1,0,0:0:0:0:
36,192,13560,1,0,0:0:0:0:
182,192,13635,1,0,0:0:0:0:
109,192,13710,1,0,0:0:0:0:
36,192,13710,1,0,0:0:0:0:
329,192,13710,1,0,0:0:0:0:
256,192,13784,1,0,0:0:0:0:
402,192,13858,1,0,0:0:0:0:
182,192,13858,1,0,0:0:0:0:
475,192,13858,1,0,0:0:0:0:
329,192,13933,1,0,0:0:0:0:
36,192,13933,1,0,0:0:0:0:
109,192,13933,1,0,0:0:0:0:
256,192,14007,1,0,0:0:0:0:
402,192,14007,1,0,0:0:0:0:
475,192,14007,1,0,0:0:0:0:
182,192,14007,1,0,0:0:0:0:
109,192,14082,1,0,0:0:0:0:
182,192,14156,1,0,0:0:0:0:
329,192,14156,1,0,0:0:0:0:
36,192,14156,1,0,0:0:0:0:
256,192,14230,1,0,0:0:0:0:
402,192,14230,1,0,0:0:0:0:
109,192,14230,1,0,0:0:0:0:
182,192,14305,1,0,0:0:0:0:
329,192,14305,1,0,0:0:0:0:
475,192,14305,1,0,0:0:0:0:
36,192,14305,1,0,0:0:0:0:
256,192,14380,1,0,0:0:0:0:
182,192,14454,1,0,0:0:0:0:
402,192,14454,1,0,0:0:0:0:
329,192,14528,1,0,0:0:0:0:
256,192,14603,1,0,0:0:0:0:
109,192,14603,1,0,0:0:0:0:
36,192,14603,1,0,0:0:0:0:
475,192,14603,1,0,0:0:0:0:
329,192,14677,1,0,0:0:0:0:
402,192,14752,1,0,0:0:0:0:
182,192,14752,1,0,0:0:0:0:
256,192,14826,1,0,0:0:0:0:
329,192,14900,1,0,0:0:0:0:
475,192,14900,1,0,0:0:0:0:
109,192,14900,1,0,0:0:0:0:
36,192,14900,1,0,0:0:0:0:
182,192,14975,1,0,0:0:0:0:
256,192,15050,1,0,0:0:0:0:
402,192,15050,1,0,0:0:0:0:
182,192,15124,1,0,0:0:0:0:
109,192,15124,1,0,0:0:0:0:
329,192,15124,1,0,0:0:0:0:
256,192,15198,1,0,0:0:0:0:
36,192,15198,1,0,0:0:0:0:
402,192,15198,1,0,0:0:0:0:
475,192,15198,1,0,0:0:0:0:
182,192,15273,1,0,0:0:0:0:
109,192,15347,1,0,0:0:0:0:
329,192,15347,1,0,0:0:0:0:
402,192,15347,1,0,0:0:0:0:
256,192,15422,1,0,0:0:0:0:
182,192,15496,1,0,0:0:0:0:
36,192,15496,1,0,0:0:0:0:
402,192,15496,1,0,0:0:0:0:
475,192,15496,1,0,0:0:0:0:
256,192,15570,1,0,0:0:0:0:
329,192,15645,1,0,0:0:0:0:
109,192,15645,1,0,0:0:0:0:
475,192,15645,1,0,0:0:0:0:
182,192,15720,1,0,0:0:0:0:
256,192,15794,1,0,0:0:0:0:
402,192,15794,1,0,0:0:0:0:
475,192,15794,1,0,0:0:0:0:
36,192,15794,1,0,0:0:0:0:
182,192,15868,1,0,0:0:0:0:
109,192,15943,1,0,0:0:0:0:
329,192,15943,1,0,0:0:0:0:
402,192,16017,1,0,0:0:0:0:
475,192,16092,1,0,0:0:0:0:
256,192,16092,1,0,0:0:0:0:
182,192,16092,1,0,0:0:0:0:
36,192,16092,1,0,0:0:0:0:
329,192,16166,1,0,0:0:0:0:
402,192,16240,1,0,0:0:0:0:
109,192,16240,1,0,0:0:0:0:
182,192,16315,1,0,0:0:0:0:
256,192,16315,1,0,0:0:0:0:
475,192,16315,1,0,0:0:0:0:
329,192,16390,1,0,0:0:0:0:
109,192,16390,1,0,0:0:0:0:
36,192,16390,1,0,0:0:0:0:
402,192,16390,1,0,0:0:0:0:
256,192,16464,1,0,0:0:0:0:
182,192,16538,1,0,0:0:0:0:
109,192,16538,1,0,0:0:0:0:
475,192,16538,1,0,0:0:0:0:
402,192,16613,1,0,0:0:0:0:
329,192,16687,1,0,0:0:0:0:
256,192,16687,1,0,0:0:0:0:
182,192,16687,1,0,0:0:0:0:
36,192,16687,1,0,0:0:0:0:
109,192,16687,1,0,0:0:0:0:
402,192,16762,1,0,0:0:0:0:
475,192,16836,1,0,0:0:0:0:
182,192,16836,1,0,0:0:0:0:
256,192,16910,1,0,0:0:0:0:
329,192,16985,1,0,0:0:0:0:
402,192,16985,1,0,0:0:0:0:
109,192,16985,1,0,0:0:0:0:
36,192,16985,1,0,0:0:0:0:
256,192,17060,1,0,0:0:0:0:
182,192,17134,1,0,0:0:0:0:
475,192,17134,1,0,0:0:0:0:
402,192,17208,1,0,0:0:0:0:
329,192,17283,1,0,0:0:0:0:
256,192,17283,1,0,0:0:0:0:
109,192,17283,1,0,0:0:0:0:
36,192,17283,1,0,0:0:0:0:
475,192,17283,1,0,0:0:0:0:
182,192,17357,1,0,0:0:0:0:
109,192,17432,1,0,0:0:0:0:
329,192,17432,1,0,0:0:0:0:
402,192,17506,1,0,0:0:0:0:
475,192,17580,1,0,0:0:0:0:
256,192,17580,1,0,0:0:0:0:
182,192,17580,1,0,0:0:0:0:
36,192,17580,1,0,0:0:0:0:
329,192,17655,1,0,0:0:0:0:
402,192,17730,1,0,0:0:0:0:
109,192,17730,1,0,0:0:0:0:
182,192,17804,1,0,0:0:0:0:
256,192,17878,1,0,0:0:0:0:
475,192,17878,1,0,0:0:0:0:
329,192,17878,1,0,0:0:0:0:
402,192,17878,1,0,0:0:0:0:
36,192,17878,1,0,0:0:0:0:
182,192,17953,1,0,0:0:0:0:
109,192,18027,1,0,0:0:0:0:
329,192,18027,1,0,0:0:0:0:
475,192,18027,1,0,0:0:0:0:
256,192,18102,1,0,0:0:0:0:
182,192,18176,1,0,0:0:0:0:
36,192,18176,1,0,0:0:0:0:
402,192,18176,1,0,0:0:0:0:
475,192,18176,1,0,0:0:0:0:
109,192,18176,1,0,0:0:0:0:
256,192,18250,1,0,0:0:0:0:
329,192,18325,1,0,0:0:0:0:
182,192,18325,1,0,0:0:0:0:
36,192,18325,1,0,0:0:0:0:
402,192,18400,1,0,0:0:0:0:
475,192,18473,1,0,0:0:0:0:
256,192,18473,1,0,0:0:0:0:
109,192,18473,1,0,0:0:0:0:
36,192,18473,1,0,0:0:0:0:
182,192,18473,1,0,0:0:0:0:
329,192,18548,1,0,0:0:0:0:
402,192,18623,1,0,0:0:0:0:
182,192,18623,1,0,0:0:0:0:
36,192,18623,1,0,0:0:0:0:
256,192,18697,1,0,0:0:0:0:
475,192,18772,1,0,0:0:0:0:
109,192,18772,1,0,0:0:0:0:
36,192,18772,1,0,0:0:0:0:
402,192,18772,1,0,0:0:0:0:
182,192,18772,1,0,0:0:0:0:
329,192,18772,1,0,0:0:0:0:
256,192,18920,1,0,0:0:0:0:
182,192,19070,1,0,0:0:0:0:
109,192,19070,1,0,0:0:0:0:
36,192,19070,1,0,0:0:0:0:
329,192,19070,1,0,0:0:0:0:
402,192,19070,1,0,0:0:0:0:
475,192,19070,1,0,0:0:0:0:
256,192,19218,1,0,0:0:0:0:
36,192,19218,1,0,0:0:0:0:
475,192,19218,1,0,0:0:0:0:
182,192,19367,1,0,0:0:0:0:
109,192,19367,1,0,0:0:0:0:
329,192,19367,1,0,0:0:0:0:
402,192,19367,1,0,0:0:0:0:
36,192,19367,1,0,0:0:0:0:
256,192,19516,1,0,0:0:0:0:
36,192,19516,1,0,0:0:0:0:
475,192,19516,1,0,0:0:0:0:
182,192,19665,1,0,0:0:0:0:
36,192,19665,1,0,0:0:0:0:
329,192,19665,1,0,0:0:0:0:
402,192,19665,1,0,0:0:0:0:
475,192,19665,1,0,0:0:0:0:
109,192,19813,1,0,0:0:0:0:
256,192,19813,1,0,0:0:0:0:
475,192,19813,1,0,0:0:0:0:
402,192,19888,1,0,0:0:0:0:
182,192,19888,1,0,0:0:0:0:
36,192,19888,1,0,0:0:0:0:
109,192,19963,1,0,0:0:0:0:
329,192,19963,1,0,0:0:0:0:
475,192,19963,1,0,0:0:0:0:
256,192,19963,1,0,0:0:0:0:
182,192,20037,1,0,0:0:0:0:
402,192,20037,1,0,0:0:0:0:
256,192,20112,1,0,0:0:0:0:
475,192,20112,1,0,0:0:0:0:
36,192,20112,1,0,0:0:0:0:
109,192,20186,1,0,0:0:0:0:
329,192,20186,1,0,0:0:0:0:
182,192,20260,1,0,0:0:0:0:
402,192,20260,1,0,0:0:0:0:
475,192,20260,1,0,0:0:0:0:
36,192,20260,1,0,0:0:0:0:
109,192,20410,1,0,0:0:0:0:
256,192,20410,1,0,0:0:0:0:
402,192,20410,1,0,0:0:0:0:
329,192,20558,1,0,0:0:0:0:
475,192,20558,1,0,0:0:0:0:
182,192,20558,1,0,0:0:0:0:
36,192,20558,1,0,0:0:0:0:
109,192,20558,1,0,0:0:0:0:
109,192,20707,1,0,0:0:0:0:
256,192,20707,1,0,0:0:0:0:
402,192,20707,1,0,0:0:0:0:
182,192,20856,1,0,0:0:0:0:
329,192,20856,1,0,0:0:0:0:
475,192,20856,1,0,0:0:0:0:
36,192,20856,1,0,0:0:0:0:
402,192,20856,1,0,0:0:0:0:
329,192,21005,1,0,0:0:0:0:
36,192,21005,1,0,0:0:0:0:
182,192,21005,1,0,0:0:0:0:
109,192,21080,1,0,0:0:0:0:
402,192,21080,1,0,0:0:0:0:
256,192,21080,1,0,0:0:0:0:
475,192,21153,1,0,0:0:0:0:
329,192,21153,1,0,0:0:0:0:
36,192,21153,1,0,0:0:0:0:
182,192,21153,1,0,0:0:0:0:
402,192,21228,1,0,0:0:0:0:
256,192,21228,1,0,0:0:0:0:
475,192,21303,1,0,0:0:0:0:
329,192,21303,1,0,0:0:0:0:
182,192,21303,1,0,0:0:0:0:
109,192,21377,1,0,0:0:0:0:
256,192,21377,1,0,0:0:0:0:
182,192,21451,1,0,0:0:0:0:
36,192,21451,1,0,0:0:0:0:
402,192,21451,1,0,0:0:0:0:
475,192,21451,1,0,0:0:0:0:
36,192,21600,1,0,0:0:0:0:
256,192,21600,1,0,0:0:0:0:
402,192,21600,1,0,0:0:0:0:
109,192,21750,1,0,0:0:0:0:
182,192,21750,1,0,0:0:0:0:
329,192,21750,1,0,0:0:0:0:
475,192,21750,1,0,0:0:0:0:
256,192,21750,1,0,0:0:0:0:
402,192,21898,1,0,0:0:0:0:
256,192,21898,1,0,0:0:0:0:
36,192,21898,1,0,0:0:0:0:
182,192,22047,1,0,0:0:0:0:
36,192,22047,1,0,0:0:0:0:
329,192,22047,1,0,0:0:0:0:
475,192,22047,1,0,0:0:0:0:
402,192,22047,1,0,0:0:0:0:
36,192,22196,1,0,0:0:0:0:
109,192,22196,1,0,0:0:0:0:
256,192,22196,1,0,0:0:0:0:
182,192,22270,1,0,0:0:0:0:
329,192,22270,1,0,0:0:0:0:
402,192,22270,1,0,0:0:0:0:
475,192,22345,1,0,0:0:0:0:
256,192,22345,1,0,0:0:0:0:
109,192,22345,1,0,0:0:0:0:
36,192,22345,1,0,0:0:0:0:
182,192,22420,1,0,0:0:0:0:
402,192,22420,1,0,0:0:0:0:
109,192,22493,1,0,0:0:0:0:
329,192,22493,1,0,0:0:0:0:
475,192,22493,1,0,0:0:0:0:
256,192,22568,1,0,0:0:0:0:
36,192,22568,1,0,0:0:0:0:
182,192,22643,1,0,0:0:0:0:
402,192,22643,1,0,0:0:0:0:
475,192,22643,1,0,0:0:0:0:
109,192,22643,1,0,0:0:0:0:
36,192,22791,1,0,0:0:0:0:
109,192,22791,1,0,0:0:0:0:
329,192,22791,1,0,0:0:0:0:
182,192,22940,1,0,0:0:0:0:
256,192,22940,1,0,0:0:0:0:
402,192,22940,1,0,0:0:0:0:
475,192,22940,1,0,0:0:0:0:
36,192,22940,1,0,0:0:0:0:
329,192,23089,1,0,0:0:0:0:
109,192,23089,1,0,0:0:0:0:
36,192,23089,1,0,0:0:0:0:
182,192,23238,128,0,23387:0:0:0:0:
36,192,23238,128,0,23387:0:0:0:0:
402,192,23238,128,0,23387:0:0:0:0:
475,192,23238,128,0,23387:0:0:0:0:
256,192,23238,128,0,23387:0:0:0:0:
256,192,23536,128,0,23685:0:0:0:0:
402,192,23536,128,0,23685:0:0:0:0:
475,192,23536,128,0,23685:0:0:0:0:
36,192,23536,128,0,23685:0:0:0:0:
109,192,23536,128,0,23685:0:0:0:0:
182,192,23833,1,0,0:0:0:0:
109,192,23833,1,0,0:0:0:0:
36,192,23833,1,0,0:0:0:0:
402,192,23833,1,0,0:0:0:0:
475,192,23833,1,0,0:0:0:0:
329,192,23983,1,0,0:0:0:0:
182,192,23983,1,0,0:0:0:0:
36,192,23983,1,0,0:0:0:0:
109,192,24131,1,0,0:0:0:0:
256,192,24131,1,0,0:0:0:0:
402,192,24131,1,0,0:0:0:0:
475,192,24131,1,0,0:0:0:0:
329,192,24131,1,0,0:0:0:0:
329,192,24280,1,0,0:0:0:0:
182,192,24280,1,0,0:0:0:0:
36,192,24280,1,0,0:0:0:0:
109,192,24429,1,0,0:0:0:0:
36,192,24429,1,0,0:0:0:0:
329,192,24429,1,0,0:0:0:0:
475,192,24429,1,0,0:0:0:0:
182,192,24429,1,0,0:0:0:0:
109,192,24578,1,0,0:0:0:0:
256,192,24578,1,0,0:0:0:0:
402,192,24578,1,0,0:0:0:0:
329,192,24653,1,0,0:0:0:0:
182,192,24653,1,0,0:0:0:0:
36,192,24653,1,0,0:0:0:0:
109,192,24727,1,0,0:0:0:0:
256,192,24727,1,0,0:0:0:0:
402,192,24727,1,0,0:0:0:0:
475,192,24727,1,0,0:0:0:0:
329,192,24801,1,0,0:0:0:0:
182,192,24801,1,0,0:0:0:0:
256,192,24876,1,0,0:0:0:0:
475,192,24876,1,0,0:0:0:0:
36,192,24876,1,0,0:0:0:0:
109,192,24950,1,0,0:0:0:0:
402,192,24950,1,0,0:0:0:0:
329,192,25025,1,0,0:0:0:0:
182,192,25025,1,0,0:0:0:0:
36,192,25025,1,0,0:0:0:0:
475,192,25025,1,0,0:0:0:0:
109,192,25173,1,0,0:0:0:0:
256,192,25173,1,0,0:0:0:0:
402,192,25173,1,0,0:0:0:0:
182,192,25323,1,0,0:0:0:0:
329,192,25323,1,0,0:0:0:0:
475,192,25323,1,0,0:0:0:0:
36,192,25323,1,0,0:0:0:0:
109,192,25323,1,0,0:0:0:0:
109,192,25471,1,0,0:0:0:0:
256,192,25471,1,0,0:0:0:0:
402,192,25471,1,0,0:0:0:0:
36,192,25620,1,0,0:0:0:0:
402,192,25620,1,0,0:0:0:0:
475,192,25620,1,0,0:0:0:0:
182,192,25620,1,0,0:0:0:0:
329,192,25620,1,0,0:0:0:0:
256,192,25769,1,0,0:0:0:0:
36,192,25769,1,0,0:0:0:0:
402,192,25769,1,0,0:0:0:0:
109,192,25843,1,0,0:0:0:0:
329,192,25843,1,0,0:0:0:0:
475,192,25843,1,0,0:0:0:0:
256,192,25918,1,0,0:0:0:0:
36,192,25918,1,0,0:0:0:0:
182,192,25918,1,0,0:0:0:0:
402,192,25918,1,0,0:0:0:0:
329,192,25993,1,0,0:0:0:0:
109,192,25993,1,0,0:0:0:0:
256,192,26066,1,0,0:0:0:0:
475,192,26066,1,0,0:0:0:0:
36,192,26066,1,0,0:0:0:0:
402,192,26141,1,0,0:0:0:0:
182,192,26141,1,0,0:0:0:0:
109,192,26216,1,0,0:0:0:0:
36,192,26216,1,0,0:0:0:0:
329,192,26216,1,0,0:0:0:0:
256,192,26216,1,0,0:0:0:0:
182,192,26365,1,0,0:0:0:0:
402,192,26365,1,0,0:0:0:0:
475,192,26365,1,0,0:0:0:0:
329,192,26513,1,0,0:0:0:0:
475,192,26513,1,0,0:0:0:0:
256,192,26513,1,0,0:0:0:0:
109,192,26513,1,0,0:0:0:0:
36,192,26513,1,0,0:0:0:0:
182,192,26663,1,0,0:0:0:0:
402,192,26663,1,0,0:0:0:0:
475,192,26663,1,0,0:0:0:0:
256,192,26811,1,0,0:0:0:0:
402,192,26811,1,0,0:0:0:0:
109,192,26811,1,0,0:0:0:0:
36,192,26811,1,0,0:0:0:0:
329,192,26811,1,0,0:0:0:0:
182,192,26960,1,0,0:0:0:0:
109,192,26960,1,0,0:0:0:0:
475,192,26960,1,0,0:0:0:0:
36,192,27035,1,0,0:0:0:0:
329,192,27035,1,0,0:0:0:0:
402,192,27035,1,0,0:0:0:0:
256,192,27109,1,0,0:0:0:0:
182,192,27109,1,0,0:0:0:0:
109,192,27109,1,0,0:0:0:0:
475,192,27109,1,0,0:0:0:0:
36,192,27183,1,0,0:0:0:0:
329,192,27183,1,0,0:0:0:0:
109,192,27258,1,0,0:0:0:0:
256,192,27258,1,0,0:0:0:0:
402,192,27258,1,0,0:0:0:0:
182,192,27333,1,0,0:0:0:0:
475,192,27333,1,0,0:0:0:0:
256,192,27406,1,0,0:0:0:0:
329,192,27406,1,0,0:0:0:0:
109,192,27406,1,0,0:0:0:0:
36,192,27406,1,0,0:0:0:0:
109,192,27556,1,0,0:0:0:0:
402,192,27556,1,0,0:0:0:0:
256,192,27556,1,0,0:0:0:0:
182,192,27704,1,0,0:0:0:0:
329,192,27704,1,0,0:0:0:0:
402,192,27704,1,0,0:0:0:0:
475,192,27704,1,0,0:0:0:0:
36,192,27704,1,0,0:0:0:0:
109,192,27853,1,0,0:0:0:0:
256,192,27853,1,0,0:0:0:0:
402,192,27853,1,0,0:0:0:0:
182,192,28003,1,0,0:0:0:0:
109,192,28003,1,0,0:0:0:0:
36,192,28003,1,0,0:0:0:0:
329,192,28003,1,0,0:0:0:0:
475,192,28003,1,0,0:0:0:0:
329,192,28151,1,0,0:0:0:0:
402,192,28151,1,0,0:0:0:0:
475,192,28151,1,0,0:0:0:0:
256,192,28226,1,0,0:0:0:0:
182,192,28226,1,0,0:0:0:0:
109,192,28226,1,0,0:0:0:0:
36,192,28300,1,0,0:0:0:0:
402,192,28300,1,0,0:0:0:0:
475,192,28300,1,0,0:0:0:0:
329,192,28300,1,0,0:0:0:0:
109,192,28374,1,0,0:0:0:0:
182,192,28374,1,0,0:0:0:0:
256,192,28449,1,0,0:0:0:0:
329,192,28449,1,0,0:0:0:0:
402,192,28449,1,0,0:0:0:0:
182,192,28523,1,0,0:0:0:0:
109,192,28523,1,0,0:0:0:0:
36,192,28598,128,0,28673:0:0:0:0:
329,192,28598,128,0,28673:0:0:0:0:
402,192,28598,128,0,28673:0:0:0:0:
475,192,28598,128,0,28673:0:0:0:0:
256,192,28598,128,0,28673:0:0:0:0:
256,192,28746,128,0,28821:0:0:0:0:
36,192,28746,128,0,28821:0:0:0:0:
475,192,28746,128,0,28821:0:0:0:0:
182,192,28896,128,0,28970:0:0:0:0:
109,192,28896,128,0,28970:0:0:0:0:
36,192,28896,128,0,28970:0:0:0:0:
402,192,28896,128,0,28970:0:0:0:0:
475,192,28896,128,0,28970:0:0:0:0:
256,192,29044,128,0,29119:0:0:0:0:
475,192,29044,128,0,29119:0:0:0:0:
36,192,29044,128,0,29119:0:0:0:0:
109,192,29193,128,0,29268:0:0:0:0:
36,192,29193,128,0,29268:0:0:0:0:
256,192,29193,128,0,29268:0:0:0:0:
402,192,29193,128,0,29268:0:0:0:0:
475,192,29193,128,0,29268:0:0:0:0:
182,192,29343,128,0,29416:0:0:0:0:
329,192,29343,128,0,29416:0:0:0:0:
475,192,29343,128,0,29416:0:0:0:0:
402,192,29416,128,0,29491:0:0:0:0:
256,192,29416,128,0,29491:0:0:0:0:
109,192,29416,128,0,29491:0:0:0:0:
36,192,29491,128,0,29566:0:0:0:0:
182,192,29491,128,0,29566:0:0:0:0:
329,192,29491,128,0,29566:0:0:0:0:
475,192,29491,128,0,29566:0:0:0:0:
109,192,29566,128,0,29640:0:0:0:0:
256,192,29566,128,0,29640:0:0:0:0:
182,192,29640,128,0,29714:0:0:0:0:
329,192,29640,128,0,29714:0:0:0:0:
402,192,29640,128,0,29714:0:0:0:0:
256,192,29714,128,0,29789:0:0:0:0:
475,192,29714,128,0,29789:0:0:0:0:
109,192,29789,128,0,29863:0:0:0:0:
36,192,29789,128,0,29863:0:0:0:0:
329,192,29789,128,0,29863:0:0:0:0:
402,192,29789,128,0,29863:0:0:0:0:
182,192,29938,128,0,30012:0:0:0:0:
256,192,29938,128,0,30012:0:0:0:0:
475,192,29938,128,0,30012:0:0:0:0:
402,192,30086,128,0,30161:0:0:0:0:
475,192,30086,128,0,30161:0:0:0:0:
329,192,30086,128,0,30161:0:0:0:0:
182,192,30086,128,0,30161:0:0:0:0:
36,192,30086,128,0,30161:0:0:0:0:
256,192,30236,128,0,30310:0:0:0:0:
182,192,30236,128,0,30310:0:0:0:0:
475,192,30236,128,0,30310:0:0:0:0:
329,192,30384,128,0,30459:0:0:0:0:
402,192,30384,128,0,30459:0:0:0:0:
256,192,30384,128,0,30459:0:0:0:0:
109,192,30384,128,0,30459:0:0:0:0:
36,192,30384,128,0,30459:0:0:0:0:
182,192,30533,128,0,30608:0:0:0:0:
402,192,30533,128,0,30608:0:0:0:0:
475,192,30533,128,0,30608:0:0:0:0:
329,192,30608,128,0,30682:0:0:0:0:
109,192,30608,128,0,30682:0:0:0:0:
36,192,30608,128,0,30682:0:0:0:0:
182,192,30682,128,0,30756:0:0:0:0:
256,192,30682,128,0,30756:0:0:0:0:
475,192,30682,128,0,30756:0:0:0:0:
402,192,30682,128,0,30756:0:0:0:0:
109,192,30756,128,0,30831:0:0:0:0:
329,192,30756,128,0,30831:0:0:0:0:
256,192,30831,128,0,30906:0:0:0:0:
36,192,30831,128,0,30906:0:0:0:0:
475,192,30831,128,0,30906:0:0:0:0:
182,192,30906,128,0,30980:0:0:0:0:
402,192,30906,128,0,30980:0:0:0:0:
109,192,30980,128,0,31054:0:0:0:0:
36,192,30980,128,0,31054:0:0:0:0:
256,192,30980,128,0,31054:0:0:0:0:
329,192,30980,128,0,31054:0:0:0:0:
475,192,30980,128,0,31054:0:0:0:0:
402,192,31129,128,0,31203:0:0:0:0:
256,192,31129,128,0,31203:0:0:0:0:
109,192,31129,128,0,31203:0:0:0:0:
182,192,31278,128,0,31352:0:0:0:0:
329,192,31278,128,0,31352:0:0:0:0:
402,192,31278,128,0,31352:0:0:0:0:
475,192,31278,128,0,31352:0:0:0:0:
36,192,31278,128,0,31352:0:0:0:0:
109,192,31426,128,0,31501:0:0:0:0:
256,192,31426,128,0,31501:0:0:0:0:
402,192,31426,128,0,31501:0:0:0:0:
182,192,31576,128,0,31650:0:0:0:0:
109,192,31576,128,0,31650:0:0:0:0:
36,192,31576,128,0,31650:0:0:0:0:
329,192,31576,128,0,31650:0:0:0:0:
475,192,31576,128,0,31650:0:0:0:0:
256,192,31724,128,0,31799:0:0:0:0:
36,192,31724,128,0,31799:0:0:0:0:
475,192,31724,128,0,31799:0:0:0:0:
402,192,31799,128,0,31873:0:0:0:0:
109,192,31799,128,0,31873:0:0:0:0:
182,192,31799,128,0,31873:0:0:0:0:
329,192,31873,128,0,31948:0:0:0:0:
256,192,31873,128,0,31948:0:0:0:0:
36,192,31873,128,0,31948:0:0:0:0:
475,192,31873,128,0,31948:0:0:0:0:
402,192,31948,128,0,32022:0:0:0:0:
182,192,31948,128,0,32022:0:0:0:0:
256,192,32022,128,0,32096:0:0:0:0:
36,192,32022,128,0,32096:0:0:0:0:
475,192,32022,128,0,32096:0:0:0:0:
329,192,32096,128,0,32171:0:0:0:0:
109,192,32096,128,0,32171:0:0:0:0:
182,192,32171,128,0,32246:0:0:0:0:
256,192,32171,128,0,32246:0:0:0:0:
402,192,32171,128,0,32246:0:0:0:0:
475,192,32171,128,0,32246:0:0:0:0:
109,192,32320,128,0,32394:0:0:0:0:
36,192,32320,128,0,32394:0:0:0:0:
329,192,32320,128,0,32394:0:0:0:0:
329,192,32469,128,0,32543:0:0:0:0:
256,192,32469,128,0,32543:0:0:0:0:
182,192,32469,128,0,32543:0:0:0:0:
36,192,32469,128,0,32543:0:0:0:0:
475,192,32469,128,0,32543:0:0:0:0:
36,192,32618,128,0,32692:0:0:0:0:
109,192,32618,128,0,32692:0:0:0:0:
329,192,32618,128,0,32692:0:0:0:0:
109,192,32766,128,0,32841:0:0:0:0:
182,192,32766,128,0,32841:0:0:0:0:
256,192,32766,128,0,32841:0:0:0:0:
402,192,32766,128,0,32841:0:0:0:0:
475,192,32766,128,0,32841:0:0:0:0:
329,192,32916,128,0,32990:0:0:0:0:
475,192,32916,128,0,32990:0:0:0:0:
182,192,32916,128,0,32990:0:0:0:0:
256,192,32990,128,0,33064:0:0:0:0:
402,192,32990,128,0,33064:0:0:0:0:
109,192,32990,128,0,33064:0:0:0:0:
329,192,33064,1,0,0:0:0:0:
182,192,33064,1,0,0:0:0:0:
36,192,33064,1,0,0:0:0:0:
475,192,33064,1,0,0:0:0:0:
109,192,33362,128,0,33436:0:0:0:0:
36,192,33362,128,0,33436:0:0:0:0:
256,192,33362,128,0,33436:0:0:0:0:
402,192,33362,128,0,33436:0:0:0:0:
475,192,33362,128,0,33436:0:0:0:0:
109,192,33511,128,0,33586:0:0:0:0:
256,192,33511,128,0,33586:0:0:0:0:
402,192,33511,128,0,33586:0:0:0:0:
182,192,33660,128,0,33734:0:0:0:0:
256,192,33660,128,0,33734:0:0:0:0:
329,192,33660,128,0,33734:0:0:0:0:
475,192,33660,128,0,33734:0:0:0:0:
36,192,33660,128,0,33734:0:0:0:0:
109,192,33809,128,0,33883:0:0:0:0:
256,192,33809,128,0,33883:0:0:0:0:
402,192,33809,128,0,33883:0:0:0:0:
36,192,33958,128,0,34032:0:0:0:0:
182,192,33958,128,0,34032:0:0:0:0:
329,192,33958,128,0,34032:0:0:0:0:
402,192,33958,128,0,34032:0:0:0:0:
475,192,33958,128,0,34032:0:0:0:0:
36,192,34106,128,0,34181:0:0:0:0:
109,192,34106,128,0,34181:0:0:0:0:
256,192,34106,128,0,34181:0:0:0:0:
182,192,34181,128,0,34256:0:0:0:0:
329,192,34181,128,0,34256:0:0:0:0:
402,192,34181,128,0,34256:0:0:0:0:
475,192,34256,128,0,34330:0:0:0:0:
256,192,34256,128,0,34330:0:0:0:0:
109,192,34256,128,0,34330:0:0:0:0:
36,192,34256,128,0,34330:0:0:0:0:
182,192,34330,128,0,34404:0:0:0:0:
329,192,34330,128,0,34404:0:0:0:0:
402,192,34404,128,0,34479:0:0:0:0:
36,192,34404,128,0,34479:0:0:0:0:
256,192,34404,128,0,34479:0:0:0:0:
109,192,34479,128,0,34553:0:0:0:0:
329,192,34479,128,0,34553:0:0:0:0:
182,192,34553,128,0,34627:0:0:0:0:
256,192,34553,128,0,34627:0:0:0:0:
402,192,34553,128,0,34627:0:0:0:0:
475,192,34553,128,0,34627:0:0:0:0:
109,192,34702,128,0,34776:0:0:0:0:
36,192,34702,128,0,34776:0:0:0:0:
329,192,34702,128,0,34776:0:0:0:0:
182,192,34851,128,0,34926:0:0:0:0:
256,192,34851,128,0,34926:0:0:0:0:
475,192,34851,128,0,34926:0:0:0:0:
402,192,34851,128,0,34926:0:0:0:0:
36,192,34851,128,0,34926:0:0:0:0:
109,192,35000,128,0,35074:0:0:0:0:
36,192,35000,128,0,35074:0:0:0:0:
329,192,35000,128,0,35074:0:0:0:0:
109,192,35149,128,0,35223:0:0:0:0:
182,192,35149,128,0,35223:0:0:0:0:
256,192,35149,128,0,35223:0:0:0:0:
402,192,35149,128,0,35223:0:0:0:0:
475,192,35149,128,0,35223:0:0:0:0:
36,192,35297,128,0,35372:0:0:0:0:
182,192,35297,128,0,35372:0:0:0:0:
329,192,35297,128,0,35372:0:0:0:0:
256,192,35372,128,0,35446:0:0:0:0:
402,192,35372,128,0,35446:0:0:0:0:
109,192,35372,128,0,35446:0:0:0:0:
475,192,35446,128,0,35521:0:0:0:0:
329,192,35446,128,0,35521:0:0:0:0:
182,192,35446,128,0,35521:0:0:0:0:
36,192,35446,128,0,35521:0:0:0:0:
109,192,35521,128,0,35596:0:0:0:0:
402,192,35521,128,0,35596:0:0:0:0:
256,192,35596,128,0,35670:0:0:0:0:
475,192,35596,128,0,35670:0:0:0:0:
36,192,35596,128,0,35670:0:0:0:0:
182,192,35670,128,0,35744:0:0:0:0:
329,192,35670,128,0,35744:0:0:0:0:
402,192,35744,1,0,0:0:0:0:
475,192,35744,1,0,0:0:0:0:
109,192,35744,1,0,0:0:0:0:
36,192,35744,1,0,0:0:0:0:
182,192,35893,1,0,0:0:0:0:
329,192,35893,1,0,0:0:0:0:
256,192,36042,1,0,0:0:0:0:
475,192,36042,1,0,0:0:0:0:
36,192,36042,1,0,0:0:0:0:
182,192,36191,1,0,0:0:0:0:
329,192,36191,1,0,0:0:0:0:
36,192,36340,1,0,0:0:0:0:
475,192,36340,1,0,0:0:0:0:
182,192,36489,1,0,0:0:0:0:
256,192,36563,1,0,0:0:0:0:
329,192,36637,1,0,0:0:0:0:
109,192,36637,1,0,0:0:0:0:
36,192,36637,1,0,0:0:0:0:
182,192,36712,1,0,0:0:0:0:
256,192,36786,1,0,0:0:0:0:
329,192,36861,1,0,0:0:0:0:
402,192,36935,1,0,0:0:0:0:
475,192,36935,1,0,0:0:0:0:
36,192,36935,128,0,37010:0:0:0:0:
182,192,37084,128,0,37159:0:0:0:0:
402,192,37233,1,0,0:0:0:0:
475,192,37233,1,0,0:0:0:0:
109,192,37233,128,0,37307:0:0:0:0:
256,192,37382,128,0,37456:0:0:0:0:
402,192,37531,1,0,0:0:0:0:
475,192,37531,1,0,0:0:0:0:
182,192,37531,128,0,37605:0:0:0:0:
36,192,37680,128,0,37754:0:0:0:0:
109,192,37754,128,0,37829:0:0:0:0:
402,192,37829,1,0,0:0:0:0:
475,192,37829,1,0,0:0:0:0:
182,192,37829,128,0,37903:0:0:0:0:
256,192,37903,128,0,37977:0:0:0:0:
329,192,37977,128,0,38052:0:0:0:0:
402,192,38052,128,0,38126:0:0:0:0:
256,192,38126,1,0,0:0:0:0:
329,192,38126,1,0,0:0:0:0:
475,192,38126,1,0,0:0:0:0:
109,192,38126,1,0,0:0:0:0:
36,192,38126,1,0,0:0:0:0:
182,192,38201,1,0,0:0:0:0:
329,192,38275,1,0,0:0:0:0:
109,192,38275,1,0,0:0:0:0:
475,192,38275,1,0,0:0:0:0:
256,192,38350,1,0,0:0:0:0:
182,192,38424,1,0,0:0:0:0:
36,192,38424,1,0,0:0:0:0:
402,192,38424,1,0,0:0:0:0:
475,192,38424,1,0,0:0:0:0:
256,192,38499,1,0,0:0:0:0:
109,192,38499,1,0,0:0:0:0:
182,192,38573,1,0,0:0:0:0:
329,192,38573,1,0,0:0:0:0:
475,192,38573,1,0,0:0:0:0:
256,192,38647,1,0,0:0:0:0:
402,192,38647,1,0,0:0:0:0:
329,192,38722,1,0,0:0:0:0:
475,192,38722,1,0,0:0:0:0:
109,192,38722,1,0,0:0:0:0:
36,192,38722,1,0,0:0:0:0:
256,192,38796,1,0,0:0:0:0:
402,192,38796,1,0,0:0:0:0:
329,192,38871,1,0,0:0:0:0:
182,192,38871,1,0,0:0:0:0:
36,192,38871,1,0,0:0:0:0:
256,192,38945,1,0,0:0:0:0:
109,192,38945,1,0,0:0:0:0:
36,192,39020,1,0,0:0:0:0:
182,192,39020,1,0,0:0:0:0:
402,192,39020,1,0,0:0:0:0:
475,192,39020,1,0,0:0:0:0:
329,192,39094,1,0,0:0:0:0:
109,192,39094,1,0,0:0:0:0:
256,192,39094,1,0,0:0:0:0:
182,192,39169,1,0,0:0:0:0:
402,192,39169,1,0,0:0:0:0:
475,192,39169,1,0,0:0:0:0:
329,192,39243,1,0,0:0:0:0:
109,192,39243,1,0,0:0:0:0:
256,192,39243,1,0,0:0:0:0:
182,192,39317,1,0,0:0:0:0:
36,192,39317,1,0,0:0:0:0:
402,192,39317,1,0,0:0:0:0:
475,192,39317,1,0,0:0:0:0:
109,192,39392,1,0,0:0:0:0:
329,192,39392,1,0,0:0:0:0:
256,192,39466,1,0,0:0:0:0:
36,192,39466,1,0,0:0:0:0:
475,192,39466,1,0,0:0:0:0:
182,192,39541,1,0,0:0:0:0:
402,192,39541,1,0,0:0:0:0:
329,192,39615,1,0,0:0:0:0:
109,192,39615,1,0,0:0:0:0:
36,192,39615,1,0,0:0:0:0:
475,192,39615,1,0,0:0:0:0:
182,192,39690,1,0,0:0:0:0:
402,192,39690,1,0,0:0:0:0:
256,192,39764,1,0,0:0:0:0:
475,192,39764,1,0,0:0:0:0:
36,192,39764,1,0,0:0:0:0:
109,192,39839,1,0,0:0:0:0:
329,192,39839,1,0,0:0:0:0:
182,192,39913,1,0,0:0:0:0:
402,192,39913,1,0,0:0:0:0:
475,192,39913,1,0,0:0:0:0:
36,192,39913,1,0,0:0:0:0:
109,192,39987,1,0,0:0:0:0:
256,192,39987,1,0,0:0:0:0:
182,192,40062,1,0,0:0:0:0:
329,192,40062,1,0,0:0:0:0:
36,192,40062,1,0,0:0:0:0:
256,192,40136,1,0,0:0:0:0:
402,192,40136,1,0,0:0:0:0:
329,192,40211,1,0,0:0:0:0:
475,192,40211,1,0,0:0:0:0:
109,192,40211,1,0,0:0:0:0:
36,192,40211,1,0,0:0:0:0:
402,192,40285,1,0,0:0:0:0:
256,192,40285,1,0,0:0:0:0:
182,192,40285,1,0,0:0:0:0:
109,192,40360,1,0,0:0:0:0:
36,192,40360,1,0,0:0:0:0:
329,192,40360,1,0,0:0:0:0:
182,192,40434,1,0,0:0:0:0:
256,192,40434,1,0,0:0:0:0:
402,192,40434,1,0,0:0:0:0:
329,192,40509,1,0,0:0:0:0:
475,192,40509,1,0,0:0:0:0:
109,192,40509,1,0,0:0:0:0:
36,192,40509,1,0,0:0:0:0:
256,192,40583,1,0,0:0:0:0:
182,192,40657,1,0,0:0:0:0:
36,192,40657,1,0,0:0:0:0:
402,192,40657,1,0,0:0:0:0:
329,192,40732,1,0,0:0:0:0:
256,192,40806,1,0,0:0:0:0:
475,192,40806,1,0,0:0:0:0:
109,192,40806,1,0,0:0:0:0:
36,192,40806,1,0,0:0:0:0:
182,192,40881,1,0,0:0:0:0:
329,192,40881,1,0,0:0:0:0:
256,192,40955,1,0,0:0:0:0:
402,192,40955,1,0,0:0:0:0:
36,192,40955,1,0,0:0:0:0:
329,192,41030,1,0,0:0:0:0:
475,192,41030,1,0,0:0:0:0:
36,192,41104,1,0,0:0:0:0:
109,192,41104,1,0,0:0:0:0:
256,192,41104,1,0,0:0:0:0:
402,192,41104,1,0,0:0:0:0:
182,192,41179,1,0,0:0:0:0:
329,192,41179,1,0,0:0:0:0:
256,192,41253,1,0,0:0:0:0:
109,192,41253,1,0,0:0:0:0:
475,192,41253,1,0,0:0:0:0:
182,192,41327,1,0,0:0:0:0:
36,192,41327,1,0,0:0:0:0:
109,192,41402,1,0,0:0:0:0:
329,192,41402,1,0,0:0:0:0:
402,192,41402,1,0,0:0:0:0:
475,192,41402,1,0,0:0:0:0:
256,192,41476,1,0,0:0:0:0:
36,192,41476,1,0,0:0:0:0:
182,192,41476,1,0,0:0:0:0:
109,192,41550,1,0,0:0:0:0:
329,192,41550,1,0,0:0:0:0:
402,192,41550,1,0,0:0:0:0:
256,192,41625,1,0,0:0:0:0:
182,192,41625,1,0,0:0:0:0:
36,192,41625,1,0,0:0:0:0:
109,192,41700,1,0,0:0:0:0:
329,192,41700,1,0,0:0:0:0:
402,192,41700,1,0,0:0:0:0:
475,192,41700,1,0,0:0:0:0:
256,192,41774,1,0,0:0:0:0:
182,192,41849,1,0,0:0:0:0:
36,192,41849,1,0,0:0:0:0:
402,192,41849,1,0,0:0:0:0:
329,192,41923,1,0,0:0:0:0:
256,192,41997,1,0,0:0:0:0:
475,192,41997,1,0,0:0:0:0:
109,192,41997,1,0,0:0:0:0:
36,192,41997,1,0,0:0:0:0:
182,192,42072,1,0,0:0:0:0:
329,192,42072,1,0,0:0:0:0:
256,192,42146,1,0,0:0:0:0:
402,192,42146,1,0,0:0:0:0:
109,192,42146,1,0,0:0:0:0:
329,192,42220,1,0,0:0:0:0:
475,192,42220,1,0,0:0:0:0:
402,192,42295,1,0,0:0:0:0:
182,192,42295,1,0,0:0:0:0:
109,192,42295,1,0,0:0:0:0:
36,192,42295,1,0,0:0:0:0:
256,192,42370,1,0,0:0:0:0:
475,192,42370,1,0,0:0:0:0:
329,192,42444,1,0,0:0:0:0:
36,192,42444,1,0,0:0:0:0:
182,192,42444,1,0,0:0:0:0:
109,192,42519,1,0,0:0:0:0:
402,192,42519,1,0,0:0:0:0:
256,192,42593,1,0,0:0:0:0:
475,192,42593,1,0,0:0:0:0:
182,192,42593,1,0,0:0:0:0:
36,192,42593,1,0,0:0:0:0:
329,192,42667,1,0,0:0:0:0:
402,192,42667,1,0,0:0:0:0:
109,192,42667,1,0,0:0:0:0:
256,192,42742,1,0,0:0:0:0:
36,192,42742,1,0,0:0:0:0:
475,192,42742,1,0,0:0:0:0:
182,192,42816,1,0,0:0:0:0:
402,192,42816,1,0,0:0:0:0:
109,192,42890,1,0,0:0:0:0:
36,192,42890,1,0,0:0:0:0:
256,192,42890,1,0,0:0:0:0:
329,192,42890,1,0,0:0:0:0:
475,192,42890,1,0,0:0:0:0:
182,192,42965,1,0,0:0:0:0:
256,192,43040,1,0,0:0:0:0:
36,192,43040,1,0,0:0:0:0:
475,192,43040,1,0,0:0:0:0:
329,192,43114,1,0,0:0:0:0:
402,192,43189,1,0,0:0:0:0:
475,192,43189,1,0,0:0:0:0:
182,192,43189,1,0,0:0:0:0:
109,192,43189,1,0,0:0:0:0:
256,192,43263,1,0,0:0:0:0:
36,192,43263,1,0,0:0:0:0:
182,192,43337,1,0,0:0:0:0:
329,192,43337,1,0,0:0:0:0:
475,192,43337,1,0,0:0:0:0:
109,192,43412,1,0,0:0:0:0:
402,192,43412,1,0,0:0:0:0:
36,192,43486,1,0,0:0:0:0:
256,192,43486,1,0,0:0:0:0:
329,192,43486,1,0,0:0:0:0:
475,192,43486,1,0,0:0:0:0:
182,192,43560,1,0,0:0:0:0:
402,192,43560,1,0,0:0:0:0:
329,192,43635,1,0,0:0:0:0:
109,192,43635,1,0,0:0:0:0:
36,192,43635,1,0,0:0:0:0:
182,192,43710,1,0,0:0:0:0:
402,192,43710,1,0,0:0:0:0:
475,192,43784,1,0,0:0:0:0:
256,192,43784,1,0,0:0:0:0:
109,192,43784,1,0,0:0:0:0:
36,192,43784,1,0,0:0:0:0:
182,192,43858,1,0,0:0:0:0:
329,192,43858,1,0,0:0:0:0:
402,192,43933,1,0,0:0:0:0:
256,192,43933,1,0,0:0:0:0:
36,192,43933,1,0,0:0:0:0:
329,192,44007,1,0,0:0:0:0:
475,192,44007,1,0,0:0:0:0:
36,192,44082,1,0,0:0:0:0:
109,192,44082,1,0,0:0:0:0:
256,192,44082,1,0,0:0:0:0:
402,192,44082,1,0,0:0:0:0:
182,192,44156,1,0,0:0:0:0:
109,192,44230,1,0,0:0:0:0:
329,192,44230,1,0,0:0:0:0:
475,192,44230,1,0,0:0:0:0:
256,192,44305,1,0,0:0:0:0:
36,192,44305,1,0,0:0:0:0:
182,192,44380,1,0,0:0:0:0:
402,192,44380,1,0,0:0:0:0:
475,192,44380,1,0,0:0:0:0:
329,192,44380,1,0,0:0:0:0:
109,192,44454,1,0,0:0:0:0:
36,192,44528,1,0,0:0:0:0:
256,192,44528,1,0,0:0:0:0:
475,192,44528,1,0,0:0:0:0:
182,192,44603,1,0,0:0:0:0:
402,192,44603,1,0,0:0:0:0:
329,192,44677,1,0,0:0:0:0:
109,192,44677,1,0,0:0:0:0:
36,192,44677,1,0,0:0:0:0:
475,192,44677,1,0,0:0:0:0:
256,192,44752,1,0,0:0:0:0:
402,192,44752,1,0,0:0:0:0:
329,192,44826,1,0,0:0:0:0:
182,192,44826,1,0,0:0:0:0:
36,192,44826,1,0,0:0:0:0:
109,192,44900,1,0,0:0:0:0:
256,192,44900,1,0,0:0:0:0:
182,192,44975,1,0,0:0:0:0:
402,192,44975,1,0,0:0:0:0:
475,192,44975,1,0,0:0:0:0:
36,192,44975,1,0,0:0:0:0:
109,192,45050,1,0,0:0:0:0:
256,192,45050,1,0,0:0:0:0:
329,192,45050,1,0,0:0:0:0:
182,192,45124,1,0,0:0:0:0:
36,192,45124,1,0,0:0:0:0:
402,192,45124,1,0,0:0:0:0:
109,192,45198,1,0,0:0:0:0:
256,192,45198,1,0,0:0:0:0:
329,192,45198,1,0,0:0:0:0:
475,192,45273,1,0,0:0:0:0:
182,192,45273,1,0,0:0:0:0:
36,192,45273,1,0,0:0:0:0:
402,192,45273,1,0,0:0:0:0:
256,192,45347,1,0,0:0:0:0:
329,192,45422,1,0,0:0:0:0:
109,192,45422,1,0,0:0:0:0:
36,192,45422,1,0,0:0:0:0:
182,192,45496,1,0,0:0:0:0:
256,192,45570,1,0,0:0:0:0:
402,192,45570,1,0,0:0:0:0:
475,192,45570,1,0,0:0:0:0:
36,192,45570,1,0,0:0:0:0:
109,192,45645,1,0,0:0:0:0:
182,192,45645,1,0,0:0:0:0:
36,192,45720,1,0,0:0:0:0:
329,192,45720,1,0,0:0:0:0:
475,192,45720,1,0,0:0:0:0:
256,192,45794,1,0,0:0:0:0:
182,192,45794,1,0,0:0:0:0:
109,192,45868,1,0,0:0:0:0:
36,192,45868,1,0,0:0:0:0:
402,192,45868,1,0,0:0:0:0:
475,192,45868,1,0,0:0:0:0:
329,192,45943,1,0,0:0:0:0:
256,192,45943,1,0,0:0:0:0:
182,192,46017,1,0,0:0:0:0:
36,192,46017,1,0,0:0:0:0:
475,192,46017,1,0,0:0:0:0:
329,192,46092,1,0,0:0:0:0:
402,192,46092,1,0,0:0:0:0:
256,192,46166,1,0,0:0:0:0:
109,192,46166,1,0,0:0:0:0:
36,192,46166,1,0,0:0:0:0:
475,192,46166,1,0,0:0:0:0:
182,192,46240,1,0,0:0:0:0:
329,192,46240,1,0,0:0:0:0:
402,192,46240,1,0,0:0:0:0:
256,192,46315,1,0,0:0:0:0:
109,192,46315,1,0,0:0:0:0:
36,192,46315,1,0,0:0:0:0:
182,192,46390,1,0,0:0:0:0:
329,192,46390,1,0,0:0:0:0:
402,192,46464,1,0,0:0:0:0:
475,192,46464,1,0,0:0:0:0:
256,192,46464,1,0,0:0:0:0:
109,192,46464,1,0,0:0:0:0:
36,192,46464,1,0,0:0:0:0:
182,192,46538,1,0,0:0:0:0:
256,192,46613,1,0,0:0:0:0:
475,192,46613,1,0,0:0:0:0:
36,192,46613,1,0,0:0:0:0:
329,192,46687,1,0,0:0:0:0:
109,192,46687,1,0,0:0:0:0:
182,192,46762,1,0,0:0:0:0:
402,192,46762,1,0,0:0:0:0:
475,192,46762,1,0,0:0:0:0:
256,192,46762,1,0,0:0:0:0:
109,192,46836,1,0,0:0:0:0:
36,192,46836,1,0,0:0:0:0:
329,192,46836,1,0,0:0:0:0:
182,192,46910,1,0,0:0:0:0:
402,192,46910,1,0,0:0:0:0:
475,192,46910,1,0,0:0:0:0:
329,192,46985,1,0,0:0:0:0:
109,192,46985,1,0,0:0:0:0:
36,192,46985,1,0,0:0:0:0:
182,192,47060,1,0,0:0:0:0:
402,192,47060,1,0,0:0:0:0:
475,192,47060,1,0,0:0:0:0:
256,192,47134,1,0,0:0:0:0:
329,192,47134,1,0,0:0:0:0:
36,192,47134,1,0,0:0:0:0:
109,192,47208,1,0,0:0:0:0:
402,192,47208,1,0,0:0:0:0:
475,192,47208,1,0,0:0:0:0:
182,192,47283,1,0,0:0:0:0:
256,192,47283,1,0,0:0:0:0:
329,192,47283,1,0,0:0:0:0:
109,192,47357,1,0,0:0:0:0:
36,192,47357,1,0,0:0:0:0:
402,192,47357,1,0,0:0:0:0:
182,192,47432,1,0,0:0:0:0:
256,192,47432,1,0,0:0:0:0:
475,192,47432,1,0,0:0:0:0:
329,192,47506,1,0,0:0:0:0:
402,192,47506,1,0,0:0:0:0:
36,192,47506,1,0,0:0:0:0:
109,192,47580,1,0,0:0:0:0:
182,192,47580,1,0,0:0:0:0:
475,192,47580,1,0,0:0:0:0:
256,192,47655,128,0,47878:0:0:0:0:
329,192,47655,1,0,0:0:0:0:
402,192,47655,1,0,0:0:0:0:
36,192,47655,1,0,0:0:0:0:
256,192,47953,1,0,0:0:0:0:
402,192,47953,1,0,0:0:0:0:
475,192,47953,1,0,0:0:0:0:
109,192,47953,1,0,0:0:0:0:
36,192,47953,1,0,0:0:0:0:
182,192,48027,1,0,0:0:0:0:
329,192,48027,1,0,0:0:0:0:
256,192,48102,1,0,0:0:0:0:
402,192,48102,1,0,0:0:0:0:
109,192,48102,1,0,0:0:0:0:
182,192,48176,1,0,0:0:0:0:
329,192,48176,1,0,0:0:0:0:
256,192,48250,1,0,0:0:0:0:
402,192,48250,1,0,0:0:0:0:
475,192,48250,1,0,0:0:0:0:
36,192,48250,1,0,0:0:0:0:
109,192,48325,1,0,0:0:0:0:
329,192,48325,1,0,0:0:0:0:
182,192,48400,1,0,0:0:0:0:
475,192,48400,1,0,0:0:0:0:
36,192,48400,1,0,0:0:0:0:
109,192,48473,1,0,0:0:0:0:
329,192,48473,1,0,0:0:0:0:
36,192,48548,1,0,0:0:0:0:
256,192,48548,1,0,0:0:0:0:
402,192,48548,1,0,0:0:0:0:
475,192,48548,1,0,0:0:0:0:
182,192,48623,1,0,0:0:0:0:
329,192,48623,1,0,0:0:0:0:
109,192,48623,1,0,0:0:0:0:
36,192,48697,1,0,0:0:0:0:
256,192,48697,1,0,0:0:0:0:
475,192,48697,1,0,0:0:0:0:
182,192,48772,1,0,0:0:0:0:
329,192,48772,1,0,0:0:0:0:
402,192,48772,1,0,0:0:0:0:
256,192,48846,1,0,0:0:0:0:
475,192,48846,1,0,0:0:0:0:
109,192,48846,1,0,0:0:0:0:
36,192,48846,1,0,0:0:0:0:
329,192,48920,1,0,0:0:0:0:
402,192,48920,1,0,0:0:0:0:
256,192,48995,1,0,0:0:0:0:
182,192,48995,1,0,0:0:0:0:
109,192,48995,1,0,0:0:0:0:
329,192,49070,1,0,0:0:0:0:
402,192,49070,1,0,0:0:0:0:
475,192,49143,1,0,0:0:0:0:
182,192,49143,1,0,0:0:0:0:
109,192,49143,1,0,0:0:0:0:
36,192,49143,1,0,0:0:0:0:
256,192,49218,1,0,0:0:0:0:
402,192,49218,1,0,0:0:0:0:
329,192,49293,1,0,0:0:0:0:
109,192,49293,1,0,0:0:0:0:
36,192,49293,1,0,0:0:0:0:
182,192,49367,1,0,0:0:0:0:
402,192,49367,1,0,0:0:0:0:
256,192,49442,1,0,0:0:0:0:
475,192,49442,1,0,0:0:0:0:
36,192,49442,1,0,0:0:0:0:
329,192,49442,1,0,0:0:0:0:
182,192,49516,1,0,0:0:0:0:
402,192,49516,1,0,0:0:0:0:
329,192,49590,1,0,0:0:0:0:
109,192,49590,1,0,0:0:0:0:
36,192,49590,1,0,0:0:0:0:
256,192,49665,1,0,0:0:0:0:
475,192,49665,1,0,0:0:0:0:
402,192,49740,1,0,0:0:0:0:
182,192,49740,1,0,0:0:0:0:
109,192,49740,1,0,0:0:0:0:
36,192,49740,1,0,0:0:0:0:
256,192,49813,1,0,0:0:0:0:
329,192,49813,1,0,0:0:0:0:
475,192,49813,1,0,0:0:0:0:
402,192,49888,1,0,0:0:0:0:
182,192,49888,1,0,0:0:0:0:
109,192,49888,1,0,0:0:0:0:
256,192,49963,1,0,0:0:0:0:
329,192,49963,1,0,0:0:0:0:
475,192,49963,1,0,0:0:0:0:
109,192,50037,1,0,0:0:0:0:
36,192,50037,1,0,0:0:0:0:
402,192,50037,1,0,0:0:0:0:
182,192,50037,1,0,0:0:0:0:
256,192,50112,1,0,0:0:0:0:
329,192,50186,1,0,0:0:0:0:
36,192,50186,1,0,0:0:0:0:
475,192,50186,1,0,0:0:0:0:
256,192,50260,1,0,0:0:0:0:
182,192,50335,1,0,0:0:0:0:
109,192,50335,1,0,0:0:0:0:
402,192,50335,1,0,0:0:0:0:
475,192,50335,1,0,0:0:0:0:
329,192,50410,1,0,0:0:0:0:
256,192,50410,1,0,0:0:0:0:
402,192,50483,1,0,0:0:0:0:
109,192,50483,1,0,0:0:0:0:
36,192,50483,1,0,0:0:0:0:
182,192,50558,1,0,0:0:0:0:
256,192,50558,1,0,0:0:0:0:
329,192,50633,1,0,0:0:0:0:
475,192,50633,1,0,0:0:0:0:
109,192,50633,1,0,0:0:0:0:
36,192,50633,1,0,0:0:0:0:
182,192,50707,1,0,0:0:0:0:
256,192,50707,1,0,0:0:0:0:
109,192,50781,1,0,0:0:0:0:
402,192,50781,1,0,0:0:0:0:
475,192,50781,1,0,0:0:0:0:
329,192,50856,1,0,0:0:0:0:
256,192,50856,1,0,0:0:0:0:
182,192,50930,1,0,0:0:0:0:
36,192,50930,1,0,0:0:0:0:
109,192,50930,1,0,0:0:0:0:
475,192,50930,1,0,0:0:0:0:
256,192,51005,1,0,0:0:0:0:
329,192,51005,1,0,0:0:0:0:
402,192,51005,1,0,0:0:0:0:
182,192,51080,1,0,0:0:0:0:
109,192,51080,1,0,0:0:0:0:
36,192,51080,1,0,0:0:0:0:
256,192,51153,1,0,0:0:0:0:
329,192,51153,1,0,0:0:0:0:
402,192,51153,1,0,0:0:0:0:
475,192,51228,1,0,0:0:0:0:
182,192,51228,1,0,0:0:0:0:
109,192,51228,1,0,0:0:0:0:
36,192,51228,1,0,0:0:0:0:
256,192,51303,1,0,0:0:0:0:
329,192,51377,1,0,0:0:0:0:
475,192,51377,1,0,0:0:0:0:
109,192,51377,1,0,0:0:0:0:
182,192,51451,1,0,0:0:0:0:
256,192,51526,1,0,0:0:0:0:
402,192,51526,1,0,0:0:0:0:
475,192,51526,1,0,0:0:0:0:
36,192,51526,1,0,0:0:0:0:
182,192,51600,1,0,0:0:0:0:
329,192,51600,1,0,0:0:0:0:
109,192,51675,1,0,0:0:0:0:
256,192,51675,1,0,0:0:0:0:
402,192,51675,1,0,0:0:0:0:
182,192,51750,1,0,0:0:0:0:
329,192,51750,1,0,0:0:0:0:
256,192,51823,1,0,0:0:0:0:
402,192,51823,1,0,0:0:0:0:
475,192,51823,1,0,0:0:0:0:
109,192,51823,1,0,0:0:0:0:
36,192,51898,1,0,0:0:0:0:
182,192,51898,1,0,0:0:0:0:
109,192,51973,1,0,0:0:0:0:
329,192,51973,1,0,0:0:0:0:
475,192,51973,1,0,0:0:0:0:
256,192,52047,1,0,0:0:0:0:
402,192,52047,1,0,0:0:0:0:
329,192,52121,1,0,0:0:0:0:
182,192,52121,1,0,0:0:0:0:
109,192,52121,1,0,0:0:0:0:
36,192,52121,1,0,0:0:0:0:
256,192,52196,1,0,0:0:0:0:
402,192,52196,1,0,0:0:0:0:
475,192,52196,1,0,0:0:0:0:
329,192,52270,1,0,0:0:0:0:
109,192,52270,1,0,0:0:0:0:
36,192,52270,1,0,0:0:0:0:
182,192,52345,1,0,0:0:0:0:
402,192,52345,1,0,0:0:0:0:
256,192,52420,1,0,0:0:0:0:
329,192,52420,1,0,0:0:0:0:
475,192,52420,1,0,0:0:0:0:
36,192,52420,1,0,0:0:0:0:
109,192,52420,1,0,0:0:0:0:
182,192,52493,1,0,0:0:0:0:
256,192,52568,1,0,0:0:0:0:
475,192,52568,1,0,0:0:0:0:
402,192,52568,1,0,0:0:0:0:
36,192,52568,1,0,0:0:0:0:
109,192,52643,1,0,0:0:0:0:
182,192,52717,1,0,0:0:0:0:
36,192,52717,1,0,0:0:0:0:
329,192,52717,1,0,0:0:0:0:
475,192,52717,1,0,0:0:0:0:
256,192,52791,1,0,0:0:0:0:
402,192,52791,1,0,0:0:0:0:
109,192,52791,1,0,0:0:0:0:
329,192,52866,1,0,0:0:0:0:
36,192,52866,1,0,0:0:0:0:
182,192,52866,1,0,0:0:0:0:
109,192,52940,1,0,0:0:0:0:
256,192,52940,1,0,0:0:0:0:
402,192,52940,1,0,0:0:0:0:
182,192,53015,1,0,0:0:0:0:
329,192,53015,1,0,0:0:0:0:
475,192,53015,1,0,0:0:0:0:
36,192,53015,1,0,0:0:0:0:
109,192,53089,1,0,0:0:0:0:
256,192,53089,1,0,0:0:0:0:
182,192,53163,1,0,0:0:0:0:
329,192,53163,1,0,0:0:0:0:
475,192,53163,1,0,0:0:0:0:
256,192,53238,1,0,0:0:0:0:
402,192,53238,1,0,0:0:0:0:
329,192,53313,1,0,0:0:0:0:
475,192,53313,1,0,0:0:0:0:
109,192,53313,1,0,0:0:0:0:
36,192,53313,1,0,0:0:0:0:
182,192,53387,1,0,0:0:0:0:
256,192,53387,1,0,0:0:0:0:
402,192,53387,1,0,0:0:0:0:
329,192,53461,1,0,0:0:0:0:
36,192,53461,1,0,0:0:0:0:
475,192,53461,1,0,0:0:0:0:
109,192,53536,1,0,0:0:0:0:
182,192,53536,1,0,0:0:0:0:
402,192,53536,1,0,0:0:0:0:
256,192,53610,1,0,0:0:0:0:
329,192,53610,1,0,0:0:0:0:
475,192,53610,1,0,0:0:0:0:
36,192,53610,1,0,0:0:0:0:
109,192,53685,1,0,0:0:0:0:
182,192,53685,1,0,0:0:0:0:
402,192,53685,1,0,0:0:0:0:
36,192,53759,1,0,0:0:0:0:
256,192,53759,1,0,0:0:0:0:
329,192,53759,1,0,0:0:0:0:
402,192,53833,1,0,0:0:0:0:
475,192,53833,1,0,0:0:0:0:
182,192,53833,1,0,0:0:0:0:
109,192,53908,1,0,0:0:0:0:
36,192,53908,1,0,0:0:0:0:
256,192,53908,1,0,0:0:0:0:
329,192,53908,1,0,0:0:0:0:
182,192,53983,1,0,0:0:0:0:
402,192,53983,1,0,0:0:0:0:
256,192,54057,1,0,0:0:0:0:
475,192,54057,1,0,0:0:0:0:
36,192,54057,1,0,0:0:0:0:
109,192,54131,1,0,0:0:0:0:
329,192,54131,1,0,0:0:0:0:
182,192,54206,1,0,0:0:0:0:
402,192,54206,1,0,0:0:0:0:
475,192,54206,1,0,0:0:0:0:
256,192,54206,1,0,0:0:0:0:
36,192,54280,1,0,0:0:0:0:
329,192,54280,1,0,0:0:0:0:
109,192,54280,1,0,0:0:0:0:
256,192,54355,1,0,0:0:0:0:
475,192,54355,1,0,0:0:0:0:
402,192,54355,1,0,0:0:0:0:
182,192,54429,1,0,0:0:0:0:
109,192,54429,1,0,0:0:0:0:
329,192,54429,1,0,0:0:0:0:
256,192,54503,1,0,0:0:0:0:
475,192,54503,1,0,0:0:0:0:
402,192,54503,1,0,0:0:0:0:
36,192,54503,1,0,0:0:0:0:
182,192,54578,1,0,0:0:0:0:
329,192,54578,1,0,0:0:0:0:
109,192,54653,1,0,0:0:0:0:
402,192,54653,1,0,0:0:0:0:
256,192,54653,1,0,0:0:0:0:
182,192,54727,1,0,0:0:0:0:
329,192,54727,1,0,0:0:0:0:
256,192,54801,1,0,0:0:0:0:
402,192,54801,1,0,0:0:0:0:
475,192,54801,1,0,0:0:0:0:
36,192,54801,1,0,0:0:0:0:
182,192,54876,1,0,0:0:0:0:
109,192,54950,1,0,0:0:0:0:
36,192,54950,1,0,0:0:0:0:
402,192,54950,1,0,0:0:0:0:
475,192,54950,1,0,0:0:0:0:
256,192,55025,1,0,0:0:0:0:
329,192,55099,1,0,0:0:0:0:
182,192,55099,1,0,0:0:0:0:
36,192,55099,1,0,0:0:0:0:
475,192,55099,1,0,0:0:0:0:
256,192,55173,1,0,0:0:0:0:
109,192,55173,1,0,0:0:0:0:
402,192,55173,1,0,0:0:0:0:
182,192,55248,1,0,0:0:0:0:
329,192,55248,1,0,0:0:0:0:
475,192,55248,1,0,0:0:0:0:
109,192,55323,1,0,0:0:0:0:
256,192,55323,1,0,0:0:0:0:
402,192,55323,1,0,0:0:0:0:
329,192,55396,1,0,0:0:0:0:
36,192,55396,1,0,0:0:0:0:
182,192,55396,1,0,0:0:0:0:
475,192,55396,1,0,0:0:0:0:
109,192,55471,1,0,0:0:0:0:
402,192,55471,1,0,0:0:0:0:
256,192,55471,1,0,0:0:0:0:
182,192,55546,1,0,0:0:0:0:
36,192,55546,1,0,0:0:0:0:
329,192,55546,1,0,0:0:0:0:
256,192,55620,1,0,0:0:0:0:
402,192,55620,1,0,0:0:0:0:
109,192,55620,1,0,0:0:0:0:
182,192,55695,1,0,0:0:0:0:
475,192,55695,1,0,0:0:0:0:
329,192,55695,1,0,0:0:0:0:
36,192,55695,1,0,0:0:0:0:
256,192,55769,1,0,0:0:0:0:
109,192,55769,1,0,0:0:0:0:
402,192,55769,1,0,0:0:0:0:
182,192,55843,1,0,0:0:0:0:
475,192,55843,1,0,0:0:0:0:
329,192,55843,1,0,0:0:0:0:
402,192,55918,1,0,0:0:0:0:
109,192,55918,1,0,0:0:0:0:
256,192,55918,1,0,0:0:0:0:
182,192,55993,1,0,0:0:0:0:
36,192,55993,1,0,0:0:0:0:
329,192,55993,1,0,0:0:0:0:
475,192,55993,1,0,0:0:0:0:
182,192,56216,1,0,0:0:0:0:
109,192,56216,1,0,0:0:0:0:
329,192,56216,1,0,0:0:0:0:
402,192,56216,1,0,0:0:0:0:
109,192,56439,1,0,0:0:0:0:
182,192,56439,1,0,0:0:0:0:
329,192,56439,1,0,0:0:0:0:
402,192,56439,1,0,0:0:0:0:
182,192,56588,1,0,0:0:0:0:
109,192,56588,1,0,0:0:0:0:
329,192,56588,1,0,0:0:0:0:
402,192,56588,1,0,0:0:0:0:
182,192,56886,1,0,0:0:0:0:
36,192,56886,1,0,0:0:0:0:
109,192,56960,1,0,0:0:0:0:
256,192,56960,1,0,0:0:0:0:
182,192,57035,1,0,0:0:0:0:
329,192,57035,1,0,0:0:0:0:
256,192,57109,1,0,0:0:0:0:
402,192,57109,1,0,0:0:0:0:
329,192,57183,1,0,0:0:0:0:
475,192,57183,1,0,0:0:0:0:
182,192,57481,1,0,0:0:0:0:
109,192,57481,1,0,0:0:0:0:
36,192,57481,1,0,0:0:0:0:
329,192,57481,1,0,0:0:0:0:
402,192,57481,1,0,0:0:0:0:
475,192,57481,1,0,0:0:0:0:
