osu file format v14

[General]
AudioFilename: audio_1.1.mp3
AudioLeadIn: 0
PreviewTime: 45059
Countdown: 0
SampleSet: Normal
StackLeniency: 0.7
Mode: 3
LetterboxInBreaks: 0
SpecialStyle: 0
WidescreenStoryboard: 0

[Editor]
Bookmarks: 22537,33798,45059,66173
DistanceSpacing: 0.5
BeatDivisor: 4
GridSize: 4
TimelineZoom: 1.7

[Metadata]
Title:GREMORI
TitleUnicode:GREMORI
Artist:TAIRA
ArtistUnicode:TAIRA
Creator:Remuring
Version:BMS LV.17 x1.1
Source:Closers
Tags:
BeatmapID:1851281
BeatmapSetID:885759

[Difficulty]
HPDrainRate:8
CircleSize:7
OverallDifficulty:8
ApproachRate:5
SliderMultiplier:1.4
SliderTickRate:1

[Events]
//Background and Video events
0,0,"bg.png",0,0
//Break Periods
//Storyboard Layer 0 (Background)
//Storyboard Layer 1 (Fail)
//Storyboard Layer 2 (Pass)
//Storyboard Layer 3 (Foreground)
//Storyboard Sound Samples

[TimingPoints]
15,351.906158357771,4,1,0,0,1,0

[HitObjects]
182,192,15,5,0,0:0:0:0:
36,192,15,1,0,0:0:0:0:
329,192,15,1,0,0:0:0:0:
475,192,15,1,0,0:0:0:0:
36,192,367,1,0,0:0:0:0:
109,192,367,1,0,0:0:0:0:
256,192,367,1,0,0:0:0:0:
402,192,367,1,0,0:0:0:0:
182,192,719,1,0,0:0:0:0:
329,192,719,1,0,0:0:0:0:
475,192,719,1,0,0:0:0:0:
109,192,719,1,0,0:0:0:0:
109,192,982,1,0,0:0:0:0:
182,192,982,1,0,0:0:0:0:
329,192,982,1,0,0:0:0:0:
475,192,1070,1,0,0:0:0:0:
36,192,1070,1,0,0:0:0:0:
256,192,1070,1,0,0:0:0:0:
402,192,1070,1,0,0:0:0:0:
182,192,1246,1,0,0:0:0:0:
36,192,1246,1,0,0:0:0:0:
329,192,1246,1,0,0:0:0:0:
475,192,1246,1,0,0:0:0:0:
109,192,1422,1,0,0:0:0:0:
256,192,1422,1,0,0:0:0:0:
402,192,1422,1,0,0:0:0:0:
475,192,1422,1,0,0:0:0:0:
109,192,1598,1,0,0:0:0:0:
256,192,1598,1,0,0:0:0:0:
402,192,1598,1,0,0:0:0:0:
475,192,1598,1,0,0:0:0:0:
329,192,1774,1,0,0:0:0:0:
402,192,1774,1,0,0:0:0:0:
109,192,1774,1,0,0:0:0:0:
36,192,1774,1,0,0:0:0:0:
109,192,2126,1,0,0:0:0:0:
182,192,2126,1,0,0:0:0:0:
329,192,2126,1,0,0:0:0:0:
402,192,2126,1,0,0:0:0:0:
182,192,2302,1,0,0:0:0:0:
256,192,2346,1,0,0:0:0:0:
329,192,2390,1,0,0:0:0:0:
109,192,2390,1,0,0:0:0:0:
402,192,2434,1,0,0:0:0:0:
256,192,2478,1,0,0:0:0:0:
475,192,2478,1,0,0:0:0:0:
36,192,2478,1,0,0:0:0:0:
109,192,2654,1,0,0:0:0:0:
182,192,2654,1,0,0:0:0:0:
329,192,2654,1,0,0:0:0:0:
402,192,2654,1,0,0:0:0:0:
182,192,2829,1,0,0:0:0:0:
36,192,2829,1,0,0:0:0:0:
329,192,2829,1,0,0:0:0:0:
475,192,2829,1,0,0:0:0:0:
475,192,3181,1,0,0:0:0:0:
402,192,3181,1,0,0:0:0:0:
256,192,3181,1,0,0:0:0:0:
109,192,3181,1,0,0:0:0:0:
329,192,3533,1,0,0:0:0:0:
182,192,3533,1,0,0:0:0:0:
36,192,3533,1,0,0:0:0:0:
402,192,3533,1,0,0:0:0:0:
402,192,3798,1,0,0:0:0:0:
329,192,3798,1,0,0:0:0:0:
182,192,3798,1,0,0:0:0:0:
36,192,3886,1,0,0:0:0:0:
475,192,3886,1,0,0:0:0:0:
256,192,3886,1,0,0:0:0:0:
109,192,3886,1,0,0:0:0:0:
329,192,4061,1,0,0:0:0:0:
475,192,4061,1,0,0:0:0:0:
182,192,4061,1,0,0:0:0:0:
36,192,4061,1,0,0:0:0:0:
402,192,4238,1,0,0:0:0:0:
256,192,4238,1,0,0:0:0:0:
109,192,4238,1,0,0:0:0:0:
36,192,4238,1,0,0:0:0:0:
329,192,4325,1,0,0:0:0:0:
402,192,4413,1,0,0:0:0:0:
256,192,4413,1,0,0:0:0:0:
109,192,4413,1,0,0:0:0:0:
36,192,4413,1,0,0:0:0:0:
182,192,4590,1,0,0:0:0:0:
109,192,4590,1,0,0:0:0:0:
402,192,4590,1,0,0:0:0:0:
475,192,4590,1,0,0:0:0:0:
256,192,4765,1,0,0:0:0:0:
36,192,4765,1,0,0:0:0:0:
182,192,4853,1,0,0:0:0:0:
475,192,4853,1,0,0:0:0:0:
36,192,4941,1,0,0:0:0:0:
402,192,4941,1,0,0:0:0:0:
329,192,4941,1,0,0:0:0:0:
109,192,4941,1,0,0:0:0:0:
256,192,5117,1,0,0:0:0:0:
475,192,5117,1,0,0:0:0:0:
182,192,5117,1,0,0:0:0:0:
109,192,5205,1,0,0:0:0:0:
329,192,5205,1,0,0:0:0:0:
402,192,5205,1,0,0:0:0:0:
36,192,5293,1,0,0:0:0:0:
182,192,5293,1,0,0:0:0:0:
256,192,5293,1,0,0:0:0:0:
475,192,5293,1,0,0:0:0:0:
402,192,5337,1,0,0:0:0:0:
329,192,5381,1,0,0:0:0:0:
256,192,5425,1,0,0:0:0:0:
182,192,5469,1,0,0:0:0:0:
402,192,5469,1,0,0:0:0:0:
329,192,5513,1,0,0:0:0:0:
256,192,5557,1,0,0:0:0:0:
182,192,5601,1,0,0:0:0:0:
109,192,5645,1,0,0:0:0:0:
36,192,5645,1,0,0:0:0:0:
402,192,5645,1,0,0:0:0:0:
475,192,5645,1,0,0:0:0:0:
109,192,5997,1,0,0:0:0:0:
182,192,5997,1,0,0:0:0:0:
329,192,5997,1,0,0:0:0:0:
402,192,5997,1,0,0:0:0:0:
182,192,6349,1,0,0:0:0:0:
329,192,6349,1,0,0:0:0:0:
475,192,6349,1,0,0:0:0:0:
36,192,6349,1,0,0:0:0:0:
109,192,6613,1,0,0:0:0:0:
182,192,6613,1,0,0:0:0:0:
36,192,6613,1,0,0:0:0:0:
475,192,6700,1,0,0:0:0:0:
256,192,6700,1,0,0:0:0:0:
329,192,6700,1,0,0:0:0:0:
402,192,6700,1,0,0:0:0:0:
182,192,6877,1,0,0:0:0:0:
36,192,6877,1,0,0:0:0:0:
329,192,6877,1,0,0:0:0:0:
475,192,6877,1,0,0:0:0:0:
109,192,7052,1,0,0:0:0:0:
256,192,7052,1,0,0:0:0:0:
402,192,7052,1,0,0:0:0:0:
475,192,7052,1,0,0:0:0:0:
109,192,7229,1,0,0:0:0:0:
256,192,7229,1,0,0:0:0:0:
402,192,7229,1,0,0:0:0:0:
475,192,7229,1,0,0:0:0:0:
329,192,7405,1,0,0:0:0:0:
402,192,7405,1,0,0:0:0:0:
109,192,7405,1,0,0:0:0:0:
36,192,7405,1,0,0:0:0:0:
109,192,7757,1,0,0:0:0:0:
182,192,7757,1,0,0:0:0:0:
329,192,7757,1,0,0:0:0:0:
402,192,7757,1,0,0:0:0:0:
182,192,7932,1,0,0:0:0:0:
256,192,7977,1,0,0:0:0:0:
329,192,8020,1,0,0:0:0:0:
109,192,8020,1,0,0:0:0:0:
402,192,8064,1,0,0:0:0:0:
256,192,8109,1,0,0:0:0:0:
475,192,8109,1,0,0:0:0:0:
36,192,8109,1,0,0:0:0:0:
109,192,8284,1,0,0:0:0:0:
182,192,8284,1,0,0:0:0:0:
329,192,8284,1,0,0:0:0:0:
402,192,8284,1,0,0:0:0:0:
182,192,8460,1,0,0:0:0:0:
36,192,8460,1,0,0:0:0:0:
329,192,8460,1,0,0:0:0:0:
475,192,8460,1,0,0:0:0:0:
329,192,8636,1,0,0:0:0:0:
36,192,8636,1,0,0:0:0:0:
475,192,8812,1,0,0:0:0:0:
402,192,8812,1,0,0:0:0:0:
256,192,8812,1,0,0:0:0:0:
109,192,8812,1,0,0:0:0:0:
329,192,9164,1,0,0:0:0:0:
182,192,9164,1,0,0:0:0:0:
36,192,9164,1,0,0:0:0:0:
402,192,9164,1,0,0:0:0:0:
109,192,9340,1,0,0:0:0:0:
475,192,9340,1,0,0:0:0:0:
402,192,9428,1,0,0:0:0:0:
329,192,9428,1,0,0:0:0:0:
182,192,9428,1,0,0:0:0:0:
36,192,9516,1,0,0:0:0:0:
475,192,9516,1,0,0:0:0:0:
256,192,9516,1,0,0:0:0:0:
109,192,9516,1,0,0:0:0:0:
329,192,9692,1,0,0:0:0:0:
475,192,9692,1,0,0:0:0:0:
182,192,9692,1,0,0:0:0:0:
36,192,9692,1,0,0:0:0:0:
256,192,9780,1,0,0:0:0:0:
402,192,9868,1,0,0:0:0:0:
329,192,9868,1,0,0:0:0:0:
109,192,9868,1,0,0:0:0:0:
36,192,9868,1,0,0:0:0:0:
402,192,10044,1,0,0:0:0:0:
329,192,10044,1,0,0:0:0:0:
109,192,10044,1,0,0:0:0:0:
36,192,10044,1,0,0:0:0:0:
256,192,10044,1,0,0:0:0:0:
182,192,10220,1,0,0:0:0:0:
109,192,10220,1,0,0:0:0:0:
402,192,10220,1,0,0:0:0:0:
475,192,10220,1,0,0:0:0:0:
256,192,10396,1,0,0:0:0:0:
36,192,10396,1,0,0:0:0:0:
329,192,10396,1,0,0:0:0:0:
182,192,10396,1,0,0:0:0:0:
475,192,10396,1,0,0:0:0:0:
109,192,10571,1,0,0:0:0:0:
402,192,10571,1,0,0:0:0:0:
475,192,10571,1,0,0:0:0:0:
256,192,10571,1,0,0:0:0:0:
36,192,10748,1,0,0:0:0:0:
182,192,10748,1,0,0:0:0:0:
329,192,10748,1,0,0:0:0:0:
109,192,10836,1,0,0:0:0:0:
256,192,10836,1,0,0:0:0:0:
402,192,10836,1,0,0:0:0:0:
329,192,10923,1,0,0:0:0:0:
475,192,10923,1,0,0:0:0:0:
182,192,10923,1,0,0:0:0:0:
36,192,10923,1,0,0:0:0:0:
109,192,11011,1,0,0:0:0:0:
402,192,11011,1,0,0:0:0:0:
182,192,11100,1,0,0:0:0:0:
329,192,11100,1,0,0:0:0:0:
402,192,11188,1,0,0:0:0:0:
109,192,11188,1,0,0:0:0:0:
256,192,11276,1,0,0:0:0:0:
36,192,11276,1,0,0:0:0:0:
475,192,11276,1,0,0:0:0:0:
329,192,11276,1,0,0:0:0:0:
182,192,11363,1,0,0:0:0:0:
109,192,11451,1,0,0:0:0:0:
402,192,11451,1,0,0:0:0:0:
256,192,11539,1,0,0:0:0:0:
182,192,11628,1,0,0:0:0:0:
36,192,11628,1,0,0:0:0:0:
329,192,11628,1,0,0:0:0:0:
402,192,11628,1,0,0:0:0:0:
475,192,11715,1,0,0:0:0:0:
36,192,11803,1,0,0:0:0:0:
256,192,11803,1,0,0:0:0:0:
109,192,11891,1,0,0:0:0:0:
182,192,11979,1,0,0:0:0:0:
329,192,11979,1,0,0:0:0:0:
475,192,11979,1,0,0:0:0:0:
256,192,12068,1,0,0:0:0:0:
402,192,12155,1,0,0:0:0:0:
109,192,12155,1,0,0:0:0:0:
182,192,12243,1,0,0:0:0:0:
329,192,12243,1,0,0:0:0:0:
475,192,12243,1,0,0:0:0:0:
402,192,12331,1,0,0:0:0:0:
256,192,12331,1,0,0:0:0:0:
36,192,12331,1,0,0:0:0:0:
109,192,12331,1,0,0:0:0:0:
475,192,12419,1,0,0:0:0:0:
36,192,12507,1,0,0:0:0:0:
182,192,12507,1,0,0:0:0:0:
329,192,12507,1,0,0:0:0:0:
402,192,12595,1,0,0:0:0:0:
256,192,12683,1,0,0:0:0:0:
36,192,12683,1,0,0:0:0:0:
109,192,12683,1,0,0:0:0:0:
329,192,12771,1,0,0:0:0:0:
36,192,12859,1,0,0:0:0:0:
109,192,12859,1,0,0:0:0:0:
256,192,12859,1,0,0:0:0:0:
329,192,12947,1,0,0:0:0:0:
109,192,13035,1,0,0:0:0:0:
182,192,13035,1,0,0:0:0:0:
402,192,13035,1,0,0:0:0:0:
475,192,13035,1,0,0:0:0:0:
256,192,13123,1,0,0:0:0:0:
329,192,13211,1,0,0:0:0:0:
36,192,13211,1,0,0:0:0:0:
109,192,13299,1,0,0:0:0:0:
329,192,13387,1,0,0:0:0:0:
475,192,13387,1,0,0:0:0:0:
182,192,13387,1,0,0:0:0:0:
256,192,13475,1,0,0:0:0:0:
109,192,13563,1,0,0:0:0:0:
402,192,13563,1,0,0:0:0:0:
182,192,13650,1,0,0:0:0:0:
329,192,13650,1,0,0:0:0:0:
36,192,13650,1,0,0:0:0:0:
402,192,13739,1,0,0:0:0:0:
475,192,13739,1,0,0:0:0:0:
256,192,13739,1,0,0:0:0:0:
109,192,13739,1,0,0:0:0:0:
36,192,13827,1,0,0:0:0:0:
475,192,13915,1,0,0:0:0:0:
182,192,13915,1,0,0:0:0:0:
329,192,13915,1,0,0:0:0:0:
109,192,14003,1,0,0:0:0:0:
36,192,14090,1,0,0:0:0:0:
256,192,14090,1,0,0:0:0:0:
402,192,14090,1,0,0:0:0:0:
475,192,14090,1,0,0:0:0:0:
182,192,14179,1,0,0:0:0:0:
256,192,14267,1,0,0:0:0:0:
36,192,14267,1,0,0:0:0:0:
329,192,14355,1,0,0:0:0:0:
109,192,14442,1,0,0:0:0:0:
182,192,14442,1,0,0:0:0:0:
402,192,14442,1,0,0:0:0:0:
475,192,14442,1,0,0:0:0:0:
256,192,14530,1,0,0:0:0:0:
329,192,14619,1,0,0:0:0:0:
36,192,14619,1,0,0:0:0:0:
109,192,14707,1,0,0:0:0:0:
182,192,14795,1,0,0:0:0:0:
256,192,14795,1,0,0:0:0:0:
475,192,14795,1,0,0:0:0:0:
402,192,14882,1,0,0:0:0:0:
329,192,14970,1,0,0:0:0:0:
109,192,14970,1,0,0:0:0:0:
36,192,15059,1,0,0:0:0:0:
256,192,15059,1,0,0:0:0:0:
402,192,15059,1,0,0:0:0:0:
182,192,15147,1,0,0:0:0:0:
109,192,15147,1,0,0:0:0:0:
329,192,15147,1,0,0:0:0:0:
475,192,15147,1,0,0:0:0:0:
256,192,15234,1,0,0:0:0:0:
329,192,15322,1,0,0:0:0:0:
109,192,15322,1,0,0:0:0:0:
36,192,15322,1,0,0:0:0:0:
182,192,15410,1,0,0:0:0:0:
256,192,15499,1,0,0:0:0:0:
402,192,15499,1,0,0:0:0:0:
475,192,15499,1,0,0:0:0:0:
109,192,15587,1,0,0:0:0:0:
182,192,15674,1,0,0:0:0:0:
329,192,15674,1,0,0:0:0:0:
402,192,15674,1,0,0:0:0:0:
36,192,15762,1,0,0:0:0:0:
109,192,15850,1,0,0:0:0:0:
182,192,15850,1,0,0:0:0:0:
475,192,15850,1,0,0:0:0:0:
402,192,15850,1,0,0:0:0:0:
329,192,15939,1,0,0:0:0:0:
256,192,16026,1,0,0:0:0:0:
36,192,16026,1,0,0:0:0:0:
182,192,16114,1,0,0:0:0:0:
109,192,16202,1,0,0:0:0:0:
36,192,16202,1,0,0:0:0:0:
329,192,16202,1,0,0:0:0:0:
256,192,16290,1,0,0:0:0:0:
402,192,16378,1,0,0:0:0:0:
182,192,16378,1,0,0:0:0:0:
475,192,16378,1,0,0:0:0:0:
329,192,16466,1,0,0:0:0:0:
36,192,16466,1,0,0:0:0:0:
109,192,16466,1,0,0:0:0:0:
256,192,16554,1,0,0:0:0:0:
402,192,16554,1,0,0:0:0:0:
475,192,16554,1,0,0:0:0:0:
182,192,16554,1,0,0:0:0:0:
109,192,16642,1,0,0:0:0:0:
182,192,16730,1,0,0:0:0:0:
329,192,16730,1,0,0:0:0:0:
36,192,16730,1,0,0:0:0:0:
256,192,16818,1,0,0:0:0:0:
402,192,16818,1,0,0:0:0:0:
109,192,16818,1,0,0:0:0:0:
182,192,16906,1,0,0:0:0:0:
329,192,16906,1,0,0:0:0:0:
475,192,16906,1,0,0:0:0:0:
36,192,16906,1,0,0:0:0:0:
256,192,16994,1,0,0:0:0:0:
182,192,17082,1,0,0:0:0:0:
402,192,17082,1,0,0:0:0:0:
329,192,17170,1,0,0:0:0:0:
256,192,17258,1,0,0:0:0:0:
109,192,17258,1,0,0:0:0:0:
36,192,17258,1,0,0:0:0:0:
475,192,17258,1,0,0:0:0:0:
329,192,17346,1,0,0:0:0:0:
402,192,17434,1,0,0:0:0:0:
182,192,17434,1,0,0:0:0:0:
256,192,17522,1,0,0:0:0:0:
329,192,17610,1,0,0:0:0:0:
475,192,17610,1,0,0:0:0:0:
109,192,17610,1,0,0:0:0:0:
36,192,17610,1,0,0:0:0:0:
182,192,17698,1,0,0:0:0:0:
256,192,17786,1,0,0:0:0:0:
402,192,17786,1,0,0:0:0:0:
182,192,17874,1,0,0:0:0:0:
109,192,17874,1,0,0:0:0:0:
329,192,17874,1,0,0:0:0:0:
256,192,17961,1,0,0:0:0:0:
36,192,17961,1,0,0:0:0:0:
402,192,17961,1,0,0:0:0:0:
475,192,17961,1,0,0:0:0:0:
182,192,18050,1,0,0:0:0:0:
109,192,18138,1,0,0:0:0:0:
329,192,18138,1,0,0:0:0:0:
402,192,18138,1,0,0:0:0:0:
256,192,18226,1,0,0:0:0:0:
182,192,18314,1,0,0:0:0:0:
36,192,18314,1,0,0:0:0:0:
402,192,18314,1,0,0:0:0:0:
475,192,18314,1,0,0:0:0:0:
256,192,18401,1,0,0:0:0:0:
329,192,18490,1,0,0:0:0:0:
109,192,18490,1,0,0:0:0:0:
475,192,18490,1,0,0:0:0:0:
182,192,18578,1,0,0:0:0:0:
256,192,18666,1,0,0:0:0:0:
402,192,18666,1,0,0:0:0:0:
475,192,18666,1,0,0:0:0:0:
36,192,18666,1,0,0:0:0:0:
182,192,18753,1,0,0:0:0:0:
109,192,18841,1,0,0:0:0:0:
329,192,18841,1,0,0:0:0:0:
402,192,18930,1,0,0:0:0:0:
475,192,19018,1,0,0:0:0:0:
256,192,19018,1,0,0:0:0:0:
182,192,19018,1,0,0:0:0:0:
36,192,19018,1,0,0:0:0:0:
329,192,19105,1,0,0:0:0:0:
402,192,19193,1,0,0:0:0:0:
109,192,19193,1,0,0:0:0:0:
182,192,19281,1,0,0:0:0:0:
256,192,19281,1,0,0:0:0:0:
475,192,19281,1,0,0:0:0:0:
329,192,19370,1,0,0:0:0:0:
109,192,19370,1,0,0:0:0:0:
36,192,19370,1,0,0:0:0:0:
402,192,19370,1,0,0:0:0:0:
256,192,19458,1,0,0:0:0:0:
182,192,19545,1,0,0:0:0:0:
109,192,19545,1,0,0:0:0:0:
475,192,19545,1,0,0:0:0:0:
402,192,19633,1,0,0:0:0:0:
329,192,19721,1,0,0:0:0:0:
256,192,19721,1,0,0:0:0:0:
182,192,19721,1,0,0:0:0:0:
36,192,19721,1,0,0:0:0:0:
109,192,19721,1,0,0:0:0:0:
402,192,19810,1,0,0:0:0:0:
475,192,19897,1,0,0:0:0:0:
182,192,19897,1,0,0:0:0:0:
256,192,19985,1,0,0:0:0:0:
329,192,20073,1,0,0:0:0:0:
402,192,20073,1,0,0:0:0:0:
109,192,20073,1,0,0:0:0:0:
36,192,20073,1,0,0:0:0:0:
256,192,20161,1,0,0:0:0:0:
182,192,20250,1,0,0:0:0:0:
475,192,20250,1,0,0:0:0:0:
402,192,20337,1,0,0:0:0:0:
329,192,20425,1,0,0:0:0:0:
256,192,20425,1,0,0:0:0:0:
109,192,20425,1,0,0:0:0:0:
36,192,20425,1,0,0:0:0:0:
475,192,20425,1,0,0:0:0:0:
182,192,20513,1,0,0:0:0:0:
109,192,20601,1,0,0:0:0:0:
329,192,20601,1,0,0:0:0:0:
402,192,20689,1,0,0:0:0:0:
475,192,20777,1,0,0:0:0:0:
256,192,20777,1,0,0:0:0:0:
182,192,20777,1,0,0:0:0:0:
36,192,20777,1,0,0:0:0:0:
329,192,20865,1,0,0:0:0:0:
402,192,20953,1,0,0:0:0:0:
109,192,20953,1,0,0:0:0:0:
182,192,21041,1,0,0:0:0:0:
256,192,21129,1,0,0:0:0:0:
475,192,21129,1,0,0:0:0:0:
329,192,21129,1,0,0:0:0:0:
402,192,21129,1,0,0:0:0:0:
36,192,21129,1,0,0:0:0:0:
182,192,21217,1,0,0:0:0:0:
109,192,21305,1,0,0:0:0:0:
329,192,21305,1,0,0:0:0:0:
475,192,21305,1,0,0:0:0:0:
256,192,21393,1,0,0:0:0:0:
182,192,21480,1,0,0:0:0:0:
36,192,21480,1,0,0:0:0:0:
402,192,21480,1,0,0:0:0:0:
475,192,21480,1,0,0:0:0:0:
109,192,21480,1,0,0:0:0:0:
256,192,21569,1,0,0:0:0:0:
329,192,21657,1,0,0:0:0:0:
182,192,21657,1,0,0:0:0:0:
36,192,21657,1,0,0:0:0:0:
402,192,21745,1,0,0:0:0:0:
475,192,21832,1,0,0:0:0:0:
256,192,21832,1,0,0:0:0:0:
109,192,21832,1,0,0:0:0:0:
36,192,21832,1,0,0:0:0:0:
182,192,21832,1,0,0:0:0:0:
329,192,21920,1,0,0:0:0:0:
402,192,22009,1,0,0:0:0:0:
182,192,22009,1,0,0:0:0:0:
36,192,22009,1,0,0:0:0:0:
256,192,22097,1,0,0:0:0:0:
475,192,22185,1,0,0:0:0:0:
109,192,22185,1,0,0:0:0:0:
36,192,22185,1,0,0:0:0:0:
402,192,22185,1,0,0:0:0:0:
182,192,22185,1,0,0:0:0:0:
329,192,22185,1,0,0:0:0:0:
256,192,22360,1,0,0:0:0:0:
182,192,22537,1,0,0:0:0:0:
109,192,22537,1,0,0:0:0:0:
36,192,22537,1,0,0:0:0:0:
329,192,22537,1,0,0:0:0:0:
402,192,22537,1,0,0:0:0:0:
475,192,22537,1,0,0:0:0:0:
256,192,22712,1,0,0:0:0:0:
36,192,22712,1,0,0:0:0:0:
475,192,22712,1,0,0:0:0:0:
182,192,22889,1,0,0:0:0:0:
109,192,22889,1,0,0:0:0:0:
329,192,22889,1,0,0:0:0:0:
402,192,22889,1,0,0:0:0:0:
36,192,22889,1,0,0:0:0:0:
256,192,23064,1,0,0:0:0:0:
36,192,23064,1,0,0:0:0:0:
475,192,23064,1,0,0:0:0:0:
182,192,23240,1,0,0:0:0:0:
36,192,23240,1,0,0:0:0:0:
329,192,23240,1,0,0:0:0:0:
402,192,23240,1,0,0:0:0:0:
475,192,23240,1,0,0:0:0:0:
109,192,23416,1,0,0:0:0:0:
256,192,23416,1,0,0:0:0:0:
475,192,23416,1,0,0:0:0:0:
402,192,23504,1,0,0:0:0:0:
182,192,23504,1,0,0:0:0:0:
36,192,23504,1,0,0:0:0:0:
109,192,23592,1,0,0:0:0:0:
329,192,23592,1,0,0:0:0:0:
475,192,23592,1,0,0:0:0:0:
256,192,23592,1,0,0:0:0:0:
182,192,23680,1,0,0:0:0:0:
402,192,23680,1,0,0:0:0:0:
256,192,23769,1,0,0:0:0:0:
475,192,23769,1,0,0:0:0:0:
36,192,23769,1,0,0:0:0:0:
109,192,23856,1,0,0:0:0:0:
329,192,23856,1,0,0:0:0:0:
182,192,23944,1,0,0:0:0:0:
402,192,23944,1,0,0:0:0:0:
475,192,23944,1,0,0:0:0:0:
36,192,23944,1,0,0:0:0:0:
109,192,24120,1,0,0:0:0:0:
256,192,24120,1,0,0:0:0:0:
402,192,24120,1,0,0:0:0:0:
329,192,24296,1,0,0:0:0:0:
475,192,24296,1,0,0:0:0:0:
182,192,24296,1,0,0:0:0:0:
36,192,24296,1,0,0:0:0:0:
109,192,24296,1,0,0:0:0:0:
109,192,24472,1,0,0:0:0:0:
256,192,24472,1,0,0:0:0:0:
402,192,24472,1,0,0:0:0:0:
182,192,24648,1,0,0:0:0:0:
329,192,24648,1,0,0:0:0:0:
475,192,24648,1,0,0:0:0:0:
36,192,24648,1,0,0:0:0:0:
402,192,24648,1,0,0:0:0:0:
329,192,24824,1,0,0:0:0:0:
36,192,24824,1,0,0:0:0:0:
182,192,24824,1,0,0:0:0:0:
109,192,24912,1,0,0:0:0:0:
402,192,24912,1,0,0:0:0:0:
256,192,24912,1,0,0:0:0:0:
475,192,24999,1,0,0:0:0:0:
329,192,24999,1,0,0:0:0:0:
36,192,24999,1,0,0:0:0:0:
182,192,24999,1,0,0:0:0:0:
402,192,25088,1,0,0:0:0:0:
256,192,25088,1,0,0:0:0:0:
475,192,25176,1,0,0:0:0:0:
329,192,25176,1,0,0:0:0:0:
182,192,25176,1,0,0:0:0:0:
109,192,25264,1,0,0:0:0:0:
256,192,25264,1,0,0:0:0:0:
182,192,25351,1,0,0:0:0:0:
36,192,25351,1,0,0:0:0:0:
402,192,25351,1,0,0:0:0:0:
475,192,25351,1,0,0:0:0:0:
36,192,25528,1,0,0:0:0:0:
256,192,25528,1,0,0:0:0:0:
402,192,25528,1,0,0:0:0:0:
109,192,25704,1,0,0:0:0:0:
182,192,25704,1,0,0:0:0:0:
329,192,25704,1,0,0:0:0:0:
475,192,25704,1,0,0:0:0:0:
256,192,25704,1,0,0:0:0:0:
402,192,25879,1,0,0:0:0:0:
256,192,25879,1,0,0:0:0:0:
36,192,25879,1,0,0:0:0:0:
182,192,26056,1,0,0:0:0:0:
36,192,26056,1,0,0:0:0:0:
329,192,26056,1,0,0:0:0:0:
475,192,26056,1,0,0:0:0:0:
402,192,26056,1,0,0:0:0:0:
36,192,26231,1,0,0:0:0:0:
109,192,26231,1,0,0:0:0:0:
256,192,26231,1,0,0:0:0:0:
182,192,26319,1,0,0:0:0:0:
329,192,26319,1,0,0:0:0:0:
402,192,26319,1,0,0:0:0:0:
475,192,26408,1,0,0:0:0:0:
256,192,26408,1,0,0:0:0:0:
109,192,26408,1,0,0:0:0:0:
36,192,26408,1,0,0:0:0:0:
182,192,26496,1,0,0:0:0:0:
402,192,26496,1,0,0:0:0:0:
109,192,26583,1,0,0:0:0:0:
329,192,26583,1,0,0:0:0:0:
475,192,26583,1,0,0:0:0:0:
256,192,26671,1,0,0:0:0:0:
36,192,26671,1,0,0:0:0:0:
182,192,26759,1,0,0:0:0:0:
402,192,26759,1,0,0:0:0:0:
475,192,26759,1,0,0:0:0:0:
109,192,26759,1,0,0:0:0:0:
36,192,26935,1,0,0:0:0:0:
109,192,26935,1,0,0:0:0:0:
329,192,26935,1,0,0:0:0:0:
182,192,27111,1,0,0:0:0:0:
256,192,27111,1,0,0:0:0:0:
402,192,27111,1,0,0:0:0:0:
475,192,27111,1,0,0:0:0:0:
36,192,27111,1,0,0:0:0:0:
329,192,27287,1,0,0:0:0:0:
109,192,27287,1,0,0:0:0:0:
36,192,27287,1,0,0:0:0:0:
182,192,27463,128,0,27639:0:0:0:0:
36,192,27463,128,0,27639:0:0:0:0:
402,192,27463,128,0,27639:0:0:0:0:
475,192,27463,128,0,27639:0:0:0:0:
256,192,27463,128,0,27639:0:0:0:0:
256,192,27815,128,0,27991:0:0:0:0:
402,192,27815,128,0,27991:0:0:0:0:
475,192,27815,128,0,27991:0:0:0:0:
36,192,27815,128,0,27991:0:0:0:0:
109,192,27815,128,0,27991:0:0:0:0:
182,192,28167,1,0,0:0:0:0:
109,192,28167,1,0,0:0:0:0:
36,192,28167,1,0,0:0:0:0:
402,192,28167,1,0,0:0:0:0:
475,192,28167,1,0,0:0:0:0:
329,192,28343,1,0,0:0:0:0:
182,192,28343,1,0,0:0:0:0:
36,192,28343,1,0,0:0:0:0:
109,192,28519,1,0,0:0:0:0:
256,192,28519,1,0,0:0:0:0:
402,192,28519,1,0,0:0:0:0:
475,192,28519,1,0,0:0:0:0:
329,192,28519,1,0,0:0:0:0:
329,192,28695,1,0,0:0:0:0:
182,192,28695,1,0,0:0:0:0:
36,192,28695,1,0,0:0:0:0:
109,192,28870,1,0,0:0:0:0:
36,192,28870,1,0,0:0:0:0:
329,192,28870,1,0,0:0:0:0:
475,192,28870,1,0,0:0:0:0:
182,192,28870,1,0,0:0:0:0:
109,192,29047,1,0,0:0:0:0:
256,192,29047,1,0,0:0:0:0:
402,192,29047,1,0,0:0:0:0:
329,192,29135,1,0,0:0:0:0:
182,192,29135,1,0,0:0:0:0:
36,192,29135,1,0,0:0:0:0:
109,192,29223,1,0,0:0:0:0:
256,192,29223,1,0,0:0:0:0:
402,192,29223,1,0,0:0:0:0:
475,192,29223,1,0,0:0:0:0:
329,192,29310,1,0,0:0:0:0:
182,192,29310,1,0,0:0:0:0:
256,192,29399,1,0,0:0:0:0:
475,192,29399,1,0,0:0:0:0:
36,192,29399,1,0,0:0:0:0:
109,192,29487,1,0,0:0:0:0:
402,192,29487,1,0,0:0:0:0:
329,192,29575,1,0,0:0:0:0:
182,192,29575,1,0,0:0:0:0:
36,192,29575,1,0,0:0:0:0:
475,192,29575,1,0,0:0:0:0:
109,192,29750,1,0,0:0:0:0:
256,192,29750,1,0,0:0:0:0:
402,192,29750,1,0,0:0:0:0:
182,192,29927,1,0,0:0:0:0:
329,192,29927,1,0,0:0:0:0:
475,192,29927,1,0,0:0:0:0:
36,192,29927,1,0,0:0:0:0:
109,192,29927,1,0,0:0:0:0:
109,192,30102,1,0,0:0:0:0:
256,192,30102,1,0,0:0:0:0:
402,192,30102,1,0,0:0:0:0:
36,192,30279,1,0,0:0:0:0:
402,192,30279,1,0,0:0:0:0:
475,192,30279,1,0,0:0:0:0:
182,192,30279,1,0,0:0:0:0:
329,192,30279,1,0,0:0:0:0:
256,192,30454,1,0,0:0:0:0:
36,192,30454,1,0,0:0:0:0:
402,192,30454,1,0,0:0:0:0:
109,192,30542,1,0,0:0:0:0:
329,192,30542,1,0,0:0:0:0:
475,192,30542,1,0,0:0:0:0:
256,192,30630,1,0,0:0:0:0:
36,192,30630,1,0,0:0:0:0:
182,192,30630,1,0,0:0:0:0:
402,192,30630,1,0,0:0:0:0:
329,192,30719,1,0,0:0:0:0:
109,192,30719,1,0,0:0:0:0:
256,192,30806,1,0,0:0:0:0:
475,192,30806,1,0,0:0:0:0:
36,192,30806,1,0,0:0:0:0:
402,192,30894,1,0,0:0:0:0:
182,192,30894,1,0,0:0:0:0:
109,192,30982,1,0,0:0:0:0:
36,192,30982,1,0,0:0:0:0:
329,192,30982,1,0,0:0:0:0:
256,192,30982,1,0,0:0:0:0:
182,192,31159,1,0,0:0:0:0:
402,192,31159,1,0,0:0:0:0:
475,192,31159,1,0,0:0:0:0:
329,192,31334,1,0,0:0:0:0:
475,192,31334,1,0,0:0:0:0:
256,192,31334,1,0,0:0:0:0:
109,192,31334,1,0,0:0:0:0:
36,192,31334,1,0,0:0:0:0:
182,192,31510,1,0,0:0:0:0:
402,192,31510,1,0,0:0:0:0:
475,192,31510,1,0,0:0:0:0:
256,192,31686,1,0,0:0:0:0:
402,192,31686,1,0,0:0:0:0:
109,192,31686,1,0,0:0:0:0:
36,192,31686,1,0,0:0:0:0:
329,192,31686,1,0,0:0:0:0:
182,192,31862,1,0,0:0:0:0:
109,192,31862,1,0,0:0:0:0:
475,192,31862,1,0,0:0:0:0:
36,192,31950,1,0,0:0:0:0:
329,192,31950,1,0,0:0:0:0:
402,192,31950,1,0,0:0:0:0:
256,192,32038,1,0,0:0:0:0:
182,192,32038,1,0,0:0:0:0:
109,192,32038,1,0,0:0:0:0:
475,192,32038,1,0,0:0:0:0:
36,192,32126,1,0,0:0:0:0:
329,192,32126,1,0,0:0:0:0:
109,192,32214,1,0,0:0:0:0:
256,192,32214,1,0,0:0:0:0:
402,192,32214,1,0,0:0:0:0:
182,192,32302,1,0,0:0:0:0:
475,192,32302,1,0,0:0:0:0:
256,192,32389,1,0,0:0:0:0:
329,192,32389,1,0,0:0:0:0:
109,192,32389,1,0,0:0:0:0:
36,192,32389,1,0,0:0:0:0:
109,192,32566,1,0,0:0:0:0:
402,192,32566,1,0,0:0:0:0:
256,192,32566,1,0,0:0:0:0:
182,192,32741,1,0,0:0:0:0:
329,192,32741,1,0,0:0:0:0:
402,192,32741,1,0,0:0:0:0:
475,192,32741,1,0,0:0:0:0:
36,192,32741,1,0,0:0:0:0:
109,192,32918,1,0,0:0:0:0:
256,192,32918,1,0,0:0:0:0:
402,192,32918,1,0,0:0:0:0:
182,192,33094,1,0,0:0:0:0:
109,192,33094,1,0,0:0:0:0:
36,192,33094,1,0,0:0:0:0:
329,192,33094,1,0,0:0:0:0:
475,192,33094,1,0,0:0:0:0:
329,192,33270,1,0,0:0:0:0:
402,192,33270,1,0,0:0:0:0:
475,192,33270,1,0,0:0:0:0:
256,192,33358,1,0,0:0:0:0:
182,192,33358,1,0,0:0:0:0:
109,192,33358,1,0,0:0:0:0:
36,192,33446,1,0,0:0:0:0:
402,192,33446,1,0,0:0:0:0:
475,192,33446,1,0,0:0:0:0:
329,192,33446,1,0,0:0:0:0:
109,192,33533,1,0,0:0:0:0:
182,192,33533,1,0,0:0:0:0:
256,192,33621,1,0,0:0:0:0:
329,192,33621,1,0,0:0:0:0:
402,192,33621,1,0,0:0:0:0:
182,192,33710,1,0,0:0:0:0:
109,192,33710,1,0,0:0:0:0:
36,192,33798,128,0,33886:0:0:0:0:
329,192,33798,128,0,33886:0:0:0:0:
402,192,33798,128,0,33886:0:0:0:0:
475,192,33798,128,0,33886:0:0:0:0:
256,192,33798,128,0,33886:0:0:0:0:
256,192,33973,128,0,34061:0:0:0:0:
36,192,33973,128,0,34061:0:0:0:0:
475,192,33973,128,0,34061:0:0:0:0:
182,192,34150,128,0,34238:0:0:0:0:
109,192,34150,128,0,34238:0:0:0:0:
36,192,34150,128,0,34238:0:0:0:0:
402,192,34150,128,0,34238:0:0:0:0:
475,192,34150,128,0,34238:0:0:0:0:
256,192,34325,128,0,34413:0:0:0:0:
475,192,34325,128,0,34413:0:0:0:0:
36,192,34325,128,0,34413:0:0:0:0:
109,192,34501,128,0,34590:0:0:0:0:
36,192,34501,128,0,34590:0:0:0:0:
256,192,34501,128,0,34590:0:0:0:0:
402,192,34501,128,0,34590:0:0:0:0:
475,192,34501,128,0,34590:0:0:0:0:
182,192,34678,128,0,34765:0:0:0:0:
329,192,34678,128,0,34765:0:0:0:0:
475,192,34678,128,0,34765:0:0:0:0:
402,192,34765,128,0,34853:0:0:0:0:
256,192,34765,128,0,34853:0:0:0:0:
109,192,34765,128,0,34853:0:0:0:0:
36,192,34853,128,0,34941:0:0:0:0:
182,192,34853,128,0,34941:0:0:0:0:
329,192,34853,128,0,34941:0:0:0:0:
475,192,34853,128,0,34941:0:0:0:0:
109,192,34941,128,0,35030:0:0:0:0:
256,192,34941,128,0,35030:0:0:0:0:
182,192,35030,128,0,35117:0:0:0:0:
329,192,35030,128,0,35117:0:0:0:0:
402,192,35030,128,0,35117:0:0:0:0:
256,192,35117,128,0,35205:0:0:0:0:
475,192,35117,128,0,35205:0:0:0:0:
109,192,35205,128,0,35293:0:0:0:0:
36,192,35205,128,0,35293:0:0:0:0:
329,192,35205,128,0,35293:0:0:0:0:
402,192,35205,128,0,35293:0:0:0:0:
182,192,35381,128,0,35469:0:0:0:0:
256,192,35381,128,0,35469:0:0:0:0:
475,192,35381,128,0,35469:0:0:0:0:
402,192,35557,128,0,35645:0:0:0:0:
475,192,35557,128,0,35645:0:0:0:0:
329,192,35557,128,0,35645:0:0:0:0:
182,192,35557,128,0,35645:0:0:0:0:
36,192,35557,128,0,35645:0:0:0:0:
256,192,35733,128,0,35821:0:0:0:0:
182,192,35733,128,0,35821:0:0:0:0:
475,192,35733,128,0,35821:0:0:0:0:
329,192,35909,128,0,35997:0:0:0:0:
402,192,35909,128,0,35997:0:0:0:0:
256,192,35909,128,0,35997:0:0:0:0:
109,192,35909,128,0,35997:0:0:0:0:
36,192,35909,128,0,35997:0:0:0:0:
182,192,36085,128,0,36173:0:0:0:0:
402,192,36085,128,0,36173:0:0:0:0:
475,192,36085,128,0,36173:0:0:0:0:
329,192,36173,128,0,36260:0:0:0:0:
109,192,36173,128,0,36260:0:0:0:0:
36,192,36173,128,0,36260:0:0:0:0:
182,192,36260,128,0,36349:0:0:0:0:
256,192,36260,128,0,36349:0:0:0:0:
475,192,36260,128,0,36349:0:0:0:0:
402,192,36260,128,0,36349:0:0:0:0:
109,192,36349,128,0,36437:0:0:0:0:
329,192,36349,128,0,36437:0:0:0:0:
256,192,36437,128,0,36525:0:0:0:0:
36,192,36437,128,0,36525:0:0:0:0:
475,192,36437,128,0,36525:0:0:0:0:
182,192,36525,128,0,36613:0:0:0:0:
402,192,36525,128,0,36613:0:0:0:0:
109,192,36613,128,0,36700:0:0:0:0:
36,192,36613,128,0,36700:0:0:0:0:
256,192,36613,128,0,36700:0:0:0:0:
329,192,36613,128,0,36700:0:0:0:0:
475,192,36613,128,0,36700:0:0:0:0:
402,192,36789,128,0,36877:0:0:0:0:
256,192,36789,128,0,36877:0:0:0:0:
109,192,36789,128,0,36877:0:0:0:0:
182,192,36965,128,0,37052:0:0:0:0:
329,192,36965,128,0,37052:0:0:0:0:
402,192,36965,128,0,37052:0:0:0:0:
475,192,36965,128,0,37052:0:0:0:0:
36,192,36965,128,0,37052:0:0:0:0:
109,192,37140,128,0,37229:0:0:0:0:
256,192,37140,128,0,37229:0:0:0:0:
402,192,37140,128,0,37229:0:0:0:0:
182,192,37317,128,0,37405:0:0:0:0:
109,192,37317,128,0,37405:0:0:0:0:
36,192,37317,128,0,37405:0:0:0:0:
329,192,37317,128,0,37405:0:0:0:0:
475,192,37317,128,0,37405:0:0:0:0:
256,192,37492,128,0,37580:0:0:0:0:
36,192,37492,128,0,37580:0:0:0:0:
475,192,37492,128,0,37580:0:0:0:0:
402,192,37580,128,0,37669:0:0:0:0:
109,192,37580,128,0,37669:0:0:0:0:
182,192,37580,128,0,37669:0:0:0:0:
329,192,37669,128,0,37757:0:0:0:0:
256,192,37669,128,0,37757:0:0:0:0:
36,192,37669,128,0,37757:0:0:0:0:
475,192,37669,128,0,37757:0:0:0:0:
402,192,37757,128,0,37844:0:0:0:0:
182,192,37757,128,0,37844:0:0:0:0:
256,192,37844,128,0,37932:0:0:0:0:
36,192,37844,128,0,37932:0:0:0:0:
475,192,37844,128,0,37932:0:0:0:0:
329,192,37932,128,0,38020:0:0:0:0:
109,192,37932,128,0,38020:0:0:0:0:
182,192,38020,128,0,38109:0:0:0:0:
256,192,38020,128,0,38109:0:0:0:0:
402,192,38020,128,0,38109:0:0:0:0:
475,192,38020,128,0,38109:0:0:0:0:
109,192,38196,128,0,38284:0:0:0:0:
36,192,38196,128,0,38284:0:0:0:0:
329,192,38196,128,0,38284:0:0:0:0:
329,192,38372,128,0,38460:0:0:0:0:
256,192,38372,128,0,38460:0:0:0:0:
182,192,38372,128,0,38460:0:0:0:0:
36,192,38372,128,0,38460:0:0:0:0:
475,192,38372,128,0,38460:0:0:0:0:
36,192,38549,128,0,38636:0:0:0:0:
109,192,38549,128,0,38636:0:0:0:0:
329,192,38549,128,0,38636:0:0:0:0:
109,192,38724,128,0,38812:0:0:0:0:
182,192,38724,128,0,38812:0:0:0:0:
256,192,38724,128,0,38812:0:0:0:0:
402,192,38724,128,0,38812:0:0:0:0:
475,192,38724,128,0,38812:0:0:0:0:
329,192,38900,128,0,38988:0:0:0:0:
475,192,38900,128,0,38988:0:0:0:0:
182,192,38900,128,0,38988:0:0:0:0:
256,192,38988,128,0,39076:0:0:0:0:
402,192,38988,128,0,39076:0:0:0:0:
109,192,38988,128,0,39076:0:0:0:0:
329,192,39076,1,0,0:0:0:0:
182,192,39076,1,0,0:0:0:0:
36,192,39076,1,0,0:0:0:0:
475,192,39076,1,0,0:0:0:0:
109,192,39428,128,0,39516:0:0:0:0:
36,192,39428,128,0,39516:0:0:0:0:
256,192,39428,128,0,39516:0:0:0:0:
402,192,39428,128,0,39516:0:0:0:0:
475,192,39428,128,0,39516:0:0:0:0:
109,192,39604,128,0,39692:0:0:0:0:
256,192,39604,128,0,39692:0:0:0:0:
402,192,39604,128,0,39692:0:0:0:0:
182,192,39780,128,0,39868:0:0:0:0:
256,192,39780,128,0,39868:0:0:0:0:
329,192,39780,128,0,39868:0:0:0:0:
475,192,39780,128,0,39868:0:0:0:0:
36,192,39780,128,0,39868:0:0:0:0:
109,192,39956,128,0,40044:0:0:0:0:
256,192,39956,128,0,40044:0:0:0:0:
402,192,39956,128,0,40044:0:0:0:0:
36,192,40132,128,0,40220:0:0:0:0:
182,192,40132,128,0,40220:0:0:0:0:
329,192,40132,128,0,40220:0:0:0:0:
402,192,40132,128,0,40220:0:0:0:0:
475,192,40132,128,0,40220:0:0:0:0:
36,192,40308,128,0,40396:0:0:0:0:
109,192,40308,128,0,40396:0:0:0:0:
256,192,40308,128,0,40396:0:0:0:0:
182,192,40396,128,0,40484:0:0:0:0:
329,192,40396,128,0,40484:0:0:0:0:
402,192,40396,128,0,40484:0:0:0:0:
475,192,40484,128,0,40571:0:0:0:0:
256,192,40484,128,0,40571:0:0:0:0:
109,192,40484,128,0,40571:0:0:0:0:
36,192,40484,128,0,40571:0:0:0:0:
182,192,40571,128,0,40660:0:0:0:0:
329,192,40571,128,0,40660:0:0:0:0:
402,192,40660,128,0,40748:0:0:0:0:
36,192,40660,128,0,40748:0:0:0:0:
256,192,40660,128,0,40748:0:0:0:0:
109,192,40748,128,0,40836:0:0:0:0:
329,192,40748,128,0,40836:0:0:0:0:
182,192,40836,128,0,40923:0:0:0:0:
256,192,40836,128,0,40923:0:0:0:0:
402,192,40836,128,0,40923:0:0:0:0:
475,192,40836,128,0,40923:0:0:0:0:
109,192,41011,128,0,41100:0:0:0:0:
36,192,41011,128,0,41100:0:0:0:0:
329,192,41011,128,0,41100:0:0:0:0:
182,192,41188,128,0,41276:0:0:0:0:
256,192,41188,128,0,41276:0:0:0:0:
475,192,41188,128,0,41276:0:0:0:0:
402,192,41188,128,0,41276:0:0:0:0:
36,192,41188,128,0,41276:0:0:0:0:
109,192,41363,128,0,41451:0:0:0:0:
36,192,41363,128,0,41451:0:0:0:0:
329,192,41363,128,0,41451:0:0:0:0:
109,192,41540,128,0,41628:0:0:0:0:
182,192,41540,128,0,41628:0:0:0:0:
256,192,41540,128,0,41628:0:0:0:0:
402,192,41540,128,0,41628:0:0:0:0:
475,192,41540,128,0,41628:0:0:0:0:
36,192,41715,128,0,41803:0:0:0:0:
182,192,41715,128,0,41803:0:0:0:0:
329,192,41715,128,0,41803:0:0:0:0:
256,192,41803,128,0,41891:0:0:0:0:
402,192,41803,128,0,41891:0:0:0:0:
109,192,41803,128,0,41891:0:0:0:0:
475,192,41891,128,0,41980:0:0:0:0:
329,192,41891,128,0,41980:0:0:0:0:
182,192,41891,128,0,41980:0:0:0:0:
36,192,41891,128,0,41980:0:0:0:0:
109,192,41980,128,0,42068:0:0:0:0:
402,192,41980,128,0,42068:0:0:0:0:
256,192,42068,128,0,42155:0:0:0:0:
475,192,42068,128,0,42155:0:0:0:0:
36,192,42068,128,0,42155:0:0:0:0:
182,192,42155,128,0,42243:0:0:0:0:
329,192,42155,128,0,42243:0:0:0:0:
402,192,42243,1,0,0:0:0:0:
475,192,42243,1,0,0:0:0:0:
109,192,42243,1,0,0:0:0:0:
36,192,42243,1,0,0:0:0:0:
182,192,42420,1,0,0:0:0:0:
329,192,42420,1,0,0:0:0:0:
256,192,42595,1,0,0:0:0:0:
475,192,42595,1,0,0:0:0:0:
36,192,42595,1,0,0:0:0:0:
182,192,42771,1,0,0:0:0:0:
329,192,42771,1,0,0:0:0:0:
36,192,42947,1,0,0:0:0:0:
475,192,42947,1,0,0:0:0:0:
182,192,43123,1,0,0:0:0:0:
256,192,43211,1,0,0:0:0:0:
329,192,43299,1,0,0:0:0:0:
109,192,43299,1,0,0:0:0:0:
36,192,43299,1,0,0:0:0:0:
182,192,43387,1,0,0:0:0:0:
256,192,43475,1,0,0:0:0:0:
329,192,43563,1,0,0:0:0:0:
402,192,43650,1,0,0:0:0:0:
475,192,43650,1,0,0:0:0:0:
36,192,43650,128,0,43739:0:0:0:0:
182,192,43827,128,0,43915:0:0:0:0:
402,192,44003,1,0,0:0:0:0:
475,192,44003,1,0,0:0:0:0:
109,192,44003,128,0,44090:0:0:0:0:
256,192,44179,128,0,44267:0:0:0:0:
402,192,44355,1,0,0:0:0:0:
475,192,44355,1,0,0:0:0:0:
182,192,44355,128,0,44442:0:0:0:0:
36,192,44530,128,0,44619:0:0:0:0:
109,192,44619,128,0,44707:0:0:0:0:
402,192,44707,1,0,0:0:0:0:
475,192,44707,1,0,0:0:0:0:
182,192,44707,128,0,44795:0:0:0:0:
256,192,44795,128,0,44882:0:0:0:0:
329,192,44882,128,0,44970:0:0:0:0:
402,192,44970,128,0,45059:0:0:0:0:
256,192,45059,1,0,0:0:0:0:
329,192,45059,1,0,0:0:0:0:
475,192,45059,1,0,0:0:0:0:
109,192,45059,1,0,0:0:0:0:
36,192,45059,1,0,0:0:0:0:
182,192,45147,1,0,0:0:0:0:
329,192,45234,1,0,0:0:0:0:
109,192,45234,1,0,0:0:0:0:
475,192,45234,1,0,0:0:0:0:
256,192,45322,1,0,0:0:0:0:
182,192,45410,1,0,0:0:0:0:
36,192,45410,1,0,0:0:0:0:
402,192,45410,1,0,0:0:0:0:
475,192,45410,1,0,0:0:0:0:
256,192,45499,1,0,0:0:0:0:
109,192,45499,1,0,0:0:0:0:
182,192,45587,1,0,0:0:0:0:
329,192,45587,1,0,0:0:0:0:
475,192,45587,1,0,0:0:0:0:
256,192,45674,1,0,0:0:0:0:
402,192,45674,1,0,0:0:0:0:
329,192,45762,1,0,0:0:0:0:
475,192,45762,1,0,0:0:0:0:
109,192,45762,1,0,0:0:0:0:
36,192,45762,1,0,0:0:0:0:
256,192,45850,1,0,0:0:0:0:
402,192,45850,1,0,0:0:0:0:
329,192,45939,1,0,0:0:0:0:
182,192,45939,1,0,0:0:0:0:
36,192,45939,1,0,0:0:0:0:
256,192,46026,1,0,0:0:0:0:
109,192,46026,1,0,0:0:0:0:
36,192,46114,1,0,0:0:0:0:
182,192,46114,1,0,0:0:0:0:
402,192,46114,1,0,0:0:0:0:
475,192,46114,1,0,0:0:0:0:
329,192,46202,1,0,0:0:0:0:
109,192,46202,1,0,0:0:0:0:
256,192,46202,1,0,0:0:0:0:
182,192,46290,1,0,0:0:0:0:
402,192,46290,1,0,0:0:0:0:
475,192,46290,1,0,0:0:0:0:
329,192,46378,1,0,0:0:0:0:
109,192,46378,1,0,0:0:0:0:
256,192,46378,1,0,0:0:0:0:
182,192,46466,1,0,0:0:0:0:
36,192,46466,1,0,0:0:0:0:
402,192,46466,1,0,0:0:0:0:
475,192,46466,1,0,0:0:0:0:
109,192,46554,1,0,0:0:0:0:
329,192,46554,1,0,0:0:0:0:
256,192,46642,1,0,0:0:0:0:
36,192,46642,1,0,0:0:0:0:
475,192,46642,1,0,0:0:0:0:
182,192,46730,1,0,0:0:0:0:
402,192,46730,1,0,0:0:0:0:
329,192,46818,1,0,0:0:0:0:
109,192,46818,1,0,0:0:0:0:
36,192,46818,1,0,0:0:0:0:
475,192,46818,1,0,0:0:0:0:
182,192,46906,1,0,0:0:0:0:
402,192,46906,1,0,0:0:0:0:
256,192,46994,1,0,0:0:0:0:
475,192,46994,1,0,0:0:0:0:
36,192,46994,1,0,0:0:0:0:
109,192,47082,1,0,0:0:0:0:
329,192,47082,1,0,0:0:0:0:
182,192,47169,1,0,0:0:0:0:
402,192,47169,1,0,0:0:0:0:
475,192,47169,1,0,0:0:0:0:
36,192,47169,1,0,0:0:0:0:
109,192,47258,1,0,0:0:0:0:
256,192,47258,1,0,0:0:0:0:
182,192,47346,1,0,0:0:0:0:
329,192,47346,1,0,0:0:0:0:
36,192,47346,1,0,0:0:0:0:
256,192,47434,1,0,0:0:0:0:
402,192,47434,1,0,0:0:0:0:
329,192,47522,1,0,0:0:0:0:
475,192,47522,1,0,0:0:0:0:
109,192,47522,1,0,0:0:0:0:
36,192,47522,1,0,0:0:0:0:
402,192,47609,1,0,0:0:0:0:
256,192,47609,1,0,0:0:0:0:
182,192,47609,1,0,0:0:0:0:
109,192,47698,1,0,0:0:0:0:
36,192,47698,1,0,0:0:0:0:
329,192,47698,1,0,0:0:0:0:
182,192,47786,1,0,0:0:0:0:
256,192,47786,1,0,0:0:0:0:
402,192,47786,1,0,0:0:0:0:
329,192,47874,1,0,0:0:0:0:
475,192,47874,1,0,0:0:0:0:
109,192,47874,1,0,0:0:0:0:
36,192,47874,1,0,0:0:0:0:
256,192,47961,1,0,0:0:0:0:
182,192,48049,1,0,0:0:0:0:
36,192,48049,1,0,0:0:0:0:
402,192,48049,1,0,0:0:0:0:
329,192,48138,1,0,0:0:0:0:
256,192,48226,1,0,0:0:0:0:
475,192,48226,1,0,0:0:0:0:
109,192,48226,1,0,0:0:0:0:
36,192,48226,1,0,0:0:0:0:
182,192,48314,1,0,0:0:0:0:
329,192,48314,1,0,0:0:0:0:
256,192,48401,1,0,0:0:0:0:
402,192,48401,1,0,0:0:0:0:
36,192,48401,1,0,0:0:0:0:
329,192,48489,1,0,0:0:0:0:
475,192,48489,1,0,0:0:0:0:
36,192,48578,1,0,0:0:0:0:
109,192,48578,1,0,0:0:0:0:
256,192,48578,1,0,0:0:0:0:
402,192,48578,1,0,0:0:0:0:
182,192,48666,1,0,0:0:0:0:
329,192,48666,1,0,0:0:0:0:
256,192,48753,1,0,0:0:0:0:
109,192,48753,1,0,0:0:0:0:
475,192,48753,1,0,0:0:0:0:
182,192,48841,1,0,0:0:0:0:
36,192,48841,1,0,0:0:0:0:
109,192,48929,1,0,0:0:0:0:
329,192,48929,1,0,0:0:0:0:
402,192,48929,1,0,0:0:0:0:
475,192,48929,1,0,0:0:0:0:
256,192,49018,1,0,0:0:0:0:
36,192,49018,1,0,0:0:0:0:
182,192,49018,1,0,0:0:0:0:
109,192,49105,1,0,0:0:0:0:
329,192,49105,1,0,0:0:0:0:
402,192,49105,1,0,0:0:0:0:
256,192,49193,1,0,0:0:0:0:
182,192,49193,1,0,0:0:0:0:
36,192,49193,1,0,0:0:0:0:
109,192,49281,1,0,0:0:0:0:
329,192,49281,1,0,0:0:0:0:
402,192,49281,1,0,0:0:0:0:
475,192,49281,1,0,0:0:0:0:
256,192,49369,1,0,0:0:0:0:
182,192,49458,1,0,0:0:0:0:
36,192,49458,1,0,0:0:0:0:
402,192,49458,1,0,0:0:0:0:
329,192,49545,1,0,0:0:0:0:
256,192,49633,1,0,0:0:0:0:
475,192,49633,1,0,0:0:0:0:
109,192,49633,1,0,0:0:0:0:
36,192,49633,1,0,0:0:0:0:
182,192,49721,1,0,0:0:0:0:
329,192,49721,1,0,0:0:0:0:
256,192,49809,1,0,0:0:0:0:
402,192,49809,1,0,0:0:0:0:
109,192,49809,1,0,0:0:0:0:
329,192,49897,1,0,0:0:0:0:
475,192,49897,1,0,0:0:0:0:
402,192,49985,1,0,0:0:0:0:
182,192,49985,1,0,0:0:0:0:
109,192,49985,1,0,0:0:0:0:
36,192,49985,1,0,0:0:0:0:
256,192,50073,1,0,0:0:0:0:
475,192,50073,1,0,0:0:0:0:
329,192,50161,1,0,0:0:0:0:
36,192,50161,1,0,0:0:0:0:
182,192,50161,1,0,0:0:0:0:
109,192,50249,1,0,0:0:0:0:
402,192,50249,1,0,0:0:0:0:
256,192,50337,1,0,0:0:0:0:
475,192,50337,1,0,0:0:0:0:
182,192,50337,1,0,0:0:0:0:
36,192,50337,1,0,0:0:0:0:
329,192,50425,1,0,0:0:0:0:
402,192,50425,1,0,0:0:0:0:
109,192,50425,1,0,0:0:0:0:
256,192,50513,1,0,0:0:0:0:
36,192,50513,1,0,0:0:0:0:
475,192,50513,1,0,0:0:0:0:
182,192,50601,1,0,0:0:0:0:
402,192,50601,1,0,0:0:0:0:
109,192,50689,1,0,0:0:0:0:
36,192,50689,1,0,0:0:0:0:
256,192,50689,1,0,0:0:0:0:
329,192,50689,1,0,0:0:0:0:
475,192,50689,1,0,0:0:0:0:
182,192,50777,1,0,0:0:0:0:
256,192,50865,1,0,0:0:0:0:
36,192,50865,1,0,0:0:0:0:
475,192,50865,1,0,0:0:0:0:
329,192,50953,1,0,0:0:0:0:
402,192,51041,1,0,0:0:0:0:
475,192,51041,1,0,0:0:0:0:
182,192,51041,1,0,0:0:0:0:
109,192,51041,1,0,0:0:0:0:
256,192,51129,1,0,0:0:0:0:
36,192,51129,1,0,0:0:0:0:
182,192,51217,1,0,0:0:0:0:
329,192,51217,1,0,0:0:0:0:
475,192,51217,1,0,0:0:0:0:
109,192,51305,1,0,0:0:0:0:
402,192,51305,1,0,0:0:0:0:
36,192,51393,1,0,0:0:0:0:
256,192,51393,1,0,0:0:0:0:
329,192,51393,1,0,0:0:0:0:
475,192,51393,1,0,0:0:0:0:
182,192,51480,1,0,0:0:0:0:
402,192,51480,1,0,0:0:0:0:
329,192,51569,1,0,0:0:0:0:
109,192,51569,1,0,0:0:0:0:
36,192,51569,1,0,0:0:0:0:
182,192,51657,1,0,0:0:0:0:
402,192,51657,1,0,0:0:0:0:
475,192,51745,1,0,0:0:0:0:
256,192,51745,1,0,0:0:0:0:
109,192,51745,1,0,0:0:0:0:
36,192,51745,1,0,0:0:0:0:
182,192,51832,1,0,0:0:0:0:
329,192,51832,1,0,0:0:0:0:
402,192,51920,1,0,0:0:0:0:
256,192,51920,1,0,0:0:0:0:
36,192,51920,1,0,0:0:0:0:
329,192,52009,1,0,0:0:0:0:
475,192,52009,1,0,0:0:0:0:
36,192,52097,1,0,0:0:0:0:
109,192,52097,1,0,0:0:0:0:
256,192,52097,1,0,0:0:0:0:
402,192,52097,1,0,0:0:0:0:
182,192,52185,1,0,0:0:0:0:
109,192,52272,1,0,0:0:0:0:
329,192,52272,1,0,0:0:0:0:
475,192,52272,1,0,0:0:0:0:
256,192,52360,1,0,0:0:0:0:
36,192,52360,1,0,0:0:0:0:
182,192,52449,1,0,0:0:0:0:
402,192,52449,1,0,0:0:0:0:
475,192,52449,1,0,0:0:0:0:
329,192,52449,1,0,0:0:0:0:
109,192,52537,1,0,0:0:0:0:
36,192,52624,1,0,0:0:0:0:
256,192,52624,1,0,0:0:0:0:
475,192,52624,1,0,0:0:0:0:
182,192,52712,1,0,0:0:0:0:
402,192,52712,1,0,0:0:0:0:
329,192,52800,1,0,0:0:0:0:
109,192,52800,1,0,0:0:0:0:
36,192,52800,1,0,0:0:0:0:
475,192,52800,1,0,0:0:0:0:
256,192,52889,1,0,0:0:0:0:
402,192,52889,1,0,0:0:0:0:
329,192,52977,1,0,0:0:0:0:
182,192,52977,1,0,0:0:0:0:
36,192,52977,1,0,0:0:0:0:
109,192,53064,1,0,0:0:0:0:
256,192,53064,1,0,0:0:0:0:
182,192,53152,1,0,0:0:0:0:
402,192,53152,1,0,0:0:0:0:
475,192,53152,1,0,0:0:0:0:
36,192,53152,1,0,0:0:0:0:
109,192,53240,1,0,0:0:0:0:
256,192,53240,1,0,0:0:0:0:
329,192,53240,1,0,0:0:0:0:
182,192,53329,1,0,0:0:0:0:
36,192,53329,1,0,0:0:0:0:
402,192,53329,1,0,0:0:0:0:
109,192,53416,1,0,0:0:0:0:
256,192,53416,1,0,0:0:0:0:
329,192,53416,1,0,0:0:0:0:
475,192,53504,1,0,0:0:0:0:
182,192,53504,1,0,0:0:0:0:
36,192,53504,1,0,0:0:0:0:
402,192,53504,1,0,0:0:0:0:
256,192,53592,1,0,0:0:0:0:
329,192,53680,1,0,0:0:0:0:
109,192,53680,1,0,0:0:0:0:
36,192,53680,1,0,0:0:0:0:
182,192,53769,1,0,0:0:0:0:
256,192,53856,1,0,0:0:0:0:
402,192,53856,1,0,0:0:0:0:
475,192,53856,1,0,0:0:0:0:
36,192,53856,1,0,0:0:0:0:
109,192,53944,1,0,0:0:0:0:
182,192,53944,1,0,0:0:0:0:
36,192,54032,1,0,0:0:0:0:
329,192,54032,1,0,0:0:0:0:
475,192,54032,1,0,0:0:0:0:
256,192,54120,1,0,0:0:0:0:
182,192,54120,1,0,0:0:0:0:
109,192,54208,1,0,0:0:0:0:
36,192,54208,1,0,0:0:0:0:
402,192,54208,1,0,0:0:0:0:
475,192,54208,1,0,0:0:0:0:
329,192,54296,1,0,0:0:0:0:
256,192,54296,1,0,0:0:0:0:
182,192,54384,1,0,0:0:0:0:
36,192,54384,1,0,0:0:0:0:
475,192,54384,1,0,0:0:0:0:
329,192,54472,1,0,0:0:0:0:
402,192,54472,1,0,0:0:0:0:
256,192,54559,1,0,0:0:0:0:
109,192,54559,1,0,0:0:0:0:
36,192,54559,1,0,0:0:0:0:
475,192,54559,1,0,0:0:0:0:
182,192,54648,1,0,0:0:0:0:
329,192,54648,1,0,0:0:0:0:
402,192,54648,1,0,0:0:0:0:
256,192,54736,1,0,0:0:0:0:
109,192,54736,1,0,0:0:0:0:
36,192,54736,1,0,0:0:0:0:
182,192,54824,1,0,0:0:0:0:
329,192,54824,1,0,0:0:0:0:
402,192,54912,1,0,0:0:0:0:
475,192,54912,1,0,0:0:0:0:
256,192,54912,1,0,0:0:0:0:
109,192,54912,1,0,0:0:0:0:
36,192,54912,1,0,0:0:0:0:
182,192,54999,1,0,0:0:0:0:
256,192,55088,1,0,0:0:0:0:
475,192,55088,1,0,0:0:0:0:
36,192,55088,1,0,0:0:0:0:
329,192,55176,1,0,0:0:0:0:
109,192,55176,1,0,0:0:0:0:
182,192,55264,1,0,0:0:0:0:
402,192,55264,1,0,0:0:0:0:
475,192,55264,1,0,0:0:0:0:
256,192,55264,1,0,0:0:0:0:
109,192,55351,1,0,0:0:0:0:
36,192,55351,1,0,0:0:0:0:
329,192,55351,1,0,0:0:0:0:
182,192,55439,1,0,0:0:0:0:
402,192,55439,1,0,0:0:0:0:
475,192,55439,1,0,0:0:0:0:
329,192,55528,1,0,0:0:0:0:
109,192,55528,1,0,0:0:0:0:
36,192,55528,1,0,0:0:0:0:
182,192,55616,1,0,0:0:0:0:
402,192,55616,1,0,0:0:0:0:
475,192,55616,1,0,0:0:0:0:
256,192,55704,1,0,0:0:0:0:
329,192,55704,1,0,0:0:0:0:
36,192,55704,1,0,0:0:0:0:
109,192,55791,1,0,0:0:0:0:
402,192,55791,1,0,0:0:0:0:
475,192,55791,1,0,0:0:0:0:
182,192,55879,1,0,0:0:0:0:
256,192,55879,1,0,0:0:0:0:
329,192,55879,1,0,0:0:0:0:
109,192,55968,1,0,0:0:0:0:
36,192,55968,1,0,0:0:0:0:
402,192,55968,1,0,0:0:0:0:
182,192,56056,1,0,0:0:0:0:
256,192,56056,1,0,0:0:0:0:
475,192,56056,1,0,0:0:0:0:
329,192,56143,1,0,0:0:0:0:
402,192,56143,1,0,0:0:0:0:
36,192,56143,1,0,0:0:0:0:
109,192,56231,1,0,0:0:0:0:
182,192,56231,1,0,0:0:0:0:
475,192,56231,1,0,0:0:0:0:
256,192,56319,128,0,56583:0:0:0:0:
329,192,56319,1,0,0:0:0:0:
402,192,56319,1,0,0:0:0:0:
36,192,56319,1,0,0:0:0:0:
256,192,56671,1,0,0:0:0:0:
402,192,56671,1,0,0:0:0:0:
475,192,56671,1,0,0:0:0:0:
109,192,56671,1,0,0:0:0:0:
36,192,56671,1,0,0:0:0:0:
182,192,56759,1,0,0:0:0:0:
329,192,56759,1,0,0:0:0:0:
256,192,56848,1,0,0:0:0:0:
402,192,56848,1,0,0:0:0:0:
109,192,56848,1,0,0:0:0:0:
182,192,56935,1,0,0:0:0:0:
329,192,56935,1,0,0:0:0:0:
256,192,57023,1,0,0:0:0:0:
402,192,57023,1,0,0:0:0:0:
475,192,57023,1,0,0:0:0:0:
36,192,57023,1,0,0:0:0:0:
109,192,57111,1,0,0:0:0:0:
329,192,57111,1,0,0:0:0:0:
182,192,57199,1,0,0:0:0:0:
475,192,57199,1,0,0:0:0:0:
36,192,57199,1,0,0:0:0:0:
109,192,57287,1,0,0:0:0:0:
329,192,57287,1,0,0:0:0:0:
36,192,57375,1,0,0:0:0:0:
256,192,57375,1,0,0:0:0:0:
402,192,57375,1,0,0:0:0:0:
475,192,57375,1,0,0:0:0:0:
182,192,57463,1,0,0:0:0:0:
329,192,57463,1,0,0:0:0:0:
109,192,57463,1,0,0:0:0:0:
36,192,57551,1,0,0:0:0:0:
256,192,57551,1,0,0:0:0:0:
475,192,57551,1,0,0:0:0:0:
182,192,57639,1,0,0:0:0:0:
329,192,57639,1,0,0:0:0:0:
402,192,57639,1,0,0:0:0:0:
256,192,57727,1,0,0:0:0:0:
475,192,57727,1,0,0:0:0:0:
109,192,57727,1,0,0:0:0:0:
36,192,57727,1,0,0:0:0:0:
329,192,57815,1,0,0:0:0:0:
402,192,57815,1,0,0:0:0:0:
256,192,57903,1,0,0:0:0:0:
182,192,57903,1,0,0:0:0:0:
109,192,57903,1,0,0:0:0:0:
329,192,57991,1,0,0:0:0:0:
402,192,57991,1,0,0:0:0:0:
475,192,58079,1,0,0:0:0:0:
182,192,58079,1,0,0:0:0:0:
109,192,58079,1,0,0:0:0:0:
36,192,58079,1,0,0:0:0:0:
256,192,58167,1,0,0:0:0:0:
402,192,58167,1,0,0:0:0:0:
329,192,58255,1,0,0:0:0:0:
109,192,58255,1,0,0:0:0:0:
36,192,58255,1,0,0:0:0:0:
182,192,58343,1,0,0:0:0:0:
402,192,58343,1,0,0:0:0:0:
256,192,58431,1,0,0:0:0:0:
475,192,58431,1,0,0:0:0:0:
36,192,58431,1,0,0:0:0:0:
329,192,58431,1,0,0:0:0:0:
182,192,58519,1,0,0:0:0:0:
402,192,58519,1,0,0:0:0:0:
329,192,58607,1,0,0:0:0:0:
109,192,58607,1,0,0:0:0:0:
36,192,58607,1,0,0:0:0:0:
256,192,58695,1,0,0:0:0:0:
475,192,58695,1,0,0:0:0:0:
402,192,58783,1,0,0:0:0:0:
182,192,58783,1,0,0:0:0:0:
109,192,58783,1,0,0:0:0:0:
36,192,58783,1,0,0:0:0:0:
256,192,58870,1,0,0:0:0:0:
329,192,58870,1,0,0:0:0:0:
475,192,58870,1,0,0:0:0:0:
402,192,58959,1,0,0:0:0:0:
182,192,58959,1,0,0:0:0:0:
109,192,58959,1,0,0:0:0:0:
256,192,59047,1,0,0:0:0:0:
329,192,59047,1,0,0:0:0:0:
475,192,59047,1,0,0:0:0:0:
109,192,59135,1,0,0:0:0:0:
36,192,59135,1,0,0:0:0:0:
402,192,59135,1,0,0:0:0:0:
182,192,59135,1,0,0:0:0:0:
256,192,59223,1,0,0:0:0:0:
329,192,59310,1,0,0:0:0:0:
36,192,59310,1,0,0:0:0:0:
475,192,59310,1,0,0:0:0:0:
256,192,59399,1,0,0:0:0:0:
182,192,59487,1,0,0:0:0:0:
109,192,59487,1,0,0:0:0:0:
402,192,59487,1,0,0:0:0:0:
475,192,59487,1,0,0:0:0:0:
329,192,59575,1,0,0:0:0:0:
256,192,59575,1,0,0:0:0:0:
402,192,59662,1,0,0:0:0:0:
109,192,59662,1,0,0:0:0:0:
36,192,59662,1,0,0:0:0:0:
182,192,59750,1,0,0:0:0:0:
256,192,59750,1,0,0:0:0:0:
329,192,59839,1,0,0:0:0:0:
475,192,59839,1,0,0:0:0:0:
109,192,59839,1,0,0:0:0:0:
36,192,59839,1,0,0:0:0:0:
182,192,59927,1,0,0:0:0:0:
256,192,59927,1,0,0:0:0:0:
109,192,60014,1,0,0:0:0:0:
402,192,60014,1,0,0:0:0:0:
475,192,60014,1,0,0:0:0:0:
329,192,60102,1,0,0:0:0:0:
256,192,60102,1,0,0:0:0:0:
182,192,60190,1,0,0:0:0:0:
36,192,60190,1,0,0:0:0:0:
109,192,60190,1,0,0:0:0:0:
475,192,60190,1,0,0:0:0:0:
256,192,60279,1,0,0:0:0:0:
329,192,60279,1,0,0:0:0:0:
402,192,60279,1,0,0:0:0:0:
182,192,60367,1,0,0:0:0:0:
109,192,60367,1,0,0:0:0:0:
36,192,60367,1,0,0:0:0:0:
256,192,60454,1,0,0:0:0:0:
329,192,60454,1,0,0:0:0:0:
402,192,60454,1,0,0:0:0:0:
475,192,60542,1,0,0:0:0:0:
182,192,60542,1,0,0:0:0:0:
109,192,60542,1,0,0:0:0:0:
36,192,60542,1,0,0:0:0:0:
256,192,60630,1,0,0:0:0:0:
329,192,60719,1,0,0:0:0:0:
475,192,60719,1,0,0:0:0:0:
109,192,60719,1,0,0:0:0:0:
182,192,60806,1,0,0:0:0:0:
256,192,60894,1,0,0:0:0:0:
402,192,60894,1,0,0:0:0:0:
475,192,60894,1,0,0:0:0:0:
36,192,60894,1,0,0:0:0:0:
182,192,60982,1,0,0:0:0:0:
329,192,60982,1,0,0:0:0:0:
109,192,61070,1,0,0:0:0:0:
256,192,61070,1,0,0:0:0:0:
402,192,61070,1,0,0:0:0:0:
182,192,61159,1,0,0:0:0:0:
329,192,61159,1,0,0:0:0:0:
256,192,61246,1,0,0:0:0:0:
402,192,61246,1,0,0:0:0:0:
475,192,61246,1,0,0:0:0:0:
109,192,61246,1,0,0:0:0:0:
36,192,61334,1,0,0:0:0:0:
182,192,61334,1,0,0:0:0:0:
109,192,61422,1,0,0:0:0:0:
329,192,61422,1,0,0:0:0:0:
475,192,61422,1,0,0:0:0:0:
256,192,61510,1,0,0:0:0:0:
402,192,61510,1,0,0:0:0:0:
329,192,61598,1,0,0:0:0:0:
182,192,61598,1,0,0:0:0:0:
109,192,61598,1,0,0:0:0:0:
36,192,61598,1,0,0:0:0:0:
256,192,61686,1,0,0:0:0:0:
402,192,61686,1,0,0:0:0:0:
475,192,61686,1,0,0:0:0:0:
329,192,61774,1,0,0:0:0:0:
109,192,61774,1,0,0:0:0:0:
36,192,61774,1,0,0:0:0:0:
182,192,61862,1,0,0:0:0:0:
402,192,61862,1,0,0:0:0:0:
256,192,61950,1,0,0:0:0:0:
329,192,61950,1,0,0:0:0:0:
475,192,61950,1,0,0:0:0:0:
36,192,61950,1,0,0:0:0:0:
109,192,61950,1,0,0:0:0:0:
182,192,62038,1,0,0:0:0:0:
256,192,62126,1,0,0:0:0:0:
475,192,62126,1,0,0:0:0:0:
402,192,62126,1,0,0:0:0:0:
36,192,62126,1,0,0:0:0:0:
109,192,62214,1,0,0:0:0:0:
182,192,62302,1,0,0:0:0:0:
36,192,62302,1,0,0:0:0:0:
329,192,62302,1,0,0:0:0:0:
475,192,62302,1,0,0:0:0:0:
256,192,62389,1,0,0:0:0:0:
402,192,62389,1,0,0:0:0:0:
109,192,62389,1,0,0:0:0:0:
329,192,62478,1,0,0:0:0:0:
36,192,62478,1,0,0:0:0:0:
182,192,62478,1,0,0:0:0:0:
109,192,62566,1,0,0:0:0:0:
256,192,62566,1,0,0:0:0:0:
402,192,62566,1,0,0:0:0:0:
182,192,62654,1,0,0:0:0:0:
329,192,62654,1,0,0:0:0:0:
475,192,62654,1,0,0:0:0:0:
36,192,62654,1,0,0:0:0:0:
109,192,62741,1,0,0:0:0:0:
256,192,62741,1,0,0:0:0:0:
182,192,62829,1,0,0:0:0:0:
329,192,62829,1,0,0:0:0:0:
475,192,62829,1,0,0:0:0:0:
256,192,62918,1,0,0:0:0:0:
402,192,62918,1,0,0:0:0:0:
329,192,63006,1,0,0:0:0:0:
475,192,63006,1,0,0:0:0:0:
109,192,63006,1,0,0:0:0:0:
36,192,63006,1,0,0:0:0:0:
182,192,63094,1,0,0:0:0:0:
256,192,63094,1,0,0:0:0:0:
402,192,63094,1,0,0:0:0:0:
329,192,63181,1,0,0:0:0:0:
36,192,63181,1,0,0:0:0:0:
475,192,63181,1,0,0:0:0:0:
109,192,63269,1,0,0:0:0:0:
182,192,63269,1,0,0:0:0:0:
402,192,63269,1,0,0:0:0:0:
256,192,63358,1,0,0:0:0:0:
329,192,63358,1,0,0:0:0:0:
475,192,63358,1,0,0:0:0:0:
36,192,63358,1,0,0:0:0:0:
109,192,63446,1,0,0:0:0:0:
182,192,63446,1,0,0:0:0:0:
402,192,63446,1,0,0:0:0:0:
36,192,63533,1,0,0:0:0:0:
256,192,63533,1,0,0:0:0:0:
329,192,63533,1,0,0:0:0:0:
402,192,63621,1,0,0:0:0:0:
475,192,63621,1,0,0:0:0:0:
182,192,63621,1,0,0:0:0:0:
109,192,63709,1,0,0:0:0:0:
36,192,63709,1,0,0:0:0:0:
256,192,63709,1,0,0:0:0:0:
329,192,63709,1,0,0:0:0:0:
182,192,63798,1,0,0:0:0:0:
402,192,63798,1,0,0:0:0:0:
256,192,63886,1,0,0:0:0:0:
475,192,63886,1,0,0:0:0:0:
36,192,63886,1,0,0:0:0:0:
109,192,63973,1,0,0:0:0:0:
329,192,63973,1,0,0:0:0:0:
182,192,64061,1,0,0:0:0:0:
402,192,64061,1,0,0:0:0:0:
475,192,64061,1,0,0:0:0:0:
256,192,64061,1,0,0:0:0:0:
36,192,64149,1,0,0:0:0:0:
329,192,64149,1,0,0:0:0:0:
109,192,64149,1,0,0:0:0:0:
256,192,64238,1,0,0:0:0:0:
475,192,64238,1,0,0:0:0:0:
402,192,64238,1,0,0:0:0:0:
182,192,64325,1,0,0:0:0:0:
109,192,64325,1,0,0:0:0:0:
329,192,64325,1,0,0:0:0:0:
256,192,64413,1,0,0:0:0:0:
475,192,64413,1,0,0:0:0:0:
402,192,64413,1,0,0:0:0:0:
36,192,64413,1,0,0:0:0:0:
182,192,64501,1,0,0:0:0:0:
329,192,64501,1,0,0:0:0:0:
109,192,64589,1,0,0:0:0:0:
402,192,64589,1,0,0:0:0:0:
256,192,64589,1,0,0:0:0:0:
182,192,64678,1,0,0:0:0:0:
329,192,64678,1,0,0:0:0:0:
256,192,64765,1,0,0:0:0:0:
402,192,64765,1,0,0:0:0:0:
475,192,64765,1,0,0:0:0:0:
36,192,64765,1,0,0:0:0:0:
182,192,64853,1,0,0:0:0:0:
109,192,64941,1,0,0:0:0:0:
36,192,64941,1,0,0:0:0:0:
402,192,64941,1,0,0:0:0:0:
475,192,64941,1,0,0:0:0:0:
256,192,65029,1,0,0:0:0:0:
329,192,65117,1,0,0:0:0:0:
182,192,65117,1,0,0:0:0:0:
36,192,65117,1,0,0:0:0:0:
475,192,65117,1,0,0:0:0:0:
256,192,65205,1,0,0:0:0:0:
109,192,65205,1,0,0:0:0:0:
402,192,65205,1,0,0:0:0:0:
182,192,65293,1,0,0:0:0:0:
329,192,65293,1,0,0:0:0:0:
475,192,65293,1,0,0:0:0:0:
109,192,65381,1,0,0:0:0:0:
256,192,65381,1,0,0:0:0:0:
402,192,65381,1,0,0:0:0:0:
329,192,65469,1,0,0:0:0:0:
36,192,65469,1,0,0:0:0:0:
182,192,65469,1,0,0:0:0:0:
475,192,65469,1,0,0:0:0:0:
109,192,65557,1,0,0:0:0:0:
402,192,65557,1,0,0:0:0:0:
256,192,65557,1,0,0:0:0:0:
182,192,65645,1,0,0:0:0:0:
36,192,65645,1,0,0:0:0:0:
329,192,65645,1,0,0:0:0:0:
256,192,65733,1,0,0:0:0:0:
402,192,65733,1,0,0:0:0:0:
109,192,65733,1,0,0:0:0:0:
182,192,65821,1,0,0:0:0:0:
475,192,65821,1,0,0:0:0:0:
329,192,65821,1,0,0:0:0:0:
36,192,65821,1,0,0:0:0:0:
256,192,65909,1,0,0:0:0:0:
109,192,65909,1,0,0:0:0:0:
402,192,65909,1,0,0:0:0:0:
182,192,65997,1,0,0:0:0:0:
475,192,65997,1,0,0:0:0:0:
329,192,65997,1,0,0:0:0:0:
402,192,66085,1,0,0:0:0:0:
109,192,66085,1,0,0:0:0:0:
256,192,66085,1,0,0:0:0:0:
182,192,66173,1,0,0:0:0:0:
36,192,66173,1,0,0:0:0:0:
329,192,66173,1,0,0:0:0:0:
475,192,66173,1,0,0:0:0:0:
182,192,66437,1,0,0:0:0:0:
109,192,66437,1,0,0:0:0:0:
329,192,66437,1,0,0:0:0:0:
402,192,66437,1,0,0:0:0:0:
109,192,66700,1,0,0:0:0:0:
182,192,66700,1,0,0:0:0:0:
329,192,66700,1,0,0:0:0:0:
402,192,66700,1,0,0:0:0:0:
182,192,66877,1,0,0:0:0:0:
109,192,66877,1,0,0:0:0:0:
329,192,66877,1,0,0:0:0:0:
402,192,66877,1,0,0:0:0:0:
182,192,67229,1,0,0:0:0:0:
36,192,67229,1,0,0:0:0:0:
109,192,67317,1,0,0:0:0:0:
256,192,67317,1,0,0:0:0:0:
182,192,67405,1,0,0:0:0:0:
329,192,67405,1,0,0:0:0:0:
256,192,67492,1,0,0:0:0:0:
402,192,67492,1,0,0:0:0:0:
329,192,67580,1,0,0:0:0:0:
475,192,67580,1,0,0:0:0:0:
182,192,67932,1,0,0:0:0:0:
109,192,67932,1,0,0:0:0:0:
36,192,67932,1,0,0:0:0:0:
329,192,67932,1,0,0:0:0:0:
402,192,67932,1,0,0:0:0:0:
475,192,67932,1,0,0:0:0:0:
