osu file format v14

[General]
AudioFilename: audio.mp3
AudioLeadIn: 0
PreviewTime: 49565
Countdown: 0
SampleSet: Normal
StackLeniency: 0.7
Mode: 3
LetterboxInBreaks: 0
SpecialStyle: 0
WidescreenStoryboard: 0

[Editor]
Bookmarks: 24791,37178,49565,72791
DistanceSpacing: 0.5
BeatDivisor: 4
GridSize: 4
TimelineZoom: 1.7

[Metadata]
Title:GREMORI
TitleUnicode:GREMORI
Artist:TAIRA
ArtistUnicode:TAIRA
Creator:Remuring
Version:BMS LV.15
Source:Closers
Tags:
BeatmapID:1851278
BeatmapSetID:885759

[Difficulty]
HPDrainRate:8
CircleSize:7
OverallDifficulty:8
ApproachRate:5
SliderMultiplier:1.4
SliderTickRate:1

[Events]
//Background and Video events
0,0,"bg.png",0,0
//Break Periods
//Storyboard Layer 0 (Background)
//Storyboard Layer 1 (Fail)
//Storyboard Layer 2 (Pass)
//Storyboard Layer 3 (Foreground)
//Storyboard Sound Samples

[TimingPoints]
17,387.096774193548,4,1,0,0,1,0

[HitObjects]
182,192,17,5,0,0:0:0:0:
36,192,17,1,0,0:0:0:0:
329,192,17,1,0,0:0:0:0:
475,192,17,1,0,0:0:0:0:
36,192,404,1,0,0:0:0:0:
109,192,404,1,0,0:0:0:0:
256,192,404,1,0,0:0:0:0:
402,192,404,1,0,0:0:0:0:
182,192,791,1,0,0:0:0:0:
329,192,791,1,0,0:0:0:0:
475,192,791,1,0,0:0:0:0:
109,192,791,1,0,0:0:0:0:
109,192,1081,1,0,0:0:0:0:
182,192,1081,1,0,0:0:0:0:
329,192,1081,1,0,0:0:0:0:
475,192,1178,1,0,0:0:0:0:
36,192,1178,1,0,0:0:0:0:
256,192,1178,1,0,0:0:0:0:
402,192,1178,1,0,0:0:0:0:
182,192,1371,1,0,0:0:0:0:
36,192,1371,1,0,0:0:0:0:
329,192,1371,1,0,0:0:0:0:
475,192,1371,1,0,0:0:0:0:
109,192,1565,1,0,0:0:0:0:
256,192,1565,1,0,0:0:0:0:
402,192,1565,1,0,0:0:0:0:
475,192,1565,1,0,0:0:0:0:
109,192,1758,1,0,0:0:0:0:
256,192,1758,1,0,0:0:0:0:
402,192,1758,1,0,0:0:0:0:
475,192,1758,1,0,0:0:0:0:
329,192,1952,1,0,0:0:0:0:
402,192,1952,1,0,0:0:0:0:
109,192,1952,1,0,0:0:0:0:
36,192,1952,1,0,0:0:0:0:
109,192,2339,1,0,0:0:0:0:
182,192,2339,1,0,0:0:0:0:
329,192,2339,1,0,0:0:0:0:
402,192,2339,1,0,0:0:0:0:
182,192,2533,1,0,0:0:0:0:
256,192,2581,1,0,0:0:0:0:
329,192,2629,1,0,0:0:0:0:
109,192,2629,1,0,0:0:0:0:
402,192,2678,1,0,0:0:0:0:
256,192,2726,1,0,0:0:0:0:
475,192,2726,1,0,0:0:0:0:
36,192,2726,1,0,0:0:0:0:
109,192,2920,1,0,0:0:0:0:
182,192,2920,1,0,0:0:0:0:
329,192,2920,1,0,0:0:0:0:
402,192,2920,1,0,0:0:0:0:
182,192,3113,1,0,0:0:0:0:
36,192,3113,1,0,0:0:0:0:
329,192,3113,1,0,0:0:0:0:
475,192,3113,1,0,0:0:0:0:
475,192,3500,1,0,0:0:0:0:
402,192,3500,1,0,0:0:0:0:
256,192,3500,1,0,0:0:0:0:
109,192,3500,1,0,0:0:0:0:
329,192,3887,1,0,0:0:0:0:
182,192,3887,1,0,0:0:0:0:
36,192,3887,1,0,0:0:0:0:
402,192,3887,1,0,0:0:0:0:
402,192,4178,1,0,0:0:0:0:
329,192,4178,1,0,0:0:0:0:
182,192,4178,1,0,0:0:0:0:
36,192,4275,1,0,0:0:0:0:
475,192,4275,1,0,0:0:0:0:
256,192,4275,1,0,0:0:0:0:
109,192,4275,1,0,0:0:0:0:
329,192,4468,1,0,0:0:0:0:
475,192,4468,1,0,0:0:0:0:
182,192,4468,1,0,0:0:0:0:
36,192,4468,1,0,0:0:0:0:
402,192,4662,1,0,0:0:0:0:
256,192,4662,1,0,0:0:0:0:
109,192,4662,1,0,0:0:0:0:
36,192,4662,1,0,0:0:0:0:
329,192,4758,1,0,0:0:0:0:
402,192,4855,1,0,0:0:0:0:
256,192,4855,1,0,0:0:0:0:
109,192,4855,1,0,0:0:0:0:
36,192,4855,1,0,0:0:0:0:
182,192,5049,1,0,0:0:0:0:
109,192,5049,1,0,0:0:0:0:
402,192,5049,1,0,0:0:0:0:
475,192,5049,1,0,0:0:0:0:
256,192,5242,1,0,0:0:0:0:
36,192,5242,1,0,0:0:0:0:
182,192,5339,1,0,0:0:0:0:
475,192,5339,1,0,0:0:0:0:
36,192,5436,1,0,0:0:0:0:
402,192,5436,1,0,0:0:0:0:
329,192,5436,1,0,0:0:0:0:
109,192,5436,1,0,0:0:0:0:
256,192,5629,1,0,0:0:0:0:
475,192,5629,1,0,0:0:0:0:
182,192,5629,1,0,0:0:0:0:
109,192,5726,1,0,0:0:0:0:
329,192,5726,1,0,0:0:0:0:
402,192,5726,1,0,0:0:0:0:
36,192,5823,1,0,0:0:0:0:
182,192,5823,1,0,0:0:0:0:
256,192,5823,1,0,0:0:0:0:
475,192,5823,1,0,0:0:0:0:
402,192,5871,1,0,0:0:0:0:
329,192,5920,1,0,0:0:0:0:
256,192,5968,1,0,0:0:0:0:
182,192,6016,1,0,0:0:0:0:
402,192,6016,1,0,0:0:0:0:
329,192,6065,1,0,0:0:0:0:
256,192,6113,1,0,0:0:0:0:
182,192,6162,1,0,0:0:0:0:
109,192,6210,1,0,0:0:0:0:
36,192,6210,1,0,0:0:0:0:
402,192,6210,1,0,0:0:0:0:
475,192,6210,1,0,0:0:0:0:
109,192,6597,1,0,0:0:0:0:
182,192,6597,1,0,0:0:0:0:
329,192,6597,1,0,0:0:0:0:
402,192,6597,1,0,0:0:0:0:
182,192,6984,1,0,0:0:0:0:
329,192,6984,1,0,0:0:0:0:
475,192,6984,1,0,0:0:0:0:
36,192,6984,1,0,0:0:0:0:
109,192,7275,1,0,0:0:0:0:
182,192,7275,1,0,0:0:0:0:
36,192,7275,1,0,0:0:0:0:
475,192,7371,1,0,0:0:0:0:
256,192,7371,1,0,0:0:0:0:
329,192,7371,1,0,0:0:0:0:
402,192,7371,1,0,0:0:0:0:
182,192,7565,1,0,0:0:0:0:
36,192,7565,1,0,0:0:0:0:
329,192,7565,1,0,0:0:0:0:
475,192,7565,1,0,0:0:0:0:
109,192,7758,1,0,0:0:0:0:
256,192,7758,1,0,0:0:0:0:
402,192,7758,1,0,0:0:0:0:
475,192,7758,1,0,0:0:0:0:
109,192,7952,1,0,0:0:0:0:
256,192,7952,1,0,0:0:0:0:
402,192,7952,1,0,0:0:0:0:
475,192,7952,1,0,0:0:0:0:
329,192,8146,1,0,0:0:0:0:
402,192,8146,1,0,0:0:0:0:
109,192,8146,1,0,0:0:0:0:
36,192,8146,1,0,0:0:0:0:
109,192,8533,1,0,0:0:0:0:
182,192,8533,1,0,0:0:0:0:
329,192,8533,1,0,0:0:0:0:
402,192,8533,1,0,0:0:0:0:
182,192,8726,1,0,0:0:0:0:
256,192,8775,1,0,0:0:0:0:
329,192,8823,1,0,0:0:0:0:
109,192,8823,1,0,0:0:0:0:
402,192,8871,1,0,0:0:0:0:
256,192,8920,1,0,0:0:0:0:
475,192,8920,1,0,0:0:0:0:
36,192,8920,1,0,0:0:0:0:
109,192,9113,1,0,0:0:0:0:
182,192,9113,1,0,0:0:0:0:
329,192,9113,1,0,0:0:0:0:
402,192,9113,1,0,0:0:0:0:
182,192,9307,1,0,0:0:0:0:
36,192,9307,1,0,0:0:0:0:
329,192,9307,1,0,0:0:0:0:
475,192,9307,1,0,0:0:0:0:
329,192,9500,1,0,0:0:0:0:
36,192,9500,1,0,0:0:0:0:
475,192,9694,1,0,0:0:0:0:
402,192,9694,1,0,0:0:0:0:
256,192,9694,1,0,0:0:0:0:
109,192,9694,1,0,0:0:0:0:
329,192,10081,1,0,0:0:0:0:
182,192,10081,1,0,0:0:0:0:
36,192,10081,1,0,0:0:0:0:
402,192,10081,1,0,0:0:0:0:
109,192,10275,1,0,0:0:0:0:
475,192,10275,1,0,0:0:0:0:
402,192,10371,1,0,0:0:0:0:
329,192,10371,1,0,0:0:0:0:
182,192,10371,1,0,0:0:0:0:
36,192,10468,1,0,0:0:0:0:
475,192,10468,1,0,0:0:0:0:
256,192,10468,1,0,0:0:0:0:
109,192,10468,1,0,0:0:0:0:
329,192,10662,1,0,0:0:0:0:
475,192,10662,1,0,0:0:0:0:
182,192,10662,1,0,0:0:0:0:
36,192,10662,1,0,0:0:0:0:
256,192,10758,1,0,0:0:0:0:
402,192,10855,1,0,0:0:0:0:
329,192,10855,1,0,0:0:0:0:
109,192,10855,1,0,0:0:0:0:
36,192,10855,1,0,0:0:0:0:
402,192,11049,1,0,0:0:0:0:
329,192,11049,1,0,0:0:0:0:
109,192,11049,1,0,0:0:0:0:
36,192,11049,1,0,0:0:0:0:
256,192,11049,1,0,0:0:0:0:
182,192,11242,1,0,0:0:0:0:
109,192,11242,1,0,0:0:0:0:
402,192,11242,1,0,0:0:0:0:
475,192,11242,1,0,0:0:0:0:
256,192,11436,1,0,0:0:0:0:
36,192,11436,1,0,0:0:0:0:
329,192,11436,1,0,0:0:0:0:
182,192,11436,1,0,0:0:0:0:
475,192,11436,1,0,0:0:0:0:
109,192,11629,1,0,0:0:0:0:
402,192,11629,1,0,0:0:0:0:
475,192,11629,1,0,0:0:0:0:
256,192,11629,1,0,0:0:0:0:
36,192,11823,1,0,0:0:0:0:
182,192,11823,1,0,0:0:0:0:
329,192,11823,1,0,0:0:0:0:
109,192,11920,1,0,0:0:0:0:
256,192,11920,1,0,0:0:0:0:
402,192,11920,1,0,0:0:0:0:
329,192,12016,1,0,0:0:0:0:
475,192,12016,1,0,0:0:0:0:
182,192,12016,1,0,0:0:0:0:
36,192,12016,1,0,0:0:0:0:
109,192,12113,1,0,0:0:0:0:
402,192,12113,1,0,0:0:0:0:
182,192,12210,1,0,0:0:0:0:
329,192,12210,1,0,0:0:0:0:
402,192,12307,1,0,0:0:0:0:
109,192,12307,1,0,0:0:0:0:
256,192,12404,1,0,0:0:0:0:
36,192,12404,1,0,0:0:0:0:
475,192,12404,1,0,0:0:0:0:
329,192,12404,1,0,0:0:0:0:
182,192,12500,1,0,0:0:0:0:
109,192,12597,1,0,0:0:0:0:
402,192,12597,1,0,0:0:0:0:
256,192,12694,1,0,0:0:0:0:
182,192,12791,1,0,0:0:0:0:
36,192,12791,1,0,0:0:0:0:
329,192,12791,1,0,0:0:0:0:
402,192,12791,1,0,0:0:0:0:
475,192,12887,1,0,0:0:0:0:
36,192,12984,1,0,0:0:0:0:
256,192,12984,1,0,0:0:0:0:
109,192,13081,1,0,0:0:0:0:
182,192,13178,1,0,0:0:0:0:
329,192,13178,1,0,0:0:0:0:
475,192,13178,1,0,0:0:0:0:
256,192,13275,1,0,0:0:0:0:
402,192,13371,1,0,0:0:0:0:
109,192,13371,1,0,0:0:0:0:
182,192,13468,1,0,0:0:0:0:
329,192,13468,1,0,0:0:0:0:
475,192,13468,1,0,0:0:0:0:
402,192,13565,1,0,0:0:0:0:
256,192,13565,1,0,0:0:0:0:
36,192,13565,1,0,0:0:0:0:
109,192,13565,1,0,0:0:0:0:
475,192,13662,1,0,0:0:0:0:
36,192,13758,1,0,0:0:0:0:
182,192,13758,1,0,0:0:0:0:
329,192,13758,1,0,0:0:0:0:
402,192,13855,1,0,0:0:0:0:
256,192,13952,1,0,0:0:0:0:
36,192,13952,1,0,0:0:0:0:
109,192,13952,1,0,0:0:0:0:
329,192,14049,1,0,0:0:0:0:
36,192,14146,1,0,0:0:0:0:
109,192,14146,1,0,0:0:0:0:
256,192,14146,1,0,0:0:0:0:
329,192,14242,1,0,0:0:0:0:
109,192,14339,1,0,0:0:0:0:
182,192,14339,1,0,0:0:0:0:
402,192,14339,1,0,0:0:0:0:
475,192,14339,1,0,0:0:0:0:
256,192,14436,1,0,0:0:0:0:
329,192,14533,1,0,0:0:0:0:
36,192,14533,1,0,0:0:0:0:
109,192,14629,1,0,0:0:0:0:
329,192,14726,1,0,0:0:0:0:
475,192,14726,1,0,0:0:0:0:
182,192,14726,1,0,0:0:0:0:
256,192,14823,1,0,0:0:0:0:
109,192,14920,1,0,0:0:0:0:
402,192,14920,1,0,0:0:0:0:
182,192,15016,1,0,0:0:0:0:
329,192,15016,1,0,0:0:0:0:
36,192,15016,1,0,0:0:0:0:
402,192,15113,1,0,0:0:0:0:
475,192,15113,1,0,0:0:0:0:
256,192,15113,1,0,0:0:0:0:
109,192,15113,1,0,0:0:0:0:
36,192,15210,1,0,0:0:0:0:
475,192,15307,1,0,0:0:0:0:
182,192,15307,1,0,0:0:0:0:
329,192,15307,1,0,0:0:0:0:
109,192,15404,1,0,0:0:0:0:
36,192,15500,1,0,0:0:0:0:
256,192,15500,1,0,0:0:0:0:
402,192,15500,1,0,0:0:0:0:
475,192,15500,1,0,0:0:0:0:
182,192,15597,1,0,0:0:0:0:
256,192,15694,1,0,0:0:0:0:
36,192,15694,1,0,0:0:0:0:
329,192,15791,1,0,0:0:0:0:
109,192,15887,1,0,0:0:0:0:
182,192,15887,1,0,0:0:0:0:
402,192,15887,1,0,0:0:0:0:
475,192,15887,1,0,0:0:0:0:
256,192,15984,1,0,0:0:0:0:
329,192,16081,1,0,0:0:0:0:
36,192,16081,1,0,0:0:0:0:
109,192,16178,1,0,0:0:0:0:
182,192,16275,1,0,0:0:0:0:
256,192,16275,1,0,0:0:0:0:
475,192,16275,1,0,0:0:0:0:
402,192,16371,1,0,0:0:0:0:
329,192,16468,1,0,0:0:0:0:
109,192,16468,1,0,0:0:0:0:
36,192,16565,1,0,0:0:0:0:
256,192,16565,1,0,0:0:0:0:
402,192,16565,1,0,0:0:0:0:
182,192,16662,1,0,0:0:0:0:
109,192,16662,1,0,0:0:0:0:
329,192,16662,1,0,0:0:0:0:
475,192,16662,1,0,0:0:0:0:
256,192,16758,1,0,0:0:0:0:
329,192,16855,1,0,0:0:0:0:
109,192,16855,1,0,0:0:0:0:
36,192,16855,1,0,0:0:0:0:
182,192,16952,1,0,0:0:0:0:
256,192,17049,1,0,0:0:0:0:
402,192,17049,1,0,0:0:0:0:
475,192,17049,1,0,0:0:0:0:
109,192,17146,1,0,0:0:0:0:
182,192,17242,1,0,0:0:0:0:
329,192,17242,1,0,0:0:0:0:
402,192,17242,1,0,0:0:0:0:
36,192,17339,1,0,0:0:0:0:
109,192,17436,1,0,0:0:0:0:
182,192,17436,1,0,0:0:0:0:
475,192,17436,1,0,0:0:0:0:
402,192,17436,1,0,0:0:0:0:
329,192,17533,1,0,0:0:0:0:
256,192,17629,1,0,0:0:0:0:
36,192,17629,1,0,0:0:0:0:
182,192,17726,1,0,0:0:0:0:
109,192,17823,1,0,0:0:0:0:
36,192,17823,1,0,0:0:0:0:
329,192,17823,1,0,0:0:0:0:
256,192,17920,1,0,0:0:0:0:
402,192,18016,1,0,0:0:0:0:
182,192,18016,1,0,0:0:0:0:
475,192,18016,1,0,0:0:0:0:
329,192,18113,1,0,0:0:0:0:
36,192,18113,1,0,0:0:0:0:
109,192,18113,1,0,0:0:0:0:
256,192,18210,1,0,0:0:0:0:
402,192,18210,1,0,0:0:0:0:
475,192,18210,1,0,0:0:0:0:
182,192,18210,1,0,0:0:0:0:
109,192,18307,1,0,0:0:0:0:
182,192,18404,1,0,0:0:0:0:
329,192,18404,1,0,0:0:0:0:
36,192,18404,1,0,0:0:0:0:
256,192,18500,1,0,0:0:0:0:
402,192,18500,1,0,0:0:0:0:
109,192,18500,1,0,0:0:0:0:
182,192,18597,1,0,0:0:0:0:
329,192,18597,1,0,0:0:0:0:
475,192,18597,1,0,0:0:0:0:
36,192,18597,1,0,0:0:0:0:
256,192,18694,1,0,0:0:0:0:
182,192,18791,1,0,0:0:0:0:
402,192,18791,1,0,0:0:0:0:
329,192,18887,1,0,0:0:0:0:
256,192,18984,1,0,0:0:0:0:
109,192,18984,1,0,0:0:0:0:
36,192,18984,1,0,0:0:0:0:
475,192,18984,1,0,0:0:0:0:
329,192,19081,1,0,0:0:0:0:
402,192,19178,1,0,0:0:0:0:
182,192,19178,1,0,0:0:0:0:
256,192,19275,1,0,0:0:0:0:
329,192,19371,1,0,0:0:0:0:
475,192,19371,1,0,0:0:0:0:
109,192,19371,1,0,0:0:0:0:
36,192,19371,1,0,0:0:0:0:
182,192,19468,1,0,0:0:0:0:
256,192,19565,1,0,0:0:0:0:
402,192,19565,1,0,0:0:0:0:
182,192,19662,1,0,0:0:0:0:
109,192,19662,1,0,0:0:0:0:
329,192,19662,1,0,0:0:0:0:
256,192,19758,1,0,0:0:0:0:
36,192,19758,1,0,0:0:0:0:
402,192,19758,1,0,0:0:0:0:
475,192,19758,1,0,0:0:0:0:
182,192,19855,1,0,0:0:0:0:
109,192,19952,1,0,0:0:0:0:
329,192,19952,1,0,0:0:0:0:
402,192,19952,1,0,0:0:0:0:
256,192,20049,1,0,0:0:0:0:
182,192,20146,1,0,0:0:0:0:
36,192,20146,1,0,0:0:0:0:
402,192,20146,1,0,0:0:0:0:
475,192,20146,1,0,0:0:0:0:
256,192,20242,1,0,0:0:0:0:
329,192,20339,1,0,0:0:0:0:
109,192,20339,1,0,0:0:0:0:
475,192,20339,1,0,0:0:0:0:
182,192,20436,1,0,0:0:0:0:
256,192,20533,1,0,0:0:0:0:
402,192,20533,1,0,0:0:0:0:
475,192,20533,1,0,0:0:0:0:
36,192,20533,1,0,0:0:0:0:
182,192,20629,1,0,0:0:0:0:
109,192,20726,1,0,0:0:0:0:
329,192,20726,1,0,0:0:0:0:
402,192,20823,1,0,0:0:0:0:
475,192,20920,1,0,0:0:0:0:
256,192,20920,1,0,0:0:0:0:
182,192,20920,1,0,0:0:0:0:
36,192,20920,1,0,0:0:0:0:
329,192,21016,1,0,0:0:0:0:
402,192,21113,1,0,0:0:0:0:
109,192,21113,1,0,0:0:0:0:
182,192,21210,1,0,0:0:0:0:
256,192,21210,1,0,0:0:0:0:
475,192,21210,1,0,0:0:0:0:
329,192,21307,1,0,0:0:0:0:
109,192,21307,1,0,0:0:0:0:
36,192,21307,1,0,0:0:0:0:
402,192,21307,1,0,0:0:0:0:
256,192,21404,1,0,0:0:0:0:
182,192,21500,1,0,0:0:0:0:
109,192,21500,1,0,0:0:0:0:
475,192,21500,1,0,0:0:0:0:
402,192,21597,1,0,0:0:0:0:
329,192,21694,1,0,0:0:0:0:
256,192,21694,1,0,0:0:0:0:
182,192,21694,1,0,0:0:0:0:
36,192,21694,1,0,0:0:0:0:
109,192,21694,1,0,0:0:0:0:
402,192,21791,1,0,0:0:0:0:
475,192,21887,1,0,0:0:0:0:
182,192,21887,1,0,0:0:0:0:
256,192,21984,1,0,0:0:0:0:
329,192,22081,1,0,0:0:0:0:
402,192,22081,1,0,0:0:0:0:
109,192,22081,1,0,0:0:0:0:
36,192,22081,1,0,0:0:0:0:
256,192,22178,1,0,0:0:0:0:
182,192,22275,1,0,0:0:0:0:
475,192,22275,1,0,0:0:0:0:
402,192,22371,1,0,0:0:0:0:
329,192,22468,1,0,0:0:0:0:
256,192,22468,1,0,0:0:0:0:
109,192,22468,1,0,0:0:0:0:
36,192,22468,1,0,0:0:0:0:
475,192,22468,1,0,0:0:0:0:
182,192,22565,1,0,0:0:0:0:
109,192,22662,1,0,0:0:0:0:
329,192,22662,1,0,0:0:0:0:
402,192,22758,1,0,0:0:0:0:
475,192,22855,1,0,0:0:0:0:
256,192,22855,1,0,0:0:0:0:
182,192,22855,1,0,0:0:0:0:
36,192,22855,1,0,0:0:0:0:
329,192,22952,1,0,0:0:0:0:
402,192,23049,1,0,0:0:0:0:
109,192,23049,1,0,0:0:0:0:
182,192,23146,1,0,0:0:0:0:
256,192,23242,1,0,0:0:0:0:
475,192,23242,1,0,0:0:0:0:
329,192,23242,1,0,0:0:0:0:
402,192,23242,1,0,0:0:0:0:
36,192,23242,1,0,0:0:0:0:
182,192,23339,1,0,0:0:0:0:
109,192,23436,1,0,0:0:0:0:
329,192,23436,1,0,0:0:0:0:
475,192,23436,1,0,0:0:0:0:
256,192,23533,1,0,0:0:0:0:
182,192,23629,1,0,0:0:0:0:
36,192,23629,1,0,0:0:0:0:
402,192,23629,1,0,0:0:0:0:
475,192,23629,1,0,0:0:0:0:
109,192,23629,1,0,0:0:0:0:
256,192,23726,1,0,0:0:0:0:
329,192,23823,1,0,0:0:0:0:
182,192,23823,1,0,0:0:0:0:
36,192,23823,1,0,0:0:0:0:
402,192,23920,1,0,0:0:0:0:
475,192,24016,1,0,0:0:0:0:
256,192,24016,1,0,0:0:0:0:
109,192,24016,1,0,0:0:0:0:
36,192,24016,1,0,0:0:0:0:
182,192,24016,1,0,0:0:0:0:
329,192,24113,1,0,0:0:0:0:
402,192,24210,1,0,0:0:0:0:
182,192,24210,1,0,0:0:0:0:
36,192,24210,1,0,0:0:0:0:
256,192,24307,1,0,0:0:0:0:
475,192,24404,1,0,0:0:0:0:
109,192,24404,1,0,0:0:0:0:
36,192,24404,1,0,0:0:0:0:
402,192,24404,1,0,0:0:0:0:
182,192,24404,1,0,0:0:0:0:
329,192,24404,1,0,0:0:0:0:
256,192,24597,1,0,0:0:0:0:
182,192,24791,1,0,0:0:0:0:
109,192,24791,1,0,0:0:0:0:
36,192,24791,1,0,0:0:0:0:
329,192,24791,1,0,0:0:0:0:
402,192,24791,1,0,0:0:0:0:
475,192,24791,1,0,0:0:0:0:
256,192,24984,1,0,0:0:0:0:
36,192,24984,1,0,0:0:0:0:
475,192,24984,1,0,0:0:0:0:
182,192,25178,1,0,0:0:0:0:
109,192,25178,1,0,0:0:0:0:
329,192,25178,1,0,0:0:0:0:
402,192,25178,1,0,0:0:0:0:
36,192,25178,1,0,0:0:0:0:
256,192,25371,1,0,0:0:0:0:
36,192,25371,1,0,0:0:0:0:
475,192,25371,1,0,0:0:0:0:
182,192,25565,1,0,0:0:0:0:
36,192,25565,1,0,0:0:0:0:
329,192,25565,1,0,0:0:0:0:
402,192,25565,1,0,0:0:0:0:
475,192,25565,1,0,0:0:0:0:
109,192,25758,1,0,0:0:0:0:
256,192,25758,1,0,0:0:0:0:
475,192,25758,1,0,0:0:0:0:
402,192,25855,1,0,0:0:0:0:
182,192,25855,1,0,0:0:0:0:
36,192,25855,1,0,0:0:0:0:
109,192,25952,1,0,0:0:0:0:
329,192,25952,1,0,0:0:0:0:
475,192,25952,1,0,0:0:0:0:
256,192,25952,1,0,0:0:0:0:
182,192,26049,1,0,0:0:0:0:
402,192,26049,1,0,0:0:0:0:
256,192,26146,1,0,0:0:0:0:
475,192,26146,1,0,0:0:0:0:
36,192,26146,1,0,0:0:0:0:
109,192,26242,1,0,0:0:0:0:
329,192,26242,1,0,0:0:0:0:
182,192,26339,1,0,0:0:0:0:
402,192,26339,1,0,0:0:0:0:
475,192,26339,1,0,0:0:0:0:
36,192,26339,1,0,0:0:0:0:
109,192,26533,1,0,0:0:0:0:
256,192,26533,1,0,0:0:0:0:
402,192,26533,1,0,0:0:0:0:
329,192,26726,1,0,0:0:0:0:
475,192,26726,1,0,0:0:0:0:
182,192,26726,1,0,0:0:0:0:
36,192,26726,1,0,0:0:0:0:
109,192,26726,1,0,0:0:0:0:
109,192,26920,1,0,0:0:0:0:
256,192,26920,1,0,0:0:0:0:
402,192,26920,1,0,0:0:0:0:
182,192,27113,1,0,0:0:0:0:
329,192,27113,1,0,0:0:0:0:
475,192,27113,1,0,0:0:0:0:
36,192,27113,1,0,0:0:0:0:
402,192,27113,1,0,0:0:0:0:
329,192,27307,1,0,0:0:0:0:
36,192,27307,1,0,0:0:0:0:
182,192,27307,1,0,0:0:0:0:
109,192,27404,1,0,0:0:0:0:
402,192,27404,1,0,0:0:0:0:
256,192,27404,1,0,0:0:0:0:
475,192,27500,1,0,0:0:0:0:
329,192,27500,1,0,0:0:0:0:
36,192,27500,1,0,0:0:0:0:
182,192,27500,1,0,0:0:0:0:
402,192,27597,1,0,0:0:0:0:
256,192,27597,1,0,0:0:0:0:
475,192,27694,1,0,0:0:0:0:
329,192,27694,1,0,0:0:0:0:
182,192,27694,1,0,0:0:0:0:
109,192,27791,1,0,0:0:0:0:
256,192,27791,1,0,0:0:0:0:
182,192,27887,1,0,0:0:0:0:
36,192,27887,1,0,0:0:0:0:
402,192,27887,1,0,0:0:0:0:
475,192,27887,1,0,0:0:0:0:
36,192,28081,1,0,0:0:0:0:
256,192,28081,1,0,0:0:0:0:
402,192,28081,1,0,0:0:0:0:
109,192,28275,1,0,0:0:0:0:
182,192,28275,1,0,0:0:0:0:
329,192,28275,1,0,0:0:0:0:
475,192,28275,1,0,0:0:0:0:
256,192,28275,1,0,0:0:0:0:
402,192,28468,1,0,0:0:0:0:
256,192,28468,1,0,0:0:0:0:
36,192,28468,1,0,0:0:0:0:
182,192,28662,1,0,0:0:0:0:
36,192,28662,1,0,0:0:0:0:
329,192,28662,1,0,0:0:0:0:
475,192,28662,1,0,0:0:0:0:
402,192,28662,1,0,0:0:0:0:
36,192,28855,1,0,0:0:0:0:
109,192,28855,1,0,0:0:0:0:
256,192,28855,1,0,0:0:0:0:
182,192,28952,1,0,0:0:0:0:
329,192,28952,1,0,0:0:0:0:
402,192,28952,1,0,0:0:0:0:
475,192,29049,1,0,0:0:0:0:
256,192,29049,1,0,0:0:0:0:
109,192,29049,1,0,0:0:0:0:
36,192,29049,1,0,0:0:0:0:
182,192,29146,1,0,0:0:0:0:
402,192,29146,1,0,0:0:0:0:
109,192,29242,1,0,0:0:0:0:
329,192,29242,1,0,0:0:0:0:
475,192,29242,1,0,0:0:0:0:
256,192,29339,1,0,0:0:0:0:
36,192,29339,1,0,0:0:0:0:
182,192,29436,1,0,0:0:0:0:
402,192,29436,1,0,0:0:0:0:
475,192,29436,1,0,0:0:0:0:
109,192,29436,1,0,0:0:0:0:
36,192,29629,1,0,0:0:0:0:
109,192,29629,1,0,0:0:0:0:
329,192,29629,1,0,0:0:0:0:
182,192,29823,1,0,0:0:0:0:
256,192,29823,1,0,0:0:0:0:
402,192,29823,1,0,0:0:0:0:
475,192,29823,1,0,0:0:0:0:
36,192,29823,1,0,0:0:0:0:
329,192,30016,1,0,0:0:0:0:
109,192,30016,1,0,0:0:0:0:
36,192,30016,1,0,0:0:0:0:
182,192,30210,128,0,30404:0:0:0:0:
36,192,30210,128,0,30404:0:0:0:0:
402,192,30210,128,0,30404:0:0:0:0:
475,192,30210,128,0,30404:0:0:0:0:
256,192,30210,128,0,30404:0:0:0:0:
256,192,30597,128,0,30791:0:0:0:0:
402,192,30597,128,0,30791:0:0:0:0:
475,192,30597,128,0,30791:0:0:0:0:
36,192,30597,128,0,30791:0:0:0:0:
109,192,30597,128,0,30791:0:0:0:0:
182,192,30984,1,0,0:0:0:0:
109,192,30984,1,0,0:0:0:0:
36,192,30984,1,0,0:0:0:0:
402,192,30984,1,0,0:0:0:0:
475,192,30984,1,0,0:0:0:0:
329,192,31178,1,0,0:0:0:0:
182,192,31178,1,0,0:0:0:0:
36,192,31178,1,0,0:0:0:0:
109,192,31371,1,0,0:0:0:0:
256,192,31371,1,0,0:0:0:0:
402,192,31371,1,0,0:0:0:0:
475,192,31371,1,0,0:0:0:0:
329,192,31371,1,0,0:0:0:0:
329,192,31565,1,0,0:0:0:0:
182,192,31565,1,0,0:0:0:0:
36,192,31565,1,0,0:0:0:0:
109,192,31758,1,0,0:0:0:0:
36,192,31758,1,0,0:0:0:0:
329,192,31758,1,0,0:0:0:0:
475,192,31758,1,0,0:0:0:0:
182,192,31758,1,0,0:0:0:0:
109,192,31952,1,0,0:0:0:0:
256,192,31952,1,0,0:0:0:0:
402,192,31952,1,0,0:0:0:0:
329,192,32049,1,0,0:0:0:0:
182,192,32049,1,0,0:0:0:0:
36,192,32049,1,0,0:0:0:0:
109,192,32146,1,0,0:0:0:0:
256,192,32146,1,0,0:0:0:0:
402,192,32146,1,0,0:0:0:0:
475,192,32146,1,0,0:0:0:0:
329,192,32242,1,0,0:0:0:0:
182,192,32242,1,0,0:0:0:0:
256,192,32339,1,0,0:0:0:0:
475,192,32339,1,0,0:0:0:0:
36,192,32339,1,0,0:0:0:0:
109,192,32436,1,0,0:0:0:0:
402,192,32436,1,0,0:0:0:0:
329,192,32533,1,0,0:0:0:0:
182,192,32533,1,0,0:0:0:0:
36,192,32533,1,0,0:0:0:0:
475,192,32533,1,0,0:0:0:0:
109,192,32726,1,0,0:0:0:0:
256,192,32726,1,0,0:0:0:0:
402,192,32726,1,0,0:0:0:0:
182,192,32920,1,0,0:0:0:0:
329,192,32920,1,0,0:0:0:0:
475,192,32920,1,0,0:0:0:0:
36,192,32920,1,0,0:0:0:0:
109,192,32920,1,0,0:0:0:0:
109,192,33113,1,0,0:0:0:0:
256,192,33113,1,0,0:0:0:0:
402,192,33113,1,0,0:0:0:0:
36,192,33307,1,0,0:0:0:0:
402,192,33307,1,0,0:0:0:0:
475,192,33307,1,0,0:0:0:0:
182,192,33307,1,0,0:0:0:0:
329,192,33307,1,0,0:0:0:0:
256,192,33500,1,0,0:0:0:0:
36,192,33500,1,0,0:0:0:0:
402,192,33500,1,0,0:0:0:0:
109,192,33597,1,0,0:0:0:0:
329,192,33597,1,0,0:0:0:0:
475,192,33597,1,0,0:0:0:0:
256,192,33694,1,0,0:0:0:0:
36,192,33694,1,0,0:0:0:0:
182,192,33694,1,0,0:0:0:0:
402,192,33694,1,0,0:0:0:0:
329,192,33791,1,0,0:0:0:0:
109,192,33791,1,0,0:0:0:0:
256,192,33887,1,0,0:0:0:0:
475,192,33887,1,0,0:0:0:0:
36,192,33887,1,0,0:0:0:0:
402,192,33984,1,0,0:0:0:0:
182,192,33984,1,0,0:0:0:0:
109,192,34081,1,0,0:0:0:0:
36,192,34081,1,0,0:0:0:0:
329,192,34081,1,0,0:0:0:0:
256,192,34081,1,0,0:0:0:0:
182,192,34275,1,0,0:0:0:0:
402,192,34275,1,0,0:0:0:0:
475,192,34275,1,0,0:0:0:0:
329,192,34468,1,0,0:0:0:0:
475,192,34468,1,0,0:0:0:0:
256,192,34468,1,0,0:0:0:0:
109,192,34468,1,0,0:0:0:0:
36,192,34468,1,0,0:0:0:0:
182,192,34662,1,0,0:0:0:0:
402,192,34662,1,0,0:0:0:0:
475,192,34662,1,0,0:0:0:0:
256,192,34855,1,0,0:0:0:0:
402,192,34855,1,0,0:0:0:0:
109,192,34855,1,0,0:0:0:0:
36,192,34855,1,0,0:0:0:0:
329,192,34855,1,0,0:0:0:0:
182,192,35049,1,0,0:0:0:0:
109,192,35049,1,0,0:0:0:0:
475,192,35049,1,0,0:0:0:0:
36,192,35146,1,0,0:0:0:0:
329,192,35146,1,0,0:0:0:0:
402,192,35146,1,0,0:0:0:0:
256,192,35242,1,0,0:0:0:0:
182,192,35242,1,0,0:0:0:0:
109,192,35242,1,0,0:0:0:0:
475,192,35242,1,0,0:0:0:0:
36,192,35339,1,0,0:0:0:0:
329,192,35339,1,0,0:0:0:0:
109,192,35436,1,0,0:0:0:0:
256,192,35436,1,0,0:0:0:0:
402,192,35436,1,0,0:0:0:0:
182,192,35533,1,0,0:0:0:0:
475,192,35533,1,0,0:0:0:0:
256,192,35629,1,0,0:0:0:0:
329,192,35629,1,0,0:0:0:0:
109,192,35629,1,0,0:0:0:0:
36,192,35629,1,0,0:0:0:0:
109,192,35823,1,0,0:0:0:0:
402,192,35823,1,0,0:0:0:0:
256,192,35823,1,0,0:0:0:0:
182,192,36016,1,0,0:0:0:0:
329,192,36016,1,0,0:0:0:0:
402,192,36016,1,0,0:0:0:0:
475,192,36016,1,0,0:0:0:0:
36,192,36016,1,0,0:0:0:0:
109,192,36210,1,0,0:0:0:0:
256,192,36210,1,0,0:0:0:0:
402,192,36210,1,0,0:0:0:0:
182,192,36404,1,0,0:0:0:0:
109,192,36404,1,0,0:0:0:0:
36,192,36404,1,0,0:0:0:0:
329,192,36404,1,0,0:0:0:0:
475,192,36404,1,0,0:0:0:0:
329,192,36597,1,0,0:0:0:0:
402,192,36597,1,0,0:0:0:0:
475,192,36597,1,0,0:0:0:0:
256,192,36694,1,0,0:0:0:0:
182,192,36694,1,0,0:0:0:0:
109,192,36694,1,0,0:0:0:0:
36,192,36791,1,0,0:0:0:0:
402,192,36791,1,0,0:0:0:0:
475,192,36791,1,0,0:0:0:0:
329,192,36791,1,0,0:0:0:0:
109,192,36887,1,0,0:0:0:0:
182,192,36887,1,0,0:0:0:0:
256,192,36984,1,0,0:0:0:0:
329,192,36984,1,0,0:0:0:0:
402,192,36984,1,0,0:0:0:0:
182,192,37081,1,0,0:0:0:0:
109,192,37081,1,0,0:0:0:0:
36,192,37178,128,0,37275:0:0:0:0:
329,192,37178,128,0,37275:0:0:0:0:
402,192,37178,128,0,37275:0:0:0:0:
475,192,37178,128,0,37275:0:0:0:0:
256,192,37178,128,0,37275:0:0:0:0:
256,192,37371,128,0,37468:0:0:0:0:
36,192,37371,128,0,37468:0:0:0:0:
475,192,37371,128,0,37468:0:0:0:0:
182,192,37565,128,0,37662:0:0:0:0:
109,192,37565,128,0,37662:0:0:0:0:
36,192,37565,128,0,37662:0:0:0:0:
402,192,37565,128,0,37662:0:0:0:0:
475,192,37565,128,0,37662:0:0:0:0:
256,192,37758,128,0,37855:0:0:0:0:
475,192,37758,128,0,37855:0:0:0:0:
36,192,37758,128,0,37855:0:0:0:0:
109,192,37952,128,0,38049:0:0:0:0:
36,192,37952,128,0,38049:0:0:0:0:
256,192,37952,128,0,38049:0:0:0:0:
402,192,37952,128,0,38049:0:0:0:0:
475,192,37952,128,0,38049:0:0:0:0:
182,192,38146,128,0,38242:0:0:0:0:
329,192,38146,128,0,38242:0:0:0:0:
475,192,38146,128,0,38242:0:0:0:0:
402,192,38242,128,0,38339:0:0:0:0:
256,192,38242,128,0,38339:0:0:0:0:
109,192,38242,128,0,38339:0:0:0:0:
36,192,38339,128,0,38436:0:0:0:0:
182,192,38339,128,0,38436:0:0:0:0:
329,192,38339,128,0,38436:0:0:0:0:
475,192,38339,128,0,38436:0:0:0:0:
109,192,38436,128,0,38533:0:0:0:0:
256,192,38436,128,0,38533:0:0:0:0:
182,192,38533,128,0,38629:0:0:0:0:
329,192,38533,128,0,38629:0:0:0:0:
402,192,38533,128,0,38629:0:0:0:0:
256,192,38629,128,0,38726:0:0:0:0:
475,192,38629,128,0,38726:0:0:0:0:
109,192,38726,128,0,38823:0:0:0:0:
36,192,38726,128,0,38823:0:0:0:0:
329,192,38726,128,0,38823:0:0:0:0:
402,192,38726,128,0,38823:0:0:0:0:
182,192,38920,128,0,39016:0:0:0:0:
256,192,38920,128,0,39016:0:0:0:0:
475,192,38920,128,0,39016:0:0:0:0:
402,192,39113,128,0,39210:0:0:0:0:
475,192,39113,128,0,39210:0:0:0:0:
329,192,39113,128,0,39210:0:0:0:0:
182,192,39113,128,0,39210:0:0:0:0:
36,192,39113,128,0,39210:0:0:0:0:
256,192,39307,128,0,39404:0:0:0:0:
182,192,39307,128,0,39404:0:0:0:0:
475,192,39307,128,0,39404:0:0:0:0:
329,192,39500,128,0,39597:0:0:0:0:
402,192,39500,128,0,39597:0:0:0:0:
256,192,39500,128,0,39597:0:0:0:0:
109,192,39500,128,0,39597:0:0:0:0:
36,192,39500,128,0,39597:0:0:0:0:
182,192,39694,128,0,39791:0:0:0:0:
402,192,39694,128,0,39791:0:0:0:0:
475,192,39694,128,0,39791:0:0:0:0:
329,192,39791,128,0,39887:0:0:0:0:
109,192,39791,128,0,39887:0:0:0:0:
36,192,39791,128,0,39887:0:0:0:0:
182,192,39887,128,0,39984:0:0:0:0:
256,192,39887,128,0,39984:0:0:0:0:
475,192,39887,128,0,39984:0:0:0:0:
402,192,39887,128,0,39984:0:0:0:0:
109,192,39984,128,0,40081:0:0:0:0:
329,192,39984,128,0,40081:0:0:0:0:
256,192,40081,128,0,40178:0:0:0:0:
36,192,40081,128,0,40178:0:0:0:0:
475,192,40081,128,0,40178:0:0:0:0:
182,192,40178,128,0,40275:0:0:0:0:
402,192,40178,128,0,40275:0:0:0:0:
109,192,40275,128,0,40371:0:0:0:0:
36,192,40275,128,0,40371:0:0:0:0:
256,192,40275,128,0,40371:0:0:0:0:
329,192,40275,128,0,40371:0:0:0:0:
475,192,40275,128,0,40371:0:0:0:0:
402,192,40468,128,0,40565:0:0:0:0:
256,192,40468,128,0,40565:0:0:0:0:
109,192,40468,128,0,40565:0:0:0:0:
182,192,40662,128,0,40758:0:0:0:0:
329,192,40662,128,0,40758:0:0:0:0:
402,192,40662,128,0,40758:0:0:0:0:
475,192,40662,128,0,40758:0:0:0:0:
36,192,40662,128,0,40758:0:0:0:0:
109,192,40855,128,0,40952:0:0:0:0:
256,192,40855,128,0,40952:0:0:0:0:
402,192,40855,128,0,40952:0:0:0:0:
182,192,41049,128,0,41146:0:0:0:0:
109,192,41049,128,0,41146:0:0:0:0:
36,192,41049,128,0,41146:0:0:0:0:
329,192,41049,128,0,41146:0:0:0:0:
475,192,41049,128,0,41146:0:0:0:0:
256,192,41242,128,0,41339:0:0:0:0:
36,192,41242,128,0,41339:0:0:0:0:
475,192,41242,128,0,41339:0:0:0:0:
402,192,41339,128,0,41436:0:0:0:0:
109,192,41339,128,0,41436:0:0:0:0:
182,192,41339,128,0,41436:0:0:0:0:
329,192,41436,128,0,41533:0:0:0:0:
256,192,41436,128,0,41533:0:0:0:0:
36,192,41436,128,0,41533:0:0:0:0:
475,192,41436,128,0,41533:0:0:0:0:
402,192,41533,128,0,41629:0:0:0:0:
182,192,41533,128,0,41629:0:0:0:0:
256,192,41629,128,0,41726:0:0:0:0:
36,192,41629,128,0,41726:0:0:0:0:
475,192,41629,128,0,41726:0:0:0:0:
329,192,41726,128,0,41823:0:0:0:0:
109,192,41726,128,0,41823:0:0:0:0:
182,192,41823,128,0,41920:0:0:0:0:
256,192,41823,128,0,41920:0:0:0:0:
402,192,41823,128,0,41920:0:0:0:0:
475,192,41823,128,0,41920:0:0:0:0:
109,192,42016,128,0,42113:0:0:0:0:
36,192,42016,128,0,42113:0:0:0:0:
329,192,42016,128,0,42113:0:0:0:0:
329,192,42210,128,0,42307:0:0:0:0:
256,192,42210,128,0,42307:0:0:0:0:
182,192,42210,128,0,42307:0:0:0:0:
36,192,42210,128,0,42307:0:0:0:0:
475,192,42210,128,0,42307:0:0:0:0:
36,192,42404,128,0,42500:0:0:0:0:
109,192,42404,128,0,42500:0:0:0:0:
329,192,42404,128,0,42500:0:0:0:0:
109,192,42597,128,0,42694:0:0:0:0:
182,192,42597,128,0,42694:0:0:0:0:
256,192,42597,128,0,42694:0:0:0:0:
402,192,42597,128,0,42694:0:0:0:0:
475,192,42597,128,0,42694:0:0:0:0:
329,192,42791,128,0,42887:0:0:0:0:
475,192,42791,128,0,42887:0:0:0:0:
182,192,42791,128,0,42887:0:0:0:0:
256,192,42887,128,0,42984:0:0:0:0:
402,192,42887,128,0,42984:0:0:0:0:
109,192,42887,128,0,42984:0:0:0:0:
329,192,42984,1,0,0:0:0:0:
182,192,42984,1,0,0:0:0:0:
36,192,42984,1,0,0:0:0:0:
475,192,42984,1,0,0:0:0:0:
109,192,43371,128,0,43468:0:0:0:0:
36,192,43371,128,0,43468:0:0:0:0:
256,192,43371,128,0,43468:0:0:0:0:
402,192,43371,128,0,43468:0:0:0:0:
475,192,43371,128,0,43468:0:0:0:0:
109,192,43565,128,0,43662:0:0:0:0:
256,192,43565,128,0,43662:0:0:0:0:
402,192,43565,128,0,43662:0:0:0:0:
182,192,43758,128,0,43855:0:0:0:0:
256,192,43758,128,0,43855:0:0:0:0:
329,192,43758,128,0,43855:0:0:0:0:
475,192,43758,128,0,43855:0:0:0:0:
36,192,43758,128,0,43855:0:0:0:0:
109,192,43952,128,0,44049:0:0:0:0:
256,192,43952,128,0,44049:0:0:0:0:
402,192,43952,128,0,44049:0:0:0:0:
36,192,44146,128,0,44242:0:0:0:0:
182,192,44146,128,0,44242:0:0:0:0:
329,192,44146,128,0,44242:0:0:0:0:
402,192,44146,128,0,44242:0:0:0:0:
475,192,44146,128,0,44242:0:0:0:0:
36,192,44339,128,0,44436:0:0:0:0:
109,192,44339,128,0,44436:0:0:0:0:
256,192,44339,128,0,44436:0:0:0:0:
182,192,44436,128,0,44533:0:0:0:0:
329,192,44436,128,0,44533:0:0:0:0:
402,192,44436,128,0,44533:0:0:0:0:
475,192,44533,128,0,44629:0:0:0:0:
256,192,44533,128,0,44629:0:0:0:0:
109,192,44533,128,0,44629:0:0:0:0:
36,192,44533,128,0,44629:0:0:0:0:
182,192,44629,128,0,44726:0:0:0:0:
329,192,44629,128,0,44726:0:0:0:0:
402,192,44726,128,0,44823:0:0:0:0:
36,192,44726,128,0,44823:0:0:0:0:
256,192,44726,128,0,44823:0:0:0:0:
109,192,44823,128,0,44920:0:0:0:0:
329,192,44823,128,0,44920:0:0:0:0:
182,192,44920,128,0,45016:0:0:0:0:
256,192,44920,128,0,45016:0:0:0:0:
402,192,44920,128,0,45016:0:0:0:0:
475,192,44920,128,0,45016:0:0:0:0:
109,192,45113,128,0,45210:0:0:0:0:
36,192,45113,128,0,45210:0:0:0:0:
329,192,45113,128,0,45210:0:0:0:0:
182,192,45307,128,0,45404:0:0:0:0:
256,192,45307,128,0,45404:0:0:0:0:
475,192,45307,128,0,45404:0:0:0:0:
402,192,45307,128,0,45404:0:0:0:0:
36,192,45307,128,0,45404:0:0:0:0:
109,192,45500,128,0,45597:0:0:0:0:
36,192,45500,128,0,45597:0:0:0:0:
329,192,45500,128,0,45597:0:0:0:0:
109,192,45694,128,0,45791:0:0:0:0:
182,192,45694,128,0,45791:0:0:0:0:
256,192,45694,128,0,45791:0:0:0:0:
402,192,45694,128,0,45791:0:0:0:0:
475,192,45694,128,0,45791:0:0:0:0:
36,192,45887,128,0,45984:0:0:0:0:
182,192,45887,128,0,45984:0:0:0:0:
329,192,45887,128,0,45984:0:0:0:0:
256,192,45984,128,0,46081:0:0:0:0:
402,192,45984,128,0,46081:0:0:0:0:
109,192,45984,128,0,46081:0:0:0:0:
475,192,46081,128,0,46178:0:0:0:0:
329,192,46081,128,0,46178:0:0:0:0:
182,192,46081,128,0,46178:0:0:0:0:
36,192,46081,128,0,46178:0:0:0:0:
109,192,46178,128,0,46275:0:0:0:0:
402,192,46178,128,0,46275:0:0:0:0:
256,192,46275,128,0,46371:0:0:0:0:
475,192,46275,128,0,46371:0:0:0:0:
36,192,46275,128,0,46371:0:0:0:0:
182,192,46371,128,0,46468:0:0:0:0:
329,192,46371,128,0,46468:0:0:0:0:
402,192,46468,1,0,0:0:0:0:
475,192,46468,1,0,0:0:0:0:
109,192,46468,1,0,0:0:0:0:
36,192,46468,1,0,0:0:0:0:
182,192,46662,1,0,0:0:0:0:
329,192,46662,1,0,0:0:0:0:
256,192,46855,1,0,0:0:0:0:
475,192,46855,1,0,0:0:0:0:
36,192,46855,1,0,0:0:0:0:
182,192,47049,1,0,0:0:0:0:
329,192,47049,1,0,0:0:0:0:
36,192,47242,1,0,0:0:0:0:
475,192,47242,1,0,0:0:0:0:
182,192,47436,1,0,0:0:0:0:
256,192,47533,1,0,0:0:0:0:
329,192,47629,1,0,0:0:0:0:
109,192,47629,1,0,0:0:0:0:
36,192,47629,1,0,0:0:0:0:
182,192,47726,1,0,0:0:0:0:
256,192,47823,1,0,0:0:0:0:
329,192,47920,1,0,0:0:0:0:
402,192,48016,1,0,0:0:0:0:
475,192,48016,1,0,0:0:0:0:
36,192,48016,128,0,48113:0:0:0:0:
182,192,48210,128,0,48307:0:0:0:0:
402,192,48404,1,0,0:0:0:0:
475,192,48404,1,0,0:0:0:0:
109,192,48404,128,0,48500:0:0:0:0:
256,192,48597,128,0,48694:0:0:0:0:
402,192,48791,1,0,0:0:0:0:
475,192,48791,1,0,0:0:0:0:
182,192,48791,128,0,48887:0:0:0:0:
36,192,48984,128,0,49081:0:0:0:0:
109,192,49081,128,0,49178:0:0:0:0:
402,192,49178,1,0,0:0:0:0:
475,192,49178,1,0,0:0:0:0:
182,192,49178,128,0,49275:0:0:0:0:
256,192,49275,128,0,49371:0:0:0:0:
329,192,49371,128,0,49468:0:0:0:0:
402,192,49468,128,0,49565:0:0:0:0:
256,192,49565,1,0,0:0:0:0:
329,192,49565,1,0,0:0:0:0:
475,192,49565,1,0,0:0:0:0:
109,192,49565,1,0,0:0:0:0:
36,192,49565,1,0,0:0:0:0:
182,192,49662,1,0,0:0:0:0:
329,192,49758,1,0,0:0:0:0:
109,192,49758,1,0,0:0:0:0:
475,192,49758,1,0,0:0:0:0:
256,192,49855,1,0,0:0:0:0:
182,192,49952,1,0,0:0:0:0:
36,192,49952,1,0,0:0:0:0:
402,192,49952,1,0,0:0:0:0:
475,192,49952,1,0,0:0:0:0:
256,192,50049,1,0,0:0:0:0:
109,192,50049,1,0,0:0:0:0:
182,192,50146,1,0,0:0:0:0:
329,192,50146,1,0,0:0:0:0:
475,192,50146,1,0,0:0:0:0:
256,192,50242,1,0,0:0:0:0:
402,192,50242,1,0,0:0:0:0:
329,192,50339,1,0,0:0:0:0:
475,192,50339,1,0,0:0:0:0:
109,192,50339,1,0,0:0:0:0:
36,192,50339,1,0,0:0:0:0:
256,192,50436,1,0,0:0:0:0:
402,192,50436,1,0,0:0:0:0:
329,192,50533,1,0,0:0:0:0:
182,192,50533,1,0,0:0:0:0:
36,192,50533,1,0,0:0:0:0:
256,192,50629,1,0,0:0:0:0:
109,192,50629,1,0,0:0:0:0:
36,192,50726,1,0,0:0:0:0:
182,192,50726,1,0,0:0:0:0:
402,192,50726,1,0,0:0:0:0:
475,192,50726,1,0,0:0:0:0:
329,192,50823,1,0,0:0:0:0:
109,192,50823,1,0,0:0:0:0:
256,192,50823,1,0,0:0:0:0:
182,192,50920,1,0,0:0:0:0:
402,192,50920,1,0,0:0:0:0:
475,192,50920,1,0,0:0:0:0:
329,192,51016,1,0,0:0:0:0:
109,192,51016,1,0,0:0:0:0:
256,192,51016,1,0,0:0:0:0:
182,192,51113,1,0,0:0:0:0:
36,192,51113,1,0,0:0:0:0:
402,192,51113,1,0,0:0:0:0:
475,192,51113,1,0,0:0:0:0:
109,192,51210,1,0,0:0:0:0:
329,192,51210,1,0,0:0:0:0:
256,192,51307,1,0,0:0:0:0:
36,192,51307,1,0,0:0:0:0:
475,192,51307,1,0,0:0:0:0:
182,192,51404,1,0,0:0:0:0:
402,192,51404,1,0,0:0:0:0:
329,192,51500,1,0,0:0:0:0:
109,192,51500,1,0,0:0:0:0:
36,192,51500,1,0,0:0:0:0:
475,192,51500,1,0,0:0:0:0:
182,192,51597,1,0,0:0:0:0:
402,192,51597,1,0,0:0:0:0:
256,192,51694,1,0,0:0:0:0:
475,192,51694,1,0,0:0:0:0:
36,192,51694,1,0,0:0:0:0:
109,192,51791,1,0,0:0:0:0:
329,192,51791,1,0,0:0:0:0:
182,192,51887,1,0,0:0:0:0:
402,192,51887,1,0,0:0:0:0:
475,192,51887,1,0,0:0:0:0:
36,192,51887,1,0,0:0:0:0:
109,192,51984,1,0,0:0:0:0:
256,192,51984,1,0,0:0:0:0:
182,192,52081,1,0,0:0:0:0:
329,192,52081,1,0,0:0:0:0:
36,192,52081,1,0,0:0:0:0:
256,192,52178,1,0,0:0:0:0:
402,192,52178,1,0,0:0:0:0:
329,192,52275,1,0,0:0:0:0:
475,192,52275,1,0,0:0:0:0:
109,192,52275,1,0,0:0:0:0:
36,192,52275,1,0,0:0:0:0:
402,192,52371,1,0,0:0:0:0:
256,192,52371,1,0,0:0:0:0:
182,192,52371,1,0,0:0:0:0:
109,192,52468,1,0,0:0:0:0:
36,192,52468,1,0,0:0:0:0:
329,192,52468,1,0,0:0:0:0:
182,192,52565,1,0,0:0:0:0:
256,192,52565,1,0,0:0:0:0:
402,192,52565,1,0,0:0:0:0:
329,192,52662,1,0,0:0:0:0:
475,192,52662,1,0,0:0:0:0:
109,192,52662,1,0,0:0:0:0:
36,192,52662,1,0,0:0:0:0:
256,192,52758,1,0,0:0:0:0:
182,192,52855,1,0,0:0:0:0:
36,192,52855,1,0,0:0:0:0:
402,192,52855,1,0,0:0:0:0:
329,192,52952,1,0,0:0:0:0:
256,192,53049,1,0,0:0:0:0:
475,192,53049,1,0,0:0:0:0:
109,192,53049,1,0,0:0:0:0:
36,192,53049,1,0,0:0:0:0:
182,192,53146,1,0,0:0:0:0:
329,192,53146,1,0,0:0:0:0:
256,192,53242,1,0,0:0:0:0:
402,192,53242,1,0,0:0:0:0:
36,192,53242,1,0,0:0:0:0:
329,192,53339,1,0,0:0:0:0:
475,192,53339,1,0,0:0:0:0:
36,192,53436,1,0,0:0:0:0:
109,192,53436,1,0,0:0:0:0:
256,192,53436,1,0,0:0:0:0:
402,192,53436,1,0,0:0:0:0:
182,192,53533,1,0,0:0:0:0:
329,192,53533,1,0,0:0:0:0:
256,192,53629,1,0,0:0:0:0:
109,192,53629,1,0,0:0:0:0:
475,192,53629,1,0,0:0:0:0:
182,192,53726,1,0,0:0:0:0:
36,192,53726,1,0,0:0:0:0:
109,192,53823,1,0,0:0:0:0:
329,192,53823,1,0,0:0:0:0:
402,192,53823,1,0,0:0:0:0:
475,192,53823,1,0,0:0:0:0:
256,192,53920,1,0,0:0:0:0:
36,192,53920,1,0,0:0:0:0:
182,192,53920,1,0,0:0:0:0:
109,192,54016,1,0,0:0:0:0:
329,192,54016,1,0,0:0:0:0:
402,192,54016,1,0,0:0:0:0:
256,192,54113,1,0,0:0:0:0:
182,192,54113,1,0,0:0:0:0:
36,192,54113,1,0,0:0:0:0:
109,192,54210,1,0,0:0:0:0:
329,192,54210,1,0,0:0:0:0:
402,192,54210,1,0,0:0:0:0:
475,192,54210,1,0,0:0:0:0:
256,192,54307,1,0,0:0:0:0:
182,192,54404,1,0,0:0:0:0:
36,192,54404,1,0,0:0:0:0:
402,192,54404,1,0,0:0:0:0:
329,192,54500,1,0,0:0:0:0:
256,192,54597,1,0,0:0:0:0:
475,192,54597,1,0,0:0:0:0:
109,192,54597,1,0,0:0:0:0:
36,192,54597,1,0,0:0:0:0:
182,192,54694,1,0,0:0:0:0:
329,192,54694,1,0,0:0:0:0:
256,192,54791,1,0,0:0:0:0:
402,192,54791,1,0,0:0:0:0:
109,192,54791,1,0,0:0:0:0:
329,192,54887,1,0,0:0:0:0:
475,192,54887,1,0,0:0:0:0:
402,192,54984,1,0,0:0:0:0:
182,192,54984,1,0,0:0:0:0:
109,192,54984,1,0,0:0:0:0:
36,192,54984,1,0,0:0:0:0:
256,192,55081,1,0,0:0:0:0:
475,192,55081,1,0,0:0:0:0:
329,192,55178,1,0,0:0:0:0:
36,192,55178,1,0,0:0:0:0:
182,192,55178,1,0,0:0:0:0:
109,192,55275,1,0,0:0:0:0:
402,192,55275,1,0,0:0:0:0:
256,192,55371,1,0,0:0:0:0:
475,192,55371,1,0,0:0:0:0:
182,192,55371,1,0,0:0:0:0:
36,192,55371,1,0,0:0:0:0:
329,192,55468,1,0,0:0:0:0:
402,192,55468,1,0,0:0:0:0:
109,192,55468,1,0,0:0:0:0:
256,192,55565,1,0,0:0:0:0:
36,192,55565,1,0,0:0:0:0:
475,192,55565,1,0,0:0:0:0:
182,192,55662,1,0,0:0:0:0:
402,192,55662,1,0,0:0:0:0:
109,192,55758,1,0,0:0:0:0:
36,192,55758,1,0,0:0:0:0:
256,192,55758,1,0,0:0:0:0:
329,192,55758,1,0,0:0:0:0:
475,192,55758,1,0,0:0:0:0:
182,192,55855,1,0,0:0:0:0:
256,192,55952,1,0,0:0:0:0:
36,192,55952,1,0,0:0:0:0:
475,192,55952,1,0,0:0:0:0:
329,192,56049,1,0,0:0:0:0:
402,192,56146,1,0,0:0:0:0:
475,192,56146,1,0,0:0:0:0:
182,192,56146,1,0,0:0:0:0:
109,192,56146,1,0,0:0:0:0:
256,192,56242,1,0,0:0:0:0:
36,192,56242,1,0,0:0:0:0:
182,192,56339,1,0,0:0:0:0:
329,192,56339,1,0,0:0:0:0:
475,192,56339,1,0,0:0:0:0:
109,192,56436,1,0,0:0:0:0:
402,192,56436,1,0,0:0:0:0:
36,192,56533,1,0,0:0:0:0:
256,192,56533,1,0,0:0:0:0:
329,192,56533,1,0,0:0:0:0:
475,192,56533,1,0,0:0:0:0:
182,192,56629,1,0,0:0:0:0:
402,192,56629,1,0,0:0:0:0:
329,192,56726,1,0,0:0:0:0:
109,192,56726,1,0,0:0:0:0:
36,192,56726,1,0,0:0:0:0:
182,192,56823,1,0,0:0:0:0:
402,192,56823,1,0,0:0:0:0:
475,192,56920,1,0,0:0:0:0:
256,192,56920,1,0,0:0:0:0:
109,192,56920,1,0,0:0:0:0:
36,192,56920,1,0,0:0:0:0:
182,192,57016,1,0,0:0:0:0:
329,192,57016,1,0,0:0:0:0:
402,192,57113,1,0,0:0:0:0:
256,192,57113,1,0,0:0:0:0:
36,192,57113,1,0,0:0:0:0:
329,192,57210,1,0,0:0:0:0:
475,192,57210,1,0,0:0:0:0:
36,192,57307,1,0,0:0:0:0:
109,192,57307,1,0,0:0:0:0:
256,192,57307,1,0,0:0:0:0:
402,192,57307,1,0,0:0:0:0:
182,192,57404,1,0,0:0:0:0:
109,192,57500,1,0,0:0:0:0:
329,192,57500,1,0,0:0:0:0:
475,192,57500,1,0,0:0:0:0:
256,192,57597,1,0,0:0:0:0:
36,192,57597,1,0,0:0:0:0:
182,192,57694,1,0,0:0:0:0:
402,192,57694,1,0,0:0:0:0:
475,192,57694,1,0,0:0:0:0:
329,192,57694,1,0,0:0:0:0:
109,192,57791,1,0,0:0:0:0:
36,192,57887,1,0,0:0:0:0:
256,192,57887,1,0,0:0:0:0:
475,192,57887,1,0,0:0:0:0:
182,192,57984,1,0,0:0:0:0:
402,192,57984,1,0,0:0:0:0:
329,192,58081,1,0,0:0:0:0:
109,192,58081,1,0,0:0:0:0:
36,192,58081,1,0,0:0:0:0:
475,192,58081,1,0,0:0:0:0:
256,192,58178,1,0,0:0:0:0:
402,192,58178,1,0,0:0:0:0:
329,192,58275,1,0,0:0:0:0:
182,192,58275,1,0,0:0:0:0:
36,192,58275,1,0,0:0:0:0:
109,192,58371,1,0,0:0:0:0:
256,192,58371,1,0,0:0:0:0:
182,192,58468,1,0,0:0:0:0:
402,192,58468,1,0,0:0:0:0:
475,192,58468,1,0,0:0:0:0:
36,192,58468,1,0,0:0:0:0:
109,192,58565,1,0,0:0:0:0:
256,192,58565,1,0,0:0:0:0:
329,192,58565,1,0,0:0:0:0:
182,192,58662,1,0,0:0:0:0:
36,192,58662,1,0,0:0:0:0:
402,192,58662,1,0,0:0:0:0:
109,192,58758,1,0,0:0:0:0:
256,192,58758,1,0,0:0:0:0:
329,192,58758,1,0,0:0:0:0:
475,192,58855,1,0,0:0:0:0:
182,192,58855,1,0,0:0:0:0:
36,192,58855,1,0,0:0:0:0:
402,192,58855,1,0,0:0:0:0:
256,192,58952,1,0,0:0:0:0:
329,192,59049,1,0,0:0:0:0:
109,192,59049,1,0,0:0:0:0:
36,192,59049,1,0,0:0:0:0:
182,192,59146,1,0,0:0:0:0:
256,192,59242,1,0,0:0:0:0:
402,192,59242,1,0,0:0:0:0:
475,192,59242,1,0,0:0:0:0:
36,192,59242,1,0,0:0:0:0:
109,192,59339,1,0,0:0:0:0:
182,192,59339,1,0,0:0:0:0:
36,192,59436,1,0,0:0:0:0:
329,192,59436,1,0,0:0:0:0:
475,192,59436,1,0,0:0:0:0:
256,192,59533,1,0,0:0:0:0:
182,192,59533,1,0,0:0:0:0:
109,192,59629,1,0,0:0:0:0:
36,192,59629,1,0,0:0:0:0:
402,192,59629,1,0,0:0:0:0:
475,192,59629,1,0,0:0:0:0:
329,192,59726,1,0,0:0:0:0:
256,192,59726,1,0,0:0:0:0:
182,192,59823,1,0,0:0:0:0:
36,192,59823,1,0,0:0:0:0:
475,192,59823,1,0,0:0:0:0:
329,192,59920,1,0,0:0:0:0:
402,192,59920,1,0,0:0:0:0:
256,192,60016,1,0,0:0:0:0:
109,192,60016,1,0,0:0:0:0:
36,192,60016,1,0,0:0:0:0:
475,192,60016,1,0,0:0:0:0:
182,192,60113,1,0,0:0:0:0:
329,192,60113,1,0,0:0:0:0:
402,192,60113,1,0,0:0:0:0:
256,192,60210,1,0,0:0:0:0:
109,192,60210,1,0,0:0:0:0:
36,192,60210,1,0,0:0:0:0:
182,192,60307,1,0,0:0:0:0:
329,192,60307,1,0,0:0:0:0:
402,192,60404,1,0,0:0:0:0:
475,192,60404,1,0,0:0:0:0:
256,192,60404,1,0,0:0:0:0:
109,192,60404,1,0,0:0:0:0:
36,192,60404,1,0,0:0:0:0:
182,192,60500,1,0,0:0:0:0:
256,192,60597,1,0,0:0:0:0:
475,192,60597,1,0,0:0:0:0:
36,192,60597,1,0,0:0:0:0:
329,192,60694,1,0,0:0:0:0:
109,192,60694,1,0,0:0:0:0:
182,192,60791,1,0,0:0:0:0:
402,192,60791,1,0,0:0:0:0:
475,192,60791,1,0,0:0:0:0:
256,192,60791,1,0,0:0:0:0:
109,192,60887,1,0,0:0:0:0:
36,192,60887,1,0,0:0:0:0:
329,192,60887,1,0,0:0:0:0:
182,192,60984,1,0,0:0:0:0:
402,192,60984,1,0,0:0:0:0:
475,192,60984,1,0,0:0:0:0:
329,192,61081,1,0,0:0:0:0:
109,192,61081,1,0,0:0:0:0:
36,192,61081,1,0,0:0:0:0:
182,192,61178,1,0,0:0:0:0:
402,192,61178,1,0,0:0:0:0:
475,192,61178,1,0,0:0:0:0:
256,192,61275,1,0,0:0:0:0:
329,192,61275,1,0,0:0:0:0:
36,192,61275,1,0,0:0:0:0:
109,192,61371,1,0,0:0:0:0:
402,192,61371,1,0,0:0:0:0:
475,192,61371,1,0,0:0:0:0:
182,192,61468,1,0,0:0:0:0:
256,192,61468,1,0,0:0:0:0:
329,192,61468,1,0,0:0:0:0:
109,192,61565,1,0,0:0:0:0:
36,192,61565,1,0,0:0:0:0:
402,192,61565,1,0,0:0:0:0:
182,192,61662,1,0,0:0:0:0:
256,192,61662,1,0,0:0:0:0:
475,192,61662,1,0,0:0:0:0:
329,192,61758,1,0,0:0:0:0:
402,192,61758,1,0,0:0:0:0:
36,192,61758,1,0,0:0:0:0:
109,192,61855,1,0,0:0:0:0:
182,192,61855,1,0,0:0:0:0:
475,192,61855,1,0,0:0:0:0:
256,192,61952,128,0,62242:0:0:0:0:
329,192,61952,1,0,0:0:0:0:
402,192,61952,1,0,0:0:0:0:
36,192,61952,1,0,0:0:0:0:
256,192,62339,1,0,0:0:0:0:
402,192,62339,1,0,0:0:0:0:
475,192,62339,1,0,0:0:0:0:
109,192,62339,1,0,0:0:0:0:
36,192,62339,1,0,0:0:0:0:
182,192,62436,1,0,0:0:0:0:
329,192,62436,1,0,0:0:0:0:
256,192,62533,1,0,0:0:0:0:
402,192,62533,1,0,0:0:0:0:
109,192,62533,1,0,0:0:0:0:
182,192,62629,1,0,0:0:0:0:
329,192,62629,1,0,0:0:0:0:
256,192,62726,1,0,0:0:0:0:
402,192,62726,1,0,0:0:0:0:
475,192,62726,1,0,0:0:0:0:
36,192,62726,1,0,0:0:0:0:
109,192,62823,1,0,0:0:0:0:
329,192,62823,1,0,0:0:0:0:
182,192,62920,1,0,0:0:0:0:
475,192,62920,1,0,0:0:0:0:
36,192,62920,1,0,0:0:0:0:
109,192,63016,1,0,0:0:0:0:
329,192,63016,1,0,0:0:0:0:
36,192,63113,1,0,0:0:0:0:
256,192,63113,1,0,0:0:0:0:
402,192,63113,1,0,0:0:0:0:
475,192,63113,1,0,0:0:0:0:
182,192,63210,1,0,0:0:0:0:
329,192,63210,1,0,0:0:0:0:
109,192,63210,1,0,0:0:0:0:
36,192,63307,1,0,0:0:0:0:
256,192,63307,1,0,0:0:0:0:
475,192,63307,1,0,0:0:0:0:
182,192,63404,1,0,0:0:0:0:
329,192,63404,1,0,0:0:0:0:
402,192,63404,1,0,0:0:0:0:
256,192,63500,1,0,0:0:0:0:
475,192,63500,1,0,0:0:0:0:
109,192,63500,1,0,0:0:0:0:
36,192,63500,1,0,0:0:0:0:
329,192,63597,1,0,0:0:0:0:
402,192,63597,1,0,0:0:0:0:
256,192,63694,1,0,0:0:0:0:
182,192,63694,1,0,0:0:0:0:
109,192,63694,1,0,0:0:0:0:
329,192,63791,1,0,0:0:0:0:
402,192,63791,1,0,0:0:0:0:
475,192,63887,1,0,0:0:0:0:
182,192,63887,1,0,0:0:0:0:
109,192,63887,1,0,0:0:0:0:
36,192,63887,1,0,0:0:0:0:
256,192,63984,1,0,0:0:0:0:
402,192,63984,1,0,0:0:0:0:
329,192,64081,1,0,0:0:0:0:
109,192,64081,1,0,0:0:0:0:
36,192,64081,1,0,0:0:0:0:
182,192,64178,1,0,0:0:0:0:
402,192,64178,1,0,0:0:0:0:
256,192,64275,1,0,0:0:0:0:
475,192,64275,1,0,0:0:0:0:
36,192,64275,1,0,0:0:0:0:
329,192,64275,1,0,0:0:0:0:
182,192,64371,1,0,0:0:0:0:
402,192,64371,1,0,0:0:0:0:
329,192,64468,1,0,0:0:0:0:
109,192,64468,1,0,0:0:0:0:
36,192,64468,1,0,0:0:0:0:
256,192,64565,1,0,0:0:0:0:
475,192,64565,1,0,0:0:0:0:
402,192,64662,1,0,0:0:0:0:
182,192,64662,1,0,0:0:0:0:
109,192,64662,1,0,0:0:0:0:
36,192,64662,1,0,0:0:0:0:
256,192,64758,1,0,0:0:0:0:
329,192,64758,1,0,0:0:0:0:
475,192,64758,1,0,0:0:0:0:
402,192,64855,1,0,0:0:0:0:
182,192,64855,1,0,0:0:0:0:
109,192,64855,1,0,0:0:0:0:
256,192,64952,1,0,0:0:0:0:
329,192,64952,1,0,0:0:0:0:
475,192,64952,1,0,0:0:0:0:
109,192,65049,1,0,0:0:0:0:
36,192,65049,1,0,0:0:0:0:
402,192,65049,1,0,0:0:0:0:
182,192,65049,1,0,0:0:0:0:
256,192,65146,1,0,0:0:0:0:
329,192,65242,1,0,0:0:0:0:
36,192,65242,1,0,0:0:0:0:
475,192,65242,1,0,0:0:0:0:
256,192,65339,1,0,0:0:0:0:
182,192,65436,1,0,0:0:0:0:
109,192,65436,1,0,0:0:0:0:
402,192,65436,1,0,0:0:0:0:
475,192,65436,1,0,0:0:0:0:
329,192,65533,1,0,0:0:0:0:
256,192,65533,1,0,0:0:0:0:
402,192,65629,1,0,0:0:0:0:
109,192,65629,1,0,0:0:0:0:
36,192,65629,1,0,0:0:0:0:
182,192,65726,1,0,0:0:0:0:
256,192,65726,1,0,0:0:0:0:
329,192,65823,1,0,0:0:0:0:
475,192,65823,1,0,0:0:0:0:
109,192,65823,1,0,0:0:0:0:
36,192,65823,1,0,0:0:0:0:
182,192,65920,1,0,0:0:0:0:
256,192,65920,1,0,0:0:0:0:
109,192,66016,1,0,0:0:0:0:
402,192,66016,1,0,0:0:0:0:
475,192,66016,1,0,0:0:0:0:
329,192,66113,1,0,0:0:0:0:
256,192,66113,1,0,0:0:0:0:
182,192,66210,1,0,0:0:0:0:
36,192,66210,1,0,0:0:0:0:
109,192,66210,1,0,0:0:0:0:
475,192,66210,1,0,0:0:0:0:
256,192,66307,1,0,0:0:0:0:
329,192,66307,1,0,0:0:0:0:
402,192,66307,1,0,0:0:0:0:
182,192,66404,1,0,0:0:0:0:
109,192,66404,1,0,0:0:0:0:
36,192,66404,1,0,0:0:0:0:
256,192,66500,1,0,0:0:0:0:
329,192,66500,1,0,0:0:0:0:
402,192,66500,1,0,0:0:0:0:
475,192,66597,1,0,0:0:0:0:
182,192,66597,1,0,0:0:0:0:
109,192,66597,1,0,0:0:0:0:
36,192,66597,1,0,0:0:0:0:
256,192,66694,1,0,0:0:0:0:
329,192,66791,1,0,0:0:0:0:
475,192,66791,1,0,0:0:0:0:
109,192,66791,1,0,0:0:0:0:
182,192,66887,1,0,0:0:0:0:
256,192,66984,1,0,0:0:0:0:
402,192,66984,1,0,0:0:0:0:
475,192,66984,1,0,0:0:0:0:
36,192,66984,1,0,0:0:0:0:
182,192,67081,1,0,0:0:0:0:
329,192,67081,1,0,0:0:0:0:
109,192,67178,1,0,0:0:0:0:
256,192,67178,1,0,0:0:0:0:
402,192,67178,1,0,0:0:0:0:
182,192,67275,1,0,0:0:0:0:
329,192,67275,1,0,0:0:0:0:
256,192,67371,1,0,0:0:0:0:
402,192,67371,1,0,0:0:0:0:
475,192,67371,1,0,0:0:0:0:
109,192,67371,1,0,0:0:0:0:
36,192,67468,1,0,0:0:0:0:
182,192,67468,1,0,0:0:0:0:
109,192,67565,1,0,0:0:0:0:
329,192,67565,1,0,0:0:0:0:
475,192,67565,1,0,0:0:0:0:
256,192,67662,1,0,0:0:0:0:
402,192,67662,1,0,0:0:0:0:
329,192,67758,1,0,0:0:0:0:
182,192,67758,1,0,0:0:0:0:
109,192,67758,1,0,0:0:0:0:
36,192,67758,1,0,0:0:0:0:
256,192,67855,1,0,0:0:0:0:
402,192,67855,1,0,0:0:0:0:
475,192,67855,1,0,0:0:0:0:
329,192,67952,1,0,0:0:0:0:
109,192,67952,1,0,0:0:0:0:
36,192,67952,1,0,0:0:0:0:
182,192,68049,1,0,0:0:0:0:
402,192,68049,1,0,0:0:0:0:
256,192,68146,1,0,0:0:0:0:
329,192,68146,1,0,0:0:0:0:
475,192,68146,1,0,0:0:0:0:
36,192,68146,1,0,0:0:0:0:
109,192,68146,1,0,0:0:0:0:
182,192,68242,1,0,0:0:0:0:
256,192,68339,1,0,0:0:0:0:
475,192,68339,1,0,0:0:0:0:
402,192,68339,1,0,0:0:0:0:
36,192,68339,1,0,0:0:0:0:
109,192,68436,1,0,0:0:0:0:
182,192,68533,1,0,0:0:0:0:
36,192,68533,1,0,0:0:0:0:
329,192,68533,1,0,0:0:0:0:
475,192,68533,1,0,0:0:0:0:
256,192,68629,1,0,0:0:0:0:
402,192,68629,1,0,0:0:0:0:
109,192,68629,1,0,0:0:0:0:
329,192,68726,1,0,0:0:0:0:
36,192,68726,1,0,0:0:0:0:
182,192,68726,1,0,0:0:0:0:
109,192,68823,1,0,0:0:0:0:
256,192,68823,1,0,0:0:0:0:
402,192,68823,1,0,0:0:0:0:
182,192,68920,1,0,0:0:0:0:
329,192,68920,1,0,0:0:0:0:
475,192,68920,1,0,0:0:0:0:
36,192,68920,1,0,0:0:0:0:
109,192,69016,1,0,0:0:0:0:
256,192,69016,1,0,0:0:0:0:
182,192,69113,1,0,0:0:0:0:
329,192,69113,1,0,0:0:0:0:
475,192,69113,1,0,0:0:0:0:
256,192,69210,1,0,0:0:0:0:
402,192,69210,1,0,0:0:0:0:
329,192,69307,1,0,0:0:0:0:
475,192,69307,1,0,0:0:0:0:
109,192,69307,1,0,0:0:0:0:
36,192,69307,1,0,0:0:0:0:
182,192,69404,1,0,0:0:0:0:
256,192,69404,1,0,0:0:0:0:
402,192,69404,1,0,0:0:0:0:
329,192,69500,1,0,0:0:0:0:
36,192,69500,1,0,0:0:0:0:
475,192,69500,1,0,0:0:0:0:
109,192,69597,1,0,0:0:0:0:
182,192,69597,1,0,0:0:0:0:
402,192,69597,1,0,0:0:0:0:
256,192,69694,1,0,0:0:0:0:
329,192,69694,1,0,0:0:0:0:
475,192,69694,1,0,0:0:0:0:
36,192,69694,1,0,0:0:0:0:
109,192,69791,1,0,0:0:0:0:
182,192,69791,1,0,0:0:0:0:
402,192,69791,1,0,0:0:0:0:
36,192,69887,1,0,0:0:0:0:
256,192,69887,1,0,0:0:0:0:
329,192,69887,1,0,0:0:0:0:
402,192,69984,1,0,0:0:0:0:
475,192,69984,1,0,0:0:0:0:
182,192,69984,1,0,0:0:0:0:
109,192,70081,1,0,0:0:0:0:
36,192,70081,1,0,0:0:0:0:
256,192,70081,1,0,0:0:0:0:
329,192,70081,1,0,0:0:0:0:
182,192,70178,1,0,0:0:0:0:
402,192,70178,1,0,0:0:0:0:
256,192,70275,1,0,0:0:0:0:
475,192,70275,1,0,0:0:0:0:
36,192,70275,1,0,0:0:0:0:
109,192,70371,1,0,0:0:0:0:
329,192,70371,1,0,0:0:0:0:
182,192,70468,1,0,0:0:0:0:
402,192,70468,1,0,0:0:0:0:
475,192,70468,1,0,0:0:0:0:
256,192,70468,1,0,0:0:0:0:
36,192,70565,1,0,0:0:0:0:
329,192,70565,1,0,0:0:0:0:
109,192,70565,1,0,0:0:0:0:
256,192,70662,1,0,0:0:0:0:
475,192,70662,1,0,0:0:0:0:
402,192,70662,1,0,0:0:0:0:
182,192,70758,1,0,0:0:0:0:
109,192,70758,1,0,0:0:0:0:
329,192,70758,1,0,0:0:0:0:
256,192,70855,1,0,0:0:0:0:
475,192,70855,1,0,0:0:0:0:
402,192,70855,1,0,0:0:0:0:
36,192,70855,1,0,0:0:0:0:
182,192,70952,1,0,0:0:0:0:
329,192,70952,1,0,0:0:0:0:
109,192,71049,1,0,0:0:0:0:
402,192,71049,1,0,0:0:0:0:
256,192,71049,1,0,0:0:0:0:
182,192,71146,1,0,0:0:0:0:
329,192,71146,1,0,0:0:0:0:
256,192,71242,1,0,0:0:0:0:
402,192,71242,1,0,0:0:0:0:
475,192,71242,1,0,0:0:0:0:
36,192,71242,1,0,0:0:0:0:
182,192,71339,1,0,0:0:0:0:
109,192,71436,1,0,0:0:0:0:
36,192,71436,1,0,0:0:0:0:
402,192,71436,1,0,0:0:0:0:
475,192,71436,1,0,0:0:0:0:
256,192,71533,1,0,0:0:0:0:
329,192,71629,1,0,0:0:0:0:
182,192,71629,1,0,0:0:0:0:
36,192,71629,1,0,0:0:0:0:
475,192,71629,1,0,0:0:0:0:
256,192,71726,1,0,0:0:0:0:
109,192,71726,1,0,0:0:0:0:
402,192,71726,1,0,0:0:0:0:
182,192,71823,1,0,0:0:0:0:
329,192,71823,1,0,0:0:0:0:
475,192,71823,1,0,0:0:0:0:
109,192,71920,1,0,0:0:0:0:
256,192,71920,1,0,0:0:0:0:
402,192,71920,1,0,0:0:0:0:
329,192,72016,1,0,0:0:0:0:
36,192,72016,1,0,0:0:0:0:
182,192,72016,1,0,0:0:0:0:
475,192,72016,1,0,0:0:0:0:
109,192,72113,1,0,0:0:0:0:
402,192,72113,1,0,0:0:0:0:
256,192,72113,1,0,0:0:0:0:
182,192,72210,1,0,0:0:0:0:
36,192,72210,1,0,0:0:0:0:
329,192,72210,1,0,0:0:0:0:
256,192,72307,1,0,0:0:0:0:
402,192,72307,1,0,0:0:0:0:
109,192,72307,1,0,0:0:0:0:
182,192,72404,1,0,0:0:0:0:
475,192,72404,1,0,0:0:0:0:
329,192,72404,1,0,0:0:0:0:
36,192,72404,1,0,0:0:0:0:
256,192,72500,1,0,0:0:0:0:
109,192,72500,1,0,0:0:0:0:
402,192,72500,1,0,0:0:0:0:
182,192,72597,1,0,0:0:0:0:
475,192,72597,1,0,0:0:0:0:
329,192,72597,1,0,0:0:0:0:
402,192,72694,1,0,0:0:0:0:
109,192,72694,1,0,0:0:0:0:
256,192,72694,1,0,0:0:0:0:
182,192,72791,1,0,0:0:0:0:
36,192,72791,1,0,0:0:0:0:
329,192,72791,1,0,0:0:0:0:
475,192,72791,1,0,0:0:0:0:
182,192,73081,1,0,0:0:0:0:
109,192,73081,1,0,0:0:0:0:
329,192,73081,1,0,0:0:0:0:
402,192,73081,1,0,0:0:0:0:
109,192,73371,1,0,0:0:0:0:
182,192,73371,1,0,0:0:0:0:
329,192,73371,1,0,0:0:0:0:
402,192,73371,1,0,0:0:0:0:
182,192,73565,1,0,0:0:0:0:
109,192,73565,1,0,0:0:0:0:
329,192,73565,1,0,0:0:0:0:
402,192,73565,1,0,0:0:0:0:
182,192,73952,1,0,0:0:0:0:
36,192,73952,1,0,0:0:0:0:
109,192,74049,1,0,0:0:0:0:
256,192,74049,1,0,0:0:0:0:
182,192,74146,1,0,0:0:0:0:
329,192,74146,1,0,0:0:0:0:
256,192,74242,1,0,0:0:0:0:
402,192,74242,1,0,0:0:0:0:
329,192,74339,1,0,0:0:0:0:
475,192,74339,1,0,0:0:0:0:
182,192,74726,1,0,0:0:0:0:
109,192,74726,1,0,0:0:0:0:
36,192,74726,1,0,0:0:0:0:
329,192,74726,1,0,0:0:0:0:
402,192,74726,1,0,0:0:0:0:
475,192,74726,1,0,0:0:0:0:
