osu file format v14

[General]
AudioFilename: audio.mp3
AudioLeadIn: 0
PreviewTime: 114
Countdown: 1
SampleSet: Normal
StackLeniency: 0.4
Mode: 0
LetterboxInBreaks: 0
WidescreenStoryboard: 1

[Editor]
Bookmarks: 83807
DistanceSpacing: 5.5
BeatDivisor: 4
GridSize: 8
TimelineZoom: 1.44

[Metadata]
Title:Over The "Period"
TitleUnicode:Over The "Period"
Artist:TAG underground overlay
ArtistUnicode:TAG underground overlay
Creator:Ritzeh
Version:Challenge
Source:DDR 2014
Tags:
BeatmapID:1140741
BeatmapSetID:526666

[Difficulty]
HPDrainRate:6
CircleSize:4
OverallDifficulty:9
ApproachRate:9.8
SliderMultiplier:1.6
SliderTickRate:1

[Events]
//Background and Video events
0,0,"Over The Period-bg.png",0,0
//Break Periods
//Storyboard Layer 0 (Background)
//Storyboard Layer 1 (Fail)
//Storyboard Layer 2 (Pass)
//Storyboard Layer 3 (Foreground)
//Storyboard Sound Samples

[TimingPoints]
230,461.538461538462,4,1,0,75,1,0
2076,-133.333333333333,4,1,0,75,0,0
11306,500,4,1,0,75,1,0
11306,-200,4,1,0,75,0,0
13306,545.454545454546,4,1,0,75,1,0
13306,-267,4,1,0,75,0,0
15487,600,4,1,0,75,1,0
15487,-334,4,1,0,75,0,0
17887,-401,4,1,0,75,0,0
21759,300,4,1,0,75,1,0
21759,-100,4,1,0,75,0,0
23709,-100,4,1,0,75,0,0
26559,-100,4,1,0,75,0,0
40959,375,4,1,0,75,1,0
53709,-401,4,1,0,75,0,0
61959,-200,4,1,0,75,0,0
68709,-401,4,1,0,75,0,0
76959,-1337,4,1,0,75,0,0
79233,-100,4,1,0,75,0,0
79236,285.714285714286,4,1,0,75,1,0
109521,-401,4,1,0,75,0,0
110021,-200,4,1,0,75,0,0

[Colours]
Combo1 : 255,255,94
Combo2 : 255,128,192
Combo3 : 255,91,255

[HitObjects]
406,287,230,5,0,0:0:0:0:
472,139,691,1,0,0:0:0:0:
325,75,1153,1,0,0:0:0:0:
260,221,1614,1,0,0:0:0:0:
440,211,2076,6,0,P|396:159|328:152,1,120.000004577637
227,294,2999,2,0,P|149:291|101:251,1,120.000004577637
317,273,3922,5,0,0:0:0:0:
188,367,4383,1,0,0:0:0:0:
92,238,4845,1,0,0:0:0:0:
223,142,5306,1,0,0:0:0:0:
258,325,5768,6,0,P|189:334|133:294,1,120.000004577637
326,227,6691,2,0,P|371:281|359:349,1,120.000004577637
349,102,7614,5,0,0:0:0:0:
462,295,8076,1,0,0:0:0:0:
237,295,8537,1,0,0:0:0:0:
408,201,8999,1,0,0:0:0:0:
237,295,9460,6,0,P|273:362|332:373,1,120.000004577637
258,200,10383,2,0,P|181:197|138:242,1,120.000004577637
290,96,11076,1,0,0:0:0:0:
430,121,11306,6,0,L|466:373,1,240
359,342,13306,6,0,L|331:140,1,179.775280898876
234,198,15487,6,0,L|255:351,1,143.712574850299
138,238,17887,6,0,P|91:290|151:327,1,159.600997506234
136,139,21759,5,0,0:0:0:0:
108,61,21834,1,0,0:0:0:0:
85,141,21909,1,0,0:0:0:0:
151,91,21984,1,0,0:0:0:0:
68,93,22059,1,0,0:0:0:0:
444,200,22509,5,0,0:0:0:0:
444,200,22809,5,0,0:0:0:0:
0,251,22959,1,0,0:0:0:0:
0,251,23259,1,0,0:0:0:0:
512,384,23409,1,0,0:0:0:0:
164,49,23709,1,0,0:0:0:0:
164,49,24009,1,0,0:0:0:0:
360,108,24159,5,0,0:0:0:0:
388,186,24234,1,0,0:0:0:0:
411,106,24309,1,0,0:0:0:0:
345,156,24384,1,0,0:0:0:0:
428,154,24459,1,0,0:0:0:0:
187,384,24909,5,0,0:0:0:0:
187,384,25209,1,0,0:0:0:0:
132,0,25359,1,0,0:0:0:0:
132,0,25659,1,0,0:0:0:0:
512,166,25809,1,0,0:0:0:0:
512,166,26109,1,0,0:0:0:0:
24,259,26409,1,0,0:0:0:0:
93,121,26559,5,0,0:0:0:0:
93,17,26634,1,0,0:0:0:0:
32,101,26709,1,0,0:0:0:0:
130,69,26784,1,0,0:0:0:0:
32,37,26859,1,0,0:0:0:0:
332,128,27009,1,0,0:0:0:0:
45,171,27159,1,0,0:0:0:0:
179,0,27309,1,0,0:0:0:0:
194,289,27459,1,0,0:0:0:0:
383,61,27609,1,0,0:0:0:0:
47,30,27759,6,0,P|20:75|17:108,1,80
331,132,28059,1,0,0:0:0:0:
44,357,28209,2,0,P|17:312|14:279,1,80
389,268,28509,1,0,0:0:0:0:
140,111,28659,1,0,0:0:0:0:
141,384,28809,1,0,0:0:0:0:
468,152,28959,6,0,P|435:119|392:126,1,80
228,238,29259,1,0,0:0:0:0:
192,255,29334,1,0,0:0:0:0:
153,249,29409,1,0,0:0:0:0:
123,224,29484,1,0,0:0:0:0:
110,187,29559,1,0,0:0:0:0:
418,1,29709,1,0,0:0:0:0:
417,0,29784,1,0,0:0:0:0:
417,0,29859,1,0,0:0:0:0:
431,371,30009,1,0,0:0:0:0:
430,370,30084,1,0,0:0:0:0:
430,370,30159,5,0,0:0:0:0:
181,149,30384,1,0,0:0:0:0:
181,149,30459,1,0,0:0:0:0:
356,339,30609,1,0,0:0:0:0:
3,221,30759,1,0,0:0:0:0:
371,79,30984,1,0,0:0:0:0:
371,79,31059,1,0,0:0:0:0:
272,384,31209,1,0,0:0:0:0:
97,0,31359,5,0,0:0:0:0:
261,257,31509,1,0,0:0:0:0:
246,220,31584,1,0,0:0:0:0:
211,202,31659,1,0,0:0:0:0:
393,32,31809,1,0,0:0:0:0:
81,84,31959,1,0,0:0:0:0:
120,88,32034,1,0,0:0:0:0:
160,93,32109,1,0,0:0:0:0:
53,255,32259,1,0,0:0:0:0:
289,78,32409,1,0,0:0:0:0:
294,117,32484,1,0,0:0:0:0:
317,148,32559,5,0,0:0:0:0:
110,185,32709,1,0,0:0:0:0:
431,208,32859,1,0,0:0:0:0:
426,169,32934,1,0,0:0:0:0:
406,135,33009,1,0,0:0:0:0:
180,54,33159,1,0,0:0:0:0:
264,257,33309,1,0,0:0:0:0:
376,91,33459,1,0,0:0:0:0:
457,310,33609,1,0,0:0:0:0:
273,72,33759,5,0,0:0:0:0:
474,215,33909,1,0,0:0:0:0:
492,250,33984,1,0,0:0:0:0:
509,286,34059,1,0,0:0:0:0:
429,0,34209,1,0,0:0:0:0:
390,266,34359,1,0,0:0:0:0:
375,302,34434,1,0,0:0:0:0:
342,324,34509,1,0,0:0:0:0:
126,120,34659,1,0,0:0:0:0:
429,384,34809,1,0,0:0:0:0:
452,72,34959,5,0,0:0:0:0:
203,106,35109,1,0,0:0:0:0:
151,339,35259,1,0,0:0:0:0:
421,14,35409,1,0,0:0:0:0:
512,384,35559,1,0,0:0:0:0:
197,19,35709,1,0,0:0:0:0:
512,156,35859,1,0,0:0:0:0:
226,347,36009,1,0,0:0:0:0:
380,86,36159,5,0,0:0:0:0:
45,203,36309,1,0,0:0:0:0:
27,238,36384,1,0,0:0:0:0:
27,277,36459,1,0,0:0:0:0:
326,253,36609,1,0,0:0:0:0:
74,169,36759,1,0,0:0:0:0:
40,149,36834,1,0,0:0:0:0:
0,147,36909,1,0,0:0:0:0:
216,336,37059,1,0,0:0:0:0:
0,83,37209,1,0,0:0:0:0:
11,45,37284,1,0,0:0:0:0:
38,17,37359,5,0,0:0:0:0:
243,65,37509,1,0,0:0:0:0:
169,247,37659,1,0,0:0:0:0:
130,247,37734,1,0,0:0:0:0:
94,229,37809,1,0,0:0:0:0:
294,5,37959,1,0,0:0:0:0:
294,264,38109,1,0,0:0:0:0:
447,54,38259,1,0,0:0:0:0:
137,120,38409,1,0,0:0:0:0:
389,366,38559,5,0,0:0:0:0:
500,109,38709,1,0,0:0:0:0:
512,146,38784,1,0,0:0:0:0:
500,183,38859,1,0,0:0:0:0:
243,65,39009,1,0,0:0:0:0:
162,327,39159,1,0,0:0:0:0:
132,301,39234,1,0,0:0:0:0:
121,264,39309,1,0,0:0:0:0:
376,242,39459,1,0,0:0:0:0:
240,1,39609,1,0,0:0:0:0:
203,17,39684,1,0,0:0:0:0:
181,49,39759,5,0,0:0:0:0:
454,285,39959,1,0,0:0:0:0:
501,22,40159,1,0,0:0:0:0:
251,113,40359,1,0,0:0:0:0:
475,172,40559,1,0,0:0:0:0:
271,0,40759,1,0,0:0:0:0:
225,261,40959,5,0,0:0:0:0:
186,266,41052,1,0,0:0:0:0:
148,255,41145,1,0,0:0:0:0:
117,230,41239,1,0,0:0:0:0:
95,196,41334,5,0,0:0:0:0:
84,157,41427,1,0,0:0:0:0:
72,119,41521,1,0,0:0:0:0:
61,81,41615,1,0,0:0:0:0:
51,34,41709,5,0,0:0:0:0:
101,46,41802,1,0,0:0:0:0:
151,58,41896,1,0,0:0:0:0:
199,69,41990,1,0,0:0:0:0:
233,84,42084,5,0,0:0:0:0:
204,94,42146,1,0,0:0:0:0:
175,105,42209,1,0,0:0:0:0:
146,115,42271,1,0,0:0:0:0:
118,126,42334,1,0,0:0:0:0:
89,136,42396,1,0,0:0:0:0:
57,156,42459,5,0,0:0:0:0:
106,172,42552,1,0,0:0:0:0:
155,189,42646,1,0,0:0:0:0:
202,204,42740,1,0,0:0:0:0:
247,221,42834,5,0,0:0:0:0:
262,257,42927,1,0,0:0:0:0:
257,297,43021,1,0,0:0:0:0:
235,329,43115,1,0,0:0:0:0:
280,344,43209,5,0,0:0:0:0:
330,355,43302,1,0,0:0:0:0:
381,368,43396,1,0,0:0:0:0:
429,379,43490,1,0,0:0:0:0:
473,369,43584,5,0,0:0:0:0:
480,339,43646,1,0,0:0:0:0:
486,309,43709,1,0,0:0:0:0:
493,280,43771,1,0,0:0:0:0:
499,249,43834,1,0,0:0:0:0:
505,219,43896,1,0,0:0:0:0:
510,186,43959,5,0,0:0:0:0:
465,209,44052,1,0,0:0:0:0:
418,232,44146,1,0,0:0:0:0:
375,255,44240,1,0,0:0:0:0:
333,277,44334,5,0,0:0:0:0:
294,273,44427,1,0,0:0:0:0:
264,248,44521,1,0,0:0:0:0:
253,210,44615,1,0,0:0:0:0:
247,163,44709,5,0,0:0:0:0:
202,186,44802,1,0,0:0:0:0:
155,209,44896,1,0,0:0:0:0:
112,232,44990,1,0,0:0:0:0:
71,250,45084,5,0,0:0:0:0:
44,249,45146,1,0,0:0:0:0:
22,235,45209,1,0,0:0:0:0:
12,211,45271,1,0,0:0:0:0:
16,185,45334,1,0,0:0:0:0:
34,166,45396,1,0,0:0:0:0:
78,162,45459,5,0,0:0:0:0:
123,185,45552,1,0,0:0:0:0:
170,208,45646,1,0,0:0:0:0:
213,231,45740,1,0,0:0:0:0:
257,252,45834,5,0,0:0:0:0:
302,229,45927,1,0,0:0:0:0:
349,206,46021,1,0,0:0:0:0:
392,183,46115,1,0,0:0:0:0:
433,156,46209,5,0,0:0:0:0:
388,133,46302,1,0,0:0:0:0:
341,110,46396,1,0,0:0:0:0:
298,87,46490,1,0,0:0:0:0:
256,109,46584,5,0,0:0:0:0:
221,126,46677,1,0,0:0:0:0:
182,126,46771,1,0,0:0:0:0:
147,107,46865,1,0,0:0:0:0:
116,70,46959,5,0,0:0:0:0:
93,113,47053,1,0,0:0:0:0:
70,160,47147,1,0,0:0:0:0:
47,205,47240,1,0,0:0:0:0:
28,248,47334,5,0,0:0:0:0:
76,235,47428,1,0,0:0:0:0:
125,219,47522,1,0,0:0:0:0:
173,205,47615,1,0,0:0:0:0:
218,187,47709,5,0,0:0:0:0:
170,173,47802,1,0,0:0:0:0:
121,157,47896,1,0,0:0:0:0:
73,144,47990,1,0,0:0:0:0:
42,117,48084,5,0,0:0:0:0:
70,107,48146,1,0,0:0:0:0:
99,97,48209,1,0,0:0:0:0:
127,87,48271,1,0,0:0:0:0:
156,77,48334,1,0,0:0:0:0:
184,67,48396,1,0,0:0:0:0:
220,66,48459,5,0,0:0:0:0:
268,80,48552,1,0,0:0:0:0:
317,96,48646,1,0,0:0:0:0:
365,109,48740,1,0,0:0:0:0:
410,126,48834,5,0,0:0:0:0:
394,162,48927,1,0,0:0:0:0:
400,201,49021,1,0,0:0:0:0:
425,232,49115,1,0,0:0:0:0:
465,259,49209,5,0,0:0:0:0:
417,273,49302,1,0,0:0:0:0:
368,289,49396,1,0,0:0:0:0:
320,302,49490,1,0,0:0:0:0:
279,301,49584,5,0,0:0:0:0:
252,295,49646,1,0,0:0:0:0:
226,289,49709,1,0,0:0:0:0:
200,283,49771,1,0,0:0:0:0:
174,277,49834,1,0,0:0:0:0:
148,271,49896,1,0,0:0:0:0:
122,265,49959,5,0,0:0:0:0:
98,289,50052,1,0,0:0:0:0:
92,328,50146,1,0,0:0:0:0:
67,359,50240,1,0,0:0:0:0:
115,350,50334,5,0,0:0:0:0:
163,337,50428,1,0,0:0:0:0:
212,321,50522,1,0,0:0:0:0:
260,307,50615,1,0,0:0:0:0:
306,291,50709,5,0,0:0:0:0:
258,278,50803,1,0,0:0:0:0:
209,262,50897,1,0,0:0:0:0:
161,248,50990,1,0,0:0:0:0:
115,236,51084,5,0,0:0:0:0:
86,210,51177,1,0,0:0:0:0:
76,172,51271,1,0,0:0:0:0:
89,135,51365,1,0,0:0:0:0:
135,118,51459,5,0,0:0:0:0:
182,103,51553,1,0,0:0:0:0:
231,87,51647,1,0,0:0:0:0:
279,73,51740,1,0,0:0:0:0:
327,62,51834,5,0,0:0:0:0:
363,92,51927,1,0,0:0:0:0:
401,126,52021,1,0,0:0:0:0:
436,161,52115,1,0,0:0:0:0:
465,188,52209,5,0,0:0:0:0:
477,211,52271,1,0,0:0:0:0:
474,236,52334,1,0,0:0:0:0:
455,254,52396,1,0,0:0:0:0:
429,258,52459,1,0,0:0:0:0:
406,244,52521,1,0,0:0:0:0:
396,220,52584,1,0,0:0:0:0:
512,0,52771,1,0,0:0:0:0:
321,276,52959,5,0,0:0:0:0:
160,50,53147,1,0,0:0:0:0:
160,50,53240,1,0,0:0:0:0:
361,132,53521,1,0,0:0:0:0:
87,313,53709,2,0,P|64:311|50:294,1,39.9002493765586
38,227,54271,1,0,0:0:0:0:
456,296,54459,5,0,0:0:0:0:
456,296,54552,1,0,0:0:0:0:
45,142,54740,1,0,0:0:0:0:
45,142,54834,1,0,0:0:0:0:
340,82,55021,1,0,0:0:0:0:
340,82,55115,1,0,0:0:0:0:
79,325,55302,1,0,0:0:0:0:
79,325,55396,1,0,0:0:0:0:
143,3,55584,1,0,0:0:0:0:
476,37,55771,1,0,0:0:0:0:
0,223,55959,5,0,0:0:0:0:
274,107,56240,1,0,0:0:0:0:
357,357,56521,1,0,0:0:0:0:
18,150,56709,2,0,P|17:128|25:107,1,39.9002493765586
94,80,57271,1,0,0:0:0:0:
151,330,57459,5,0,0:0:0:0:
151,330,57552,1,0,0:0:0:0:
78,0,57740,1,0,0:0:0:0:
78,0,57833,1,0,0:0:0:0:
396,76,58021,1,0,0:0:0:0:
396,76,58114,1,0,0:0:0:0:
51,183,58302,1,0,0:0:0:0:
51,183,58395,1,0,0:0:0:0:
286,20,58584,1,0,0:0:0:0:
159,363,58771,1,0,0:0:0:0:
486,28,58959,5,0,0:0:0:0:
126,191,59240,1,0,0:0:0:0:
375,252,59521,1,0,0:0:0:0:
111,4,59709,2,0,P|88:6|70:17,1,39.9002493765586
180,36,60271,1,0,0:0:0:0:
186,335,60459,5,0,0:0:0:0:
186,335,60552,1,0,0:0:0:0:
454,205,60740,1,0,0:0:0:0:
454,205,60833,1,0,0:0:0:0:
110,108,61021,1,0,0:0:0:0:
110,108,61114,1,0,0:0:0:0:
456,11,61302,1,0,0:0:0:0:
456,11,61395,1,0,0:0:0:0:
230,326,61584,1,0,0:0:0:0:
249,53,61771,1,0,0:0:0:0:
453,365,61959,6,0,P|462:375|498:380,1,40
512,381,62240,1,0,0:0:0:0:
374,137,62521,1,0,0:0:0:0:
150,212,62709,2,0,P|133:230|131:258,1,40
129,267,62990,1,0,0:0:0:0:
432,245,63271,1,0,0:0:0:0:
109,11,63459,6,0,P|84:7|60:22,1,40
52,25,63740,1,0,0:0:0:0:
337,13,64021,1,0,0:0:0:0:
0,179,64209,1,0,0:0:0:0:
246,220,64396,1,0,0:0:0:0:
246,220,64490,1,0,0:0:0:0:
0,347,64771,1,0,0:0:0:0:
158,0,64959,5,0,0:0:0:0:
216,322,65240,1,0,0:0:0:0:
216,322,65334,2,0,P|252:331|262:323,1,40
359,63,65709,1,0,0:0:0:0:
191,117,65896,1,0,0:0:0:0:
391,167,66084,1,0,0:0:0:0:
223,221,66271,1,0,0:0:0:0:
414,2,66459,5,0,0:0:0:0:
414,2,66552,1,0,0:0:0:0:
317,214,66740,1,0,0:0:0:0:
317,214,66833,1,0,0:0:0:0:
121,72,67021,1,0,0:0:0:0:
121,72,67114,1,0,0:0:0:0:
292,138,67302,1,0,0:0:0:0:
292,138,67395,1,0,0:0:0:0:
130,224,67584,1,0,0:0:0:0:
235,11,67771,1,0,0:0:0:0:
488,357,67959,5,0,0:0:0:0:
182,131,68240,1,0,0:0:0:0:
343,42,68521,1,0,0:0:0:0:
214,336,68709,2,0,P|194:343|169:339,1,39.9002493765586
193,240,69271,1,0,0:0:0:0:
410,41,69459,5,0,0:0:0:0:
410,41,69552,1,0,0:0:0:0:
508,362,69740,1,0,0:0:0:0:
508,362,69833,1,0,0:0:0:0:
161,219,70021,1,0,0:0:0:0:
161,219,70114,1,0,0:0:0:0:
161,219,70209,1,0,0:0:0:0:
296,384,70396,1,0,0:0:0:0:
453,188,70584,1,0,0:0:0:0:
212,294,70771,1,0,0:0:0:0:
398,116,70959,5,0,0:0:0:0:
393,381,71146,1,0,0:0:0:0:
303,188,71334,1,0,0:0:0:0:
314,384,71521,1,0,0:0:0:0:
382,185,71709,1,0,0:0:0:0:
457,312,71896,1,0,0:0:0:0:
229,192,72084,1,0,0:0:0:0:
422,40,72271,1,0,0:0:0:0:
316,238,72459,5,0,0:0:0:0:
316,238,72552,1,0,0:0:0:0:
316,238,72646,1,0,0:0:0:0:
144,153,72834,1,0,0:0:0:0:
294,144,73021,1,0,0:0:0:0:
294,144,73115,1,0,0:0:0:0:
294,144,73209,1,0,0:0:0:0:
342,324,73396,1,0,0:0:0:0:
382,185,73584,1,0,0:0:0:0:
163,250,73771,1,0,0:0:0:0:
408,48,73959,5,0,0:0:0:0:
427,54,74052,1,0,0:0:0:0:
444,65,74146,1,0,0:0:0:0:
458,79,74240,1,0,0:0:0:0:
469,96,74334,1,0,0:0:0:0:
477,114,74427,1,0,0:0:0:0:
480,134,74521,1,0,0:0:0:0:
479,154,74615,1,0,0:0:0:0:
474,173,74709,5,0,0:0:0:0:
465,191,74802,1,0,0:0:0:0:
452,207,74896,1,0,0:0:0:0:
437,219,74990,1,0,0:0:0:0:
419,228,75084,1,0,0:0:0:0:
400,233,75177,1,0,0:0:0:0:
380,234,75271,1,0,0:0:0:0:
360,231,75365,1,0,0:0:0:0:
338,221,75459,5,0,0:0:0:0:
322,208,75553,1,0,0:0:0:0:
305,199,75647,1,0,0:0:0:0:
286,194,75740,1,0,0:0:0:0:
266,193,75834,1,0,0:0:0:0:
247,195,75928,1,0,0:0:0:0:
227,203,76022,1,0,0:0:0:0:
211,214,76115,1,0,0:0:0:0:
197,228,76209,5,0,0:0:0:0:
186,245,76303,1,0,0:0:0:0:
178,263,76397,1,0,0:0:0:0:
176,283,76490,1,0,0:0:0:0:
177,303,76584,1,0,0:0:0:0:
182,322,76678,1,0,0:0:0:0:
192,340,76772,1,0,0:0:0:0:
204,355,76865,1,0,0:0:0:0:
216,364,76959,6,0,P|263:375|300:365,1,88
300,125,79236,5,0,0:0:0:0:
380,151,79308,1,0,0:0:0:0:
300,177,79379,1,0,0:0:0:0:
350,109,79451,1,0,0:0:0:0:
350,194,79522,1,0,0:0:0:0:
0,243,79664,1,0,0:0:0:0:
185,0,79807,1,0,0:0:0:0:
273,296,79950,1,0,0:0:0:0:
0,164,80093,1,0,0:0:0:0:
262,0,80236,1,0,0:0:0:0:
512,144,80378,6,0,P|512:192|494:222,1,80
490,223,80593,1,0,0:0:0:0:
485,228,80664,1,0,0:0:0:0:
312,345,80807,1,0,0:0:0:0:
301,339,80878,1,0,0:0:0:0:
288,335,80949,1,0,0:0:0:0:
276,337,81021,1,0,0:0:0:0:
268,343,81092,1,0,0:0:0:0:
48,320,81236,1,0,0:0:0:0:
14,338,81307,1,0,0:0:0:0:
3,375,81378,1,0,0:0:0:0:
271,249,81521,5,0,0:0:0:0:
271,164,81593,1,0,0:0:0:0:
221,232,81664,1,0,0:0:0:0:
301,206,81736,1,0,0:0:0:0:
221,180,81807,1,0,0:0:0:0:
388,352,81950,1,0,0:0:0:0:
511,242,82093,1,0,0:0:0:0:
58,128,82236,1,0,0:0:0:0:
180,40,82378,1,0,0:0:0:0:
85,357,82521,1,0,0:0:0:0:
16,105,82664,5,0,0:0:0:0:
29,81,82735,1,0,0:0:0:0:
48,63,82806,1,0,0:0:0:0:
73,53,82878,1,0,0:0:0:0:
99,51,82949,1,0,0:0:0:0:
124,59,83021,1,0,0:0:0:0:
145,75,83092,1,0,0:0:0:0:
263,174,83236,5,0,0:0:0:0:
265,212,83307,1,0,0:0:0:0:
252,236,83378,1,0,0:0:0:0:
232,249,83450,1,0,0:0:0:0:
209,253,83521,5,0,0:0:0:0:
186,249,83593,1,0,0:0:0:0:
165,239,83664,1,0,0:0:0:0:
150,221,83735,1,0,0:0:0:0:
133,191,83807,5,0,0:0:0:0:
133,106,83879,1,0,0:0:0:0:
83,174,83950,1,0,0:0:0:0:
163,148,84022,1,0,0:0:0:0:
83,122,84093,1,0,0:0:0:0:
194,299,84236,1,0,0:0:0:0:
56,0,84378,1,0,0:0:0:0:
0,384,84521,1,0,0:0:0:0:
366,222,84664,1,0,0:0:0:0:
56,0,84807,1,0,0:0:0:0:
464,47,84950,5,0,0:0:0:0:
201,164,85093,1,0,0:0:0:0:
200,183,85164,1,0,0:0:0:0:
203,203,85235,1,0,0:0:0:0:
212,221,85307,1,0,0:0:0:0:
225,236,85378,1,0,0:0:0:0:
487,179,85521,5,0,0:0:0:0:
500,194,85592,1,0,0:0:0:0:
509,212,85664,1,0,0:0:0:0:
512,232,85735,1,0,0:0:0:0:
510,252,85806,1,0,0:0:0:0:
322,94,85950,1,0,0:0:0:0:
362,99,86021,1,0,0:0:0:0:
402,104,86093,6,0,L|496:90,1,80
311,189,86307,2,0,L|232:200,1,80
387,181,86521,1,0,0:0:0:0:
151,169,86664,2,0,P|145:213|160:263,1,80
322,94,86878,2,0,P|287:66|237:54,1,80
166,84,87093,1,0,0:0:0:0:
387,181,87236,6,0,P|406:219|410:275,1,80
356,322,87450,6,0,P|337:284|333:228,1,80
387,181,87664,1,0,0:0:0:0:
254,257,87807,2,0,P|217:262|193:232,1,80
257,150,88021,2,0,P|294:145|318:175,1,80
103,164,88236,1,0,0:0:0:0:
380,321,88378,5,0,0:0:0:0:
197,11,88521,1,0,0:0:0:0:
375,79,88664,1,0,0:0:0:0:
380,321,88807,1,0,0:0:0:0:
167,124,88950,1,0,0:0:0:0:
481,254,89093,1,0,0:0:0:0:
281,383,89236,1,0,0:0:0:0:
375,79,89378,1,0,0:0:0:0:
481,254,89521,5,0,0:0:0:0:
281,383,89664,1,0,0:0:0:0:
454,80,89807,1,0,0:0:0:0:
507,372,89950,1,0,0:0:0:0:
166,232,90093,1,0,0:0:0:0:
474,30,90236,1,0,0:0:0:0:
394,360,90378,1,0,0:0:0:0:
139,126,90521,1,0,0:0:0:0:
512,169,90664,5,0,0:0:0:0:
198,20,90807,1,0,0:0:0:0:
287,367,90950,1,0,0:0:0:0:
512,79,91093,1,0,0:0:0:0:
122,242,91236,1,0,0:0:0:0:
405,271,91378,1,0,0:0:0:0:
283,18,91521,1,0,0:0:0:0:
186,354,91664,1,0,0:0:0:0:
140,2,91807,5,0,0:0:0:0:
317,339,91950,1,0,0:0:0:0:
390,2,92093,1,0,0:0:0:0:
206,338,92236,1,0,0:0:0:0:
4,2,92378,1,0,0:0:0:0:
372,243,92521,1,0,0:0:0:0:
70,245,92664,1,0,0:0:0:0:
230,15,92807,1,0,0:0:0:0:
396,167,92950,5,0,0:0:0:0:
0,222,93093,1,0,0:0:0:0:
239,358,93236,1,0,0:0:0:0:
224,75,93378,1,0,0:0:0:0:
396,382,93521,1,0,0:0:0:0:
92,233,93664,1,0,0:0:0:0:
312,0,93807,1,0,0:0:0:0:
122,359,93950,1,0,0:0:0:0:
399,342,94093,5,0,0:0:0:0:
128,171,94236,1,0,0:0:0:0:
467,227,94378,1,0,0:0:0:0:
69,291,94521,1,0,0:0:0:0:
79,32,94664,1,0,0:0:0:0:
219,115,94807,1,0,0:0:0:0:
0,171,94950,1,0,0:0:0:0:
139,250,95093,1,0,0:0:0:0:
282,0,95236,5,0,0:0:0:0:
151,75,95378,1,0,0:0:0:0:
139,250,95521,1,0,0:0:0:0:
292,168,95664,5,0,0:0:0:0:
217,38,95806,1,0,0:0:0:0:
42,26,95949,1,0,0:0:0:0:
292,168,96093,1,0,0:0:0:0:
45,313,96236,1,0,0:0:0:0:
75,107,96378,5,0,0:0:0:0:
411,384,96569,1,0,0:0:0:0:
403,0,96759,1,0,0:0:0:0:
259,364,96950,1,0,0:0:0:0:
37,51,97140,1,0,0:0:0:0:
344,107,97331,1,0,0:0:0:0:
0,263,97521,5,0,0:0:0:0:
292,168,97664,1,0,0:0:0:0:
323,193,97735,1,0,0:0:0:0:
337,230,97806,1,0,0:0:0:0:
512,63,97950,1,0,0:0:0:0:
254,30,98093,1,0,0:0:0:0:
269,64,98164,1,0,0:0:0:0:
263,103,98235,1,0,0:0:0:0:
129,321,98378,5,0,0:0:0:0:
109,287,98449,1,0,0:0:0:0:
76,266,98520,1,0,0:0:0:0:
35,264,98592,1,0,0:0:0:0:
0,280,98663,5,0,0:0:0:0:
361,160,98807,1,0,0:0:0:0:
361,160,98878,1,0,0:0:0:0:
361,160,98950,1,0,0:0:0:0:
88,87,99093,1,0,0:0:0:0:
194,351,99236,1,0,0:0:0:0:
232,358,99307,1,0,0:0:0:0:
261,384,99378,1,0,0:0:0:0:
99,244,99521,5,0,0:0:0:0:
65,262,99592,1,0,0:0:0:0:
41,294,99663,1,0,0:0:0:0:
34,333,99735,1,0,0:0:0:0:
44,364,99806,5,0,0:0:0:0:
302,30,99950,1,0,0:0:0:0:
267,48,100021,1,0,0:0:0:0:
228,53,100092,1,0,0:0:0:0:
357,274,100236,1,0,0:0:0:0:
45,188,100378,1,0,0:0:0:0:
77,163,100449,1,0,0:0:0:0:
97,128,100520,1,0,0:0:0:0:
323,325,100664,5,0,0:0:0:0:
317,286,100735,1,0,0:0:0:0:
310,246,100807,1,0,0:0:0:0:
304,207,100878,1,0,0:0:0:0:
297,168,100949,5,0,0:0:0:0:
512,320,101093,1,0,0:0:0:0:
502,31,101236,1,0,0:0:0:0:
164,384,101378,1,0,0:0:0:0:
257,0,101521,1,0,0:0:0:0:
378,375,101664,1,0,0:0:0:0:
106,20,101807,1,0,0:0:0:0:
483,229,101950,1,0,0:0:0:0:
164,384,102093,5,0,0:0:0:0:
21,129,102236,1,0,0:0:0:0:
51,104,102307,1,0,0:0:0:0:
63,67,102378,1,0,0:0:0:0:
288,250,102521,1,0,0:0:0:0:
0,198,102664,1,0,0:0:0:0:
37,210,102735,1,0,0:0:0:0:
63,241,102806,1,0,0:0:0:0:
324,360,102950,5,0,0:0:0:0:
362,351,103021,1,0,0:0:0:0:
401,341,103092,1,0,0:0:0:0:
440,332,103164,1,0,0:0:0:0:
479,322,103235,5,0,0:0:0:0:
110,196,103378,1,0,0:0:0:0:
132,225,103449,1,0,0:0:0:0:
137,265,103520,1,0,0:0:0:0:
234,43,103664,1,0,0:0:0:0:
71,165,103807,1,0,0:0:0:0:
33,161,103878,1,0,0:0:0:0:
0,138,103949,1,0,0:0:0:0:
318,154,104093,5,0,0:0:0:0:
280,142,104164,1,0,0:0:0:0:
242,131,104235,1,0,0:0:0:0:
203,120,104307,1,0,0:0:0:0:
165,109,104378,5,0,0:0:0:0:
473,138,104521,1,0,0:0:0:0:
452,175,104592,1,0,0:0:0:0:
462,217,104663,1,0,0:0:0:0:
72,208,104807,1,0,0:0:0:0:
405,102,104950,1,0,0:0:0:0:
417,64,105021,1,0,0:0:0:0:
412,25,105092,1,0,0:0:0:0:
107,5,105236,5,0,0:0:0:0:
100,45,105307,1,0,0:0:0:0:
94,84,105379,1,0,0:0:0:0:
87,124,105450,1,0,0:0:0:0:
79,164,105521,5,0,0:0:0:0:
255,261,105664,1,0,0:0:0:0:
255,261,105736,1,0,0:0:0:0:
255,261,105807,1,0,0:0:0:0:
0,74,105950,1,0,0:0:0:0:
0,328,106093,1,0,0:0:0:0:
17,363,106164,1,0,0:0:0:0:
51,384,106235,1,0,0:0:0:0:
404,338,106378,5,0,0:0:0:0:
372,344,106450,1,0,0:0:0:0:
334,334,106522,1,0,0:0:0:0:
305,306,106593,1,0,0:0:0:0:
294,268,106664,5,0,0:0:0:0:
267,22,106807,1,0,0:0:0:0:
216,366,106950,1,0,0:0:0:0:
36,160,107093,1,0,0:0:0:0:
448,232,107236,1,0,0:0:0:0:
0,343,107379,1,0,0:0:0:0:
426,384,107521,1,0,0:0:0:0:
73,0,107664,1,0,0:0:0:0:
396,83,107807,5,0,0:0:0:0:
428,107,107878,1,0,0:0:0:0:
446,142,107949,1,0,0:0:0:0:
446,182,108021,1,0,0:0:0:0:
429,218,108092,1,0,0:0:0:0:
398,243,108164,1,0,0:0:0:0:
360,251,108235,1,0,0:0:0:0:
321,243,108306,1,0,0:0:0:0:
286,223,108378,5,0,0:0:0:0:
247,215,108449,1,0,0:0:0:0:
209,223,108520,1,0,0:0:0:0:
178,248,108592,1,0,0:0:0:0:
161,284,108663,1,0,0:0:0:0:
161,324,108735,1,0,0:0:0:0:
179,359,108806,1,0,0:0:0:0:
210,384,108877,1,0,0:0:0:0:
251,382,108950,5,0,0:0:0:0:
62,340,109521,6,0,L|48:272,1,66.5004156275977
39,228,110093,1,0,0:0:0:0:
43,163,110188,1,0,0:0:0:0:
72,105,110283,1,0,0:0:0:0:
122,63,110378,1,0,0:0:0:0:
184,44,110473,1,0,0:0:0:0:
249,51,110569,1,0,0:0:0:0:
305,84,110664,1,0,0:0:0:0:
345,135,110759,1,0,0:0:0:0:
360,198,110854,1,0,0:0:0:0:
350,263,110950,1,0,0:0:0:0:
315,317,111045,1,0,0:0:0:0:
262,354,111140,1,0,0:0:0:0:
192,338,111236,5,0,0:0:0:0:
156,273,111331,1,0,0:0:0:0:
149,200,111426,1,0,0:0:0:0:
172,128,111521,1,0,0:0:0:0:
220,73,111616,1,0,0:0:0:0:
287,41,111712,1,0,0:0:0:0:
361,38,111807,1,0,0:0:0:0:
430,63,111902,1,0,0:0:0:0:
483,116,111997,1,0,0:0:0:0:
512,184,112093,1,0,0:0:0:0:
511,258,112188,1,0,0:0:0:0:
483,325,112283,1,0,0:0:0:0:
452,350,112378,5,0,0:0:0:0:
432,348,112449,1,0,0:0:0:0:
412,346,112520,1,0,0:0:0:0:
392,341,112592,1,0,0:0:0:0:
374,333,112663,1,0,0:0:0:0:
356,323,112735,1,0,0:0:0:0:
340,311,112806,1,0,0:0:0:0:
326,297,112877,1,0,0:0:0:0:
314,281,112949,5,0,0:0:0:0:
298,280,113020,1,0,0:0:0:0:
279,286,113092,1,0,0:0:0:0:
260,292,113163,1,0,0:0:0:0:
241,298,113235,1,0,0:0:0:0:
222,305,113306,1,0,0:0:0:0:
203,311,113377,1,0,0:0:0:0:
184,317,113449,1,0,0:0:0:0:
166,326,113521,5,0,0:0:0:0:
146,328,113592,1,0,0:0:0:0:
126,327,113663,1,0,0:0:0:0:
107,321,113735,1,0,0:0:0:0:
89,312,113806,1,0,0:0:0:0:
74,299,113878,1,0,0:0:0:0:
62,283,113949,1,0,0:0:0:0:
54,265,114020,1,0,0:0:0:0:
50,245,114092,5,0,0:0:0:0:
50,225,114163,1,0,0:0:0:0:
55,206,114235,1,0,0:0:0:0:
63,188,114306,1,0,0:0:0:0:
76,172,114378,1,0,0:0:0:0:
91,159,114449,1,0,0:0:0:0:
109,150,114520,1,0,0:0:0:0:
128,145,114592,1,0,0:0:0:0:
148,144,114663,5,0,0:0:0:0:
512,253,114807,1,0,0:0:0:0:
512,253,115093,5,0,0:0:0:0:
0,0,115236,1,0,0:0:0:0:
0,0,115521,5,0,0:0:0:0:
46,377,115664,1,0,0:0:0:0:
46,377,115950,5,0,0:0:0:0:
367,138,116093,1,0,0:0:0:0:
512,384,116378,5,0,0:0:0:0:
80,161,116521,1,0,0:0:0:0:
351,0,116664,1,0,0:0:0:0:
152,384,116807,1,0,0:0:0:0:
456,192,117093,1,0,0:0:0:0:
93,310,117236,1,0,0:0:0:0:
318,1,117378,1,0,0:0:0:0:
318,382,117521,1,0,0:0:0:0:
93,73,117664,1,0,0:0:0:0:
39,355,117950,5,0,0:0:0:0:
382,165,118236,5,0,0:0:0:0:
382,165,118307,1,0,0:0:0:0:
382,165,118378,1,0,0:0:0:0:
96,191,118521,1,0,0:0:0:0:
512,0,118664,1,0,0:0:0:0:
