osu file format v14

[General]
AudioFilename: audio.mp3
AudioLeadIn: 0
PreviewTime: 98308
Countdown: 0
SampleSet: Soft
StackLeniency: 0.7
Mode: 2
LetterboxInBreaks: 0
WidescreenStoryboard: 1

[Editor]
Bookmarks: 90500
DistanceSpacing: 1.4
BeatDivisor: 12
GridSize: 16
TimelineZoom: 2.1

[Metadata]
Title:Over The "Period"
TitleUnicode:Over The "Period"
Artist:TAG underground overlay
ArtistUnicode:TAG underground overlay
Creator:Lacrima
Version:Expert
Source:DanceDanceRevolution
Tags:famoss myle instrumental video game DDR 2014 20th Anniversary NONSTOP MEGAMIX mayo The 7th KONAMI Arcade Championship 7 KAC
BeatmapID:3262667
BeatmapSetID:1597589

[Difficulty]
HPDrainRate:6
CircleSize:4
OverallDifficulty:9.1
ApproachRate:9.1
SliderMultiplier:1.8
SliderTickRate:2

[Events]
//Background and Video events
0,0,"223-1439346152.png",0,0
//Break Periods
//Storyboard Layer 0 (Background)
//Storyboard Layer 1 (Fail)
//Storyboard Layer 2 (Pass)
//Storyboard Layer 3 (Foreground)
//Storyboard Layer 4 (Overlay)
//Storyboard Sound Samples

[TimingPoints]
1015,461.538461538462,4,2,1,80,1,0
1130,-100,4,2,1,5,0,0
1476,-100,4,2,1,80,0,0
1591,-100,4,2,1,5,0,0
1938,-100,4,2,1,80,0,0
2053,-100,4,2,1,5,0,0
2399,-100,4,2,1,80,0,0
2514,-100,4,2,1,5,0,0
2861,-100,4,2,1,80,0,0
2976,-100,4,2,1,5,0,0
3784,-100,4,2,1,80,0,0
3899,-100,4,2,1,5,0,0
4707,-100,4,2,1,80,0,0
4822,-100,4,2,1,5,0,0
5168,-100,4,2,1,80,0,0
5284,-100,4,2,1,5,0,0
5630,-100,4,2,1,80,0,0
5745,-100,4,2,1,5,0,0
6091,-100,4,2,1,80,0,0
6207,-100,4,2,1,5,0,0
6553,-100,4,2,1,80,0,0
6668,-100,4,2,1,5,0,0
7476,-100,4,2,1,80,0,0
7591,-100,4,2,1,5,0,0
8399,-100,4,2,1,80,0,0
8514,-100,4,2,1,5,0,0
8861,-100,4,2,1,80,0,0
8976,-100,4,2,1,5,0,0
9322,-100,4,2,1,80,0,0
9438,-100,4,2,1,5,0,0
9784,-100,4,2,1,80,0,0
9899,-100,4,2,1,5,0,0
10245,-100,4,2,1,80,0,0
10361,-100,4,2,1,5,0,0
11168,-100,4,2,1,80,0,0
11284,-100,4,2,1,5,0,0
11630,-100,4,2,1,80,0,0
11745,-100,4,2,1,5,0,0
11861,-100,4,2,1,80,0,0
11976,-100,4,2,1,5,0,0
12091,500,4,2,1,90,1,0
12216,-100,4,2,1,5,0,0
14091,545.454545454546,4,2,1,88,1,0
14227,-100,4,2,1,5,0,0
15727,-100,4,2,1,80,0,0
15863,-100,4,2,1,5,0,0
16272,600,4,2,1,86,1,0
16422,-100,4,2,1,5,0,0
18672,666.666666666667,4,2,1,90,1,0
22538,300,4,2,1,80,1,0
22538,-90.9090909090909,4,2,1,80,0,0
41738,375,4,2,1,90,1,0
41738,-66.6666666666667,4,2,1,90,0,1
53738,-76.9230769230769,4,2,1,90,0,0
65738,-76.9230769230769,4,2,1,90,0,0
77738,571.428571428571,4,2,1,95,1,0
80023,285.714285714286,4,2,1,95,1,0
80023,-100,4,2,1,95,0,0
89165,-100,4,2,1,95,0,0
97737,-100,4,2,1,95,0,0
98118,-100,4,2,1,95,0,0
98308,-100,4,2,1,95,0,1
109737,-100,4,2,1,95,0,0
110880,-100,4,2,1,95,0,1
115451,-100,4,2,1,95,0,0

[Colours]
Combo1 : 128,0,128
Combo2 : 255,0,255
Combo3 : 120,0,255

[HitObjects]
341,318,1015,6,0,L|358:126,1,180
171,318,1938,2,0,L|154:126,1,180
386,359,2861,2,0,P|466:303|368:88,1,360
171,318,4707,6,0,L|154:126,1,180
341,318,5630,2,0,L|358:126,1,180
126,359,6553,2,0,P|46:303|144:88,1,360
438,193,8399,5,0,0:0:0:0:
317,194,8861,1,0,0:0:0:0:
197,195,9322,1,0,0:0:0:0:
78,196,9784,1,0,0:0:0:0:
322,349,10246,6,0,P|402:292|312:75,1,360
146,90,11631,2,0,L|257:91,1,90
389,93,12092,6,0,P|400:160|88:85,1,630
246,17,14092,6,0,P|354:61|234:371,1,540
391,304,16273,6,0,P|418:239|122:307,1,720
256,192,19006,12,0,22339,0:0:0:0:
151,141,22539,6,0,L|142:86,3,49.5000015106202,4|2|2|2,0:0|0:0|0:0|0:0,0:0:0:0:
306,95,22839,1,2,0:0:0:0:
154,226,23289,1,2,0:0:0:0:
154,226,23589,1,2,0:0:0:0:
362,227,23739,5,2,0:0:0:0:
362,227,24039,1,2,0:0:0:0:
223,226,24189,1,2,0:0:0:0:
362,227,24489,1,2,0:0:0:0:
223,226,24789,1,2,0:0:0:0:
362,227,24939,6,0,L|369:166,3,49.5000015106202,2|2|2|2,0:0|0:0|0:0|0:0,0:0:0:0:
181,128,25239,1,2,0:0:0:0:
381,133,25689,1,2,0:0:0:0:
381,133,25989,1,2,0:0:0:0:
240,132,26139,5,2,0:0:0:0:
240,132,26439,1,2,0:0:0:0:
449,132,26589,1,2,0:0:0:0:
240,132,26889,1,2,0:0:0:0:
449,132,27189,1,2,0:0:0:0:
171,230,27339,6,0,L|62:228,2,99.0000030212403,2|2|2,0:0|0:0|0:0,0:0:0:0:
307,172,27789,2,0,L|307:48,1,99.0000030212403,2|2,0:0|0:0,0:0:0:0:
88,111,28089,2,0,L|204:110,1,99.0000030212403,2|2,0:0|0:0,0:0:0:0:
399,257,28389,1,2,0:0:0:0:
274,257,28539,6,0,L|274:147,1,99.0000030212403,2|2,0:0|0:0,0:0:0:0:
399,257,28839,1,2,0:0:0:0:
181,239,28989,2,0,L|58:241,1,99.0000030212403,2|2,0:0|0:0,0:0:0:0:
224,319,29289,2,0,L|343:319,1,99.0000030212403,2|2,0:0|0:0,0:0:0:0:
181,239,29589,1,2,0:0:0:0:
408,227,29739,6,0,L|408:116,1,99.0000030212403,2|2,0:0|0:0,0:0:0:0:
266,100,30039,1,2,0:0:0:0:
223,122,30114,1,2,0:0:0:0:
207,168,30189,1,2,0:0:0:0:
227,212,30264,1,0,0:0:0:0:
271,231,30339,1,2,0:0:0:0:
404,235,30489,1,2,0:0:0:0:
188,103,30639,1,2,0:0:0:0:
145,125,30714,1,2,0:0:0:0:
129,171,30789,1,2,0:0:0:0:
149,215,30864,1,0,0:0:0:0:
193,234,30939,6,0,L|347:232,2,148.50000453186
436,316,31539,2,0,L|282:314,2,148.50000453186
92,185,32139,6,0,L|197:185,2,99.0000030212403,4|0|10,0:0|0:0|0:0,0:0:0:0:
232,131,32589,1,0,0:0:0:0:
92,185,32739,2,0,L|92:294,1,99.0000030212403,2|0,0:0|0:0,0:0:0:0:
232,131,33039,2,0,L|113:132,2,99.0000030212403,10|0|2,0:0|0:0|0:0,0:0:0:0:
368,265,33489,6,0,L|487:266,2,99.0000030212403,0|10|0,0:0|0:0|0:0,0:0:0:0:
228,135,33939,2,0,L|228:12,1,99.0000030212403,2|0,0:0|0:0,0:0:0:0:
368,265,34239,2,0,L|368:142,1,99.0000030212403,10|0,0:0|0:0,0:0:0:0:
139,265,34539,5,2,0:0:0:0:
262,254,34689,2,0,L|262:135,1,99.0000030212403,0|10,0:0|0:0,0:0:0:0:
126,132,34989,1,0,0:0:0:0:
270,64,35139,2,0,L|375:67,2,99.0000030212403,2|0|10,0:0|0:0|0:0,0:0:0:0:
47,159,35589,6,0,L|47:289,1,99.0000030212403,0|2,0:0|0:0,0:0:0:0:
296,256,35889,2,0,L|296:140,1,99.0000030212403,0|10,0:0|0:0,0:0:0:0:
161,122,36189,2,0,L|161:249,1,99.0000030212403,0|2,0:0|0:0,0:0:0:0:
394,255,36489,2,0,L|268:256,2,99.0000030212403,0|10|0,0:0|0:0|0:0,0:0:0:0:
160,259,36939,6,0,L|49:260,2,99.0000030212403,2|0|10,0:0|0:0|0:0,0:0:0:0:
300,332,37389,2,0,L|189:333,2,99.0000030212403,0|2|0,0:0|0:0|0:0,0:0:0:0:
160,244,37839,1,10,0:0:0:0:
300,332,37989,2,0,L|300:218,1,99.0000030212403,0|2,0:0|0:0,0:0:0:0:
160,244,38289,6,0,L|275:244,2,99.0000030212403,0|10|0,0:0|0:0|0:0,0:0:0:0:
305,192,38739,2,0,L|408:193,1,99.0000030212403,2|0,0:0|0:0,0:0:0:0:
258,270,39039,2,0,L|140:270,1,99.0000030212403,10|0,0:0|0:0,0:0:0:0:
417,342,39339,6,0,L|309:341,2,99.0000030212403,2|0|10,0:0|0:0|0:0,0:0:0:0:
277,273,39789,1,0,0:0:0:0:
416,342,39939,2,0,L|416:235,1,99.0000030212403,2|0,0:0|0:0,0:0:0:0:
277,273,40239,2,0,L|277:167,1,99.0000030212403,10|0,0:0|0:0,0:0:0:0:
23,213,40539,5,2,0:0:0:0:
181,213,40739,1,2,0:0:0:0:
339,213,40939,1,2,0:0:0:0:
180,212,41139,1,2,0:0:0:0:
338,210,41339,1,2,0:0:0:0:
23,213,41539,1,2,0:0:0:0:
346,328,41739,5,4,0:0:0:0:
409,310,41832,1,0,0:0:0:0:
436,251,41926,1,10,0:0:0:0:
409,192,42020,1,0,0:0:0:0:
346,174,42114,2,0,L|247:175,1,67.5000025749208,2|0,0:0|0:0,0:0:0:0:
361,103,42301,2,0,L|436:103,1,67.5000025749208,10|0,0:0|0:0,0:0:0:0:
313,194,42489,6,0,L|214:195,1,67.5000025749208,2|0,0:0|0:0,0:0:0:0:
328,123,42676,2,0,L|403:123,1,67.5000025749208,10|0,0:0|0:0,0:0:0:0:
230,265,42864,2,0,L|131:266,1,67.5000025749208,2|0,0:0|0:0,0:0:0:0:
256,306,43051,2,0,L|355:307,1,67.5000025749208,10|0,0:0|0:0,0:0:0:0:
105,345,43239,5,2,0:0:0:0:
42,327,43332,1,0,0:0:0:0:
15,268,43426,1,10,0:0:0:0:
42,209,43520,1,0,0:0:0:0:
105,191,43614,2,0,L|204:192,1,67.5000025749208,2|0,0:0|0:0,0:0:0:0:
90,120,43801,2,0,L|15:120,1,67.5000025749208,10|0,0:0|0:0,0:0:0:0:
138,211,43989,6,0,L|237:212,1,67.5000025749208,2|0,0:0|0:0,0:0:0:0:
123,140,44176,2,0,L|48:140,1,67.5000025749208,10|0,0:0|0:0,0:0:0:0:
221,282,44364,2,0,L|320:283,1,67.5000025749208,2|0,0:0|0:0,0:0:0:0:
125,333,44551,2,0,L|26:334,1,67.5000025749208,10|0,0:0|0:0,0:0:0:0:
301,284,44739,5,2,0:0:0:0:
238,266,44832,1,0,0:0:0:0:
211,207,44926,1,10,0:0:0:0:
238,148,45020,1,0,0:0:0:0:
301,130,45114,2,0,L|400:131,1,67.5000025749208,2|0,0:0|0:0,0:0:0:0:
286,59,45301,2,0,L|211:59,1,67.5000025749208,10|0,0:0|0:0,0:0:0:0:
334,150,45489,2,0,L|433:151,1,67.5000025749208,2|0,0:0|0:0,0:0:0:0:
319,79,45676,2,0,L|244:79,1,67.5000025749208,10|0,0:0|0:0,0:0:0:0:
417,221,45864,2,0,L|516:222,1,67.5000025749208,2|0,0:0|0:0,0:0:0:0:
391,262,46051,2,0,L|292:263,1,67.5000025749208,10|0,0:0|0:0,0:0:0:0:
96,278,46239,6,0,P|56:216|96:179,1,135.000005149842,2|10,0:0|0:0,0:0:0:0:
172,179,46520,1,0,0:0:0:0:
347,177,46614,2,0,L|347:36,1,135.000005149842,2|10,0:0|0:0,0:0:0:0:
200,56,46989,2,0,L|115:56,2,67.5000025749208,2|0|10,0:0|0:0|0:0,0:0:0:0:
445,283,47364,2,0,L|530:283,2,67.5000025749208,2|0|10,0:0|0:0|0:0,0:0:0:0:
118,335,47739,5,2,0:0:0:0:
124,268,47832,1,0,0:0:0:0:
156,209,47926,1,10,0:0:0:0:
209,168,48020,1,0,0:0:0:0:
274,151,48114,2,0,L|189:145,1,67.5000025749208,2|0,0:0|0:0,0:0:0:0:
129,196,48301,2,0,L|215:200,1,67.5000025749208,10|0,0:0|0:0,0:0:0:0:
299,90,48489,2,0,L|214:84,1,67.5000025749208,2|0,0:0|0:0,0:0:0:0:
154,135,48676,2,0,L|240:139,1,67.5000025749208,10|0,0:0|0:0,0:0:0:0:
417,153,48864,2,0,L|490:159,1,67.5000025749208,2|0,0:0|0:0,0:0:0:0:
407,213,49051,2,0,L|339:207,1,67.5000025749208,10|0,0:0|0:0,0:0:0:0:
160,62,49239,5,2,0:0:0:0:
96,77,49332,1,0,0:0:0:0:
68,136,49426,1,10,0:0:0:0:
95,196,49520,1,0,0:0:0:0:
158,213,49614,2,0,L|253:212,1,67.5000025749208,2|0,0:0|0:0,0:0:0:0:
308,268,49801,2,0,L|213:266,1,67.5000025749208,10|0,0:0|0:0,0:0:0:0:
149,136,49989,2,0,L|243:134,1,67.5000025749208,2|0,0:0|0:0,0:0:0:0:
298,190,50176,2,0,L|203:188,1,67.5000025749208,10|0,0:0|0:0,0:0:0:0:
56,275,50364,2,0,L|149:278,1,67.5000025749208,2|0,0:0|0:0,0:0:0:0:
318,152,50551,2,0,L|420:153,1,67.5000025749208,10|0,0:0|0:0,0:0:0:0:
170,91,50739,5,2,0:0:0:0:
109,115,50832,1,0,0:0:0:0:
84,176,50926,1,10,0:0:0:0:
111,236,51020,1,0,0:0:0:0:
172,259,51114,2,0,L|258:258,1,67.5000025749208,2|0,0:0|0:0,0:0:0:0:
162,183,51301,2,0,L|84:182,1,67.5000025749208,10|0,0:0|0:0,0:0:0:0:
204,216,51489,2,0,L|289:214,1,67.5000025749208,2|0,0:0|0:0,0:0:0:0:
193,139,51676,2,0,L|115:138,1,67.5000025749208,10|0,0:0|0:0,0:0:0:0:
345,140,51864,2,0,L|430:138,1,67.5000025749208,2|0,0:0|0:0,0:0:0:0:
334,63,52051,2,0,L|256:62,1,67.5000025749208,10|0,0:0|0:0,0:0:0:0:
50,205,52239,6,0,P|179:133|263:136,2,202.500007724762
322,273,52989,5,2,0:0:0:0:
386,262,53082,1,2,0:0:0:0:
407,237,53129,1,2,0:0:0:0:
415,204,53176,1,2,0:0:0:0:
387,146,53270,1,2,0:0:0:0:
322,273,53364,2,0,L|184:274,1,135.000005149842,2|2,0:0|0:0,0:0:0:0:
268,273,53645,1,0,0:0:0:0:
101,258,53739,6,0,L|54:78,2,175.499991966248,4|0|0,0:0|0:0|0:0,0:0:0:0:
355,257,54489,2,0,P|425:201|347:100,1,233.999989288331,8|0,0:0|0:0,0:0:0:0:
132,95,55239,5,2,0:0:0:0:
217,95,55332,2,0,P|243:162|208:197,1,116.999994644165,0|2,0:0|0:0,0:0:0:0:
132,95,55614,1,0,0:0:0:0:
272,96,55801,1,2,0:0:0:0:
16,224,55989,2,0,L|161:225,3,116.999994644165,8|0|0|0,0:0|0:0|0:0|0:0,0:0:0:0:
307,222,56739,6,0,L|328:36,2,175.499991966248,2|0|0,0:0|0:0|0:0,0:0:0:0:
22,93,57489,2,0,P|9:169|143:240,1,233.999989288331,8|0,0:0|0:0,0:0:0:0:
380,95,58239,5,2,0:0:0:0:
295,95,58332,2,0,P|269:162|304:197,1,116.999994644165,0|2,0:0|0:0,0:0:0:0:
380,95,58614,1,0,0:0:0:0:
240,96,58801,1,2,0:0:0:0:
496,192,58989,2,0,L|350:190,3,116.999994644165,8|0|0|0,0:0|0:0|0:0|0:0,0:0:0:0:
207,315,59739,6,0,L|186:131,1,175.499991966248,2|0,0:0|0:0,0:0:0:0:
366,62,60301,1,0,0:0:0:0:
117,90,60489,2,0,P|46:122|124:217,1,233.999989288331,8|0,0:0|0:0,0:0:0:0:
374,233,61239,6,0,L|374:157,1,58.4999973220826,2|0,0:0|0:0,0:0:0:0:
234,158,61520,2,0,L|233:74,1,58.4999973220826,2|0,0:0|0:0,0:0:0:0:
374,100,61801,1,2,0:0:0:0:
126,291,61989,2,0,L|-24:286,3,116.999994644165,8|0|0|0,0:0|0:0|0:0|0:0,0:0:0:0:
178,208,62739,6,0,L|220:16,2,175.499991966248,2|0|0,0:0|0:0|0:0,0:0:0:0:
460,296,63489,2,0,L|270:290,2,175.499991966248,8|0|0,0:0|0:0|0:0,0:0:0:0:
291,213,64239,2,0,L|273:34,1,175.499991966248,2|2,0:0|0:0,0:0:0:0:
457,55,64801,1,2,0:0:0:0:
200,116,64989,2,0,L|200:315,1,175.499991966248,8|0,0:0|0:0,0:0:0:0:
270,294,65364,1,4,0:0:0:0:
130,297,65551,2,0,L|52:296,1,58.4999973220826,4|0,0:0|0:0,0:0:0:0:
317,317,65739,6,0,P|387:263|316:195,1,175.499991966248,4|0,0:0|0:0,0:0:0:0:
260,182,66114,2,0,L|108:182,1,116.999994644165,10|0,0:0|0:0,0:0:0:0:
309,104,66489,2,0,L|454:106,3,116.999994644165,2|0|10|0,0:0|0:0|0:0|0:0,0:0:0:0:
258,250,67239,6,0,L|177:252,1,58.4999973220826,2|0,0:0|0:0,0:0:0:0:
340,250,67520,1,0,0:0:0:0:
229,248,67614,2,0,P|171:223|208:132,1,175.499991966248,10|0,0:0|0:0,0:0:0:0:
294,131,67989,2,0,L|442:133,1,116.999994644165,2|0,0:0|0:0,0:0:0:0:
240,280,68364,2,0,L|92:282,1,116.999994644165,10|0,0:0|0:0,0:0:0:0:
439,320,68739,6,0,P|413:265|329:184,1,175.499991966248,2|0,0:0|0:0,0:0:0:0:
241,179,69114,2,0,L|228:52,1,116.999994644165,10|0,0:0|0:0,0:0:0:0:
397,108,69489,2,0,L|279:104,3,116.999994644165,2|0|10|0,0:0|0:0|0:0|0:0,0:0:0:0:
128,257,70239,6,0,L|213:253,1,58.4999973220826,2|0,0:0|0:0,0:0:0:0:
327,249,70520,1,0,0:0:0:0:
226,245,70614,2,0,P|166:196|232:137,1,175.499991966248,10|0,0:0|0:0,0:0:0:0:
318,133,70989,2,0,L|176:134,1,116.999994644165,2|0,0:0|0:0,0:0:0:0:
368,215,71364,2,0,L|501:217,1,116.999994644165,10|0,0:0|0:0,0:0:0:0:
186,107,71739,5,2,0:0:0:0:
46,114,71926,1,2,0:0:0:0:
48,184,72020,1,0,0:0:0:0:
51,254,72114,1,10,0:0:0:0:
190,263,72301,1,2,0:0:0:0:
23,316,72489,2,0,L|167:313,1,116.999994644165,2|2,0:0|0:0,0:0:0:0:
308,349,72864,2,0,L|159:346,1,116.999994644165,10|2,0:0|0:0,0:0:0:0:
355,240,73239,6,0,L|433:239,1,58.4999973220826,2|0,0:0|0:0,0:0:0:0:
273,238,73520,1,0,0:0:0:0:
202,239,73614,2,0,L|199:59,1,175.499991966248,10|0,0:0|0:0,0:0:0:0:
296,65,73989,2,0,L|305:198,1,116.999994644165,2|2,0:0|0:0,0:0:0:0:
130,198,74364,2,0,L|121:331,1,116.999994644165,10|2,0:0|0:0,0:0:0:0:
375,319,74739,6,0,P|407:273|359:222,1,116.999994644165,2|2,0:0|0:0,0:0:0:0:
269,220,75020,1,2,0:0:0:0:
250,152,75114,1,10,0:0:0:0:
269,220,75207,1,2,0:0:0:0:
378,226,75301,1,2,0:0:0:0:
378,226,75395,1,2,0:0:0:0:
211,298,75489,2,0,L|79:298,1,116.999994644165,2|2,0:0|0:0,0:0:0:0:
202,239,75770,1,2,0:0:0:0:
272,238,75864,1,10,0:0:0:0:
202,239,75957,1,2,0:0:0:0:
93,240,76051,1,2,0:0:0:0:
93,240,76145,1,2,0:0:0:0:
272,238,76239,6,0,P|304:192|256:141,1,116.999994644165,2|2,0:0|0:0,0:0:0:0:
166,139,76520,1,2,0:0:0:0:
147,71,76614,1,10,0:0:0:0:
166,139,76707,1,2,0:0:0:0:
275,145,76801,1,2,0:0:0:0:
275,145,76895,1,2,0:0:0:0:
61,182,76989,2,0,L|64:306,1,116.999994644165,2|2,0:0|0:0,0:0:0:0:
253,230,77270,2,0,L|256:354,1,116.999994644165,2|2,0:0|0:0,0:0:0:0:
63,298,77551,2,0,L|65:370,1,58.4999973220826,2|2,0:0|0:0,0:0:0:0:
298,312,77739,6,0,P|340:286|229:316,1,675,6|0,0:0|0:0,0:0:0:0:
447,302,80024,5,4,0:0:0:0:
492,284,80095,1,2,0:0:0:0:
511,240,80166,1,2,0:0:0:0:
494,195,80238,1,2,0:0:0:0:
450,175,80309,2,0,L|343:173,2,90,2|0|0,0:0|0:0|0:0,0:0:0:0:
237,254,80738,2,0,L|119:254,1,90,2|0,0:0|0:0,0:0:0:0:
264,253,81024,1,2,0:0:0:0:
147,255,81166,5,0,0:0:0:0:
105,239,81237,1,0,0:0:0:0:
88,199,81308,1,0,0:0:0:0:
106,159,81380,1,0,0:0:0:0:
147,144,81451,1,0,0:0:0:0:
264,142,81595,1,0,0:0:0:0:
305,127,81666,1,0,0:0:0:0:
323,87,81737,1,0,0:0:0:0:
305,47,81809,1,0,0:0:0:0:
264,32,81880,1,0,0:0:0:0:
147,29,82024,2,0,L|98:28,2,45
350,283,82309,5,2,0:0:0:0:
335,240,82380,1,2,0:0:0:0:
308,204,82451,1,2,0:0:0:0:
271,179,82523,1,2,0:0:0:0:
228,167,82595,2,0,L|355:168,2,90,2|0|0,0:0|0:0|0:0,0:0:0:0:
434,238,83024,2,0,L|435:106,1,90,2|0,0:0|0:0,0:0:0:0:
318,137,83309,1,2,0:0:0:0:
435,137,83452,6,0,L|486:137,2,45
318,137,83738,2,0,L|267:137,2,45
435,137,84024,1,0,0:0:0:0:
471,162,84095,1,0,0:0:0:0:
495,200,84166,1,0,0:0:0:0:
504,244,84238,1,0,0:0:0:0:
495,288,84309,1,0,0:0:0:0:
471,325,84381,1,0,0:0:0:0:
434,351,84452,1,0,0:0:0:0:
177,151,84595,5,2,0:0:0:0:
135,165,84666,1,2,0:0:0:0:
118,206,84737,1,2,0:0:0:0:
137,245,84809,1,2,0:0:0:0:
178,258,84881,2,0,L|280:257,2,90,2|0|0,0:0|0:0|0:0,0:0:0:0:
382,306,85309,2,0,L|258:306,1,90,2|0,0:0|0:0,0:0:0:0:
174,307,85595,1,2,0:0:0:0:
291,308,85738,6,0,L|293:253,4,45
174,307,86166,2,0,L|172:252,4,45
291,308,86595,2,0,L|352:308,2,45
137,226,86881,6,0,L|123:88,2,135,2|0|2,0:0|0:0|0:0,0:0:0:0:
290,314,87452,2,0,L|296:174,1,135,2|0,0:0|0:0,0:0:0:0:
140,4,87881,1,2,0:0:0:0:
293,33,88024,2,0,L|118:37,2,135,2|0|0,0:0|0:0|0:0,0:0:0:0:
57,258,88595,2,0,L|232:262,2,135
317,263,89166,6,0,L|317:151,1,90,4|0,0:0|0:0,0:0:0:0:
199,167,89452,1,10,0:0:0:0:
316,164,89595,2,0,L|420:163,2,90,0|2|0,0:0|0:0|0:0,0:0:0:0:
196,164,90024,2,0,L|92:163,2,90,10|0|2,0:0|0:0|0:0,0:0:0:0:
316,164,90452,6,0,L|315:284,1,90,0|10,0:0|0:0,0:0:0:0:
197,258,90738,1,0,0:0:0:0:
315,253,90881,1,2,0:0:0:0:
202,225,91024,1,0,0:0:0:0:
148,122,91166,1,10,0:0:0:0:
191,12,91309,1,0,0:0:0:0:
436,129,91452,6,0,L|438:233,1,90,2|0,0:0|0:0,0:0:0:0:
319,222,91738,1,10,0:0:0:0:
436,223,91881,2,0,L|436:133,1,90,0|2,0:0|0:0,0:0:0:0:
319,124,92166,2,0,L|322:229,1,90,0|10,0:0|0:0,0:0:0:0:
81,265,92452,6,0,L|201:272,1,90,0|2,0:0|0:0,0:0:0:0:
288,273,92738,2,0,L|168:280,1,90,0|10,0:0|0:0,0:0:0:0:
81,265,93024,2,0,L|201:272,1,90,0|2,0:0|0:0,0:0:0:0:
287,276,93309,2,0,L|174:275,2,90,0|10|0,0:0|0:0|0:0,0:0:0:0:
46,209,93738,6,0,L|158:207,2,90,2|0|10,0:0|0:0|0:0,0:0:0:0:
163,209,94166,1,0,0:0:0:0:
45,208,94309,2,0,L|45:99,1,90,2|0,0:0|0:0,0:0:0:0:
162,113,94595,2,0,L|260:113,2,90,10|0|2,0:0|0:0|0:0,0:0:0:0:
279,115,95024,6,0,L|181:115,2,90,0|10|0,0:0|0:0|0:0,0:0:0:0:
161,112,95452,1,2,0:0:0:0:
55,163,95595,1,0,0:0:0:0:
19,274,95738,1,10,0:0:0:0:
55,163,95881,1,0,0:0:0:0:
287,218,96024,6,0,L|396:215,2,90,2|0|10,0:0|0:0|0:0,0:0:0:0:
170,225,96452,1,0,0:0:0:0:
286,213,96595,2,0,L|171:211,1,90,2|0,0:0|0:0,0:0:0:0:
78,215,96881,2,0,L|172:212,1,90,10|0,0:0|0:0,0:0:0:0:
373,246,97166,6,0,L|502:244,2,120,2|2|2,0:0|0:0|0:0,0:0:0:0:
119,312,97738,2,0,L|-10:310,2,120,2|2|2,0:0|0:0|0:0,0:0:0:0:
392,299,98309,6,0,L|396:237,2,45,4|0|0,0:0|0:0|0:0,0:0:0:0:
265,295,98595,2,0,P|213:257|269:173,1,180,10|2,0:0|0:0,0:0:0:0:
389,175,99024,2,0,L|485:174,2,90,0|10|0,0:0|0:0|0:0,0:0:0:0:
164,173,99452,5,2,0:0:0:0:
165,236,99524,1,0,0:0:0:0:
166,298,99595,1,0,0:0:0:0:
292,301,99738,1,10,0:0:0:0:
166,298,99881,2,0,P|109:265|174:188,1,180
284,186,100309,2,0,L|170:185,1,90,10|0,0:0|0:0,0:0:0:0:
421,187,100595,5,2,0:0:0:0:
423,249,100666,1,0,0:0:0:0:
425,312,100738,1,0,0:0:0:0:
298,314,100881,2,0,L|119:312,2,180,10|2|10,0:0|0:0|0:0,0:0:0:0:
171,311,101595,1,0,0:0:0:0:
387,156,101738,6,0,L|502:154,1,90,2|0,0:0|0:0,0:0:0:0:
180,246,102024,2,0,L|65:244,1,90,10|0,0:0|0:0,0:0:0:0:
332,246,102309,2,0,L|447:244,1,90,2|0,0:0|0:0,0:0:0:0:
294,244,102595,2,0,L|185:243,1,90,10|0,0:0|0:0,0:0:0:0:
470,244,102881,5,2,0:0:0:0:
471,181,102952,1,0,0:0:0:0:
472,117,103024,1,0,0:0:0:0:
346,113,103166,2,0,P|286:154|367:202,1,180,10|2,0:0|0:0,0:0:0:0:
473,218,103595,2,0,L|346:218,2,90,0|10|0,0:0|0:0|0:0,0:0:0:0:
236,280,104024,5,2,0:0:0:0:
229,217,104095,1,0,0:0:0:0:
222,154,104166,1,0,0:0:0:0:
348,152,104309,1,10,0:0:0:0:
222,154,104452,2,0,P|229:222|353:278,1,180
442,289,104881,2,0,L|334:285,1,90,10|0,0:0|0:0,0:0:0:0:
96,314,105166,5,2,0:0:0:0:
88,250,105238,1,0,0:0:0:0:
81,187,105309,1,0,0:0:0:0:
207,187,105452,2,0,L|216:88,1,90,10|0,0:0|0:0,0:0:0:0:
88,88,105738,2,0,L|278:91,1,180,2|10,0:0|0:0,0:0:0:0:
141,92,106166,1,0,0:0:0:0:
357,171,106309,6,0,L|366:281,1,90,2|0,0:0|0:0,0:0:0:0:
237,266,106595,1,10,0:0:0:0:
195,251,106666,1,0,0:0:0:0:
177,211,106737,1,0,0:0:0:0:
194,171,106809,1,0,0:0:0:0:
235,155,106881,2,0,L|348:154,1,90,2|0,0:0|0:0,0:0:0:0:
199,159,107166,2,0,L|118:158,2,45,10|0|0,0:0|0:0|0:0,0:0:0:0:
445,261,107452,5,6,0:0:0:0:
345,260,107595,1,2,0:0:0:0:
245,260,107738,1,10,0:0:0:0:
345,260,107881,1,2,0:0:0:0:
91,335,108024,5,2,0:0:0:0:
191,334,108165,1,2,0:0:0:0:
291,334,108308,1,10,0:0:0:0:
191,334,108451,1,2,0:0:0:0:
62,340,108594,5,2,0:0:0:0:
20,325,108665,1,2,0:0:0:0:
3,285,108737,1,2,0:0:0:0:
22,246,108809,1,2,0:0:0:0:
64,233,108881,2,0,L|131:232,1,45,10|2,0:0|0:0,0:0:0:0:
46,188,109024,2,0,L|-35:188,1,45,2|2,0:0|0:0,0:0:0:0:
202,179,109166,5,2,0:0:0:0:
244,164,109237,1,2,0:0:0:0:
261,124,109308,1,2,0:0:0:0:
242,85,109380,1,2,0:0:0:0:
200,72,109452,2,0,L|133:71,1,45,10|2,0:0|0:0,0:0:0:0:
218,27,109595,2,0,L|299:27,1,45,2|2,0:0|0:0,0:0:0:0:
123,26,109738,5,2,0:0:0:0:
382,362,110309,2,0,P|406:293|377:89,1,270
139,84,110880,5,4,0:0:0:0:
113,137,110976,1,2,0:0:0:0:
110,197,111071,1,2,0:0:0:0:
131,253,111166,1,2,0:0:0:0:
172,296,111261,1,2,0:0:0:0:
227,319,111357,1,2,0:0:0:0:
286,320,111452,1,2,0:0:0:0:
341,297,111547,1,2,0:0:0:0:
383,254,111642,1,2,0:0:0:0:
404,198,111738,1,2,0:0:0:0:
402,139,111833,1,2,0:0:0:0:
377,85,111928,1,2,0:0:0:0:
218,197,112024,6,0,L|156:197,2,60,4|2|2,0:0|0:0|0:0,0:0:0:0:
294,197,112309,2,0,L|356:197,2,60,2|2|2,0:0|0:0|0:0,0:0:0:0:
178,270,112595,2,0,L|116:270,2,60,2|2|2,0:0|0:0|0:0,0:0:0:0:
334,270,112881,2,0,L|396:270,2,60,2|2|2,0:0|0:0|0:0,0:0:0:0:
176,51,113166,5,4,0:0:0:0:
134,67,113237,1,2,0:0:0:0:
102,98,113308,1,2,0:0:0:0:
85,139,113380,1,2,0:0:0:0:
85,184,113451,1,2,0:0:0:0:
103,225,113523,1,2,0:0:0:0:
136,255,113594,1,2,0:0:0:0:
178,270,113665,1,2,0:0:0:0:
336,51,113738,5,4,0:0:0:0:
378,67,113809,1,2,0:0:0:0:
410,98,113880,1,2,0:0:0:0:
427,139,113952,1,2,0:0:0:0:
427,184,114023,1,2,0:0:0:0:
409,225,114095,1,2,0:0:0:0:
376,255,114166,1,2,0:0:0:0:
334,270,114237,1,2,0:0:0:0:
178,270,114309,5,4,0:0:0:0:
123,263,114381,1,2,0:0:0:0:
97,220,114452,1,2,0:0:0:0:
123,263,114524,1,2,0:0:0:0:
334,270,114595,5,2,0:0:0:0:
389,263,114665,1,2,0:0:0:0:
415,220,114738,1,2,0:0:0:0:
389,263,114808,1,2,0:0:0:0:
123,263,114881,5,4,0:0:0:0:
97,220,114951,1,2,0:0:0:0:
123,263,115024,1,2,0:0:0:0:
178,270,115094,1,2,0:0:0:0:
389,263,115166,5,2,0:0:0:0:
415,220,115238,1,2,0:0:0:0:
389,263,115309,1,2,0:0:0:0:
334,270,115381,1,2,0:0:0:0:
178,270,115452,5,4,0:0:0:0:
33,270,115595,1,4,0:0:0:0:
33,270,115881,1,4,0:0:0:0:
178,270,116024,1,4,0:0:0:0:
178,270,116309,1,4,0:0:0:0:
33,270,116452,1,4,0:0:0:0:
33,270,116738,5,4,0:0:0:0:
178,270,116881,1,4,0:0:0:0:
33,270,117166,1,4,0:0:0:0:
276,207,117309,1,4,0:0:0:0:
143,176,117452,2,0,L|136:121,3,45,4|2|4|2,0:0|0:0|0:0|0:0,0:0:0:0:
325,151,117881,5,4,0:0:0:0:
198,147,118024,2,0,L|194:100,3,45,6|4|4|2,0:0|0:0|0:0|0:0,0:0:0:0:
325,151,118309,1,4,0:0:0:0:
452,162,118452,1,4,0:0:0:0:
218,249,118738,1,4,0:0:0:0:
429,152,119024,5,4,0:0:0:0:
470,170,119095,1,2,0:0:0:0:
493,208,119166,1,4,0:0:0:0:
491,252,119238,1,2,0:0:0:0:
465,288,119309,1,4,0:0:0:0:
423,304,119381,1,2,0:0:0:0:
210,156,119452,1,4,0:0:0:0:
