osu file format v14

[General]
AudioFilename: audio.mp3
AudioLeadIn: 0
PreviewTime: 98308
Countdown: 0
SampleSet: Soft
StackLeniency: 0.7
Mode: 2
LetterboxInBreaks: 0
WidescreenStoryboard: 1

[Editor]
Bookmarks: 90500
DistanceSpacing: 1
BeatDivisor: 4
GridSize: 16
TimelineZoom: 2.1

[Metadata]
Title:Over The "Period"
TitleUnicode:Over The "Period"
Artist:TAG underground overlay
ArtistUnicode:TAG underground overlay
Creator:Lacrima
Version:Difficult
Source:DanceDanceRevolution
Tags:famoss myle instrumental video game DDR 2014 20th Anniversary NONSTOP MEGAMIX mayo The 7th KONAMI Arcade Championship 7 KAC
BeatmapID:3262703
BeatmapSetID:1597589

[Difficulty]
HPDrainRate:5
CircleSize:3.5
OverallDifficulty:8
ApproachRate:8
SliderMultiplier:1.5
SliderTickRate:1

[Events]
//Background and Video events
0,0,"223-1439346152.png",0,0
//Break Periods
//Storyboard Layer 0 (Background)
//Storyboard Layer 1 (Fail)
//Storyboard Layer 2 (Pass)
//Storyboard Layer 3 (Foreground)
//Storyboard Layer 4 (Overlay)
//Storyboard Sound Samples

[TimingPoints]
1015,461.538461538462,4,2,1,80,1,0
1130,-100,4,2,1,5,0,0
1476,-100,4,2,1,80,0,0
1591,-100,4,2,1,5,0,0
1938,-100,4,2,1,80,0,0
2053,-100,4,2,1,5,0,0
2399,-100,4,2,1,80,0,0
2514,-100,4,2,1,5,0,0
2861,-100,4,2,1,80,0,0
2976,-100,4,2,1,5,0,0
3784,-100,4,2,1,80,0,0
3899,-100,4,2,1,5,0,0
4707,-100,4,2,1,80,0,0
4822,-100,4,2,1,5,0,0
5168,-100,4,2,1,80,0,0
5284,-100,4,2,1,5,0,0
5630,-100,4,2,1,80,0,0
5745,-100,4,2,1,5,0,0
6091,-100,4,2,1,80,0,0
6207,-100,4,2,1,5,0,0
6553,-100,4,2,1,80,0,0
6668,-100,4,2,1,5,0,0
7476,-100,4,2,1,80,0,0
7591,-100,4,2,1,5,0,0
8399,-100,4,2,1,80,0,0
8514,-100,4,2,1,5,0,0
8861,-100,4,2,1,80,0,0
8976,-100,4,2,1,5,0,0
9322,-100,4,2,1,80,0,0
9438,-100,4,2,1,5,0,0
9784,-100,4,2,1,80,0,0
9899,-100,4,2,1,5,0,0
10245,-100,4,2,1,80,0,0
10361,-100,4,2,1,5,0,0
11168,-100,4,2,1,80,0,0
11284,-100,4,2,1,5,0,0
11630,-100,4,2,1,80,0,0
11745,-100,4,2,1,5,0,0
11861,-100,4,2,1,80,0,0
11976,-100,4,2,1,5,0,0
12091,500,4,2,1,90,1,0
12216,-100,4,2,1,5,0,0
14091,545.454545454546,4,2,1,88,1,0
14227,-100,4,2,1,5,0,0
15727,-100,4,2,1,80,0,0
15863,-100,4,2,1,5,0,0
16272,600,4,2,1,86,1,0
16422,-100,4,2,1,5,0,0
18672,666.666666666667,4,2,1,90,1,0
22538,300,4,2,1,80,1,0
22538,-100,4,2,1,80,0,0
41738,375,4,2,1,90,1,0
41738,-83.3333333333333,4,2,1,90,0,1
53738,-83.3333333333333,4,2,1,90,0,0
65738,-76.9230769230769,4,2,1,90,0,0
77738,571.428571428571,4,2,1,95,1,0
80023,285.714285714286,4,2,1,95,1,0
80023,-100,4,2,1,95,0,0
89165,-100,4,2,1,95,0,0
97737,-100,4,2,1,95,0,0
98118,-100,4,2,1,95,0,0
98308,-100,4,2,1,95,0,1
109737,-100,4,2,1,95,0,0
110880,-100,4,2,1,95,0,1
115451,-100,4,2,1,95,0,0

[Colours]
Combo1 : 128,0,128
Combo2 : 255,0,255
Combo3 : 120,0,255

[HitObjects]
401,248,1015,5,0,0:0:0:0:
251,245,1476,1,0,0:0:0:0:
100,243,1938,1,0,0:0:0:0:
249,238,2399,1,0,0:0:0:0:
399,243,2861,6,0,L|417:-60,1,300
111,248,4707,5,0,0:0:0:0:
261,245,5168,1,0,0:0:0:0:
412,243,5630,1,0,0:0:0:0:
263,238,6091,1,0,0:0:0:0:
113,243,6553,6,0,L|95:-60,1,300
397,292,8399,5,0,0:0:0:0:
246,295,8861,1,0,0:0:0:0:
96,298,9322,1,0,0:0:0:0:
246,302,9784,1,0,0:0:0:0:
395,307,10245,6,0,L|88:302,1,300
245,298,11630,2,0,L|325:296,1,75
138,42,12091,6,0,P|64:70|147:343,1,450
377,42,14091,6,0,P|444:69|356:350,1,450
16,376,16272,6,0,L|500:8,1,600
256,192,19005,12,0,22172,0:0:0:0:
391,184,22538,5,4,0:0:0:0:
353,185,22613,1,2,0:0:0:0:
315,186,22688,1,2,0:0:0:0:
389,184,22838,1,2,0:0:0:0:
164,182,23288,1,2,0:0:0:0:
164,182,23588,1,2,0:0:0:0:
304,182,23738,5,2,0:0:0:0:
304,182,24038,1,2,0:0:0:0:
164,182,24188,1,2,0:0:0:0:
304,182,24488,1,2,0:0:0:0:
164,182,24788,1,2,0:0:0:0:
304,182,24938,5,2,0:0:0:0:
304,144,25013,1,2,0:0:0:0:
304,106,25088,1,2,0:0:0:0:
229,102,25238,1,2,0:0:0:0:
453,97,25688,1,2,0:0:0:0:
453,97,25988,1,2,0:0:0:0:
316,99,26138,1,2,0:0:0:0:
316,99,26438,1,2,0:0:0:0:
468,99,26588,1,2,0:0:0:0:
316,99,26888,1,2,0:0:0:0:
468,99,27188,1,2,0:0:0:0:
316,99,27338,5,2,0:0:0:0:
246,120,27488,1,2,0:0:0:0:
216,186,27638,1,2,0:0:0:0:
247,252,27788,1,2,0:0:0:0:
317,272,27938,1,2,0:0:0:0:
183,331,28088,2,0,L|88:328,2,75,2|2|2,0:0|0:0|0:0,0:0:0:0:
317,272,28538,6,0,L|412:269,2,75,2|2|2,0:0|0:0|0:0,0:0:0:0:
172,153,28988,2,0,L|67:151,1,75,2|2,0:0|0:0,0:0:0:0:
238,231,29288,2,0,L|343:229,2,75,2|2|2,0:0|0:0|0:0,0:0:0:0:
93,328,29738,6,0,L|200:327,1,75,2|2,0:0|0:0,0:0:0:0:
313,323,30038,1,2,0:0:0:0:
311,285,30113,1,2,0:0:0:0:
310,247,30188,1,2,0:0:0:0:
309,209,30263,1,0,0:0:0:0:
308,171,30338,1,2,0:0:0:0:
233,168,30488,1,2,0:0:0:0:
383,98,30638,1,2,0:0:0:0:
417,109,30713,1,2,0:0:0:0:
431,142,30788,1,2,0:0:0:0:
416,175,30863,1,0,0:0:0:0:
381,185,30938,6,0,L|233:186,2,112.5
242,311,31538,2,0,L|241:172,1,112.5
353,195,31988,1,0,0:0:0:0:
140,123,32138,6,0,L|37:124,2,75,4|0|10,0:0|0:0|0:0,0:0:0:0:
218,189,32588,2,0,L|321:190,2,75,0|2|0,0:0|0:0|0:0,0:0:0:0:
140,123,33038,1,10,0:0:0:0:
218,189,33188,1,0,0:0:0:0:
362,262,33338,6,0,L|465:264,2,75,2|0|10,0:0|0:0|0:0,0:0:0:0:
287,260,33788,2,0,L|289:156,1,75,0|2,0:0|0:0,0:0:0:0:
363,182,34088,2,0,L|454:181,2,75,0|10|0,0:0|0:0|0:0,0:0:0:0:
220,323,34538,6,0,L|131:323,1,75,2|0,0:0|0:0,0:0:0:0:
231,261,34838,2,0,L|320:261,1,75,10|0,0:0|0:0,0:0:0:0:
219,202,35138,2,0,L|130:202,2,75,2|0|10,0:0|0:0|0:0,0:0:0:0:
365,332,35588,6,0,L|363:227,1,75,0|2,0:0|0:0,0:0:0:0:
219,192,35888,2,0,L|217:87,1,75,0|10,0:0|0:0,0:0:0:0:
305,86,36188,2,0,L|303:-19,1,75,0|2,0:0|0:0,0:0:0:0:
157,122,36488,2,0,L|65:120,2,75,0|10|0,0:0|0:0|0:0,0:0:0:0:
299,277,36938,6,0,L|302:172,1,75,2|0,0:0|0:0,0:0:0:0:
226,197,37238,1,10,0:0:0:0:
304,136,37388,2,0,L|390:135,2,75,0|2|0,0:0|0:0|0:0,0:0:0:0:
218,134,37838,2,0,L|217:222,1,75,10|0,0:0|0:0,0:0:0:0:
366,259,38138,6,0,L|284:255,1,75,2|0,0:0|0:0,0:0:0:0:
215,251,38438,1,10,0:0:0:0:
294,168,38588,2,0,L|381:172,2,75,0|2|0,0:0|0:0|0:0,0:0:0:0:
219,169,39038,1,10,0:0:0:0:
293,170,39188,1,0,0:0:0:0:
147,81,39338,6,0,L|56:84,2,75,2|0|10,0:0|0:0|0:0,0:0:0:0:
227,132,39788,2,0,L|318:135,2,75,0|2|0,0:0|0:0|0:0,0:0:0:0:
147,81,40238,1,10,0:0:0:0:
227,132,40388,1,0,0:0:0:0:
373,259,40538,6,0,L|247:262,2,100,2|2|2,0:0|0:0|0:0,0:0:0:0:
213,172,41138,2,0,L|87:175,2,100,2|2|2,0:0|0:0|0:0,0:0:0:0:
493,180,41738,6,0,L|385:176,1,89.9999972534181,4|10,0:0|0:0,0:0:0:0:
313,180,42113,2,0,L|421:176,1,89.9999972534181,2|10,0:0|0:0,0:0:0:0:
493,180,42488,2,0,L|385:176,1,89.9999972534181,2|10,0:0|0:0,0:0:0:0:
236,317,42863,1,2,0:0:0:0:
196,297,42956,1,0,0:0:0:0:
180,256,43050,1,10,0:0:0:0:
196,215,43144,1,0,0:0:0:0:
235,195,43238,6,0,L|349:195,1,89.9999972534181,2|10,0:0|0:0,0:0:0:0:
235,195,43613,2,0,L|121:195,1,89.9999972534181,2|10,0:0|0:0,0:0:0:0:
235,195,43988,2,0,L|349:195,2,89.9999972534181,2|10|2,0:0|0:0|0:0,0:0:0:0:
57,116,44550,1,10,0:0:0:0:
234,194,44738,6,0,L|333:192,1,89.9999972534181,2|10,0:0|0:0,0:0:0:0:
234,194,45113,2,0,L|333:192,1,89.9999972534181,2|10,0:0|0:0,0:0:0:0:
413,194,45488,2,0,L|314:192,1,89.9999972534181,2|10,0:0|0:0,0:0:0:0:
217,187,45863,1,2,0:0:0:0:
225,143,45956,1,0,0:0:0:0:
233,98,46050,1,10,0:0:0:0:
496,103,46238,6,0,L|332:105,2,134.999995880127,2|0|10,0:0|0:0|0:0,0:0:0:0:
318,250,46988,2,0,L|227:249,1,89.9999972534181,2|10,0:0|0:0,0:0:0:0:
400,321,47363,2,0,L|491:320,1,89.9999972534181,2|10,0:0|0:0,0:0:0:0:
199,182,47738,6,0,L|94:183,1,89.9999972534181,2|10,0:0|0:0,0:0:0:0:
199,182,48113,2,0,L|304:183,1,89.9999972534181,2|10,0:0|0:0,0:0:0:0:
199,182,48488,2,0,L|94:183,1,89.9999972534181,2|10,0:0|0:0,0:0:0:0:
285,301,48863,1,2,0:0:0:0:
326,286,48956,1,0,0:0:0:0:
344,246,49050,1,10,0:0:0:0:
326,206,49144,1,0,0:0:0:0:
285,191,49238,6,0,L|189:192,1,89.9999972534181,2|10,0:0|0:0,0:0:0:0:
105,191,49613,2,0,L|201:191,1,89.9999972534181,2|10,0:0|0:0,0:0:0:0:
285,191,49988,2,0,L|189:191,1,89.9999972534181,2|10,0:0|0:0,0:0:0:0:
285,191,50363,1,2,0:0:0:0:
112,287,50550,1,10,0:0:0:0:
285,191,50738,6,0,L|400:191,1,89.9999972534181,2|10,0:0|0:0,0:0:0:0:
285,191,51113,2,0,L|170:191,1,89.9999972534181,2|10,0:0|0:0,0:0:0:0:
285,191,51488,2,0,L|170:191,1,89.9999972534181,2|10,0:0|0:0,0:0:0:0:
301,152,51863,1,2,0:0:0:0:
304,196,51956,1,0,0:0:0:0:
307,240,52050,1,10,0:0:0:0:
136,354,52238,6,0,L|288:342,2,134.999995880127
309,353,52988,1,2,0:0:0:0:
295,310,53081,1,2,0:0:0:0:
269,273,53175,1,2,0:0:0:0:
234,245,53269,1,2,0:0:0:0:
192,229,53363,1,2,0:0:0:0:
102,223,53550,1,2,0:0:0:0:
368,166,53738,6,0,L|520:170,2,134.999995880127,4|0|0,0:0|0:0|0:0,0:0:0:0:
197,308,54488,1,8,0:0:0:0:
197,308,55238,6,0,L|279:307,1,44.999998626709,2|0,0:0|0:0,0:0:0:0:
151,303,55519,2,0,L|69:302,1,44.999998626709,2|0,0:0|0:0,0:0:0:0:
196,298,55800,1,2,0:0:0:0:
25,203,55988,2,0,L|156:206,3,89.9999972534181,8|0|0|0,0:0|0:0|0:0|0:0,0:0:0:0:
287,340,56738,6,0,L|139:345,2,134.999995880127,2|0|0,0:0|0:0|0:0,0:0:0:0:
458,336,57488,1,8,0:0:0:0:
458,336,58238,6,0,L|389:335,1,44.999998626709,2|0,0:0|0:0,0:0:0:0:
322,338,58519,2,0,L|253:337,1,44.999998626709,2|0,0:0|0:0,0:0:0:0:
367,336,58800,1,2,0:0:0:0:
197,186,58988,2,0,L|311:187,3,89.9999972534181,8|0|0|0,0:0|0:0|0:0|0:0,0:0:0:0:
111,345,59738,6,0,L|284:345,2,134.999995880127,2|0|0,0:0|0:0|0:0,0:0:0:0:
283,299,60488,1,8,0:0:0:0:
283,299,61238,6,0,L|210:299,1,44.999998626709,2|0,0:0|0:0,0:0:0:0:
328,299,61519,2,0,L|401:299,1,44.999998626709,2|0,0:0|0:0,0:0:0:0:
282,298,61800,1,2,0:0:0:0:
457,172,61988,2,0,L|335:167,3,89.9999972534181,8|0|0|0,0:0|0:0|0:0|0:0,0:0:0:0:
189,362,62738,6,0,L|174:196,1,134.999995880127,2|0,0:0|0:0,0:0:0:0:
310,213,63300,1,0,0:0:0:0:
136,120,63488,2,0,L|-16:117,2,134.999995880127,8|0|0,0:0|0:0|0:0,0:0:0:0:
313,314,64238,2,0,L|161:311,2,134.999995880127,2|2|2,0:0|0:0|0:0,0:0:0:0:
137,205,64988,1,8,0:0:0:0:
137,205,65269,2,0,L|210:204,1,44.999998626709,0|4,0:0|0:0,0:0:0:0:
91,206,65550,1,4,0:0:0:0:
355,273,65738,6,0,L|540:275,2,146.249993305207,4|0|0,0:0|0:0|0:0,0:0:0:0:
257,273,66488,2,0,L|362:273,1,97.4999955368044,2|0,0:0|0:0,0:0:0:0:
174,210,66863,2,0,L|69:210,1,97.4999955368044,10|0,0:0|0:0,0:0:0:0:
255,254,67238,6,0,L|311:253,1,48.7499977684022,2|0,0:0|0:0,0:0:0:0:
206,257,67519,2,0,L|262:256,1,48.7499977684022,0|10,0:0|0:0,0:0:0:0:
352,249,67800,1,0,0:0:0:0:
254,249,67988,2,0,L|112:250,1,97.4999955368044,2|0,0:0|0:0,0:0:0:0:
343,345,68363,2,0,L|485:346,1,97.4999955368044,10|0,0:0|0:0,0:0:0:0:
180,140,68738,6,0,L|-5:141,2,146.249993305207,2|0|0,0:0|0:0|0:0,0:0:0:0:
277,144,69488,2,0,L|166:144,1,97.4999955368044,2|0,0:0|0:0,0:0:0:0:
364,232,69863,2,0,L|468:232,1,97.4999955368044,10|0,0:0|0:0,0:0:0:0:
273,319,70238,6,0,L|222:318,1,48.7499977684022,2|0,0:0|0:0,0:0:0:0:
321,321,70519,2,0,L|372:320,1,48.7499977684022,0|10,0:0|0:0,0:0:0:0:
272,314,70800,1,0,0:0:0:0:
369,315,70988,2,0,L|258:313,1,97.4999955368044,2|0,0:0|0:0,0:0:0:0:
96,349,71363,2,0,L|207:348,1,97.4999955368044,10|0,0:0|0:0,0:0:0:0:
477,348,71738,5,2,0:0:0:0:
379,343,71925,1,2,0:0:0:0:
379,294,72019,1,0,0:0:0:0:
379,245,72113,1,10,0:0:0:0:
476,241,72300,1,2,0:0:0:0:
378,235,72488,2,0,L|253:231,1,97.4999955368044,2|2,0:0|0:0,0:0:0:0:
469,130,72863,2,0,L|344:126,1,97.4999955368044,10|2,0:0|0:0,0:0:0:0:
183,281,73238,6,0,L|276:282,1,48.7499977684022,2|0,0:0|0:0,0:0:0:0:
329,279,73519,2,0,L|236:280,1,48.7499977684022,0|10,0:0|0:0,0:0:0:0:
182,284,73800,1,2,0:0:0:0:
367,189,73988,2,0,L|246:192,1,97.4999955368044,2|2,0:0|0:0,0:0:0:0:
89,300,74363,2,0,L|210:303,1,97.4999955368044,10|2,0:0|0:0,0:0:0:0:
444,342,74738,5,2,0:0:0:0:
487,322,74831,1,2,0:0:0:0:
506,278,74925,1,2,0:0:0:0:
489,234,75019,1,2,0:0:0:0:
447,212,75113,2,0,L|302:212,1,97.4999955368044,10|2,0:0|0:0,0:0:0:0:
168,277,75488,1,2,0:0:0:0:
211,257,75581,1,2,0:0:0:0:
230,213,75675,1,2,0:0:0:0:
213,169,75769,1,2,0:0:0:0:
171,147,75863,2,0,L|26:147,1,97.4999955368044,10|2,0:0|0:0,0:0:0:0:
349,219,76238,6,0,L|508:219,2,146.249993305207,2|2|2,0:0|0:0|0:0,0:0:0:0:
88,311,76988,2,0,L|247:311,2,146.249993305207,2|2|2,0:0|0:0|0:0,0:0:0:0:
348,222,77738,5,6,0:0:0:0:
256,192,78023,12,0,79738,0:0:0:0:
127,154,80023,5,4,0:0:0:0:
164,154,80094,1,2,0:0:0:0:
201,154,80165,1,2,0:0:0:0:
125,156,80308,1,2,0:0:0:0:
350,156,80737,1,2,0:0:0:0:
350,156,81023,1,2,0:0:0:0:
208,279,81165,6,0,L|107:286,2,75
282,273,81594,6,0,L|181:280,2,75
207,278,82023,1,0,0:0:0:0:
205,240,82094,1,0,0:0:0:0:
203,202,82165,1,0,0:0:0:0:
347,157,82308,5,2,0:0:0:0:
384,156,82380,1,2,0:0:0:0:
421,155,82451,1,2,0:0:0:0:
346,162,82594,1,2,0:0:0:0:
120,167,83023,1,2,0:0:0:0:
120,167,83308,1,2,0:0:0:0:
265,162,83451,5,0,0:0:0:0:
268,199,83523,1,0,0:0:0:0:
271,236,83594,1,0,0:0:0:0:
196,243,83737,1,0,0:0:0:0:
193,280,83809,1,0,0:0:0:0:
190,317,83880,1,0,0:0:0:0:
272,324,84023,1,0,0:0:0:0:
307,312,84094,1,0,0:0:0:0:
332,285,84165,1,0,0:0:0:0:
341,249,84237,1,0,0:0:0:0:
332,213,84308,1,0,0:0:0:0:
306,186,84380,1,0,0:0:0:0:
271,174,84451,1,0,0:0:0:0:
125,167,84594,5,2,0:0:0:0:
162,166,84665,1,2,0:0:0:0:
199,165,84737,1,2,0:0:0:0:
123,164,84880,1,2,0:0:0:0:
347,159,85308,1,2,0:0:0:0:
347,159,85594,1,2,0:0:0:0:
204,319,85737,6,0,L|198:218,1,75
274,234,86023,1,0,0:0:0:0:
199,232,86165,2,0,L|111:231,2,75
274,234,86594,2,0,L|164:236,1,75
344,301,86880,6,0,L|465:304,2,112.5,2|0|2,0:0|0:0|0:0,0:0:0:0:
200,346,87451,2,0,L|79:349,2,112.5,2|0|2,0:0|0:0|0:0,0:0:0:0:
348,345,88023,6,0,L|350:207,1,112.5,2|0,0:0|0:0,0:0:0:0:
237,228,88451,1,0,0:0:0:0:
379,114,88594,2,0,L|511:117,2,112.5
146,241,89165,6,0,L|46:242,2,75,4|0|10,0:0|0:0|0:0,0:0:0:0:
221,241,89594,2,0,L|321:242,2,75,0|2|0,0:0|0:0|0:0,0:0:0:0:
145,240,90023,2,0,L|242:240,1,75,10|0,0:0|0:0,0:0:0:0:
362,240,90308,6,0,L|373:132,1,75,2|0,0:0|0:0,0:0:0:0:
294,157,90594,1,10,0:0:0:0:
219,150,90737,2,0,L|208:42,1,75,0|2,0:0|0:0,0:0:0:0:
287,68,91023,1,0,0:0:0:0:
364,297,91165,2,0,L|375:189,1,75,10|0,0:0|0:0,0:0:0:0:
226,310,91451,6,0,L|143:312,2,75,2|0|10,0:0|0:0|0:0,0:0:0:0:
151,311,91880,1,0,0:0:0:0:
226,302,92023,1,2,0:0:0:0:
269,240,92165,1,0,0:0:0:0:
226,302,92308,1,10,0:0:0:0:
77,222,92451,6,0,L|186:222,1,75,0|2,0:0|0:0,0:0:0:0:
296,199,92737,2,0,L|187:199,1,75,0|10,0:0|0:0,0:0:0:0:
146,199,93023,2,0,L|255:199,1,75,0|2,0:0|0:0,0:0:0:0:
361,294,93308,2,0,L|451:293,2,75,0|10|0,0:0|0:0|0:0,0:0:0:0:
223,308,93737,6,0,L|222:202,1,75,2|0,0:0|0:0,0:0:0:0:
297,224,94023,1,10,0:0:0:0:
222,222,94165,2,0,L|128:223,2,75,0|2|0,0:0|0:0|0:0,0:0:0:0:
297,220,94594,1,10,0:0:0:0:
221,222,94737,1,0,0:0:0:0:
362,152,94880,6,0,L|448:153,2,75,2|0|10,0:0|0:0|0:0,0:0:0:0:
286,149,95308,2,0,L|200:150,2,75,0|2|0,0:0|0:0|0:0,0:0:0:0:
211,149,95737,2,0,L|105:152,1,75,10|0,0:0|0:0,0:0:0:0:
286,302,96023,6,0,L|276:209,1,75,2|0,0:0|0:0,0:0:0:0:
203,222,96308,1,10,0:0:0:0:
128,213,96451,2,0,L|138:120,1,75,0|2,0:0|0:0,0:0:0:0:
211,133,96736,1,0,0:0:0:0:
286,124,96880,2,0,L|276:31,1,75,10|0,0:0|0:0,0:0:0:0:
136,41,97165,6,0,L|17:38,2,100,2|2|2,0:0|0:0|0:0,0:0:0:0:
405,160,97737,2,0,L|520:164,2,100,2|2|2,0:0|0:0|0:0,0:0:0:0:
105,267,98308,6,0,L|13:267,1,75,4|0,0:0|0:0,0:0:0:0:
105,267,98594,2,0,L|278:268,1,150,10|2,0:0|0:0,0:0:0:0:
179,263,99023,2,0,L|83:261,2,75,0|10|0,0:0|0:0|0:0,0:0:0:0:
321,255,99451,6,0,L|329:164,1,75,2|0,0:0|0:0,0:0:0:0:
252,173,99737,1,10,0:0:0:0:
326,164,99880,2,0,L|175:159,1,150
251,159,100308,2,0,L|349:160,1,75,10|0,0:0|0:0,0:0:0:0:
188,280,100594,6,0,L|90:281,1,75,2|0,0:0|0:0,0:0:0:0:
188,280,100880,2,0,L|354:286,2,150,10|2|10,0:0|0:0|0:0,0:0:0:0:
112,281,101594,1,0,0:0:0:0:
260,281,101737,6,0,L|271:185,1,75,2|0,0:0|0:0,0:0:0:0:
178,165,102023,2,0,L|167:69,1,75,10|0,0:0|0:0,0:0:0:0:
312,239,102308,2,0,L|323:143,1,75,2|0,0:0|0:0,0:0:0:0:
230,123,102594,2,0,L|219:27,1,75,10|0,0:0|0:0,0:0:0:0:
369,171,102880,6,0,L|459:172,1,75,2|0,0:0|0:0,0:0:0:0:
369,171,103165,2,0,L|196:171,1,150,10|2,0:0|0:0,0:0:0:0:
294,171,103594,2,0,L|377:168,2,75,0|10|0,0:0|0:0|0:0,0:0:0:0:
147,287,104023,6,0,L|64:284,2,75,2|0|10,0:0|0:0|0:0,0:0:0:0:
222,286,104451,2,0,L|59:288,1,150
147,290,104880,2,0,L|226:288,1,75,10|0,0:0|0:0,0:0:0:0:
368,192,105165,6,0,L|266:192,1,75,2|0,0:0|0:0,0:0:0:0:
217,193,105451,2,0,L|378:191,2,150,10|2|10,0:0|0:0|0:0,0:0:0:0:
292,191,106165,1,0,0:0:0:0:
145,79,106308,5,2,0:0:0:0:
111,146,106451,1,0,0:0:0:0:
143,213,106594,1,10,0:0:0:0:
216,229,106737,1,0,0:0:0:0:
71,54,106880,1,2,0:0:0:0:
37,121,107023,1,0,0:0:0:0:
69,188,107166,1,10,0:0:0:0:
142,204,107309,1,0,0:0:0:0:
365,299,107451,6,0,L|475:300,2,75,6|2|10,0:0|0:0|0:0,0:0:0:0:
289,302,107880,1,2,0:0:0:0:
365,299,108023,2,0,L|463:298,1,75,2|2,0:0|0:0,0:0:0:0:
306,148,108308,2,0,L|208:147,1,75,10|2,0:0|0:0,0:0:0:0:
472,290,108594,5,2,0:0:0:0:
474,252,108665,1,2,0:0:0:0:
461,217,108736,1,2,0:0:0:0:
436,190,108808,1,2,0:0:0:0:
402,174,108879,1,10,0:0:0:0:
263,174,109023,1,2,0:0:0:0:
402,174,109165,1,2,0:0:0:0:
438,183,109236,1,2,0:0:0:0:
453,215,109307,1,2,0:0:0:0:
438,248,109379,1,2,0:0:0:0:
404,258,109450,1,10,0:0:0:0:
256,265,109594,1,2,0:0:0:0:
256,265,109737,5,2,0:0:0:0:
430,64,110308,6,0,L|430:312,1,225
208,298,110880,5,4,0:0:0:0:
161,285,110975,1,2,0:0:0:0:
126,250,111070,1,2,0:0:0:0:
113,202,111165,1,2,0:0:0:0:
126,155,111260,1,2,0:0:0:0:
161,120,111356,1,2,0:0:0:0:
211,111,111451,1,2,0:0:0:0:
111,114,111642,1,2,0:0:0:0:
12,117,111832,1,2,0:0:0:0:
304,298,112023,5,4,0:0:0:0:
351,285,112118,1,2,0:0:0:0:
386,250,112213,1,2,0:0:0:0:
399,202,112308,1,2,0:0:0:0:
386,155,112403,1,2,0:0:0:0:
351,120,112499,1,2,0:0:0:0:
301,111,112594,1,2,0:0:0:0:
401,114,112785,1,2,0:0:0:0:
500,117,112975,1,2,0:0:0:0:
229,306,113165,5,4,0:0:0:0:
233,268,113236,1,2,0:0:0:0:
249,235,113307,1,2,0:0:0:0:
276,209,113379,1,2,0:0:0:0:
310,194,113450,1,2,0:0:0:0:
386,194,113594,1,2,0:0:0:0:
152,187,113737,1,4,0:0:0:0:
119,172,113808,1,2,0:0:0:0:
105,138,113879,1,2,0:0:0:0:
118,105,113951,1,2,0:0:0:0:
151,89,114022,1,2,0:0:0:0:
226,88,114165,1,2,0:0:0:0:
466,87,114308,6,0,L|472:38,2,37.5,4|2|2,0:0|0:0|0:0,0:0:0:0:
324,270,114594,2,0,L|318:221,2,37.5,2|2|2,0:0|0:0|0:0,0:0:0:0:
466,87,114880,2,0,L|514:87,2,37.5,4|2|2,0:0|0:0|0:0,0:0:0:0:
224,81,115165,2,0,L|185:81,2,37.5,2|2|2,0:0|0:0|0:0,0:0:0:0:
466,87,115451,5,4,0:0:0:0:
466,87,115594,1,4,0:0:0:0:
226,237,115880,1,4,0:0:0:0:
226,237,116023,1,4,0:0:0:0:
466,87,116308,5,4,0:0:0:0:
466,87,116451,1,4,0:0:0:0:
226,237,116737,1,4,0:0:0:0:
226,237,116880,1,4,0:0:0:0:
466,87,117165,5,4,0:0:0:0:
391,87,117308,1,4,0:0:0:0:
316,89,117451,1,4,0:0:0:0:
354,89,117523,1,2,0:0:0:0:
392,89,117594,1,4,0:0:0:0:
148,146,117880,5,4,0:0:0:0:
223,148,118023,1,6,0:0:0:0:
257,161,118094,1,4,0:0:0:0:
272,194,118165,1,4,0:0:0:0:
259,228,118237,1,2,0:0:0:0:
225,243,118308,1,4,0:0:0:0:
150,248,118451,1,4,0:0:0:0:
393,244,118737,5,4,0:0:0:0:
150,248,119023,1,4,0:0:0:0:
116,261,119094,1,2,0:0:0:0:
101,294,119165,1,4,0:0:0:0:
114,328,119237,1,2,0:0:0:0:
148,343,119308,1,4,0:0:0:0:
393,244,119451,5,4,0:0:0:0:
