osu file format v14

[General]
AudioFilename: audio.mp3
AudioLeadIn: 0
PreviewTime: 98308
Countdown: 0
SampleSet: Soft
StackLeniency: 0.7
Mode: 2
LetterboxInBreaks: 0
WidescreenStoryboard: 1

[Editor]
Bookmarks: 90500
DistanceSpacing: 1
BeatDivisor: 4
GridSize: 16
TimelineZoom: 2

[Metadata]
Title:Over The "Period"
TitleUnicode:Over The "Period"
Artist:TAG underground overlay
ArtistUnicode:TAG underground overlay
Creator:Lacrima
Version:Challenge
Source:DanceDanceRevolution
Tags:famoss myle instrumental video game DDR 2014 20th Anniversary NONSTOP MEGAMIX mayo The 7th KONAMI Arcade Championship 7 KAC
BeatmapID:3262666
BeatmapSetID:1597589

[Difficulty]
HPDrainRate:6
CircleSize:4.5
OverallDifficulty:9.5
ApproachRate:9.5
SliderMultiplier:2
SliderTickRate:2

[Events]
//Background and Video events
0,0,"223-1439346152.png",0,0
//Break Periods
//Storyboard Layer 0 (Background)
//Storyboard Layer 1 (Fail)
//Storyboard Layer 2 (Pass)
//Storyboard Layer 3 (Foreground)
//Storyboard Layer 4 (Overlay)
//Storyboard Sound Samples

[TimingPoints]
1015,461.538461538462,4,2,1,80,1,0
1130,-100,4,2,1,5,0,0
1476,-100,4,2,1,80,0,0
1591,-100,4,2,1,5,0,0
1938,-100,4,2,1,80,0,0
2053,-100,4,2,1,5,0,0
2399,-100,4,2,1,80,0,0
2514,-100,4,2,1,5,0,0
2861,-100,4,2,1,80,0,0
2976,-100,4,2,1,5,0,0
3784,-100,4,2,1,80,0,0
3899,-100,4,2,1,5,0,0
4707,-100,4,2,1,80,0,0
4822,-100,4,2,1,5,0,0
5168,-100,4,2,1,80,0,0
5284,-100,4,2,1,5,0,0
5630,-100,4,2,1,80,0,0
5745,-100,4,2,1,5,0,0
6091,-100,4,2,1,80,0,0
6207,-100,4,2,1,5,0,0
6553,-100,4,2,1,80,0,0
6668,-100,4,2,1,5,0,0
7476,-100,4,2,1,80,0,0
7591,-100,4,2,1,5,0,0
8399,-100,4,2,1,80,0,0
8514,-100,4,2,1,5,0,0
8861,-100,4,2,1,80,0,0
8976,-100,4,2,1,5,0,0
9322,-100,4,2,1,80,0,0
9438,-100,4,2,1,5,0,0
9784,-100,4,2,1,80,0,0
9899,-100,4,2,1,5,0,0
10245,-100,4,2,1,80,0,0
10361,-100,4,2,1,5,0,0
11168,-100,4,2,1,80,0,0
11284,-100,4,2,1,5,0,0
11630,-100,4,2,1,80,0,0
11745,-100,4,2,1,5,0,0
11861,-100,4,2,1,80,0,0
11976,-100,4,2,1,5,0,0
12091,500,4,2,1,90,1,0
12216,-100,4,2,1,5,0,0
14091,545.454545454546,4,2,1,88,1,0
14227,-100,4,2,1,5,0,0
15727,-100,4,2,1,80,0,0
15863,-100,4,2,1,5,0,0
16272,600,4,2,1,86,1,0
16422,-100,4,2,1,5,0,0
18672,666.666666666667,4,2,1,90,1,0
22538,300,4,2,1,80,1,0
22538,-90.9090909090909,4,2,1,80,0,0
41738,375,4,2,1,90,1,0
41738,-66.6666666666667,4,2,1,90,0,1
53738,-66.6666666666667,4,2,1,90,0,0
65738,-66.6666666666667,4,2,1,90,0,0
77738,571.428571428571,4,2,1,95,1,0
80023,285.714285714286,4,2,1,95,1,0
80023,-90.9090909090909,4,2,1,95,0,0
89165,-90.9090909090909,4,2,1,95,0,0
97737,-45.4545454545455,4,2,1,95,0,0
98118,-90.9090909090909,4,2,1,95,0,0
98308,-90.9090909090909,4,2,1,95,0,1
109737,-100,4,2,1,95,0,0
110880,-90.9090909090909,4,2,1,95,0,1
115451,-90.9090909090909,4,2,1,95,0,0

[Colours]
Combo1 : 128,0,128
Combo2 : 255,0,255
Combo3 : 120,0,255

[HitObjects]
157,296,1015,6,0,L|146:91,1,200
355,296,1939,2,0,L|366:91,1,200
129,70,2862,2,0,P|57:94|173:312,1,400
355,296,4707,6,0,L|366:91,1,200
157,296,5630,2,0,L|146:91,1,200
383,70,6553,2,0,P|455:94|339:312,1,400
23,233,8399,5,0,0:0:0:0:
179,231,8861,1,0,0:0:0:0:
335,231,9322,1,0,0:0:0:0:
491,231,9784,1,0,0:0:0:0:
197,380,10245,6,0,P|290:224|483:98,1,400
254,155,11630,2,0,L|363:142,1,100
181,75,12091,6,0,P|161:134|471:73,1,700
307,15,14091,6,0,P|222:34|335:378,1,600
47,368,16273,6,0,P|275:318|47:-12,1,800
256,192,18839,12,0,22339,0:0:0:0:
184,158,22539,6,0,L|106:158,1,55.0000016784668,4|2,0:0|0:0,0:0:0:0:
288,289,22689,2,0,L|359:289,1,55.0000016784668,2|2,0:0|0:0,0:0:0:0:
184,158,22839,1,2,0:0:0:0:
435,178,23289,1,2,0:0:0:0:
191,179,23589,1,2,0:0:0:0:
435,178,23739,5,2,0:0:0:0:
435,178,24039,1,2,0:0:0:0:
297,178,24189,1,2,0:0:0:0:
435,178,24489,1,2,0:0:0:0:
191,177,24789,1,2,0:0:0:0:
316,176,24939,6,0,L|244:177,1,55.0000016784668,2|2,0:0|0:0,0:0:0:0:
102,320,25089,2,0,L|173:320,1,55.0000016784668,2|2,0:0|0:0,0:0:0:0:
316,176,25239,1,2,0:0:0:0:
76,183,25689,1,2,0:0:0:0:
306,181,25989,1,2,0:0:0:0:
161,182,26139,5,2,0:0:0:0:
161,182,26439,1,2,0:0:0:0:
414,175,26589,1,2,0:0:0:0:
161,182,26889,1,2,0:0:0:0:
414,175,27189,1,2,0:0:0:0:
161,182,27339,6,0,L|301:182,2,110.000003356934,2|2|2,0:0|0:0|0:0,0:0:0:0:
304,185,27789,2,0,L|305:68,1,110.000003356934,2|2,0:0|0:0,0:0:0:0:
80,132,28089,2,0,L|196:131,1,110.000003356934,2|2,0:0|0:0,0:0:0:0:
426,310,28389,1,2,0:0:0:0:
191,267,28539,6,0,L|179:109,1,110.000003356934,2|2,0:0|0:0,0:0:0:0:
313,103,28839,1,2,0:0:0:0:
180,149,28989,2,0,L|188:39,1,110.000003356934,2|2,0:0|0:0,0:0:0:0:
318,310,29289,2,0,L|326:200,1,110.000003356934,2|2,0:0|0:0,0:0:0:0:
187,231,29589,1,2,0:0:0:0:
395,219,29739,6,0,L|510:219,1,110.000003356934,2|2,0:0|0:0,0:0:0:0:
319,204,29964,2,0,L|259:204,2,55.0000016784668,0|2|2,0:0|0:0|0:0,0:0:0:0:
449,103,30189,2,0,L|391:102,1,55.0000016784668,2|0,0:0|0:0,0:0:0:0:
162,268,30339,6,0,L|160:137,1,110.000003356934,2|2,0:0|0:0,0:0:0:0:
331,142,30564,1,0,0:0:0:0:
292,102,30639,1,2,0:0:0:0:
237,98,30714,1,2,0:0:0:0:
62,250,30789,1,2,0:0:0:0:
107,219,30864,1,0,0:0:0:0:
349,253,30939,6,0,L|166:253,2,165.000005035401
17,338,31539,2,0,L|200:338,2,165.000005035401
265,342,32139,5,4,0:0:0:0:
126,339,32289,2,0,L|117:205,1,110.000003356934,0|10,0:0|0:0,0:0:0:0:
336,247,32589,1,0,0:0:0:0:
197,244,32739,2,0,L|188:110,1,110.000003356934,2|0,0:0|0:0,0:0:0:0:
407,352,33039,1,10,0:0:0:0:
189,134,33189,2,0,L|198:0,1,110.000003356934,0|2,0:0|0:0,0:0:0:0:
407,352,33489,6,0,L|277:348,2,110.000003356934,0|10|0,0:0|0:0|0:0,0:0:0:0:
183,235,33939,2,0,L|318:234,1,110.000003356934,2|0,0:0|0:0,0:0:0:0:
432,119,34239,2,0,L|297:118,1,110.000003356934,10|0,0:0|0:0,0:0:0:0:
35,314,34539,5,2,0:0:0:0:
175,264,34689,2,0,L|177:119,1,110.000003356934,0|10,0:0|0:0,0:0:0:0:
392,342,34989,1,0,0:0:0:0:
252,292,35139,2,0,L|250:147,1,110.000003356934,2|0,0:0|0:0,0:0:0:0:
389,130,35439,1,10,0:0:0:0:
105,220,35589,6,0,L|221:216,1,110.000003356934,0|2,0:0|0:0,0:0:0:0:
474,298,35889,2,0,L|348:296,1,110.000003356934,0|10,0:0|0:0,0:0:0:0:
105,220,36189,2,0,L|221:216,1,110.000003356934,0|2,0:0|0:0,0:0:0:0:
355,163,36489,2,0,L|238:160,2,110.000003356934,0|10|0,0:0|0:0|0:0,0:0:0:0:
38,318,36939,6,0,L|166:314,2,110.000003356934,2|0|10,0:0|0:0|0:0,0:0:0:0:
349,224,37389,2,0,L|221:220,2,110.000003356934,0|2|0,0:0|0:0|0:0,0:0:0:0:
203,325,37839,2,0,L|331:321,2,110.000003356934,10|0|2,0:0|0:0|0:0,0:0:0:0:
474,318,38289,6,0,L|346:314,2,110.000003356934,0|10|0,0:0|0:0|0:0,0:0:0:0:
231,352,38739,2,0,L|118:355,1,110.000003356934,2|0,0:0|0:0,0:0:0:0:
271,235,39039,2,0,L|384:238,1,110.000003356934,10|0,0:0|0:0,0:0:0:0:
56,327,39339,5,2,0:0:0:0:
197,215,39489,2,0,L|183:88,1,110.000003356934,0|10,0:0|0:0,0:0:0:0:
456,327,39789,1,0,0:0:0:0:
315,215,39939,2,0,L|329:88,1,110.000003356934,2|0,0:0|0:0,0:0:0:0:
181,346,40239,2,0,L|167:219,1,110.000003356934,10|0,0:0|0:0,0:0:0:0:
447,222,40539,5,2,0:0:0:0:
280,223,40739,1,2,0:0:0:0:
447,222,40939,1,2,0:0:0:0:
142,228,41139,1,2,0:0:0:0:
306,228,41339,1,2,0:0:0:0:
17,223,41539,1,2,0:0:0:0:
358,244,41739,6,0,L|357:150,1,75.0000028610231,4|0,0:0|0:0,0:0:0:0:
271,156,41926,1,10,0:0:0:0:
358,244,42020,2,0,L|357:150,1,75.0000028610231,0|2,0:0|0:0,0:0:0:0:
271,156,42207,1,0,0:0:0:0:
358,244,42301,2,0,L|357:150,1,75.0000028610231,10|0,0:0|0:0,0:0:0:0:
271,156,42488,5,2,0:0:0:0:
358,244,42582,2,0,L|357:150,1,75.0000028610231,0|10,0:0|0:0,0:0:0:0:
271,156,42769,1,0,0:0:0:0:
438,143,42864,2,0,L|514:144,3,75.0000028610231,2|0|10|0,0:0|0:0|0:0|0:0,0:0:0:0:
184,244,43239,6,0,L|185:150,1,75.0000028610231,2|0,0:0|0:0,0:0:0:0:
271,156,43426,1,10,0:0:0:0:
184,244,43520,2,0,L|185:150,1,75.0000028610231,0|2,0:0|0:0,0:0:0:0:
271,156,43707,1,0,0:0:0:0:
184,244,43801,2,0,L|185:150,1,75.0000028610231,10|0,0:0|0:0,0:0:0:0:
271,156,43988,5,2,0:0:0:0:
184,244,44082,2,0,L|185:150,1,75.0000028610231,0|10,0:0|0:0,0:0:0:0:
271,156,44269,1,0,0:0:0:0:
104,143,44364,2,0,L|28:144,1,75.0000028610231,2|0,0:0|0:0,0:0:0:0:
220,243,44551,2,0,L|144:244,1,75.0000028610231,10|0,0:0|0:0,0:0:0:0:
358,244,44739,6,0,L|357:150,1,75.0000028610231,2|0,0:0|0:0,0:0:0:0:
271,156,44926,1,10,0:0:0:0:
358,244,45020,2,0,L|357:150,1,75.0000028610231,0|2,0:0|0:0,0:0:0:0:
271,156,45207,1,0,0:0:0:0:
358,244,45301,2,0,L|357:150,1,75.0000028610231,10|0,0:0|0:0,0:0:0:0:
271,156,45488,5,2,0:0:0:0:
358,244,45582,2,0,L|357:150,1,75.0000028610231,0|10,0:0|0:0,0:0:0:0:
271,156,45769,1,0,0:0:0:0:
438,143,45864,2,0,L|514:144,3,75.0000028610231,2|0|10|0,0:0|0:0|0:0|0:0,0:0:0:0:
244,271,46239,6,0,L|245:169,1,75.0000028610231,2|0,0:0|0:0,0:0:0:0:
331,172,46426,1,10,0:0:0:0:
129,219,46520,2,0,L|130:117,1,75.0000028610231,0|2,0:0|0:0,0:0:0:0:
216,120,46707,1,0,0:0:0:0:
16,174,46801,2,0,L|17:72,1,75.0000028610231,10|0,0:0|0:0,0:0:0:0:
234,165,46989,2,0,L|317:165,1,75.0000028610231,2|0,0:0|0:0,0:0:0:0:
228,211,47176,2,0,L|145:211,1,75.0000028610231,10|0,0:0|0:0,0:0:0:0:
384,165,47364,2,0,L|301:165,1,75.0000028610231,2|0,0:0|0:0,0:0:0:0:
390,211,47551,2,0,L|473:211,1,75.0000028610231,10|0,0:0|0:0,0:0:0:0:
137,283,47739,5,2,0:0:0:0:
224,268,47832,2,0,L|224:188,1,75.0000028610231,0|10,0:0|0:0,0:0:0:0:
137,283,48020,1,0,0:0:0:0:
224,268,48113,2,0,L|224:188,1,75.0000028610231,2|0,0:0|0:0,0:0:0:0:
137,283,48301,1,10,0:0:0:0:
224,268,48395,2,0,L|224:188,1,75.0000028610231,0|2,0:0|0:0,0:0:0:0:
137,283,48582,5,0,0:0:0:0:
224,268,48676,2,0,L|224:188,1,75.0000028610231,10|0,0:0|0:0,0:0:0:0:
49,176,48864,2,0,L|145:175,3,75.0000028610231,2|0|10|0,0:0|0:0|0:0|0:0,0:0:0:0:
311,283,49239,5,2,0:0:0:0:
224,268,49332,2,0,L|224:188,1,75.0000028610231,0|10,0:0|0:0,0:0:0:0:
311,283,49520,1,0,0:0:0:0:
224,268,49613,2,0,L|224:188,1,75.0000028610231,2|0,0:0|0:0,0:0:0:0:
311,283,49801,1,10,0:0:0:0:
224,268,49895,2,0,L|224:188,1,75.0000028610231,0|2,0:0|0:0,0:0:0:0:
311,283,50082,5,0,0:0:0:0:
224,268,50176,2,0,L|224:188,1,75.0000028610231,10|0,0:0|0:0,0:0:0:0:
399,176,50364,2,0,L|303:175,1,75.0000028610231,2|0,0:0|0:0,0:0:0:0:
496,176,50551,2,0,L|406:175,1,75.0000028610231,10|0,0:0|0:0,0:0:0:0:
137,283,50739,5,2,0:0:0:0:
224,268,50832,2,0,L|224:188,1,75.0000028610231,0|10,0:0|0:0,0:0:0:0:
137,283,51020,1,0,0:0:0:0:
224,268,51113,2,0,L|224:188,1,75.0000028610231,2|0,0:0|0:0,0:0:0:0:
137,283,51301,1,10,0:0:0:0:
224,268,51395,2,0,L|224:188,1,75.0000028610231,0|2,0:0|0:0,0:0:0:0:
137,283,51582,5,0,0:0:0:0:
224,268,51676,2,0,L|224:188,1,75.0000028610231,10|0,0:0|0:0,0:0:0:0:
49,176,51864,2,0,L|145:175,3,75.0000028610231,2|0|10|0,0:0|0:0|0:0|0:0,0:0:0:0:
344,269,52239,6,0,L|440:268,2,75.0000028610231
168,269,52520,2,0,L|72:268,2,75.0000028610231
344,269,52801,6,0,L|440:268,1,75.0000028610231
206,224,52989,1,2,0:0:0:0:
399,210,53082,1,2,0:0:0:0:
399,172,53129,1,2,0:0:0:0:
399,134,53176,1,2,0:0:0:0:
306,110,53270,1,2,0:0:0:0:
495,96,53364,2,0,L|495:179,1,75.0000028610231,2|0,0:0|0:0,0:0:0:0:
315,257,53551,1,2,0:0:0:0:
135,276,53645,1,0,0:0:0:0:
416,304,53739,6,0,L|179:306,2,225.000008583069,4|0|0,0:0|0:0|0:0,0:0:0:0:
121,283,54489,2,0,L|91:49,2,225.000008583069,8|0|0,0:0|0:0|0:0,0:0:0:0:
376,286,55239,6,0,L|379:201,1,75.0000028610231,2|0,0:0|0:0,0:0:0:0:
225,156,55520,2,0,L|228:71,1,75.0000028610231,2|0,0:0|0:0,0:0:0:0:
385,63,55801,1,2,0:0:0:0:
128,263,55989,2,0,L|291:263,1,150.000005722046,8|0,0:0|0:0,0:0:0:0:
449,313,56364,2,0,L|286:313,1,150.000005722046
16,191,56739,6,0,L|253:193,2,225.000008583069,2|0|0,0:0|0:0|0:0,0:0:0:0:
364,284,57489,2,0,L|383:38,2,225.000008583069,8|0|0,0:0|0:0|0:0,0:0:0:0:
50,242,58239,6,0,L|146:238,1,75.0000028610231,2|0,0:0|0:0,0:0:0:0:
282,326,58520,2,0,L|376:325,1,75.0000028610231,2|0,0:0|0:0,0:0:0:0:
201,242,58801,1,2,0:0:0:0:
493,186,58989,2,0,L|334:180,1,150.000005722046,8|0,0:0|0:0,0:0:0:0:
174,119,59364,2,0,L|331:113,1,150.000005722046
39,215,59739,6,0,L|278:231,2,225.000008583069,2|0|0,0:0|0:0|0:0,0:0:0:0:
361,323,60489,2,0,L|383:74,2,225.000008583069,8|0|0,0:0|0:0|0:0,0:0:0:0:
74,220,61239,6,0,L|-21:219,1,75.0000028610231,2|0,0:0|0:0,0:0:0:0:
160,328,61520,2,0,L|255:327,1,75.0000028610231,2|0,0:0|0:0,0:0:0:0:
76,221,61801,1,2,0:0:0:0:
324,217,61989,2,0,L|158:217,3,150.000005722046,8|0|0|0,0:0|0:0|0:0|0:0,0:0:0:0:
442,155,62739,6,0,L|213:158,1,225.000008583069,2|0,0:0|0:0,0:0:0:0:
456,263,63301,1,0,0:0:0:0:
70,155,63489,6,0,L|299:158,1,225.000008583069,8|0,0:0|0:0,0:0:0:0:
56,263,64051,1,0,0:0:0:0:
374,227,64239,6,0,L|373:-4,1,225.000008583069,2|2,0:0|0:0,0:0:0:0:
138,9,64801,1,2,0:0:0:0:
478,243,64989,2,0,L|211:236,1,225.000008583069,8|0,0:0|0:0,0:0:0:0:
347,159,65364,1,4,0:0:0:0:
88,166,65551,2,0,L|-13:167,1,75.0000028610231,4|0,0:0|0:0,0:0:0:0:
334,313,65739,6,0,P|373:214|333:95,1,225.000008583069,4|0,0:0|0:0,0:0:0:0:
177,103,66114,2,0,L|7:101,1,150.000005722046,10|0,0:0|0:0,0:0:0:0:
304,279,66489,2,0,L|316:113,1,150.000005722046,2|0,0:0|0:0,0:0:0:0:
161,354,66864,2,0,L|149:188,1,150.000005722046,10|0,0:0|0:0,0:0:0:0:
306,225,67239,6,0,L|398:223,1,75.0000028610231,2|0,0:0|0:0,0:0:0:0:
222,171,67520,1,0,0:0:0:0:
411,306,67614,2,0,L|410:75,1,225.000008583069,10|0,0:0|0:0,0:0:0:0:
192,97,67989,2,0,L|360:95,3,150.000005722046,2|0|10|0,0:0|0:0|0:0|0:0,0:0:0:0:
53,128,68739,6,0,P|2:242|85:319,1,225.000008583069,2|0,0:0|0:0,0:0:0:0:
266,316,69114,2,0,L|427:312,1,150.000005722046,10|0,0:0|0:0,0:0:0:0:
148,322,69489,2,0,L|136:162,1,150.000005722046,2|0,0:0|0:0,0:0:0:0:
300,197,69864,2,0,L|312:37,1,150.000005722046,10|0,0:0|0:0,0:0:0:0:
151,97,70239,6,0,L|274:93,1,75.0000028610231,2|0,0:0|0:0,0:0:0:0:
387,107,70520,1,0,0:0:0:0:
165,307,70614,2,0,L|165:73,1,225.000008583069,10|0,0:0|0:0,0:0:0:0:
342,199,70989,2,0,L|159:198,3,150.000005722046,2|0|10|0,0:0|0:0|0:0|0:0,0:0:0:0:
486,330,71739,5,2,0:0:0:0:
320,326,71926,1,2,0:0:0:0:
315,250,72020,1,0,0:0:0:0:
310,174,72114,1,10,0:0:0:0:
466,172,72301,1,2,0:0:0:0:
293,116,72489,2,0,L|109:115,1,150.000005722046,2|2,0:0|0:0,0:0:0:0:
440,300,72864,2,0,L|440:135,1,150.000005722046,10|2,0:0|0:0,0:0:0:0:
170,178,73239,6,0,L|83:177,1,75.0000028610231,2|0,0:0|0:0,0:0:0:0:
261,184,73520,1,0,0:0:0:0:
71,187,73614,2,0,L|70:35,1,150.000005722046,10|2,0:0|0:0,0:0:0:0:
436,280,73989,2,0,L|242:276,1,150.000005722046,2|2,0:0|0:0,0:0:0:0:
16,349,74364,2,0,L|170:347,1,150.000005722046,10|2,0:0|0:0,0:0:0:0:
458,326,74739,6,0,L|458:207,1,75.0000028610231,2|2,0:0|0:0,0:0:0:0:
374,243,74926,1,2,0:0:0:0:
189,195,75020,1,2,0:0:0:0:
275,193,75114,2,0,L|275:110,1,75.0000028610231,10|2,0:0|0:0,0:0:0:0:
100,104,75301,2,0,L|189:106,1,75.0000028610231,2|2,0:0|0:0,0:0:0:0:
391,141,75489,2,0,L|470:139,2,75.0000028610231,2|2|2,0:0|0:0|0:0,0:0:0:0:
185,305,75770,2,0,L|106:303,2,75.0000028610231,2|10|2,0:0|0:0|0:0,0:0:0:0:
343,214,76050,2,2,L|268:213,1,75.0000028610231
16,192,76239,6,0,L|108:191,1,75.0000028610231,2|2,0:0|0:0,0:0:0:0:
286,101,76426,2,0,L|365:100,1,75.0000028610231,2|2,0:0|0:0,0:0:0:0:
191,154,76614,2,0,L|87:153,1,75.0000028610231,10|2,0:0|0:0,0:0:0:0:
324,220,76801,2,0,L|418:222,1,75.0000028610231,2|2,0:0|0:0,0:0:0:0:
177,233,76989,1,2,0:0:0:0:
363,220,77082,2,0,L|363:119,1,75.0000028610231,2|2,0:0|0:0,0:0:0:0:
177,233,77270,1,2,0:0:0:0:
365,225,77364,2,0,L|454:223,1,75.0000028610231,10|2,0:0|0:0,0:0:0:0:
147,225,77551,2,0,L|58:223,1,75.0000028610231,2|2,0:0|0:0,0:0:0:0:
356,333,77739,6,0,P|411:263|188:333,1,750,6|0,0:0|0:0,0:0:0:0:
394,198,80024,6,0,L|473:198,1,55.0000016784668,4|2,0:0|0:0,0:0:0:0:
263,292,80166,2,0,L|184:292,1,55.0000016784668,2|2,0:0|0:0,0:0:0:0:
394,198,80309,2,0,L|513:197,2,110.000003356934,2|0|0,0:0|0:0|0:0,0:0:0:0:
186,228,80738,2,0,L|188:99,1,110.000003356934,2|0,0:0|0:0,0:0:0:0:
395,196,81024,1,2,0:0:0:0:
187,118,81166,6,0,L|128:118,1,55.0000016784668
194,76,81309,2,0,L|256:76,1,55.0000016784668
81,167,81452,1,0,0:0:0:0:
196,198,81595,2,0,L|255:198,1,55.0000016784668
189,156,81738,2,0,L|127:156,1,55.0000016784668
302,247,81881,1,0,0:0:0:0:
187,276,82024,2,0,L|117:276,2,55.0000016784668
402,179,82309,6,0,L|467:179,1,55.0000016784668,2|2,0:0|0:0,0:0:0:0:
293,126,82452,2,0,L|210:126,1,55.0000016784668,2|2,0:0|0:0,0:0:0:0:
402,179,82595,2,0,L|532:179,2,110.000003356934,2|0|0,0:0|0:0|0:0,0:0:0:0:
188,248,83024,2,0,L|314:248,1,110.000003356934,2|0,0:0|0:0,0:0:0:0:
87,246,83309,1,2,0:0:0:0:
300,166,83452,6,0,L|363:166,1,55.0000016784668
292,122,83595,2,0,L|207:123,1,55.0000016784668
406,248,83738,6,0,L|469:248,1,55.0000016784668
398,204,83881,2,0,L|313:205,1,55.0000016784668
422,35,84024,1,0,0:0:0:0:
377,67,84095,1,0,0:0:0:0:
345,111,84166,1,0,0:0:0:0:
328,163,84238,1,0,0:0:0:0:
329,218,84309,1,0,0:0:0:0:
346,270,84381,1,0,0:0:0:0:
379,314,84452,1,0,0:0:0:0:
424,345,84523,1,0,0:0:0:0:
210,301,84595,6,0,L|125:302,1,55.0000016784668,2|2,0:0|0:0,0:0:0:0:
311,335,84738,2,0,L|396:336,1,55.0000016784668,2|2,0:0|0:0,0:0:0:0:
210,301,84881,2,0,L|87:304,2,110.000003356934,2|0|0,0:0|0:0|0:0,0:0:0:0:
447,280,85309,2,0,L|320:279,1,110.000003356934,2|0,0:0|0:0,0:0:0:0:
101,196,85595,1,2,0:0:0:0:
355,150,85738,6,0,L|434:149,1,55.0000016784668
342,104,85881,2,0,L|275:104,1,55.0000016784668
471,103,86024,1,0,0:0:0:0:
352,241,86166,6,0,L|273:240,1,55.0000016784668
365,195,86309,2,0,L|432:195,1,55.0000016784668
236,194,86452,1,0,0:0:0:0:
356,132,86595,6,0,L|435:131,1,55.0000016784668
343,86,86738,2,0,L|276:86,1,55.0000016784668
86,264,86881,6,0,L|86:136,1,110.000003356934,2|2,0:0|0:0,0:0:0:0:
299,170,87095,2,0,L|299:85,2,55.0000016784668,0|2|2,0:0|0:0|0:0,0:0:0:0:
213,120,87309,2,0,L|213:35,1,55.0000016784668,2|2,0:0|0:0,0:0:0:0:
426,264,87452,6,0,L|426:136,1,110.000003356934,2|2,0:0|0:0,0:0:0:0:
213,170,87666,2,0,L|213:85,2,55.0000016784668,0|2|2,0:0|0:0|0:0,0:0:0:0:
299,120,87880,2,0,L|299:35,1,55.0000016784668,2|2,0:0|0:0,0:0:0:0:
126,142,88024,6,0,L|304:138,2,165.000005035401,2|0|0,0:0|0:0|0:0,0:0:0:0:
402,332,88595,2,0,L|224:328,2,165.000005035401
58,197,89166,6,0,L|191:197,2,110.000003356934,4|0|10,0:0|0:0|0:0,0:0:0:0:
294,250,89595,1,0,0:0:0:0:
173,200,89738,2,0,L|172:72,1,110.000003356934,2|0,0:0|0:0,0:0:0:0:
454,197,90024,2,0,L|321:197,2,110.000003356934,10|0|2,0:0|0:0|0:0,0:0:0:0:
218,250,90451,5,0,0:0:0:0:
339,200,90594,2,0,L|340:72,1,110.000003356934,10|0,0:0|0:0,0:0:0:0:
132,216,90880,2,0,L|265:214,1,110.000003356934,2|0,0:0|0:0,0:0:0:0:
380,216,91165,2,0,L|247:214,1,110.000003356934,10|0,0:0|0:0,0:0:0:0:
17,304,91451,5,2,0:0:0:0:
141,284,91594,2,0,L|141:141,1,110.000003356934,0|10,0:0|0:0,0:0:0:0:
380,305,91880,1,0,0:0:0:0:
256,285,92023,2,0,L|256:142,1,110.000003356934,2|0,0:0|0:0,0:0:0:0:
380,305,92308,1,10,0:0:0:0:
163,166,92451,6,0,L|25:167,1,110.000003356934,0|2,0:0|0:0,0:0:0:0:
349,166,92737,2,0,L|487:167,1,110.000003356934,0|10,0:0|0:0,0:0:0:0:
329,272,93023,2,0,L|191:273,1,110.000003356934,0|2,0:0|0:0,0:0:0:0:
482,307,93308,2,0,L|368:306,2,110.000003356934,0|10|0,0:0|0:0|0:0,0:0:0:0:
206,327,93737,6,0,L|206:177,1,110.000003356934,2|0,0:0|0:0,0:0:0:0:
331,170,94023,1,10,0:0:0:0:
105,117,94165,2,0,L|221:117,2,110.000003356934,0|2|0,0:0|0:0|0:0,0:0:0:0:
364,305,94594,6,0,L|364:155,1,110.000003356934,10|0,0:0|0:0,0:0:0:0:
239,148,94880,1,2,0:0:0:0:
465,95,95023,2,0,L|349:95,2,110.000003356934,0|10|0,0:0|0:0|0:0,0:0:0:0:
236,272,95452,2,0,L|122:274,1,110.000003356934,2|0,0:0|0:0,0:0:0:0:
276,272,95738,2,0,L|390:274,1,110.000003356934,10|0,0:0|0:0,0:0:0:0:
46,289,96024,6,0,L|161:288,2,110.000003356934,2|0|10,0:0|0:0|0:0,0:0:0:0:
280,288,96452,2,0,L|280:168,1,110.000003356934,0|2,0:0|0:0,0:0:0:0:
149,147,96738,1,0,0:0:0:0:
393,81,96881,2,0,L|394:220,1,110.000003356934,10|0,0:0|0:0,0:0:0:0:
70,295,97166,5,2,0:0:0:0:
326,235,97357,1,2,0:0:0:0:
174,194,97547,1,2,0:0:0:0:
465,328,97738,1,2,0:0:0:0:
201,300,97928,1,2,0:0:0:0:
465,328,98119,1,2,0:0:0:0:
133,98,98309,5,4,0:0:0:0:
81,109,98380,1,0,0:0:0:0:
58,157,98451,1,0,0:0:0:0:
83,204,98523,1,0,0:0:0:0:
135,213,98595,2,0,L|263:212,1,110.000003356934,10|0,0:0|0:0,0:0:0:0:
17,290,98881,2,0,L|133:290,2,110.000003356934,2|0|10,0:0|0:0|0:0,0:0:0:0:
279,277,99309,6,0,L|279:207,1,55.0000016784668
209,202,99452,2,0,L|209:132,1,55.0000016784668,2|0,0:0|0:0,0:0:0:0:
279,277,99595,2,0,L|279:207,1,55.0000016784668
209,202,99738,1,10,0:0:0:0:
318,202,99881,2,0,L|186:201,2,110.000003356934,0|2|0,0:0|0:0|0:0,0:0:0:0:
114,143,100309,2,0,L|-5:143,1,110.000003356934,10|0,0:0|0:0,0:0:0:0:
60,143,100524,1,0,0:0:0:0:
245,255,100595,5,2,0:0:0:0:
296,241,100666,1,0,0:0:0:0:
319,193,100737,1,0,0:0:0:0:
297,144,100809,1,0,0:0:0:0:
245,130,100881,2,0,L|126:134,1,110.000003356934,10|0,0:0|0:0,0:0:0:0:
380,298,101166,5,2,0:0:0:0:
135,133,101309,2,0,L|17:133,2,110.000003356934,0|10|0,0:0|0:0|0:0,0:0:0:0:
190,135,101666,1,0,0:0:0:0:
377,137,101738,6,0,L|376:271,1,110.000003356934,2|0,0:0|0:0,0:0:0:0:
320,250,101952,1,0,0:0:0:0:
112,147,102024,6,0,L|113:281,1,110.000003356934,10|0,0:0|0:0,0:0:0:0:
169,260,102238,1,0,0:0:0:0:
336,301,102309,2,0,L|485:301,1,110.000003356934,2|0,0:0|0:0,0:0:0:0:
389,300,102524,1,0,0:0:0:0:
176,301,102595,2,0,L|27:301,1,110.000003356934,10|0,0:0|0:0,0:0:0:0:
123,300,102808,1,0,0:0:0:0:
370,303,102880,5,2,0:0:0:0:
367,248,102951,1,0,0:0:0:0:
342,200,103023,1,0,0:0:0:0:
299,166,103094,1,0,0:0:0:0:
245,153,103165,2,0,L|375:153,1,110.000003356934,10|0,0:0|0:0,0:0:0:0:
137,102,103452,2,0,L|23:105,2,110.000003356934,2|0|10,0:0|0:0|0:0,0:0:0:0:
358,281,103881,1,0,0:0:0:0:
136,104,104024,6,0,L|276:110,2,110.000003356934,2|0|10,0:0|0:0|0:0,0:0:0:0:
258,251,104452,6,0,L|118:257,2,110.000003356934,0|2|0,0:0|0:0|0:0,0:0:0:0:
56,287,104881,6,0,L|51:170,1,110.000003356934,10|0,0:0|0:0,0:0:0:0:
106,175,105095,1,0,0:0:0:0:
277,177,105166,1,2,0:0:0:0:
330,168,105237,1,0,0:0:0:0:
375,136,105308,1,0,0:0:0:0:
400,88,105380,1,0,0:0:0:0:
400,34,105452,2,0,L|264:36,1,110.000003356934,10|0,0:0|0:0,0:0:0:0:
496,139,105738,2,0,L|360:141,2,110.000003356934,2|0|10,0:0|0:0|0:0,0:0:0:0:
208,288,106166,6,0,L|130:289,1,55.0000016784668
304,288,106309,2,0,L|382:289,1,55.0000016784668,2|0,0:0|0:0,0:0:0:0:
208,288,106452,2,0,L|130:289,1,55.0000016784668
256,224,106595,2,0,L|256:112,1,110.000003356934,10|0,0:0|0:0,0:0:0:0:
48,128,106881,1,2,0:0:0:0:
18,173,106952,1,0,0:0:0:0:
23,227,107023,1,0,0:0:0:0:
59,266,107095,1,0,0:0:0:0:
112,275,107166,2,0,L|203:276,1,55.0000016784668,10|0,0:0|0:0,0:0:0:0:
17,325,107309,2,0,L|92:325,1,55.0000016784668
298,209,107452,6,0,L|420:209,2,110.000003356934,6|2|10,0:0|0:0|0:0,0:0:0:0:
77,213,107881,1,2,0:0:0:0:
298,208,108024,2,0,L|150:209,1,110.000003356934,2|2,0:0|0:0,0:0:0:0:
393,148,108309,2,0,L|535:151,1,110.000003356934,10|2,0:0|0:0,0:0:0:0:
215,163,108594,6,0,L|156:163,1,55.0000016784668,2|2,0:0|0:0,0:0:0:0:
222,124,108737,2,0,L|279:124,1,55.0000016784668,2|2,0:0|0:0,0:0:0:0:
84,80,108880,2,0,L|11:81,1,55.0000016784668,10|2,0:0|0:0,0:0:0:0:
222,124,109023,6,0,L|281:124,1,55.0000016784668,2|2,0:0|0:0,0:0:0:0:
215,85,109165,2,0,L|158:85,1,55.0000016784668,2|2,0:0|0:0,0:0:0:0:
353,49,109308,2,0,L|426:50,1,55.0000016784668,2|2,0:0|0:0,0:0:0:0:
215,163,109451,6,0,L|156:163,1,55.0000016784668,10|2,0:0|0:0,0:0:0:0:
222,124,109594,2,0,L|279:124,1,55.0000016784668,2|2,0:0|0:0,0:0:0:0:
79,122,109737,5,2,0:0:0:0:
444,334,110309,2,0,P|466:274|441:-4,1,350
196,110,110881,6,0,L|196:216,1,73.3333355712891,4|2,0:0|0:0,0:0:0:0:
277,204,111070,1,2,0:0:0:0:
196,110,111165,2,0,L|196:216,1,73.3333355712891,2|2,0:0|0:0,0:0:0:0:
277,204,111356,1,2,0:0:0:0:
196,110,111451,2,0,L|196:216,1,73.3333355712891,2|2,0:0|0:0,0:0:0:0:
277,204,111642,1,2,0:0:0:0:
196,110,111737,2,0,L|196:216,1,73.3333355712891,2|2,0:0|0:0,0:0:0:0:
277,204,111928,1,2,0:0:0:0:
18,256,112024,5,4,0:0:0:0:
99,235,112119,2,0,L|99:161,1,73.3333355712891,2|2,0:0|0:0,0:0:0:0:
18,256,112308,1,2,0:0:0:0:
99,235,112403,2,0,L|99:161,1,73.3333355712891,2|2,0:0|0:0,0:0:0:0:
18,256,112594,1,2,0:0:0:0:
99,235,112689,2,0,L|99:161,1,73.3333355712891,2|2,0:0|0:0,0:0:0:0:
18,256,112880,1,2,0:0:0:0:
99,235,112975,2,0,L|99:161,1,73.3333355712891,2|2,0:0|0:0,0:0:0:0:
349,343,113166,5,4,0:0:0:0:
398,320,113237,1,2,0:0:0:0:
436,280,113308,1,2,0:0:0:0:
457,230,113380,1,2,0:0:0:0:
457,175,113451,1,2,0:0:0:0:
436,124,113523,1,2,0:0:0:0:
399,85,113594,1,2,0:0:0:0:
349,62,113665,1,2,0:0:0:0:
163,343,113738,5,4,0:0:0:0:
113,320,113809,1,2,0:0:0:0:
75,280,113880,1,2,0:0:0:0:
54,230,113952,1,2,0:0:0:0:
54,175,114023,1,2,0:0:0:0:
75,124,114095,1,2,0:0:0:0:
112,85,114166,1,2,0:0:0:0:
162,62,114237,1,2,0:0:0:0:
349,62,114309,5,4,0:0:0:0:
409,93,114381,1,2,0:0:0:0:
435,149,114452,1,2,0:0:0:0:
409,93,114524,1,2,0:0:0:0:
163,62,114595,5,2,0:0:0:0:
103,93,114665,1,2,0:0:0:0:
77,149,114737,1,2,0:0:0:0:
103,93,114808,1,2,0:0:0:0:
279,184,114880,2,0,L|357:184,1,55.0000016784668,4|2,0:0|0:0,0:0:0:0:
188,245,115023,2,0,L|121:245,1,55.0000016784668,2|2,0:0|0:0,0:0:0:0:
343,293,115165,6,0,L|400:293,1,55.0000016784668,2|2,0:0|0:0,0:0:0:0:
169,293,115309,2,0,L|112:293,1,55.0000016784668,2|2,0:0|0:0,0:0:0:0:
382,240,115452,5,4,0:0:0:0:
130,240,115595,1,4,0:0:0:0:
130,240,115881,1,4,0:0:0:0:
382,240,116024,1,4,0:0:0:0:
382,240,116309,1,4,0:0:0:0:
130,240,116452,1,4,0:0:0:0:
130,240,116738,1,4,0:0:0:0:
382,240,116881,1,4,0:0:0:0:
382,240,117166,5,4,0:0:0:0:
130,240,117309,1,4,0:0:0:0:
382,240,117452,2,0,L|317:240,1,55.0000016784668,4|2,0:0|0:0,0:0:0:0:
159,308,117595,2,0,L|233:308,1,55.0000016784668,4|2,0:0|0:0,0:0:0:0:
382,240,117881,5,4,0:0:0:0:
239,260,118024,2,0,L|303:260,1,55.0000016784668,6|4,0:0|0:0,0:0:0:0:
457,314,118166,2,0,L|391:315,1,55.0000016784668,4|2,0:0|0:0,0:0:0:0:
239,260,118309,1,4,0:0:0:0:
382,240,118452,1,4,0:0:0:0:
32,241,118738,5,4,0:0:0:0:
237,237,119024,2,0,L|308:236,1,55.0000016784668,4|2,0:0|0:0,0:0:0:0:
145,147,119166,2,0,L|74:148,1,55.0000016784668,4|2,0:0|0:0,0:0:0:0:
258,241,119309,2,0,L|329:240,1,55.0000016784668,4|2,0:0|0:0,0:0:0:0:
16,192,119452,1,4,0:0:0:0:
