osu file format v14

[General]
AudioFilename: audio.mp3
AudioLeadIn: 0
PreviewTime: 98308
Countdown: 0
SampleSet: Soft
StackLeniency: 0.7
Mode: 2
LetterboxInBreaks: 0
WidescreenStoryboard: 1

[Editor]
Bookmarks: 90500
DistanceSpacing: 1.1
BeatDivisor: 4
GridSize: 16
TimelineZoom: 2.1

[Metadata]
Title:Over The "Period"
TitleUnicode:Over The "Period"
Artist:TAG underground overlay
ArtistUnicode:TAG underground overlay
Creator:Lacrima
Version:Beginner
Source:DanceDanceRevolution
Tags:famoss myle instrumental video game DDR 2014 20th Anniversary NONSTOP MEGAMIX mayo The 7th KONAMI Arcade Championship 7 KAC
BeatmapID:3263827
BeatmapSetID:1597589

[Difficulty]
HPDrainRate:3
CircleSize:2.5
OverallDifficulty:6
ApproachRate:6
SliderMultiplier:1
SliderTickRate:1

[Events]
//Background and Video events
0,0,"223-1439346152.png",0,0
//Break Periods
//Storyboard Layer 0 (Background)
//Storyboard Layer 1 (Fail)
//Storyboard Layer 2 (Pass)
//Storyboard Layer 3 (Foreground)
//Storyboard Layer 4 (Overlay)
//Storyboard Sound Samples

[TimingPoints]
1015,461.538461538462,4,2,1,80,1,0
1130,-100,4,2,1,5,0,0
1476,-100,4,2,1,80,0,0
1591,-100,4,2,1,5,0,0
1938,-100,4,2,1,80,0,0
2053,-100,4,2,1,5,0,0
2399,-100,4,2,1,80,0,0
2514,-100,4,2,1,5,0,0
2861,-100,4,2,1,80,0,0
2976,-100,4,2,1,5,0,0
3784,-100,4,2,1,80,0,0
3899,-100,4,2,1,5,0,0
4707,-100,4,2,1,80,0,0
4822,-100,4,2,1,5,0,0
5168,-100,4,2,1,80,0,0
5284,-100,4,2,1,5,0,0
5630,-100,4,2,1,80,0,0
5745,-100,4,2,1,5,0,0
6091,-100,4,2,1,80,0,0
6207,-100,4,2,1,5,0,0
6553,-100,4,2,1,80,0,0
6668,-100,4,2,1,5,0,0
7476,-100,4,2,1,80,0,0
7591,-100,4,2,1,5,0,0
8399,-100,4,2,1,80,0,0
8514,-100,4,2,1,5,0,0
8861,-100,4,2,1,80,0,0
8976,-100,4,2,1,5,0,0
9322,-100,4,2,1,80,0,0
9438,-100,4,2,1,5,0,0
9784,-100,4,2,1,80,0,0
9899,-100,4,2,1,5,0,0
10245,-100,4,2,1,80,0,0
10361,-100,4,2,1,5,0,0
11168,-100,4,2,1,80,0,0
11284,-100,4,2,1,5,0,0
11630,-100,4,2,1,80,0,0
11745,-100,4,2,1,5,0,0
11861,-100,4,2,1,80,0,0
11976,-100,4,2,1,5,0,0
12091,500,4,2,1,90,1,0
12216,-100,4,2,1,5,0,0
14091,545.454545454546,4,2,1,88,1,0
14227,-100,4,2,1,5,0,0
15727,-100,4,2,1,80,0,0
15863,-100,4,2,1,5,0,0
16272,600,4,2,1,86,1,0
16422,-100,4,2,1,5,0,0
18672,666.666666666667,4,2,1,90,1,0
22538,300,4,2,1,80,1,0
22538,-100,4,2,1,80,0,0
41738,375,4,2,1,90,1,0
41738,-90.9090909090909,4,2,1,90,0,1
53738,-90.9090909090909,4,2,1,90,0,0
65738,-90.9090909090909,4,2,1,90,0,0
77738,571.428571428571,4,2,1,95,1,0
80023,285.714285714286,4,2,1,95,1,0
80023,-100,4,2,1,95,0,0
89165,-100,4,2,1,95,0,0
97737,-100,4,2,1,95,0,0
98118,-100,4,2,1,95,0,0
98308,-100,4,2,1,95,0,1
109737,-100,4,2,1,95,0,0
110880,-100,4,2,1,95,0,1
115451,-100,4,2,1,95,0,0

[Colours]
Combo1 : 128,0,128
Combo2 : 255,0,255
Combo3 : 120,0,255

[HitObjects]
118,337,1015,5,0,0:0:0:0:
204,291,1476,1,0,0:0:0:0:
237,199,1938,1,0,0:0:0:0:
199,109,2399,1,0,0:0:0:0:
110,68,2861,6,0,L|109:280,1,200
394,337,4707,5,0,0:0:0:0:
307,291,5168,1,0,0:0:0:0:
274,199,5630,1,0,0:0:0:0:
312,109,6091,1,0,0:0:0:0:
401,68,6553,6,0,L|403:280,1,200
118,337,8399,5,0,0:0:0:0:
205,291,8860,1,0,0:0:0:0:
238,199,9322,1,0,0:0:0:0:
200,109,9783,1,0,0:0:0:0:
111,68,10245,6,0,L|331:69,1,200
210,68,11630,2,0,L|277:68,1,50
336,68,12091,6,0,P|399:94|316:263,1,300
187,78,14091,2,0,P|124:104|199:278,1,300
397,32,16272,6,0,P|304:58|400:259,1,400
256,192,19005,12,0,22172,0:0:0:0:
411,81,22538,6,0,L|411:200,1,100,4|2,0:0|0:0,0:0:0:0:
261,197,23288,2,0,L|104:200,2,150,2|2|2,0:0|0:0|0:0,0:0:0:0:
370,192,24488,1,2,0:0:0:0:
261,197,24788,1,2,0:0:0:0:
206,197,24938,6,0,L|205:90,1,100,2|2,0:0|0:0,0:0:0:0:
368,76,25688,2,0,L|203:75,2,150,2|2|2,0:0|0:0|0:0,0:0:0:0:
258,80,26888,5,2,0:0:0:0:
148,85,27188,1,2,0:0:0:0:
202,81,27338,6,0,L|318:80,1,100,2|2,0:0|0:0,0:0:0:0:
137,68,28088,2,0,L|298:63,2,150,2|2|2,0:0|0:0|0:0,0:0:0:0:
246,78,29288,1,2,0:0:0:0:
136,84,29588,1,2,0:0:0:0:
190,82,29738,6,0,L|396:78,2,200,2|2|0,0:0|0:0|0:0,0:0:0:0:
379,193,31538,1,0,0:0:0:0:
166,19,32138,5,4,0:0:0:0:
79,63,32438,1,10,0:0:0:0:
47,156,32738,1,2,0:0:0:0:
87,245,33038,1,10,0:0:0:0:
177,282,33338,6,0,L|301:283,1,100,2|10,0:0|0:0,0:0:0:0:
177,282,33938,2,0,L|53:282,1,100,2|10,0:0|0:0,0:0:0:0:
196,56,34538,5,2,0:0:0:0:
283,100,34838,1,10,0:0:0:0:
315,193,35138,1,2,0:0:0:0:
275,282,35438,1,10,0:0:0:0:
185,319,35738,6,0,L|61:320,3,100,2|10|2|10,0:0|0:0|0:0|0:0,0:0:0:0:
207,360,36938,5,2,0:0:0:0:
228,262,37238,1,10,0:0:0:0:
278,176,37538,1,2,0:0:0:0:
351,109,37838,1,10,0:0:0:0:
442,67,38138,6,0,L|338:67,1,100,2|10,0:0|0:0,0:0:0:0:
242,67,38738,2,0,L|346:67,1,100,2|10,0:0|0:0,0:0:0:0:
210,27,39338,5,2,0:0:0:0:
122,70,39638,1,10,0:0:0:0:
87,161,39938,1,2,0:0:0:0:
123,252,40238,1,10,0:0:0:0:
211,294,40538,2,0,L|299:294,2,66.6666666666667,2|2|2,0:0|0:0|0:0,0:0:0:0:
138,292,41138,2,0,L|50:291,2,66.6666666666667,2|2|2,0:0|0:0|0:0,0:0:0:0:
221,120,41738,6,0,L|342:120,2,110.000003356934,4|2|2,0:0|0:0|0:0,0:0:0:0:
342,118,42863,1,2,0:0:0:0:
222,99,43238,6,0,L|94:98,2,110.000003356934,2|2|2,0:0|0:0|0:0,0:0:0:0:
112,98,44363,2,0,L|32:98,1,55.0000016784668,2|10,0:0|0:0,0:0:0:0:
126,199,44738,6,0,L|246:201,2,110.000003356934,2|2|2,0:0|0:0|0:0,0:0:0:0:
246,194,45863,1,2,0:0:0:0:
125,192,46238,6,0,L|21:193,2,82.5000025177003,2|0|10,0:0|0:0|0:0,0:0:0:0:
185,192,46988,2,0,L|51:194,1,110.000003356934,2|2,0:0|0:0,0:0:0:0:
207,232,47738,6,0,L|328:232,1,110.000003356934,2|2,0:0|0:0,0:0:0:0:
207,232,48488,2,0,L|328:232,1,110.000003356934,2|2,0:0|0:0,0:0:0:0:
443,330,49238,6,0,L|322:330,1,110.000003356934,2|2,0:0|0:0,0:0:0:0:
454,330,49988,1,2,0:0:0:0:
333,326,50363,2,0,L|259:325,1,55.0000016784668,2|10,0:0|0:0,0:0:0:0:
350,201,50738,6,0,L|485:198,1,110.000003356934,2|2,0:0|0:0,0:0:0:0:
350,201,51488,2,0,L|485:198,1,110.000003356934,2|2,0:0|0:0,0:0:0:0:
318,114,52238,6,0,L|213:113,2,82.5000025177003
378,111,52988,2,0,L|382:227,1,110.000003356934,2|2,0:0|0:0,0:0:0:0:
233,299,53738,6,0,L|472:300,1,220.000006713867,4|8,0:0|0:0,0:0:0:0:
233,299,55238,6,0,L|127:300,2,82.5000025177003,2|2|2,0:0|0:0|0:0,0:0:0:0:
172,299,55988,1,8,0:0:0:0:
411,264,56738,6,0,L|179:263,1,220.000006713867,2|8,0:0|0:0,0:0:0:0:
433,270,58238,6,0,L|347:269,2,82.5000025177003,2|2|2,0:0|0:0|0:0,0:0:0:0:
493,272,58988,1,8,0:0:0:0:
251,257,59738,6,0,L|17:253,1,220.000006713867,2|8,0:0|0:0,0:0:0:0:
272,236,61238,6,0,L|367:236,2,82.5000025177003,2|2|2,0:0|0:0|0:0,0:0:0:0:
211,234,61988,1,8,0:0:0:0:
448,188,62738,6,0,L|211:188,2,220.000006713867,2|8|2,0:0|0:0|0:0,0:0:0:0:
357,189,64519,1,2,0:0:0:0:
266,190,64800,1,2,0:0:0:0:
326,187,64988,2,0,L|331:297,1,110.000003356934,8|4,0:0|0:0,0:0:0:0:
192,291,65738,6,0,L|57:289,2,110.000003356934,4|10|2,0:0|0:0|0:0,0:0:0:0:
313,293,66863,1,10,0:0:0:0:
192,284,67238,6,0,L|328:280,1,110.000003356934,2|10,0:0|0:0,0:0:0:0:
406,303,67988,2,0,L|294:307,1,110.000003356934,2|10,0:0|0:0,0:0:0:0:
171,35,68738,6,0,L|294:33,2,110.000003356934,2|10|2,0:0|0:0|0:0,0:0:0:0:
50,37,69863,1,10,0:0:0:0:
170,34,70238,6,0,L|303:40,1,110.000003356934,2|10,0:0|0:0,0:0:0:0:
170,154,70988,2,0,L|282:155,1,110.000003356934,2|10,0:0|0:0,0:0:0:0:
411,122,71738,5,2,0:0:0:0:
364,149,71925,1,2,0:0:0:0:
346,200,72113,1,10,0:0:0:0:
365,250,72300,1,2,0:0:0:0:
411,277,72488,2,0,L|284:277,1,110.000003356934,2|10,0:0|0:0,0:0:0:0:
169,109,73238,5,2,0:0:0:0:
122,136,73425,1,2,0:0:0:0:
104,187,73613,1,10,0:0:0:0:
123,237,73800,1,2,0:0:0:0:
169,264,73988,2,0,L|297:264,1,110.000003356934,2|10,0:0|0:0,0:0:0:0:
149,219,74738,6,0,L|385:221,2,220.000006713867,2|2|2,0:0|0:0|0:0,0:0:0:0:
28,217,76613,1,10,0:0:0:0:
149,219,76988,1,2,0:0:0:0:
269,221,77363,1,10,0:0:0:0:
149,219,77738,5,6,0:0:0:0:
256,192,78023,12,0,79738,0:0:0:0:
373,165,80023,6,0,L|255:165,1,100,4|2,0:0|0:0,0:0:0:0:
107,169,80737,1,2,0:0:0:0:
107,169,81023,1,2,0:0:0:0:
161,167,81165,6,0,L|326:167,2,150
271,162,82308,6,0,L|377:161,1,100,2|2,0:0|0:0,0:0:0:0:
205,166,83023,1,2,0:0:0:0:
205,166,83308,1,2,0:0:0:0:
259,169,83451,6,0,L|365:168,1,100
248,166,84023,1,0,0:0:0:0:
467,162,84594,6,0,L|366:160,1,100,2|2,0:0|0:0,0:0:0:0:
202,173,85308,1,2,0:0:0:0:
202,173,85594,1,2,0:0:0:0:
257,183,85737,6,0,L|424:180,2,150
147,160,86880,6,0,L|355:159,2,200,2|2|2,0:0|0:0|0:0,0:0:0:0:
347,251,88594,1,0,0:0:0:0:
135,53,89165,5,4,0:0:0:0:
48,98,89450,1,10,0:0:0:0:
15,190,89736,1,2,0:0:0:0:
52,280,90022,1,10,0:0:0:0:
140,322,90308,6,0,L|256:322,1,100,2|10,0:0|0:0,0:0:0:0:
340,322,90880,2,0,L|224:321,1,100,2|10,0:0|0:0,0:0:0:0:
363,48,91451,5,2,0:0:0:0:
449,93,91736,1,10,0:0:0:0:
482,185,92022,1,2,0:0:0:0:
445,275,92308,1,10,0:0:0:0:
357,317,92594,6,0,L|241:316,3,100,2|10|2|10,0:0|0:0|0:0|0:0,0:0:0:0:
376,309,93737,5,2,0:0:0:0:
337,217,94022,1,10,0:0:0:0:
274,140,94308,1,2,0:0:0:0:
191,84,94594,1,10,0:0:0:0:
96,55,94880,6,0,L|198:52,1,100,2|10,0:0|0:0,0:0:0:0:
297,95,95451,2,0,L|398:91,1,100,2|10,0:0|0:0,0:0:0:0:
286,81,96023,5,2,0:0:0:0:
196,119,96308,1,10,0:0:0:0:
160,210,96594,1,2,0:0:0:0:
197,300,96880,1,10,0:0:0:0:
288,337,97165,6,0,L|370:339,2,66.6666666666667,2|2|2,0:0|0:0|0:0,0:0:0:0:
204,349,97737,2,0,L|123:350,2,66.6666666666667,2|2|2,0:0|0:0|0:0,0:0:0:0:
291,321,98308,6,0,L|275:206,1,100,4|10,0:0|0:0,0:0:0:0:
164,221,98880,2,0,L|148:106,1,100,2|10,0:0|0:0,0:0:0:0:
264,129,99451,5,2,0:0:0:0:
312,227,99737,1,10,0:0:0:0:
264,129,100023,1,2,0:0:0:0:
158,100,100308,1,10,0:0:0:0:
268,101,100594,6,0,L|374:102,2,100,2|10|2,0:0|0:0|0:0,0:0:0:0:
48,87,101737,6,0,L|159:85,1,100,2|10,0:0|0:0,0:0:0:0:
255,110,102308,2,0,L|366:108,1,100,2|10,0:0|0:0,0:0:0:0:
245,121,102880,6,0,L|233:225,1,100,2|10,0:0|0:0,0:0:0:0:
343,221,103451,2,0,L|355:325,1,100,2|10,0:0|0:0,0:0:0:0:
244,331,104023,5,2,0:0:0:0:
138,299,104308,1,10,0:0:0:0:
97,196,104594,1,2,0:0:0:0:
138,299,104880,1,10,0:0:0:0:
247,305,105165,6,0,L|351:306,2,100,2|10|2,0:0|0:0|0:0,0:0:0:0:
136,302,106023,1,10,0:0:0:0:
247,305,106308,6,0,L|143:306,2,100,2|10|2,0:0|0:0|0:0,0:0:0:0:
358,302,107166,1,10,0:0:0:0:
248,299,107451,6,0,L|148:301,3,100,6|10|2|10,0:0|0:0|0:0|0:0,0:0:0:0:
264,288,108594,6,0,L|367:287,1,100,2|10,0:0|0:0,0:0:0:0:
248,288,109165,2,0,L|145:287,1,100,2|10,0:0|0:0,0:0:0:0:
264,288,109737,5,2,0:0:0:0:
66,292,110308,1,0,0:0:0:0:
270,287,110880,6,0,L|479:288,1,200,4|2,0:0|0:0,0:0:0:0:
242,287,112023,6,0,L|33:288,1,200,4|2,0:0|0:0,0:0:0:0:
280,187,113165,6,0,L|158:187,2,100,4|2|4,0:0|0:0|0:0,0:0:0:0:
60,315,114308,6,0,L|175:312,2,100,4|2|4,0:0|0:0|0:0,0:0:0:0:
273,353,115451,6,0,L|446:347,3,150,4|4|4|4,0:0|0:0|0:0|0:0,0:0:0:0:
257,342,117165,6,0,L|96:335,1,150,4|4,0:0|0:0,0:0:0:0:
223,301,117880,6,0,L|429:291,1,200,4|4,0:0|0:0,0:0:0:0:
313,278,118737,1,4,0:0:0:0:
422,270,119023,6,0,L|253:268,1,150,4|4,0:0|0:0,0:0:0:0:
