osu file format v14

[General]
AudioFilename: audio.mp3
AudioLeadIn: 0
PreviewTime: 98308
Countdown: 0
SampleSet: Soft
StackLeniency: 0.7
Mode: 2
LetterboxInBreaks: 0
WidescreenStoryboard: 1

[Editor]
Bookmarks: 90500
DistanceSpacing: 1
BeatDivisor: 3
GridSize: 16
TimelineZoom: 2.1

[Metadata]
Title:Over The "Period"
TitleUnicode:Over The "Period"
Artist:TAG underground overlay
ArtistUnicode:TAG underground overlay
Creator:Lacrima
Version:Basic
Source:DanceDanceRevolution
Tags:famoss myle instrumental video game DDR 2014 20th Anniversary NONSTOP MEGAMIX mayo The 7th KONAMI Arcade Championship 7 KAC
BeatmapID:3263767
BeatmapSetID:1597589

[Difficulty]
HPDrainRate:4
CircleSize:3
OverallDifficulty:7
ApproachRate:7
SliderMultiplier:1.25
SliderTickRate:1

[Events]
//Background and Video events
0,0,"223-1439346152.png",0,0
//Break Periods
//Storyboard Layer 0 (Background)
//Storyboard Layer 1 (Fail)
//Storyboard Layer 2 (Pass)
//Storyboard Layer 3 (Foreground)
//Storyboard Layer 4 (Overlay)
//Storyboard Sound Samples

[TimingPoints]
1015,461.538461538462,4,2,1,80,1,0
1130,-100,4,2,1,5,0,0
1476,-100,4,2,1,80,0,0
1591,-100,4,2,1,5,0,0
1938,-100,4,2,1,80,0,0
2053,-100,4,2,1,5,0,0
2399,-100,4,2,1,80,0,0
2514,-100,4,2,1,5,0,0
2861,-100,4,2,1,80,0,0
2976,-100,4,2,1,5,0,0
3784,-100,4,2,1,80,0,0
3899,-100,4,2,1,5,0,0
4707,-100,4,2,1,80,0,0
4822,-100,4,2,1,5,0,0
5168,-100,4,2,1,80,0,0
5284,-100,4,2,1,5,0,0
5630,-100,4,2,1,80,0,0
5745,-100,4,2,1,5,0,0
6091,-100,4,2,1,80,0,0
6207,-100,4,2,1,5,0,0
6553,-100,4,2,1,80,0,0
6668,-100,4,2,1,5,0,0
7476,-100,4,2,1,80,0,0
7591,-100,4,2,1,5,0,0
8399,-100,4,2,1,80,0,0
8514,-100,4,2,1,5,0,0
8861,-100,4,2,1,80,0,0
8976,-100,4,2,1,5,0,0
9322,-100,4,2,1,80,0,0
9438,-100,4,2,1,5,0,0
9784,-100,4,2,1,80,0,0
9899,-100,4,2,1,5,0,0
10245,-100,4,2,1,80,0,0
10361,-100,4,2,1,5,0,0
11168,-100,4,2,1,80,0,0
11284,-100,4,2,1,5,0,0
11630,-100,4,2,1,80,0,0
11745,-100,4,2,1,5,0,0
11861,-100,4,2,1,80,0,0
11976,-100,4,2,1,5,0,0
12091,500,4,2,1,90,1,0
12216,-100,4,2,1,5,0,0
14091,545.454545454546,4,2,1,88,1,0
14227,-100,4,2,1,5,0,0
15727,-100,4,2,1,80,0,0
15863,-100,4,2,1,5,0,0
16272,600,4,2,1,86,1,0
16422,-100,4,2,1,5,0,0
18672,666.666666666667,4,2,1,90,1,0
22538,300,4,2,1,80,1,0
22538,-100,4,2,1,80,0,0
41738,375,4,2,1,90,1,0
41738,-90.9090909090909,4,2,1,90,0,1
53738,-90.9090909090909,4,2,1,90,0,0
65738,-90.9090909090909,4,2,1,90,0,0
77738,571.428571428571,4,2,1,95,1,0
80023,285.714285714286,4,2,1,95,1,0
80023,-100,4,2,1,95,0,0
89165,-100,4,2,1,95,0,0
97737,-100,4,2,1,95,0,0
98118,-100,4,2,1,95,0,0
98308,-100,4,2,1,95,0,1
109737,-100,4,2,1,95,0,0
110880,-100,4,2,1,95,0,1
115451,-100,4,2,1,95,0,0

[Colours]
Combo1 : 128,0,128
Combo2 : 255,0,255
Combo3 : 120,0,255

[HitObjects]
147,376,1015,5,0,0:0:0:0:
254,318,1476,1,0,0:0:0:0:
293,202,1938,1,0,0:0:0:0:
244,90,2399,1,0,0:0:0:0:
131,43,2861,6,0,L|119:311,1,250
415,363,4707,5,0,0:0:0:0:
308,305,5168,1,0,0:0:0:0:
269,189,5630,1,0,0:0:0:0:
318,77,6091,1,0,0:0:0:0:
431,30,6553,6,0,L|443:298,1,250
147,376,8399,5,0,0:0:0:0:
254,318,8860,1,0,0:0:0:0:
293,202,9322,1,0,0:0:0:0:
244,90,9783,1,0,0:0:0:0:
131,43,10245,6,0,L|386:56,1,250
256,70,11630,2,0,L|169:73,1,62.5
275,79,12091,6,0,P|336:98|278:331,1,375
141,58,14091,6,0,P|82:91|176:316,1,375
363,55,16272,6,0,P|276:84|381:378,1,500
256,192,19005,12,0,22172,0:0:0:0:
369,130,22538,6,0,L|278:132,2,62.5,4|2|2,0:0|0:0|0:0,0:0:0:0:
181,130,23288,1,2,0:0:0:0:
305,130,23588,1,2,0:0:0:0:
305,130,23738,5,2,0:0:0:0:
180,123,24038,1,2,0:0:0:0:
181,130,24188,1,2,0:0:0:0:
306,130,24488,1,2,0:0:0:0:
181,124,24788,1,2,0:0:0:0:
326,249,24938,6,0,L|413:249,2,62.5,2|2|2,0:0|0:0|0:0,0:0:0:0:
138,255,25688,1,2,0:0:0:0:
262,258,25988,1,2,0:0:0:0:
262,258,26138,5,2,0:0:0:0:
16,260,26438,1,2,0:0:0:0:
16,260,26588,1,2,0:0:0:0:
157,260,26888,1,2,0:0:0:0:
16,260,27188,1,2,0:0:0:0:
162,358,27338,6,0,L|235:357,2,62.5,2|2|2,0:0|0:0|0:0,0:0:0:0:
99,356,27788,1,2,0:0:0:0:
161,353,27938,1,2,0:0:0:0:
235,353,28088,2,0,L|95:354,1,125,2|2,0:0|0:0,0:0:0:0:
185,354,28538,6,0,L|325:355,1,125,2|2,0:0|0:0,0:0:0:0:
235,353,28988,2,0,L|108:357,2,125,2|2|2,0:0|0:0|0:0,0:0:0:0:
387,200,29738,6,0,L|502:203,2,93.75,2|0|2,0:0|0:0|0:0,0:0:0:0:
311,203,30338,2,0,L|196:206,2,93.75,2|0|2,0:0|0:0|0:0,0:0:0:0:
235,206,30938,6,0,L|132:206,2,93.75
382,340,31538,2,0,L|391:239,2,93.75
231,215,32138,6,0,L|97:217,1,125,4|10,0:0|0:0,0:0:0:0:
256,216,32738,1,2,0:0:0:0:
312,194,32888,1,0,0:0:0:0:
336,139,33038,1,10,0:0:0:0:
312,83,33188,1,0,0:0:0:0:
255,62,33338,6,0,L|179:64,2,62.5,2|0|10,0:0|0:0|0:0,0:0:0:0:
405,61,33938,2,0,L|481:62,2,62.5,2|0|10,0:0|0:0|0:0,0:0:0:0:
255,63,34538,6,0,L|397:63,1,125,2|10,0:0|0:0,0:0:0:0:
230,66,35138,2,0,L|146:65,2,62.5,2|0|10,0:0|0:0|0:0,0:0:0:0:
304,66,35588,6,0,L|158:62,2,125
154,66,36488,2,0,L|77:65,1,62.5,0|10,0:0|0:0,0:0:0:0:
241,70,36938,6,0,L|244:223,1,125,2|10,0:0|0:0,0:0:0:0:
394,16,37538,1,2,0:0:0:0:
337,37,37688,1,0,0:0:0:0:
313,93,37838,1,10,0:0:0:0:
337,149,37988,1,0,0:0:0:0:
393,171,38138,6,0,L|475:173,2,62.5,2|0|10,0:0|0:0|0:0,0:0:0:0:
243,171,38738,2,0,L|161:172,2,62.5,2|0|10,0:0|0:0|0:0,0:0:0:0:
392,169,39338,6,0,L|257:168,1,125,2|10,0:0|0:0,0:0:0:0:
117,171,39938,1,2,0:0:0:0:
124,232,40088,1,0,0:0:0:0:
157,284,40238,1,10,0:0:0:0:
210,316,40388,1,0,0:0:0:0:
272,322,40538,6,0,L|152:323,2,83.3333333333333,2|2|2,0:0|0:0|0:0,0:0:0:0:
371,323,41138,2,0,L|491:324,2,83.3333333333333,2|2|2,0:0|0:0|0:0,0:0:0:0:
186,187,41738,6,0,L|86:187,1,68.7500020980836,4|10,0:0|0:0,0:0:0:0:
186,187,42113,2,0,L|286:187,1,68.7500020980836,2|10,0:0|0:0,0:0:0:0:
186,187,42488,2,0,L|86:187,1,68.7500020980836,2|10,0:0|0:0,0:0:0:0:
186,187,42863,1,2,0:0:0:0:
220,187,42956,1,0,0:0:0:0:
254,187,43050,1,10,0:0:0:0:
80,286,43238,6,0,L|66:199,1,68.7500020980836,2|10,0:0|0:0,0:0:0:0:
151,210,43613,2,0,L|165:123,1,68.7500020980836,2|10,0:0|0:0,0:0:0:0:
243,131,43988,2,0,L|229:44,1,68.7500020980836,2|10,0:0|0:0,0:0:0:0:
314,57,44363,1,2,0:0:0:0:
231,54,44550,1,10,0:0:0:0:
407,179,44738,6,0,L|486:179,1,68.7500020980836,2|10,0:0|0:0,0:0:0:0:
407,179,45113,2,0,L|328:179,1,68.7500020980836,2|10,0:0|0:0,0:0:0:0:
407,179,45488,2,0,L|486:179,1,68.7500020980836,2|10,0:0|0:0,0:0:0:0:
407,179,45863,1,2,0:0:0:0:
372,179,45956,1,0,0:0:0:0:
338,179,46050,1,10,0:0:0:0:
165,124,46238,6,0,L|35:124,2,103.125003147125,2|0|10,0:0|0:0|0:0,0:0:0:0:
333,228,46988,2,0,L|176:227,1,137.500004196167,2|2,0:0|0:0,0:0:0:0:
479,73,47738,5,2,0:0:0:0:
417,98,47925,1,10,0:0:0:0:
391,160,48113,1,2,0:0:0:0:
419,221,48300,1,10,0:0:0:0:
481,244,48488,2,0,L|402:245,1,68.7500020980836,2|10,0:0|0:0,0:0:0:0:
330,247,48863,1,2,0:0:0:0:
328,206,48956,1,0,0:0:0:0:
326,164,49050,1,10,0:0:0:0:
152,37,49238,5,2,0:0:0:0:
214,62,49425,1,10,0:0:0:0:
240,124,49613,1,2,0:0:0:0:
212,185,49800,1,10,0:0:0:0:
150,208,49988,2,0,L|229:209,1,68.7500020980836,2|10,0:0|0:0,0:0:0:0:
301,211,50363,1,2,0:0:0:0:
218,209,50550,1,10,0:0:0:0:
396,320,50738,5,2,0:0:0:0:
364,259,50925,1,10,0:0:0:0:
318,208,51113,1,2,0:0:0:0:
261,170,51300,1,10,0:0:0:0:
196,148,51488,2,0,L|187:68,1,68.7500020980836,2|10,0:0|0:0,0:0:0:0:
284,62,51863,1,2,0:0:0:0:
287,102,51956,1,0,0:0:0:0:
291,143,52050,1,10,0:0:0:0:
117,243,52238,6,0,L|102:372,2,103.125003147125
198,229,52988,1,2,0:0:0:0:
202,188,53081,1,2,0:0:0:0:
207,146,53175,1,2,0:0:0:0:
124,137,53363,2,0,L|39:138,1,68.7500020980836,2|2,0:0|0:0,0:0:0:0:
219,294,53738,6,0,L|339:293,2,103.125003147125,4|0|0,0:0|0:0|0:0,0:0:0:0:
391,296,54488,1,8,0:0:0:0:
391,296,55238,6,0,L|261:298,2,103.125003147125,2|2|2,0:0|0:0|0:0,0:0:0:0:
215,152,55988,1,8,0:0:0:0:
133,162,56175,1,0,0:0:0:0:
89,232,56363,1,0,0:0:0:0:
133,162,56550,1,0,0:0:0:0:
215,156,56738,6,0,L|346:156,2,103.125003147125,2|0|0,0:0|0:0|0:0,0:0:0:0:
41,160,57488,1,8,0:0:0:0:
41,160,58238,6,0,L|163:158,2,103.125003147125,2|2|2,0:0|0:0|0:0,0:0:0:0:
214,278,58988,2,0,L|223:189,1,68.7500020980836,8|0,0:0|0:0,0:0:0:0:
302,196,59363,2,0,L|293:107,1,68.7500020980836
212,121,59738,6,0,L|83:121,2,103.125003147125,2|0|0,0:0|0:0|0:0,0:0:0:0:
387,128,60488,1,8,0:0:0:0:
387,128,61238,2,0,L|269:128,2,103.125003147125,2|2|2,0:0|0:0|0:0,0:0:0:0:
211,262,61988,1,8,0:0:0:0:
182,184,62175,1,0,0:0:0:0:
211,262,62363,1,0,0:0:0:0:
292,270,62550,1,0,0:0:0:0:
211,262,62738,6,0,L|82:267,2,103.125003147125,2|0|0,0:0|0:0|0:0,0:0:0:0:
389,329,63488,2,0,L|518:334,2,103.125003147125,8|0|0,0:0|0:0|0:0,0:0:0:0:
306,327,64238,6,0,L|305:202,1,103.125003147125,2|2,0:0|0:0,0:0:0:0:
181,219,64800,1,2,0:0:0:0:
356,141,64988,2,0,L|483:136,2,103.125003147125,8|0|4,0:0|0:0|0:0,0:0:0:0:
183,278,65738,6,0,L|53:273,2,103.125003147125,4|0|0,0:0|0:0|0:0,0:0:0:0:
265,278,66488,2,0,L|272:183,1,68.7500020980836,2|0,0:0|0:0,0:0:0:0:
187,206,66863,1,10,0:0:0:0:
351,196,67238,6,0,L|471:197,2,103.125003147125,2|0|0,0:0|0:0|0:0,0:0:0:0:
268,196,67988,2,0,L|267:102,1,68.7500020980836,2|0,0:0|0:0,0:0:0:0:
186,111,68363,2,0,L|185:17,1,68.7500020980836,10|0,0:0|0:0,0:0:0:0:
359,81,68738,6,0,L|355:217,1,103.125003147125,2|0,0:0|0:0,0:0:0:0:
232,191,69300,1,0,0:0:0:0:
314,191,69488,2,0,L|392:192,2,68.7500020980836,2|0|10,0:0|0:0|0:0,0:0:0:0:
148,193,70238,6,0,L|276:194,2,103.125003147125,2|0|0,0:0|0:0|0:0,0:0:0:0:
65,189,70988,2,0,L|146:190,1,68.7500020980836,2|0,0:0|0:0,0:0:0:0:
216,184,71363,2,0,L|135:185,1,68.7500020980836,10|0,0:0|0:0,0:0:0:0:
320,333,71738,5,2,0:0:0:0:
381,306,71925,1,2,0:0:0:0:
406,244,72113,1,10,0:0:0:0:
379,183,72300,1,2,0:0:0:0:
317,159,72488,2,0,L|227:157,1,68.7500020980836,2|2,0:0|0:0,0:0:0:0:
331,155,72863,2,0,L|421:152,1,68.7500020980836,10|2,0:0|0:0,0:0:0:0:
226,113,73238,5,2,0:0:0:0:
171,152,73425,1,2,0:0:0:0:
156,218,73613,1,10,0:0:0:0:
186,278,73800,1,2,0:0:0:0:
248,305,73988,2,0,L|170:306,1,68.7500020980836,2|2,0:0|0:0,0:0:0:0:
96,309,74363,2,0,L|174:309,1,68.7500020980836,10|2,0:0|0:0,0:0:0:0:
338,140,74738,6,0,L|465:144,2,103.125003147125,2|2|2,0:0|0:0|0:0,0:0:0:0:
163,267,75488,2,0,L|36:271,2,103.125003147125,2|2|2,0:0|0:0|0:0,0:0:0:0:
245,263,76238,6,0,L|250:136,1,103.125003147125,2|2,0:0|0:0,0:0:0:0:
371,143,76800,5,2,0:0:0:0:
196,125,76988,2,0,L|92:128,2,103.125003147125,2|2|2,0:0|0:0|0:0,0:0:0:0:
371,143,77738,5,6,0:0:0:0:
256,192,78023,12,0,79738,0:0:0:0:
209,134,80023,6,0,L|121:132,2,62.5,4|2|2,0:0|0:0|0:0,0:0:0:0:
415,126,80737,1,2,0:0:0:0:
415,126,81023,1,2,0:0:0:0:
346,126,81165,6,0,L|204:126,1,125
290,124,81594,2,0,L|426:126,1,125
346,126,82023,2,0,L|265:125,1,62.5
433,54,82308,6,0,L|511:55,2,62.5,2|2|2,0:0|0:0|0:0,0:0:0:0:
226,56,83023,1,2,0:0:0:0:
226,56,83308,1,2,0:0:0:0:
294,56,83451,6,0,L|380:56,1,62.5
288,56,83737,2,0,L|202:56,1,62.5
294,58,84023,2,0,P|345:81|281:169,1,187.5
141,230,84594,6,0,L|68:229,2,62.5,2|2|2,0:0|0:0|0:0,0:0:0:0:
347,234,85308,1,2,0:0:0:0:
347,234,85594,1,2,0:0:0:0:
278,233,85737,6,0,L|138:232,1,125
84,231,86165,2,0,L|224:230,1,125
139,230,86594,2,0,L|53:226,1,62.5
226,309,86880,6,0,L|338:309,2,93.75,2|0|2,0:0|0:0|0:0,0:0:0:0:
157,312,87451,2,0,L|45:312,2,93.75,2|0|2,0:0|0:0|0:0,0:0:0:0:
226,312,88023,6,0,L|231:211,2,93.75,2|0|0,0:0|0:0|0:0,0:0:0:0:
157,312,88594,2,0,L|152:211,2,93.75
311,330,89165,6,0,L|449:329,1,125,4|10,0:0|0:0,0:0:0:0:
297,329,89737,1,2,0:0:0:0:
240,307,89879,1,0,0:0:0:0:
215,251,90022,1,10,0:0:0:0:
236,194,90165,1,0,0:0:0:0:
292,169,90308,6,0,L|379:170,2,62.5,2|0|10,0:0|0:0|0:0,0:0:0:0:
154,164,90880,2,0,L|67:164,2,62.5,2|0|10,0:0|0:0|0:0,0:0:0:0:
291,167,91451,6,0,L|148:167,1,125,2|10,0:0|0:0,0:0:0:0:
304,165,92023,2,0,L|375:163,2,62.5,2|0|10,0:0|0:0|0:0,0:0:0:0:
235,163,92451,2,0,L|368:158,2,125
97,155,93308,2,0,L|175:156,1,62.5,0|10,0:0|0:0,0:0:0:0:
297,155,93737,6,0,L|146:153,1,125,2|10,0:0|0:0,0:0:0:0:
309,151,94308,1,2,0:0:0:0:
361,181,94450,1,0,0:0:0:0:
379,240,94593,1,10,0:0:0:0:
351,295,94736,1,0,0:0:0:0:
294,316,94880,6,0,L|288:240,1,62.5,2|0,0:0|0:0,0:0:0:0:
220,253,95165,1,10,0:0:0:0:
83,233,95451,2,0,L|89:156,1,62.5,2|0,0:0|0:0,0:0:0:0:
158,170,95736,1,10,0:0:0:0:
296,170,96023,6,0,L|146:167,1,125,2|10,0:0|0:0,0:0:0:0:
308,167,96594,2,0,L|376:168,1,62.5,2|0,0:0|0:0,0:0:0:0:
301,166,96880,2,0,L|233:167,1,62.5,10|0,0:0|0:0,0:0:0:0:
319,110,97165,6,0,L|421:111,2,83.3333333333333,2|0|0,0:0|0:0|0:0,0:0:0:0:
147,190,97737,2,0,L|45:191,2,83.3333333333333,2|0|0,0:0|0:0|0:0,0:0:0:0:
325,151,98308,6,0,L|332:293,1,125,4|10,0:0|0:0,0:0:0:0:
193,263,98880,1,2,0:0:0:0:
186,201,99022,1,0,0:0:0:0:
211,144,99165,1,10,0:0:0:0:
259,106,99308,1,0,0:0:0:0:
320,96,99451,6,0,L|393:97,2,62.5,2|0|10,0:0|0:0|0:0,0:0:0:0:
181,95,100023,1,2,0:0:0:0:
318,93,100308,2,0,L|392:94,1,62.5,10|0,0:0|0:0,0:0:0:0:
231,229,100594,2,0,L|145:227,1,62.5,2|0,0:0|0:0,0:0:0:0:
237,226,100880,2,0,L|365:228,2,125,10|2|10,0:0|0:0|0:0,0:0:0:0:
300,221,101594,1,0,0:0:0:0:
460,317,101737,6,0,L|476:178,1,125,2|10,0:0|0:0,0:0:0:0:
225,180,102308,2,0,L|209:41,1,125,2|10,0:0|0:0,0:0:0:0:
475,243,102880,6,0,L|327:242,1,125,2|10,0:0|0:0,0:0:0:0:
212,247,103451,1,2,0:0:0:0:
156,222,103593,1,0,0:0:0:0:
134,165,103736,1,10,0:0:0:0:
158,110,103879,1,0,0:0:0:0:
215,88,104023,6,0,L|304:88,2,62.5,2|0|10,0:0|0:0|0:0,0:0:0:0:
77,90,104594,1,2,0:0:0:0:
214,89,104880,2,0,L|294:89,1,62.5,10|0,0:0|0:0,0:0:0:0:
123,188,105165,6,0,L|40:190,2,62.5,2|0|10,0:0|0:0|0:0,0:0:0:0:
261,185,105737,1,2,0:0:0:0:
123,187,106023,2,0,L|201:187,1,62.5,10|0,0:0|0:0,0:0:0:0:
337,297,106308,6,0,L|410:293,2,62.5,2|0|10,0:0|0:0|0:0,0:0:0:0:
198,302,106880,1,2,0:0:0:0:
173,237,107023,1,0,0:0:0:0:
198,302,107165,1,10,0:0:0:0:
262,326,107308,1,0,0:0:0:0:
111,333,107451,5,6,0:0:0:0:
56,305,107593,1,2,0:0:0:0:
33,248,107736,1,10,0:0:0:0:
52,190,107879,1,2,0:0:0:0:
105,159,108023,2,0,L|187:157,1,62.5,2|2,0:0|0:0,0:0:0:0:
95,78,108308,2,0,L|177:76,1,62.5,10|2,0:0|0:0,0:0:0:0:
306,213,108594,5,2,0:0:0:0:
337,212,108665,1,2,0:0:0:0:
368,212,108737,1,2,0:0:0:0:
305,212,108880,1,10,0:0:0:0:
242,212,109023,1,2,0:0:0:0:
387,323,109165,5,2,0:0:0:0:
418,322,109236,1,2,0:0:0:0:
449,322,109308,1,2,0:0:0:0:
386,322,109451,1,10,0:0:0:0:
323,322,109594,1,2,0:0:0:0:
387,323,109737,5,2,0:0:0:0:
175,330,110308,1,0,0:0:0:0:
430,199,110880,6,0,L|329:195,2,83.3333333333333,4|2|2,0:0|0:0|0:0,0:0:0:0:
335,296,111451,2,0,L|234:292,2,83.3333333333333,2|2|2,0:0|0:0|0:0,0:0:0:0:
155,299,112023,6,0,L|150:182,1,83.3333333333333,4|2,0:0|0:0,0:0:0:0:
231,192,112403,1,2,0:0:0:0:
136,173,112594,2,0,L|50:175,2,83.3333333333333,2|2|2,0:0|0:0|0:0,0:0:0:0:
318,247,113165,5,4,0:0:0:0:
344,190,113308,1,2,0:0:0:0:
322,131,113451,1,2,0:0:0:0:
265,104,113594,1,2,0:0:0:0:
212,235,113737,1,4,0:0:0:0:
186,178,113880,1,2,0:0:0:0:
208,119,114023,1,2,0:0:0:0:
265,104,114166,1,2,0:0:0:0:
420,104,114308,6,0,L|495:105,1,62.5,4|2,0:0|0:0,0:0:0:0:
419,103,114594,2,0,L|344:104,1,62.5,2|2,0:0|0:0,0:0:0:0:
206,215,114880,6,0,L|131:216,1,62.5,4|2,0:0|0:0,0:0:0:0:
218,216,115166,2,0,L|293:217,1,62.5,2|2,0:0|0:0,0:0:0:0:
128,329,115451,5,4,0:0:0:0:
128,329,115594,1,4,0:0:0:0:
253,331,115880,1,4,0:0:0:0:
253,331,116023,1,4,0:0:0:0:
377,326,116308,5,4,0:0:0:0:
377,326,116451,1,4,0:0:0:0:
253,331,116737,1,4,0:0:0:0:
253,331,116880,1,4,0:0:0:0:
128,331,117165,1,4,0:0:0:0:
190,327,117308,1,4,0:0:0:0:
127,322,117451,1,4,0:0:0:0:
64,318,117594,1,4,0:0:0:0:
186,291,117880,5,4,0:0:0:0:
248,288,118023,1,6,0:0:0:0:
186,280,118165,1,4,0:0:0:0:
123,272,118308,1,4,0:0:0:0:
185,267,118451,1,4,0:0:0:0:
453,180,118737,5,4,0:0:0:0:
327,180,119023,1,4,0:0:0:0:
264,180,119165,1,4,0:0:0:0:
327,180,119308,1,4,0:0:0:0:
479,180,119451,5,4,0:0:0:0:
