osu file format v14

[General]
AudioFilename: Untitled.mp3
AudioLeadIn: 0
PreviewTime: 11301
Countdown: 0
SampleSet: Soft
StackLeniency: 0.7
Mode: 3
LetterboxInBreaks: 0
SpecialStyle: 0
WidescreenStoryboard: 1

[Editor]
DistanceSpacing: 2
BeatDivisor: 2
GridSize: 4
TimelineZoom: 2.800005

[Metadata]
Title:POSSESSION 2.776987107837352x
TitleUnicode:POSSESSION 2.776987107837352x
Artist:TAG underground
ArtistUnicode:TAG underground
Creator:AscensionDTWhen
Version:ripple rank when
Source:Dance Dance Revolution X2
Tags:DDR Bemani vibro
BeatmapID:1699905
BeatmapSetID:810174

[Difficulty]
HPDrainRate:0
CircleSize:1
OverallDifficulty:0
ApproachRate:5
SliderMultiplier:1.4
SliderTickRate:1

[Events]
//Background and Video events
0,0,"BG3.png",0,0
//Break Periods
//Storyboard Layer 0 (Background)
//Storyboard Layer 1 (Fail)
//Storyboard Layer 2 (Pass)
//Storyboard Layer 3 (Foreground)
//Storyboard Sound Samples

[TimingPoints]
0,108,9999,2,0,0,1,0
0.1,120000,9999,2,0,0,1,0
7564,-1E-308,4,2,0,0,1,0

[HitObjects]
256,192,0,128,0,1:0:0:0:0:
256,192,0,128,0,1:0:0:0:0:
256,192,0,128,0,1:0:0:0:0:
256,192,0,128,0,1:0:0:0:0:
256,192,0,128,0,1:0:0:0:0:
256,192,0,128,0,1:0:0:0:0:
256,192,0,128,0,1:0:0:0:0:
256,192,0,128,0,1:0:0:0:0:
256,192,0,128,0,1:0:0:0:0:
256,192,0,128,0,1:0:0:0:0:
256,192,0,128,0,1:0:0:0:0:
256,192,0,128,0,1:0:0:0:0:
256,192,0,128,0,1:0:0:0:0:
256,192,0,128,0,1:0:0:0:0:
256,192,0,128,0,1:0:0:0:0:
256,192,0,128,0,1:0:0:0:0:
256,192,0,128,0,1:0:0:0:0:
256,192,0,128,0,1:0:0:0:0:
256,192,0,128,0,1:0:0:0:0:
256,192,0,128,0,1:0:0:0:0:
256,192,0,128,0,1:0:0:0:0:
256,192,0,128,0,1:0:0:0:0:
256,192,0,128,0,1:0:0:0:0:
256,192,0,128,0,1:0:0:0:0:
256,192,0,128,0,1:0:0:0:0:
256,192,0,128,0,1:0:0:0:0:
256,192,0,128,0,1:0:0:0:0:
256,192,0,128,0,1:0:0:0:0:
256,192,0,128,0,1:0:0:0:0:
256,192,0,128,0,1:0:0:0:0:
256,192,0,128,0,1:0:0:0:0:
256,192,0,128,0,1:0:0:0:0:
256,192,0,128,0,1:0:0:0:0:
256,192,0,128,0,1:0:0:0:0:
256,192,0,128,0,1:0:0:0:0:
256,192,0,128,0,1:0:0:0:0:
256,192,0,128,0,1:0:0:0:0:
256,192,0,128,0,1:0:0:0:0:
256,192,0,128,0,1:0:0:0:0:
256,192,0,128,0,1:0:0:0:0:
256,192,0,128,0,1:0:0:0:0:
256,192,0,128,0,1:0:0:0:0:
256,192,0,128,0,1:0:0:0:0:
256,192,0,128,0,1:0:0:0:0:
256,192,0,128,0,1:0:0:0:0:
256,192,0,128,0,1:0:0:0:0:
256,192,0,128,0,1:0:0:0:0:
256,192,0,128,0,1:0:0:0:0:
256,192,0,128,0,1:0:0:0:0:
256,192,0,128,0,1:0:0:0:0:
256,192,0,128,0,1:0:0:0:0:
256,192,0,128,0,1:0:0:0:0:
256,192,0,128,0,1:0:0:0:0:
256,192,0,128,0,1:0:0:0:0:
256,192,0,128,0,1:0:0:0:0:
256,192,0,128,0,1:0:0:0:0:
256,192,0,128,0,1:0:0:0:0:
256,192,0,128,0,1:0:0:0:0:
256,192,0,128,0,1:0:0:0:0:
256,192,0,128,0,1:0:0:0:0:
256,192,0,128,0,1:0:0:0:0:
256,192,0,128,0,1:0:0:0:0:
256,192,0,128,0,1:0:0:0:0:
256,192,0,128,0,1:0:0:0:0:
256,192,0,128,0,1:0:0:0:0:
256,192,0,128,0,1:0:0:0:0:
256,192,0,128,0,1:0:0:0:0:
256,192,0,128,0,1:0:0:0:0:
256,192,0,128,0,1:0:0:0:0:
256,192,0,128,0,1:0:0:0:0:
256,192,0,128,0,1:0:0:0:0:
256,192,0,128,0,1:0:0:0:0:
256,192,0,128,0,1:0:0:0:0:
256,192,0,128,0,1:0:0:0:0:
256,192,0,128,0,1:0:0:0:0:
256,192,0,128,0,1:0:0:0:0:
256,192,0,128,0,1:0:0:0:0:
256,192,0,128,0,1:0:0:0:0:
256,192,0,128,0,1:0:0:0:0:
256,192,0,128,0,1:0:0:0:0:
256,192,0,128,0,1:0:0:0:0:
256,192,0,128,0,1:0:0:0:0:
256,192,0,128,0,1:0:0:0:0:
256,192,0,128,0,1:0:0:0:0:
256,192,0,128,0,1:0:0:0:0:
256,192,0,128,0,1:0:0:0:0:
256,192,0,128,0,1:0:0:0:0:
256,192,0,128,0,1:0:0:0:0:
256,192,0,128,0,1:0:0:0:0:
256,192,0,128,0,1:0:0:0:0:
256,192,0,128,0,1:0:0:0:0:
256,192,0,128,0,1:0:0:0:0:
256,192,0,128,0,1:0:0:0:0:
256,192,0,128,0,1:0:0:0:0:
256,192,0,128,0,1:0:0:0:0:
256,192,0,128,0,1:0:0:0:0:
256,192,0,128,0,1:0:0:0:0:
256,192,0,128,0,1:0:0:0:0:
256,192,0,128,0,1:0:0:0:0:
256,192,0,128,0,1:0:0:0:0:
256,192,0,128,0,1:0:0:0:0:
256,192,0,128,0,1:0:0:0:0:
256,192,0,128,0,1:0:0:0:0:
256,192,0,128,0,1:0:0:0:0:
256,192,0,128,0,1:0:0:0:0:
256,192,0,128,0,1:0:0:0:0:
256,192,0,128,0,1:0:0:0:0:
256,192,0,128,0,1:0:0:0:0:
256,192,0,128,0,1:0:0:0:0:
256,192,0,128,0,1:0:0:0:0:
256,192,0,128,0,1:0:0:0:0:
256,192,0,128,0,1:0:0:0:0:
256,192,0,128,0,1:0:0:0:0:
256,192,0,128,0,1:0:0:0:0:
256,192,0,128,0,1:0:0:0:0:
256,192,0,128,0,1:0:0:0:0:
256,192,0,128,0,1:0:0:0:0:
256,192,0,128,0,1:0:0:0:0:
256,192,0,128,0,1:0:0:0:0:
256,192,0,128,0,1:0:0:0:0:
256,192,0,128,0,1:0:0:0:0:
256,192,0,128,0,1:0:0:0:0:
256,192,0,128,0,1:0:0:0:0:
256,192,0,128,0,1:0:0:0:0:
256,192,0,128,0,1:0:0:0:0:
256,192,0,128,0,1:0:0:0:0:
256,192,0,128,0,1:0:0:0:0:
256,192,0,128,0,1:0:0:0:0:
256,192,0,128,0,1:0:0:0:0:
256,192,0,128,0,1:0:0:0:0:
256,192,0,128,0,1:0:0:0:0:
256,192,0,128,0,1:0:0:0:0:
256,192,0,128,0,1:0:0:0:0:
256,192,0,128,0,1:0:0:0:0:
256,192,0,128,0,1:0:0:0:0:
256,192,0,128,0,1:0:0:0:0:
256,192,0,128,0,1:0:0:0:0:
256,192,0,128,0,1:0:0:0:0:
256,192,0,128,0,1:0:0:0:0:
256,192,0,128,0,1:0:0:0:0:
256,192,0,128,0,1:0:0:0:0:
256,192,0,128,0,1:0:0:0:0:
256,192,0,128,0,1:0:0:0:0:
256,192,0,128,0,1:0:0:0:0:
256,192,0,128,0,1:0:0:0:0:
256,192,0,128,0,1:0:0:0:0:
256,192,0,128,0,1:0:0:0:0:
256,192,0,128,0,1:0:0:0:0:
256,192,0,128,0,1:0:0:0:0:
256,192,0,128,0,1:0:0:0:0:
256,192,0,128,0,1:0:0:0:0:
256,192,0,128,0,1:0:0:0:0:
256,192,0,128,0,1:0:0:0:0:
256,192,0,128,0,1:0:0:0:0:
256,192,0,128,0,1:0:0:0:0:
256,192,0,128,0,1:0:0:0:0:
256,192,0,128,0,1:0:0:0:0:
256,192,0,128,0,1:0:0:0:0:
256,192,0,128,0,1:0:0:0:0:
256,192,0,128,0,1:0:0:0:0:
256,192,0,128,0,1:0:0:0:0:
256,192,0,128,0,1:0:0:0:0:
256,192,0,128,0,1:0:0:0:0:
256,192,0,128,0,1:0:0:0:0:
256,192,0,128,0,1:0:0:0:0:
256,192,0,128,0,1:0:0:0:0:
256,192,0,128,0,1:0:0:0:0:
256,192,0,128,0,1:0:0:0:0:
256,192,0,128,0,1:0:0:0:0:
256,192,0,128,0,1:0:0:0:0:
256,192,0,128,0,1:0:0:0:0:
256,192,0,128,0,1:0:0:0:0:
256,192,0,128,0,1:0:0:0:0:
256,192,0,128,0,1:0:0:0:0:
256,192,0,128,0,1:0:0:0:0:
256,192,0,128,0,1:0:0:0:0:
256,192,0,128,0,1:0:0:0:0:
256,192,0,128,0,1:0:0:0:0:
256,192,0,128,0,1:0:0:0:0:
256,192,0,128,0,1:0:0:0:0:
256,192,0,128,0,1:0:0:0:0:
256,192,0,128,0,1:0:0:0:0:
256,192,0,128,0,1:0:0:0:0:
256,192,0,128,0,1:0:0:0:0:
256,192,0,128,0,1:0:0:0:0:
256,192,0,128,0,1:0:0:0:0:
256,192,0,128,0,1:0:0:0:0:
256,192,0,128,0,1:0:0:0:0:
256,192,0,128,0,1:0:0:0:0:
256,192,0,128,0,1:0:0:0:0:
256,192,0,128,0,1:0:0:0:0:
256,192,0,128,0,1:0:0:0:0:
256,192,0,128,0,1:0:0:0:0:
256,192,0,128,0,1:0:0:0:0:
256,192,0,128,0,1:0:0:0:0:
256,192,0,128,0,1:0:0:0:0:
256,192,0,128,0,1:0:0:0:0:
256,192,0,128,0,1:0:0:0:0:
256,192,0,128,0,1:0:0:0:0:
256,192,0,128,0,1:0:0:0:0:
256,192,0,128,0,1:0:0:0:0:
256,192,0,128,0,1:0:0:0:0:
256,192,0,128,0,1:0:0:0:0:
256,192,0,128,0,1:0:0:0:0:
256,192,0,128,0,1:0:0:0:0:
256,192,0,128,0,1:0:0:0:0:
256,192,0,128,0,1:0:0:0:0:
256,192,0,128,0,1:0:0:0:0:
256,192,0,128,0,1:0:0:0:0:
256,192,0,128,0,1:0:0:0:0:
256,192,0,128,0,1:0:0:0:0:
256,192,0,128,0,1:0:0:0:0:
256,192,0,128,0,1:0:0:0:0:
256,192,0,128,0,1:0:0:0:0:
256,192,0,128,0,1:0:0:0:0:
256,192,0,128,0,1:0:0:0:0:
256,192,0,128,0,1:0:0:0:0:
256,192,0,128,0,1:0:0:0:0:
256,192,0,128,0,1:0:0:0:0:
256,192,0,128,0,1:0:0:0:0:
256,192,0,128,0,1:0:0:0:0:
256,192,0,128,0,1:0:0:0:0:
256,192,0,128,0,1:0:0:0:0:
256,192,0,128,0,1:0:0:0:0:
256,192,0,128,0,1:0:0:0:0:
256,192,0,128,0,1:0:0:0:0:
256,192,0,128,0,1:0:0:0:0:
256,192,0,128,0,1:0:0:0:0:
256,192,0,128,0,1:0:0:0:0:
256,192,0,128,0,1:0:0:0:0:
256,192,0,128,0,1:0:0:0:0:
256,192,0,128,0,1:0:0:0:0:
256,192,0,128,0,1:0:0:0:0:
256,192,0,128,0,1:0:0:0:0:
256,192,0,128,0,1:0:0:0:0:
256,192,0,128,0,1:0:0:0:0:
256,192,0,128,0,1:0:0:0:0:
256,192,0,128,0,1:0:0:0:0:
256,192,0,128,0,1:0:0:0:0:
256,192,0,128,0,1:0:0:0:0:
256,192,0,128,0,1:0:0:0:0:
256,192,0,128,0,1:0:0:0:0:
256,192,0,128,0,1:0:0:0:0:
256,192,0,128,0,1:0:0:0:0:
256,192,0,128,0,1:0:0:0:0:
256,192,0,128,0,1:0:0:0:0:
256,192,0,128,0,1:0:0:0:0:
256,192,0,128,0,1:0:0:0:0:
256,192,0,128,0,1:0:0:0:0:
256,192,0,128,0,1:0:0:0:0:
256,192,0,128,0,1:0:0:0:0:
256,192,0,128,0,1:0:0:0:0:
256,192,0,128,0,1:0:0:0:0:
256,192,0,128,0,1:0:0:0:0:
256,192,0,128,0,1:0:0:0:0:
256,192,0,128,0,1:0:0:0:0:
256,192,0,128,0,1:0:0:0:0:
256,192,0,128,0,1:0:0:0:0:
256,192,0,128,0,1:0:0:0:0:
256,192,0,128,0,1:0:0:0:0:
256,192,0,128,0,1:0:0:0:0:
256,192,0,128,0,1:0:0:0:0:
256,192,0,128,0,1:0:0:0:0:
256,192,0,128,0,1:0:0:0:0:
256,192,0,128,0,1:0:0:0:0:
256,192,0,128,0,1:0:0:0:0:
256,192,0,128,0,1:0:0:0:0:
256,192,0,128,0,1:0:0:0:0:
256,192,0,128,0,1:0:0:0:0:
256,192,0,128,0,1:0:0:0:0:
256,192,0,128,0,1:0:0:0:0:
256,192,0,128,0,1:0:0:0:0:
256,192,0,128,0,1:0:0:0:0:
256,192,0,128,0,1:0:0:0:0:
256,192,0,128,0,1:0:0:0:0:
256,192,0,128,0,1:0:0:0:0:
256,192,0,128,0,1:0:0:0:0:
256,192,0,128,0,1:0:0:0:0:
256,192,0,128,0,1:0:0:0:0:
256,192,0,128,0,1:0:0:0:0:
256,192,0,128,0,1:0:0:0:0:
256,192,0,128,0,1:0:0:0:0:
256,192,0,128,0,1:0:0:0:0:
256,192,0,128,0,1:0:0:0:0:
256,192,0,128,0,1:0:0:0:0:
256,192,0,128,0,1:0:0:0:0:
256,192,0,128,0,1:0:0:0:0:
256,192,0,128,0,1:0:0:0:0:
256,192,0,128,0,1:0:0:0:0:
256,192,0,128,0,1:0:0:0:0:
256,192,0,128,0,1:0:0:0:0:
256,192,0,128,0,1:0:0:0:0:
256,192,0,128,0,1:0:0:0:0:
256,192,0,128,0,1:0:0:0:0:
256,192,0,128,0,1:0:0:0:0:
256,192,0,128,0,1:0:0:0:0:
256,192,0,128,0,1:0:0:0:0:
256,192,0,128,0,1:0:0:0:0:
256,192,0,128,0,1:0:0:0:0:
256,192,0,128,0,1:0:0:0:0:
256,192,0,128,0,1:0:0:0:0:
256,192,0,128,0,1:0:0:0:0:
256,192,0,128,0,1:0:0:0:0:
256,192,0,128,0,1:0:0:0:0:
256,192,0,128,0,1:0:0:0:0:
256,192,0,128,0,1:0:0:0:0:
256,192,0,128,0,1:0:0:0:0:
256,192,0,128,0,1:0:0:0:0:
256,192,0,128,0,1:0:0:0:0:
256,192,0,128,0,1:0:0:0:0:
256,192,0,128,0,1:0:0:0:0:
256,192,0,128,0,1:0:0:0:0:
256,192,0,128,0,1:0:0:0:0:
256,192,0,128,0,1:0:0:0:0:
256,192,0,128,0,1:0:0:0:0:
256,192,0,128,0,1:0:0:0:0:
256,192,0,128,0,1:0:0:0:0:
256,192,0,128,0,1:0:0:0:0:
256,192,0,128,0,1:0:0:0:0:
256,192,0,128,0,1:0:0:0:0:
256,192,0,128,0,1:0:0:0:0:
256,192,0,128,0,1:0:0:0:0:
256,192,0,128,0,1:0:0:0:0:
256,192,0,128,0,1:0:0:0:0:
256,192,0,128,0,1:0:0:0:0:
256,192,0,128,0,1:0:0:0:0:
256,192,0,128,0,1:0:0:0:0:
256,192,0,128,0,1:0:0:0:0:
256,192,0,128,0,1:0:0:0:0:
256,192,0,128,0,1:0:0:0:0:
256,192,0,128,0,1:0:0:0:0:
256,192,0,128,0,1:0:0:0:0:
256,192,0,128,0,1:0:0:0:0:
256,192,0,128,0,1:0:0:0:0:
256,192,0,128,0,1:0:0:0:0:
256,192,0,128,0,1:0:0:0:0:
256,192,0,128,0,1:0:0:0:0:
256,192,0,128,0,1:0:0:0:0:
256,192,0,128,0,1:0:0:0:0:
256,192,0,128,0,1:0:0:0:0:
256,192,0,128,0,1:0:0:0:0:
256,192,0,128,0,1:0:0:0:0:
256,192,0,128,0,1:0:0:0:0:
256,192,0,128,0,1:0:0:0:0:
256,192,0,128,0,1:0:0:0:0:
256,192,0,128,0,1:0:0:0:0:
256,192,0,128,0,1:0:0:0:0:
256,192,0,128,0,1:0:0:0:0:
256,192,0,128,0,1:0:0:0:0:
256,192,0,128,0,1:0:0:0:0:
256,192,0,128,0,1:0:0:0:0:
256,192,0,128,0,1:0:0:0:0:
256,192,0,128,0,1:0:0:0:0:
256,192,0,128,0,1:0:0:0:0:
256,192,0,128,0,1:0:0:0:0:
256,192,0,128,0,1:0:0:0:0:
256,192,0,128,0,1:0:0:0:0:
256,192,0,128,0,1:0:0:0:0:
256,192,0,128,0,1:0:0:0:0:
256,192,0,128,0,1:0:0:0:0:
256,192,0,128,0,1:0:0:0:0:
256,192,0,128,0,1:0:0:0:0:
256,192,0,128,0,1:0:0:0:0:
256,192,0,128,0,1:0:0:0:0:
256,192,0,128,0,1:0:0:0:0:
256,192,0,128,0,1:0:0:0:0:
256,192,0,128,0,1:0:0:0:0:
256,192,0,128,0,1:0:0:0:0:
256,192,0,128,0,1:0:0:0:0:
256,192,0,128,0,1:0:0:0:0:
256,192,0,128,0,1:0:0:0:0:
256,192,0,128,0,1:0:0:0:0:
256,192,0,128,0,1:0:0:0:0:
256,192,0,128,0,1:0:0:0:0:
256,192,0,128,0,1:0:0:0:0:
256,192,0,128,0,1:0:0:0:0:
256,192,0,128,0,1:0:0:0:0:
256,192,0,128,0,1:0:0:0:0:
256,192,0,128,0,1:0:0:0:0:
256,192,0,128,0,1:0:0:0:0:
256,192,0,128,0,1:0:0:0:0:
256,192,0,128,0,1:0:0:0:0:
256,192,0,128,0,1:0:0:0:0:
256,192,0,128,0,1:0:0:0:0:
256,192,0,128,0,1:0:0:0:0:
256,192,0,128,0,1:0:0:0:0:
256,192,0,128,0,1:0:0:0:0:
256,192,0,128,0,1:0:0:0:0:
256,192,0,128,0,1:0:0:0:0:
256,192,0,128,0,1:0:0:0:0:
256,192,0,128,0,1:0:0:0:0:
256,192,0,128,0,1:0:0:0:0:
256,192,0,128,0,1:0:0:0:0:
256,192,0,128,0,1:0:0:0:0:
256,192,0,128,0,1:0:0:0:0:
256,192,0,128,0,1:0:0:0:0:
256,192,0,128,0,1:0:0:0:0:
256,192,0,128,0,1:0:0:0:0:
256,192,0,128,0,1:0:0:0:0:
256,192,0,128,0,1:0:0:0:0:
256,192,0,128,0,1:0:0:0:0:
256,192,0,128,0,1:0:0:0:0:
256,192,0,128,0,1:0:0:0:0:
256,192,0,128,0,1:0:0:0:0:
256,192,0,128,0,1:0:0:0:0:
256,192,0,128,0,1:0:0:0:0:
256,192,0,128,0,1:0:0:0:0:
256,192,0,128,0,1:0:0:0:0:
256,192,0,128,0,1:0:0:0:0:
256,192,0,128,0,1:0:0:0:0:
256,192,0,128,0,1:0:0:0:0:
256,192,0,128,0,1:0:0:0:0:
256,192,0,128,0,1:0:0:0:0:
256,192,0,128,0,1:0:0:0:0:
256,192,0,128,0,1:0:0:0:0:
256,192,0,128,0,1:0:0:0:0:
256,192,0,128,0,1:0:0:0:0:
256,192,0,128,0,1:0:0:0:0:
256,192,0,128,0,1:0:0:0:0:
256,192,0,128,0,1:0:0:0:0:
256,192,0,128,0,1:0:0:0:0:
256,192,0,128,0,1:0:0:0:0:
256,192,0,128,0,1:0:0:0:0:
256,192,0,128,0,1:0:0:0:0:
256,192,0,128,0,1:0:0:0:0:
256,192,0,128,0,1:0:0:0:0:
256,192,0,128,0,1:0:0:0:0:
256,192,0,128,0,1:0:0:0:0:
256,192,0,128,0,1:0:0:0:0:
256,192,0,128,0,1:0:0:0:0:
256,192,0,128,0,1:0:0:0:0:
256,192,0,128,0,1:0:0:0:0:
256,192,0,128,0,1:0:0:0:0:
256,192,0,128,0,1:0:0:0:0:
256,192,0,128,0,1:0:0:0:0:
256,192,0,128,0,1:0:0:0:0:
256,192,0,128,0,1:0:0:0:0:
256,192,0,128,0,1:0:0:0:0:
256,192,0,128,0,1:0:0:0:0:
256,192,0,128,0,1:0:0:0:0:
256,192,0,128,0,1:0:0:0:0:
256,192,0,128,0,1:0:0:0:0:
256,192,0,128,0,1:0:0:0:0:
256,192,0,128,0,1:0:0:0:0:
256,192,0,128,0,1:0:0:0:0:
256,192,0,128,0,1:0:0:0:0:
256,192,0,128,0,1:0:0:0:0:
256,192,0,128,0,1:0:0:0:0:
256,192,0,128,0,1:0:0:0:0:
256,192,0,128,0,1:0:0:0:0:
256,192,0,128,0,1:0:0:0:0:
256,192,0,128,0,1:0:0:0:0:
256,192,0,128,0,1:0:0:0:0:
256,192,0,128,0,1:0:0:0:0:
256,192,0,128,0,1:0:0:0:0:
256,192,0,128,0,1:0:0:0:0:
256,192,0,128,0,1:0:0:0:0:
256,192,0,128,0,1:0:0:0:0:
256,192,0,128,0,1:0:0:0:0:
256,192,0,128,0,1:0:0:0:0:
256,192,0,128,0,1:0:0:0:0:
256,192,0,128,0,1:0:0:0:0:
256,192,0,128,0,1:0:0:0:0:
256,192,0,128,0,1:0:0:0:0:
256,192,0,128,0,1:0:0:0:0:
256,192,0,128,0,1:0:0:0:0:
256,192,0,128,0,1:0:0:0:0:
256,192,0,128,0,1:0:0:0:0:
256,192,0,128,0,1:0:0:0:0:
256,192,0,128,0,1:0:0:0:0:
256,192,0,128,0,1:0:0:0:0:
256,192,0,128,0,1:0:0:0:0:
256,192,0,128,0,1:0:0:0:0:
256,192,0,128,0,1:0:0:0:0:
256,192,0,128,0,1:0:0:0:0:
256,192,0,128,0,1:0:0:0:0:
256,192,0,128,0,1:0:0:0:0:
256,192,0,128,0,1:0:0:0:0:
256,192,0,128,0,1:0:0:0:0:
256,192,0,128,0,1:0:0:0:0:
256,192,0,128,0,1:0:0:0:0:
256,192,0,128,0,1:0:0:0:0:
256,192,0,128,0,1:0:0:0:0:
256,192,0,128,0,1:0:0:0:0:
256,192,0,128,0,1:0:0:0:0:
256,192,0,128,0,1:0:0:0:0:
256,192,0,128,0,1:0:0:0:0:
256,192,0,128,0,1:0:0:0:0:
256,192,0,128,0,1:0:0:0:0:
256,192,0,128,0,1:0:0:0:0:
256,192,0,128,0,1:0:0:0:0:
256,192,0,128,0,1:0:0:0:0:
256,192,0,128,0,1:0:0:0:0:
256,192,0,128,0,1:0:0:0:0:
256,192,0,128,0,1:0:0:0:0:
256,192,0,128,0,1:0:0:0:0:
256,192,0,128,0,1:0:0:0:0:
256,192,0,128,0,1:0:0:0:0:
256,192,0,128,0,1:0:0:0:0:
256,192,0,128,0,1:0:0:0:0:
256,192,0,128,0,1:0:0:0:0:
256,192,0,128,0,1:0:0:0:0:
256,192,0,128,0,1:0:0:0:0:
256,192,0,128,0,1:0:0:0:0:
256,192,0,128,0,1:0:0:0:0:
256,192,0,128,0,1:0:0:0:0:
256,192,0,128,0,1:0:0:0:0:
256,192,0,128,0,1:0:0:0:0:
256,192,0,128,0,1:0:0:0:0:
256,192,0,128,0,1:0:0:0:0:
256,192,0,128,0,1:0:0:0:0:
256,192,0,128,0,1:0:0:0:0:
256,192,0,128,0,1:0:0:0:0:
256,192,0,128,0,1:0:0:0:0:
256,192,0,128,0,1:0:0:0:0:
256,192,0,128,0,1:0:0:0:0:
256,192,0,128,0,1:0:0:0:0:
256,192,0,128,0,1:0:0:0:0:
256,192,0,128,0,1:0:0:0:0:
256,192,0,128,0,1:0:0:0:0:
256,192,0,128,0,1:0:0:0:0:
256,192,0,128,0,1:0:0:0:0:
256,192,0,128,0,1:0:0:0:0:
256,192,0,128,0,1:0:0:0:0:
256,192,0,128,0,1:0:0:0:0:
256,192,0,128,0,1:0:0:0:0:
256,192,0,128,0,1:0:0:0:0:
256,192,0,128,0,1:0:0:0:0:
256,192,0,128,0,1:0:0:0:0:
256,192,0,128,0,1:0:0:0:0:
256,192,0,128,0,1:0:0:0:0:
256,192,0,128,0,1:0:0:0:0:
256,192,0,128,0,1:0:0:0:0:
256,192,0,128,0,1:0:0:0:0:
256,192,0,128,0,1:0:0:0:0:
256,192,0,128,0,1:0:0:0:0:
256,192,0,128,0,1:0:0:0:0:
256,192,0,128,0,1:0:0:0:0:
256,192,0,128,0,1:0:0:0:0:
256,192,0,128,0,1:0:0:0:0:
256,192,0,128,0,1:0:0:0:0:
256,192,0,128,0,1:0:0:0:0:
256,192,0,128,0,1:0:0:0:0:
256,192,0,128,0,1:0:0:0:0:
256,192,0,128,0,1:0:0:0:0:
256,192,0,128,0,1:0:0:0:0:
256,192,0,128,0,1:0:0:0:0:
256,192,0,128,0,1:0:0:0:0:
256,192,0,128,0,1:0:0:0:0:
256,192,0,128,0,1:0:0:0:0:
256,192,0,128,0,1:0:0:0:0:
256,192,0,128,0,1:0:0:0:0:
256,192,0,128,0,1:0:0:0:0:
256,192,0,128,0,1:0:0:0:0:
256,192,0,128,0,1:0:0:0:0:
256,192,0,128,0,1:0:0:0:0:
256,192,0,128,0,1:0:0:0:0:
256,192,0,128,0,1:0:0:0:0:
256,192,0,128,0,1:0:0:0:0:
256,192,0,128,0,1:0:0:0:0:
256,192,0,128,0,1:0:0:0:0:
256,192,0,128,0,1:0:0:0:0:
256,192,0,128,0,1:0:0:0:0:
256,192,0,128,0,1:0:0:0:0:
256,192,0,128,0,1:0:0:0:0:
256,192,0,128,0,1:0:0:0:0:
256,192,0,128,0,1:0:0:0:0:
256,192,0,128,0,1:0:0:0:0:
256,192,0,128,0,1:0:0:0:0:
256,192,0,128,0,1:0:0:0:0:
256,192,0,128,0,1:0:0:0:0:
256,192,0,128,0,1:0:0:0:0:
256,192,0,128,0,1:0:0:0:0:
256,192,0,128,0,1:0:0:0:0:
256,192,0,128,0,1:0:0:0:0:
256,192,0,128,0,1:0:0:0:0:
256,192,0,128,0,1:0:0:0:0:
256,192,0,128,0,1:0:0:0:0:
256,192,0,128,0,1:0:0:0:0:
256,192,0,128,0,1:0:0:0:0:
256,192,0,128,0,1:0:0:0:0:
256,192,0,128,0,1:0:0:0:0:
256,192,0,128,0,1:0:0:0:0:
256,192,0,128,0,1:0:0:0:0:
256,192,0,128,0,1:0:0:0:0:
256,192,0,128,0,1:0:0:0:0:
256,192,0,128,0,1:0:0:0:0:
256,192,0,128,0,1:0:0:0:0:
256,192,0,128,0,1:0:0:0:0:
256,192,0,128,0,1:0:0:0:0:
256,192,0,128,0,1:0:0:0:0:
256,192,0,128,0,1:0:0:0:0:
256,192,0,128,0,1:0:0:0:0:
256,192,0,128,0,1:0:0:0:0:
256,192,0,128,0,1:0:0:0:0:
256,192,0,128,0,1:0:0:0:0:
256,192,0,128,0,1:0:0:0:0:
256,192,0,128,0,1:0:0:0:0:
256,192,0,128,0,1:0:0:0:0:
256,192,0,128,0,1:0:0:0:0:
256,192,0,128,0,1:0:0:0:0:
256,192,0,128,0,1:0:0:0:0:
256,192,0,128,0,1:0:0:0:0:
256,192,0,128,0,1:0:0:0:0:
256,192,0,128,0,1:0:0:0:0:
256,192,0,128,0,1:0:0:0:0:
256,192,0,128,0,1:0:0:0:0:
256,192,0,128,0,1:0:0:0:0:
256,192,0,128,0,1:0:0:0:0:
256,192,0,128,0,1:0:0:0:0:
256,192,0,128,0,1:0:0:0:0:
256,192,0,128,0,1:0:0:0:0:
256,192,0,128,0,1:0:0:0:0:
256,192,0,128,0,1:0:0:0:0:
256,192,0,128,0,1:0:0:0:0:
256,192,0,128,0,1:0:0:0:0:
256,192,0,128,0,1:0:0:0:0:
256,192,0,128,0,1:0:0:0:0:
256,192,0,128,0,1:0:0:0:0:
256,192,0,128,0,1:0:0:0:0:
256,192,0,128,0,1:0:0:0:0:
256,192,0,128,0,1:0:0:0:0:
256,192,0,128,0,1:0:0:0:0:
256,192,0,128,0,1:0:0:0:0:
256,192,0,128,0,1:0:0:0:0:
256,192,0,128,0,1:0:0:0:0:
256,192,0,128,0,1:0:0:0:0:
256,192,0,128,0,1:0:0:0:0:
256,192,0,128,0,1:0:0:0:0:
256,192,0,128,0,1:0:0:0:0:
256,192,0,128,0,1:0:0:0:0:
256,192,0,128,0,1:0:0:0:0:
256,192,0,128,0,1:0:0:0:0:
256,192,0,128,0,1:0:0:0:0:
256,192,0,128,0,1:0:0:0:0:
256,192,0,128,0,1:0:0:0:0:
256,192,0,128,0,1:0:0:0:0:
256,192,0,128,0,1:0:0:0:0:
256,192,0,128,0,1:0:0:0:0:
256,192,0,128,0,1:0:0:0:0:
256,192,0,128,0,1:0:0:0:0:
256,192,0,128,0,1:0:0:0:0:
256,192,0,128,0,1:0:0:0:0:
256,192,0,128,0,1:0:0:0:0:
256,192,0,128,0,1:0:0:0:0:
256,192,0,128,0,1:0:0:0:0:
256,192,0,128,0,1:0:0:0:0:
256,192,0,128,0,1:0:0:0:0:
256,192,0,128,0,1:0:0:0:0:
256,192,0,128,0,1:0:0:0:0:
256,192,0,128,0,1:0:0:0:0:
256,192,0,128,0,1:0:0:0:0:
256,192,0,128,0,1:0:0:0:0:
256,192,0,128,0,1:0:0:0:0:
256,192,0,128,0,1:0:0:0:0:
256,192,0,128,0,1:0:0:0:0:
256,192,0,128,0,1:0:0:0:0:
256,192,0,128,0,1:0:0:0:0:
256,192,0,128,0,1:0:0:0:0:
256,192,0,128,0,1:0:0:0:0:
256,192,0,128,0,1:0:0:0:0:
256,192,0,128,0,1:0:0:0:0:
256,192,0,128,0,1:0:0:0:0:
256,192,0,128,0,1:0:0:0:0:
256,192,0,128,0,1:0:0:0:0:
256,192,0,128,0,1:0:0:0:0:
256,192,0,128,0,1:0:0:0:0:
256,192,0,128,0,1:0:0:0:0:
256,192,0,128,0,1:0:0:0:0:
256,192,0,128,0,1:0:0:0:0:
256,192,0,128,0,1:0:0:0:0:
256,192,0,128,0,1:0:0:0:0:
256,192,0,128,0,1:0:0:0:0:
256,192,0,128,0,1:0:0:0:0:
256,192,0,128,0,1:0:0:0:0:
256,192,0,128,0,1:0:0:0:0:
256,192,0,128,0,1:0:0:0:0:
256,192,0,128,0,1:0:0:0:0:
256,192,0,128,0,1:0:0:0:0:
256,192,0,128,0,1:0:0:0:0:
256,192,0,128,0,1:0:0:0:0:
256,192,0,128,0,1:0:0:0:0:
256,192,0,128,0,1:0:0:0:0:
256,192,0,128,0,1:0:0:0:0:
256,192,0,128,0,1:0:0:0:0:
256,192,0,128,0,1:0:0:0:0:
256,192,0,128,0,1:0:0:0:0:
256,192,0,128,0,1:0:0:0:0:
256,192,0,128,0,1:0:0:0:0:
256,192,0,128,0,1:0:0:0:0:
256,192,0,128,0,1:0:0:0:0:
256,192,0,128,0,1:0:0:0:0:
256,192,0,128,0,1:0:0:0:0:
256,192,0,128,0,1:0:0:0:0:
256,192,0,128,0,1:0:0:0:0:
256,192,0,128,0,1:0:0:0:0:
256,192,0,128,0,1:0:0:0:0:
256,192,0,128,0,1:0:0:0:0:
256,192,0,128,0,1:0:0:0:0:
256,192,0,128,0,1:0:0:0:0:
256,192,0,128,0,1:0:0:0:0:
256,192,0,128,0,1:0:0:0:0:
256,192,0,128,0,1:0:0:0:0:
256,192,0,128,0,1:0:0:0:0:
256,192,0,128,0,1:0:0:0:0:
256,192,0,128,0,1:0:0:0:0:
256,192,0,128,0,1:0:0:0:0:
256,192,0,128,0,1:0:0:0:0:
256,192,0,128,0,1:0:0:0:0:
256,192,0,128,0,1:0:0:0:0:
256,192,0,128,0,1:0:0:0:0:
256,192,0,128,0,1:0:0:0:0:
256,192,0,128,0,1:0:0:0:0:
256,192,0,128,0,1:0:0:0:0:
256,192,0,128,0,1:0:0:0:0:
256,192,0,128,0,1:0:0:0:0:
256,192,0,128,0,1:0:0:0:0:
256,192,0,128,0,1:0:0:0:0:
256,192,0,128,0,1:0:0:0:0:
256,192,0,128,0,1:0:0:0:0:
256,192,0,128,0,1:0:0:0:0:
256,192,0,128,0,1:0:0:0:0:
256,192,0,128,0,1:0:0:0:0:
256,192,0,128,0,1:0:0:0:0:
256,192,0,128,0,1:0:0:0:0:
256,192,0,128,0,1:0:0:0:0:
256,192,0,128,0,1:0:0:0:0:
256,192,0,128,0,1:0:0:0:0:
256,192,0,128,0,1:0:0:0:0:
256,192,0,128,0,1:0:0:0:0:
256,192,0,128,0,1:0:0:0:0:
256,192,0,128,0,1:0:0:0:0:
256,192,0,128,0,1:0:0:0:0:
256,192,0,128,0,1:0:0:0:0:
256,192,0,128,0,1:0:0:0:0:
256,192,0,128,0,1:0:0:0:0:
256,192,0,128,0,1:0:0:0:0:
256,192,0,128,0,1:0:0:0:0:
256,192,0,128,0,1:0:0:0:0:
256,192,0,128,0,1:0:0:0:0:
256,192,0,128,0,1:0:0:0:0:
256,192,0,128,0,1:0:0:0:0:
256,192,0,128,0,1:0:0:0:0:
256,192,0,128,0,1:0:0:0:0:
256,192,0,128,0,1:0:0:0:0:
256,192,0,128,0,1:0:0:0:0:
256,192,0,128,0,1:0:0:0:0:
256,192,0,128,0,1:0:0:0:0:
256,192,0,128,0,1:0:0:0:0:
256,192,0,128,0,1:0:0:0:0:
256,192,0,128,0,1:0:0:0:0:
256,192,0,128,0,1:0:0:0:0:
256,192,0,128,0,1:0:0:0:0:
256,192,0,128,0,1:0:0:0:0:
256,192,0,128,0,1:0:0:0:0:
256,192,0,128,0,1:0:0:0:0:
256,192,0,128,0,1:0:0:0:0:
256,192,0,128,0,1:0:0:0:0:
256,192,0,128,0,1:0:0:0:0:
256,192,0,128,0,1:0:0:0:0:
256,192,0,128,0,1:0:0:0:0:
256,192,0,128,0,1:0:0:0:0:
256,192,0,128,0,1:0:0:0:0:
256,192,0,128,0,1:0:0:0:0:
256,192,0,128,0,1:0:0:0:0:
256,192,0,128,0,1:0:0:0:0:
256,192,0,128,0,1:0:0:0:0:
256,192,0,128,0,1:0:0:0:0:
256,192,0,128,0,1:0:0:0:0:
256,192,0,128,0,1:0:0:0:0:
256,192,0,128,0,1:0:0:0:0:
256,192,0,128,0,1:0:0:0:0:
256,192,0,128,0,1:0:0:0:0:
256,192,0,128,0,1:0:0:0:0:
256,192,0,128,0,1:0:0:0:0:
256,192,0,128,0,1:0:0:0:0:
256,192,0,128,0,1:0:0:0:0:
256,192,0,128,0,1:0:0:0:0:
256,192,0,128,0,1:0:0:0:0:
256,192,0,128,0,1:0:0:0:0:
256,192,0,128,0,1:0:0:0:0:
256,192,0,128,0,1:0:0:0:0:
256,192,0,128,0,1:0:0:0:0:
256,192,0,128,0,1:0:0:0:0:
256,192,0,128,0,1:0:0:0:0:
256,192,0,128,0,1:0:0:0:0:
256,192,0,128,0,1:0:0:0:0:
256,192,0,128,0,1:0:0:0:0:
256,192,0,128,0,1:0:0:0:0:
256,192,0,128,0,1:0:0:0:0:
256,192,0,128,0,1:0:0:0:0:
256,192,0,128,0,1:0:0:0:0:
256,192,0,128,0,1:0:0:0:0:
256,192,0,128,0,1:0:0:0:0:
256,192,0,128,0,1:0:0:0:0:
256,192,0,128,0,1:0:0:0:0:
256,192,0,128,0,1:0:0:0:0:
256,192,0,128,0,1:0:0:0:0:
256,192,0,128,0,1:0:0:0:0:
256,192,0,128,0,1:0:0:0:0:
256,192,0,128,0,1:0:0:0:0:
256,192,0,128,0,1:0:0:0:0:
256,192,0,128,0,1:0:0:0:0:
256,192,0,128,0,1:0:0:0:0:
256,192,0,128,0,1:0:0:0:0:
256,192,0,128,0,1:0:0:0:0:
256,192,0,128,0,1:0:0:0:0:
256,192,0,128,0,1:0:0:0:0:
256,192,0,128,0,1:0:0:0:0:
256,192,0,128,0,1:0:0:0:0:
256,192,0,128,0,1:0:0:0:0:
256,192,0,128,0,1:0:0:0:0:
256,192,0,128,0,1:0:0:0:0:
256,192,0,128,0,1:0:0:0:0:
256,192,0,128,0,1:0:0:0:0:
256,192,0,128,0,1:0:0:0:0:
256,192,0,128,0,1:0:0:0:0:
256,192,0,128,0,1:0:0:0:0:
256,192,0,128,0,1:0:0:0:0:
256,192,0,128,0,1:0:0:0:0:
256,192,0,128,0,1:0:0:0:0:
256,192,0,128,0,1:0:0:0:0:
256,192,0,128,0,1:0:0:0:0:
256,192,0,128,0,1:0:0:0:0:
256,192,0,128,0,1:0:0:0:0:
256,192,0,128,0,1:0:0:0:0:
256,192,0,128,0,1:0:0:0:0:
256,192,0,128,0,1:0:0:0:0:
256,192,0,128,0,1:0:0:0:0:
256,192,0,128,0,1:0:0:0:0:
256,192,0,128,0,1:0:0:0:0:
256,192,0,128,0,1:0:0:0:0:
256,192,0,128,0,1:0:0:0:0:
256,192,0,128,0,1:0:0:0:0:
256,192,0,128,0,1:0:0:0:0:
256,192,0,128,0,1:0:0:0:0:
256,192,0,128,0,1:0:0:0:0:
256,192,0,128,0,1:0:0:0:0:
256,192,0,128,0,1:0:0:0:0:
256,192,0,128,0,1:0:0:0:0:
256,192,0,128,0,1:0:0:0:0:
256,192,0,128,0,1:0:0:0:0:
256,192,0,128,0,1:0:0:0:0:
256,192,0,128,0,1:0:0:0:0:
256,192,0,128,0,1:0:0:0:0:
256,192,0,128,0,1:0:0:0:0:
256,192,0,128,0,1:0:0:0:0:
256,192,0,128,0,1:0:0:0:0:
256,192,0,128,0,1:0:0:0:0:
256,192,0,128,0,1:0:0:0:0:
256,192,0,128,0,1:0:0:0:0:
256,192,0,128,0,1:0:0:0:0:
256,192,0,128,0,1:0:0:0:0:
256,192,0,128,0,1:0:0:0:0:
256,192,0,128,0,1:0:0:0:0:
256,192,0,128,0,1:0:0:0:0:
256,192,0,128,0,1:0:0:0:0:
256,192,0,128,0,1:0:0:0:0:
256,192,0,128,0,1:0:0:0:0:
256,192,0,128,0,1:0:0:0:0:
256,192,0,128,0,1:0:0:0:0:
256,192,0,128,0,1:0:0:0:0:
256,192,0,128,0,1:0:0:0:0:
256,192,0,128,0,1:0:0:0:0:
256,192,0,128,0,1:0:0:0:0:
256,192,0,128,0,1:0:0:0:0:
256,192,0,128,0,1:0:0:0:0:
256,192,0,128,0,1:0:0:0:0:
256,192,0,128,0,1:0:0:0:0:
256,192,0,128,0,1:0:0:0:0:
256,192,0,128,0,1:0:0:0:0:
256,192,0,128,0,1:0:0:0:0:
256,192,0,128,0,1:0:0:0:0:
256,192,0,128,0,1:0:0:0:0:
256,192,0,128,0,1:0:0:0:0:
256,192,0,128,0,1:0:0:0:0:
256,192,0,128,0,1:0:0:0:0:
256,192,0,128,0,1:0:0:0:0:
256,192,0,128,0,1:0:0:0:0:
256,192,0,128,0,1:0:0:0:0:
256,192,0,128,0,1:0:0:0:0:
256,192,0,128,0,1:0:0:0:0:
256,192,0,128,0,1:0:0:0:0:
256,192,0,128,0,1:0:0:0:0:
256,192,0,128,0,1:0:0:0:0:
256,192,0,128,0,1:0:0:0:0:
256,192,0,128,0,1:0:0:0:0:
256,192,0,128,0,1:0:0:0:0:
256,192,0,128,0,1:0:0:0:0:
256,192,0,128,0,1:0:0:0:0:
256,192,0,128,0,1:0:0:0:0:
256,192,0,128,0,1:0:0:0:0:
256,192,0,128,0,1:0:0:0:0:
256,192,0,128,0,1:0:0:0:0:
256,192,0,128,0,1:0:0:0:0:
256,192,0,128,0,1:0:0:0:0:
256,192,0,128,0,1:0:0:0:0:
256,192,0,128,0,1:0:0:0:0:
256,192,0,128,0,1:0:0:0:0:
256,192,0,128,0,1:0:0:0:0:
256,192,0,128,0,1:0:0:0:0:
256,192,0,128,0,1:0:0:0:0:
256,192,0,128,0,1:0:0:0:0:
256,192,0,128,0,1:0:0:0:0:
256,192,0,128,0,1:0:0:0:0:
256,192,0,128,0,1:0:0:0:0:
256,192,0,128,0,1:0:0:0:0:
256,192,0,128,0,1:0:0:0:0:
256,192,0,128,0,1:0:0:0:0:
256,192,0,128,0,1:0:0:0:0:
256,192,0,128,0,1:0:0:0:0:
256,192,0,128,0,1:0:0:0:0:
256,192,0,128,0,1:0:0:0:0:
256,192,0,128,0,1:0:0:0:0:
256,192,0,128,0,1:0:0:0:0:
256,192,0,128,0,1:0:0:0:0:
256,192,0,128,0,1:0:0:0:0:
256,192,0,128,0,1:0:0:0:0:
256,192,0,128,0,1:0:0:0:0:
256,192,0,128,0,1:0:0:0:0:
256,192,0,128,0,1:0:0:0:0:
256,192,0,128,0,1:0:0:0:0:
256,192,0,128,0,1:0:0:0:0:
256,192,0,128,0,1:0:0:0:0:
256,192,0,128,0,1:0:0:0:0:
256,192,0,128,0,1:0:0:0:0:
256,192,0,128,0,1:0:0:0:0:
256,192,0,128,0,1:0:0:0:0:
256,192,0,128,0,1:0:0:0:0:
256,192,0,128,0,1:0:0:0:0:
256,192,0,128,0,1:0:0:0:0:
256,192,0,128,0,1:0:0:0:0:
256,192,0,128,0,1:0:0:0:0:
256,192,0,128,0,1:0:0:0:0:
256,192,0,128,0,1:0:0:0:0:
256,192,0,128,0,1:0:0:0:0:
256,192,0,128,0,1:0:0:0:0:
256,192,0,128,0,1:0:0:0:0:
256,192,0,128,0,1:0:0:0:0:
256,192,0,128,0,1:0:0:0:0:
256,192,0,128,0,1:0:0:0:0:
256,192,0,128,0,1:0:0:0:0:
256,192,0,128,0,1:0:0:0:0:
256,192,0,128,0,1:0:0:0:0:
256,192,0,128,0,1:0:0:0:0:
256,192,0,128,0,1:0:0:0:0:
256,192,0,128,0,1:0:0:0:0:
256,192,0,128,0,1:0:0:0:0:
256,192,0,128,0,1:0:0:0:0:
256,192,0,128,0,1:0:0:0:0:
256,192,0,128,0,1:0:0:0:0:
256,192,0,128,0,1:0:0:0:0:
256,192,0,128,0,1:0:0:0:0:
256,192,0,128,0,1:0:0:0:0:
256,192,0,128,0,1:0:0:0:0:
256,192,0,128,0,1:0:0:0:0:
256,192,0,128,0,1:0:0:0:0:
256,192,0,128,0,1:0:0:0:0:
256,192,0,128,0,1:0:0:0:0:
256,192,0,128,0,1:0:0:0:0:
256,192,0,128,0,1:0:0:0:0:
256,192,0,128,0,1:0:0:0:0:
256,192,0,128,0,1:0:0:0:0:
256,192,0,128,0,1:0:0:0:0:
256,192,0,128,0,1:0:0:0:0:
256,192,0,128,0,1:0:0:0:0:
256,192,0,128,0,1:0:0:0:0:
256,192,0,128,0,1:0:0:0:0:
256,192,0,128,0,1:0:0:0:0:
256,192,0,128,0,1:0:0:0:0:
256,192,0,128,0,1:0:0:0:0:
256,192,0,128,0,1:0:0:0:0:
256,192,0,128,0,1:0:0:0:0:
256,192,0,128,0,1:0:0:0:0:
256,192,0,128,0,1:0:0:0:0:
256,192,0,128,0,1:0:0:0:0:
256,192,0,128,0,1:0:0:0:0:
256,192,0,128,0,1:0:0:0:0:
256,192,0,128,0,1:0:0:0:0:
256,192,0,128,0,1:0:0:0:0:
256,192,0,128,0,1:0:0:0:0:
256,192,0,128,0,1:0:0:0:0:
256,192,0,128,0,1:0:0:0:0:
256,192,0,128,0,1:0:0:0:0:
256,192,0,128,0,1:0:0:0:0:
256,192,0,128,0,1:0:0:0:0:
256,192,0,128,0,1:0:0:0:0:
256,192,0,128,0,1:0:0:0:0:
256,192,0,128,0,1:0:0:0:0:
256,192,0,128,0,1:0:0:0:0:
256,192,0,128,0,1:0:0:0:0:
256,192,0,128,0,1:0:0:0:0:
256,192,0,128,0,1:0:0:0:0:
256,192,0,128,0,1:0:0:0:0:
256,192,0,128,0,1:0:0:0:0:
256,192,0,128,0,1:0:0:0:0:
256,192,0,128,0,1:0:0:0:0:
256,192,0,128,0,1:0:0:0:0:
256,192,0,128,0,1:0:0:0:0:
256,192,0,128,0,1:0:0:0:0:
256,192,0,128,0,1:0:0:0:0:
256,192,0,128,0,1:0:0:0:0:
256,192,0,128,0,1:0:0:0:0:
256,192,0,128,0,1:0:0:0:0:
256,192,0,128,0,1:0:0:0:0:
256,192,0,128,0,1:0:0:0:0:
256,192,0,128,0,1:0:0:0:0:
256,192,0,128,0,1:0:0:0:0:
256,192,0,128,0,1:0:0:0:0:
256,192,0,128,0,1:0:0:0:0:
256,192,0,128,0,1:0:0:0:0:
256,192,0,128,0,1:0:0:0:0:
256,192,0,128,0,1:0:0:0:0:
256,192,0,128,0,1:0:0:0:0:
256,192,0,128,0,1:0:0:0:0:
256,192,0,128,0,1:0:0:0:0:
256,192,0,128,0,1:0:0:0:0:
256,192,0,128,0,1:0:0:0:0:
256,192,0,128,0,1:0:0:0:0:
256,192,0,128,0,1:0:0:0:0:
256,192,0,128,0,1:0:0:0:0:
256,192,0,128,0,1:0:0:0:0:
256,192,0,128,0,1:0:0:0:0:
256,192,0,128,0,1:0:0:0:0:
256,192,0,128,0,1:0:0:0:0:
256,192,0,128,0,1:0:0:0:0:
256,192,0,128,0,1:0:0:0:0:
256,192,0,128,0,1:0:0:0:0:
256,192,0,128,0,1:0:0:0:0:
256,192,0,128,0,1:0:0:0:0:
256,192,0,128,0,1:0:0:0:0:
256,192,0,128,0,1:0:0:0:0:
256,192,0,128,0,1:0:0:0:0:
256,192,0,128,0,1:0:0:0:0:
256,192,0,128,0,1:0:0:0:0:
256,192,0,128,0,1:0:0:0:0:
256,192,0,128,0,1:0:0:0:0:
256,192,0,128,0,1:0:0:0:0:
256,192,0,128,0,1:0:0:0:0:
256,192,0,128,0,1:0:0:0:0:
256,192,0,128,0,1:0:0:0:0:
256,192,0,128,0,1:0:0:0:0:
256,192,0,128,0,1:0:0:0:0:
256,192,0,128,0,1:0:0:0:0:
256,192,0,128,0,1:0:0:0:0:
256,192,0,128,0,1:0:0:0:0:
256,192,0,128,0,1:0:0:0:0:
256,192,0,128,0,1:0:0:0:0:
256,192,0,128,0,1:0:0:0:0:
256,192,0,128,0,1:0:0:0:0:
256,192,0,128,0,1:0:0:0:0:
256,192,0,128,0,1:0:0:0:0:
256,192,0,128,0,1:0:0:0:0:
256,192,0,128,0,1:0:0:0:0:
256,192,0,128,0,1:0:0:0:0:
256,192,0,128,0,1:0:0:0:0:
256,192,0,128,0,1:0:0:0:0:
256,192,0,128,0,1:0:0:0:0:
256,192,0,128,0,1:0:0:0:0:
256,192,0,128,0,1:0:0:0:0:
256,192,0,128,0,1:0:0:0:0:
256,192,0,128,0,1:0:0:0:0:
256,192,0,128,0,1:0:0:0:0:
256,192,0,128,0,1:0:0:0:0:
256,192,0,128,0,1:0:0:0:0:
256,192,0,128,0,1:0:0:0:0:
256,192,0,128,0,1:0:0:0:0:
256,192,0,128,0,1:0:0:0:0:
256,192,0,128,0,1:0:0:0:0:
256,192,0,128,0,1:0:0:0:0:
256,192,0,128,0,1:0:0:0:0:
256,192,0,128,0,1:0:0:0:0:
256,192,0,128,0,1:0:0:0:0:
256,192,0,128,0,1:0:0:0:0:
256,192,0,128,0,1:0:0:0:0:
256,192,0,128,0,1:0:0:0:0:
256,192,0,128,0,1:0:0:0:0:
256,192,0,128,0,1:0:0:0:0:
256,192,0,128,0,1:0:0:0:0:
256,192,0,128,0,1:0:0:0:0:
256,192,0,128,0,1:0:0:0:0:
256,192,0,128,0,1:0:0:0:0:
256,192,0,128,0,1:0:0:0:0:
256,192,0,128,0,1:0:0:0:0:
256,192,0,128,0,1:0:0:0:0:
256,192,0,128,0,1:0:0:0:0:
256,192,0,128,0,1:0:0:0:0:
256,192,0,128,0,1:0:0:0:0:
256,192,0,128,0,1:0:0:0:0:
256,192,0,128,0,1:0:0:0:0:
256,192,0,128,0,1:0:0:0:0:
256,192,0,128,0,1:0:0:0:0:
256,192,0,128,0,1:0:0:0:0:
256,192,0,128,0,1:0:0:0:0:
256,192,0,128,0,1:0:0:0:0:
256,192,0,128,0,1:0:0:0:0:
256,192,0,128,0,1:0:0:0:0:
256,192,0,128,0,1:0:0:0:0:
256,192,0,128,0,1:0:0:0:0:
256,192,0,128,0,1:0:0:0:0:
256,192,0,128,0,1:0:0:0:0:
256,192,0,128,0,1:0:0:0:0:
256,192,0,128,0,1:0:0:0:0:
256,192,0,128,0,1:0:0:0:0:
256,192,0,128,0,1:0:0:0:0:
256,192,0,128,0,1:0:0:0:0:
256,192,0,128,0,1:0:0:0:0:
256,192,0,128,0,1:0:0:0:0:
256,192,0,128,0,1:0:0:0:0:
256,192,0,128,0,1:0:0:0:0:
256,192,0,128,0,1:0:0:0:0:
256,192,0,128,0,1:0:0:0:0:
256,192,0,128,0,1:0:0:0:0:
256,192,0,128,0,1:0:0:0:0:
256,192,0,128,0,1:0:0:0:0:
256,192,0,128,0,1:0:0:0:0:
256,192,0,128,0,1:0:0:0:0:
256,192,0,128,0,1:0:0:0:0:
256,192,0,128,0,1:0:0:0:0:
256,192,0,128,0,1:0:0:0:0:
256,192,0,128,0,1:0:0:0:0:
256,192,0,128,0,1:0:0:0:0:
256,192,0,128,0,1:0:0:0:0:
256,192,0,128,0,1:0:0:0:0:
256,192,0,128,0,1:0:0:0:0:
256,192,0,128,0,1:0:0:0:0:
256,192,0,128,0,1:0:0:0:0:
256,192,0,128,0,1:0:0:0:0:
256,192,0,128,0,1:0:0:0:0:
256,192,0,128,0,1:0:0:0:0:
256,192,0,128,0,1:0:0:0:0:
256,192,0,128,0,1:0:0:0:0:
256,192,0,128,0,1:0:0:0:0:
256,192,0,128,0,1:0:0:0:0:
256,192,0,128,0,1:0:0:0:0:
256,192,0,128,0,1:0:0:0:0:
256,192,0,128,0,1:0:0:0:0:
256,192,0,128,0,1:0:0:0:0:
256,192,0,128,0,1:0:0:0:0:
256,192,0,128,0,1:0:0:0:0:
256,192,0,128,0,1:0:0:0:0:
256,192,0,128,0,1:0:0:0:0:
256,192,0,128,0,1:0:0:0:0:
256,192,0,128,0,1:0:0:0:0:
256,192,0,128,0,1:0:0:0:0:
256,192,0,128,0,1:0:0:0:0:
256,192,0,128,0,1:0:0:0:0:
256,192,0,128,0,1:0:0:0:0:
256,192,0,128,0,1:0:0:0:0:
256,192,0,128,0,1:0:0:0:0:
256,192,0,128,0,1:0:0:0:0:
256,192,0,128,0,1:0:0:0:0:
256,192,0,128,0,1:0:0:0:0:
256,192,0,128,0,1:0:0:0:0:
256,192,0,128,0,1:0:0:0:0:
256,192,0,128,0,1:0:0:0:0:
256,192,0,128,0,1:0:0:0:0:
256,192,0,128,0,1:0:0:0:0:
256,192,0,128,0,1:0:0:0:0:
256,192,0,128,0,1:0:0:0:0:
256,192,0,128,0,1:0:0:0:0:
256,192,0,128,0,1:0:0:0:0:
256,192,0,128,0,1:0:0:0:0:
256,192,0,128,0,1:0:0:0:0:
256,192,0,128,0,1:0:0:0:0:
256,192,0,128,0,1:0:0:0:0:
256,192,0,128,0,1:0:0:0:0:
256,192,0,128,0,1:0:0:0:0:
256,192,0,128,0,1:0:0:0:0:
256,192,0,128,0,1:0:0:0:0:
256,192,0,128,0,1:0:0:0:0:
256,192,0,128,0,1:0:0:0:0:
256,192,0,128,0,1:0:0:0:0:
256,192,0,128,0,1:0:0:0:0:
256,192,0,128,0,1:0:0:0:0:
256,192,0,128,0,1:0:0:0:0:
256,192,0,128,0,1:0:0:0:0:
256,192,0,128,0,1:0:0:0:0:
256,192,0,128,0,1:0:0:0:0:
256,192,0,128,0,1:0:0:0:0:
256,192,0,128,0,1:0:0:0:0:
256,192,0,128,0,1:0:0:0:0:
256,192,0,128,0,1:0:0:0:0:
256,192,0,128,0,1:0:0:0:0:
256,192,0,128,0,1:0:0:0:0:
256,192,0,128,0,1:0:0:0:0:
256,192,0,128,0,1:0:0:0:0:
256,192,0,128,0,1:0:0:0:0:
256,192,0,128,0,1:0:0:0:0:
256,192,0,128,0,1:0:0:0:0:
256,192,0,128,0,1:0:0:0:0:
256,192,0,128,0,1:0:0:0:0:
256,192,0,128,0,1:0:0:0:0:
256,192,0,128,0,1:0:0:0:0:
256,192,0,128,0,1:0:0:0:0:
256,192,0,128,0,1:0:0:0:0:
256,192,0,128,0,1:0:0:0:0:
256,192,0,128,0,1:0:0:0:0:
256,192,0,128,0,1:0:0:0:0:
256,192,0,128,0,1:0:0:0:0:
256,192,0,128,0,1:0:0:0:0:
256,192,0,128,0,1:0:0:0:0:
256,192,0,128,0,1:0:0:0:0:
256,192,0,128,0,1:0:0:0:0:
256,192,0,128,0,1:0:0:0:0:
256,192,0,128,0,1:0:0:0:0:
256,192,0,128,0,1:0:0:0:0:
256,192,0,128,0,1:0:0:0:0:
256,192,0,128,0,1:0:0:0:0:
256,192,0,128,0,1:0:0:0:0:
256,192,0,128,0,1:0:0:0:0:
256,192,0,128,0,1:0:0:0:0:
256,192,0,128,0,1:0:0:0:0:
256,192,0,128,0,1:0:0:0:0:
256,192,0,128,0,1:0:0:0:0:
256,192,0,128,0,1:0:0:0:0:
256,192,0,128,0,1:0:0:0:0:
256,192,0,128,0,1:0:0:0:0:
256,192,0,128,0,1:0:0:0:0:
256,192,0,128,0,1:0:0:0:0:
256,192,0,128,0,1:0:0:0:0:
256,192,0,128,0,1:0:0:0:0:
256,192,0,128,0,1:0:0:0:0:
256,192,0,128,0,1:0:0:0:0:
256,192,0,128,0,1:0:0:0:0:
256,192,0,128,0,1:0:0:0:0:
256,192,0,128,0,1:0:0:0:0:
256,192,0,128,0,1:0:0:0:0:
256,192,0,128,0,1:0:0:0:0:
256,192,0,128,0,1:0:0:0:0:
256,192,0,128,0,1:0:0:0:0:
256,192,0,128,0,1:0:0:0:0:
256,192,0,128,0,1:0:0:0:0:
256,192,0,128,0,1:0:0:0:0:
256,192,0,128,0,1:0:0:0:0:
256,192,0,128,0,1:0:0:0:0:
256,192,0,128,0,1:0:0:0:0:
256,192,0,128,0,1:0:0:0:0:
256,192,0,128,0,1:0:0:0:0:
256,192,0,128,0,1:0:0:0:0:
256,192,0,128,0,1:0:0:0:0:
256,192,0,128,0,1:0:0:0:0:
256,192,0,128,0,1:0:0:0:0:
256,192,0,128,0,1:0:0:0:0:
256,192,0,128,0,1:0:0:0:0:
256,192,0,128,0,1:0:0:0:0:
256,192,0,128,0,1:0:0:0:0:
256,192,0,128,0,1:0:0:0:0:
256,192,0,128,0,1:0:0:0:0:
256,192,0,128,0,1:0:0:0:0:
256,192,0,128,0,1:0:0:0:0:
256,192,0,128,0,1:0:0:0:0:
256,192,0,128,0,1:0:0:0:0:
256,192,0,128,0,1:0:0:0:0:
256,192,0,128,0,1:0:0:0:0:
256,192,0,128,0,1:0:0:0:0:
256,192,0,128,0,1:0:0:0:0:
256,192,0,128,0,1:0:0:0:0:
256,192,0,128,0,1:0:0:0:0:
256,192,0,128,0,1:0:0:0:0:
256,192,0,128,0,1:0:0:0:0:
256,192,0,128,0,1:0:0:0:0:
256,192,0,128,0,1:0:0:0:0:
256,192,0,128,0,1:0:0:0:0:
256,192,0,128,0,1:0:0:0:0:
256,192,0,128,0,1:0:0:0:0:
256,192,0,128,0,1:0:0:0:0:
256,192,0,128,0,1:0:0:0:0:
256,192,0,128,0,1:0:0:0:0:
256,192,0,128,0,1:0:0:0:0:
256,192,0,128,0,1:0:0:0:0:
256,192,0,128,0,1:0:0:0:0:
256,192,0,128,0,1:0:0:0:0:
256,192,0,128,0,1:0:0:0:0:
256,192,0,128,0,1:0:0:0:0:
256,192,0,128,0,1:0:0:0:0:
256,192,0,128,0,1:0:0:0:0:
256,192,0,128,0,1:0:0:0:0:
256,192,0,128,0,1:0:0:0:0:
256,192,0,128,0,1:0:0:0:0:
256,192,0,128,0,1:0:0:0:0:
256,192,0,128,0,1:0:0:0:0:
256,192,0,128,0,1:0:0:0:0:
256,192,0,128,0,1:0:0:0:0:
256,192,0,128,0,1:0:0:0:0:
256,192,0,128,0,1:0:0:0:0:
256,192,0,128,0,1:0:0:0:0:
256,192,0,128,0,1:0:0:0:0:
256,192,0,128,0,1:0:0:0:0:
256,192,0,128,0,1:0:0:0:0:
256,192,0,128,0,1:0:0:0:0:
256,192,0,128,0,1:0:0:0:0:
256,192,0,128,0,1:0:0:0:0:
256,192,0,128,0,1:0:0:0:0:
256,192,0,128,0,1:0:0:0:0:
256,192,0,128,0,1:0:0:0:0:
256,192,0,128,0,1:0:0:0:0:
256,192,0,128,0,1:0:0:0:0:
256,192,0,128,0,1:0:0:0:0:
256,192,0,128,0,1:0:0:0:0:
256,192,0,128,0,1:0:0:0:0:
256,192,0,128,0,1:0:0:0:0:
256,192,0,128,0,1:0:0:0:0:
256,192,0,128,0,1:0:0:0:0:
256,192,0,128,0,1:0:0:0:0:
256,192,0,128,0,1:0:0:0:0:
256,192,0,128,0,1:0:0:0:0:
256,192,0,128,0,1:0:0:0:0:
256,192,0,128,0,1:0:0:0:0:
256,192,0,128,0,1:0:0:0:0:
256,192,0,128,0,1:0:0:0:0:
256,192,0,128,0,1:0:0:0:0:
256,192,0,128,0,1:0:0:0:0:
256,192,0,128,0,1:0:0:0:0:
256,192,0,128,0,1:0:0:0:0:
256,192,0,128,0,1:0:0:0:0:
256,192,0,128,0,1:0:0:0:0:
256,192,0,128,0,1:0:0:0:0:
256,192,0,128,0,1:0:0:0:0:
256,192,0,128,0,1:0:0:0:0:
256,192,0,128,0,1:0:0:0:0:
256,192,0,128,0,1:0:0:0:0:
256,192,0,128,0,1:0:0:0:0:
256,192,0,128,0,1:0:0:0:0:
256,192,0,128,0,1:0:0:0:0:
256,192,0,128,0,1:0:0:0:0:
256,192,0,128,0,1:0:0:0:0:
256,192,0,128,0,1:0:0:0:0:
256,192,0,128,0,1:0:0:0:0:
256,192,0,128,0,1:0:0:0:0:
256,192,0,128,0,1:0:0:0:0:
256,192,0,128,0,1:0:0:0:0:
256,192,0,128,0,1:0:0:0:0:
256,192,0,128,0,1:0:0:0:0:
256,192,0,128,0,1:0:0:0:0:
256,192,0,128,0,1:0:0:0:0:
256,192,0,128,0,1:0:0:0:0:
256,192,0,128,0,1:0:0:0:0:
256,192,0,128,0,1:0:0:0:0:
256,192,0,128,0,1:0:0:0:0:
256,192,0,128,0,1:0:0:0:0:
256,192,0,128,0,1:0:0:0:0:
256,192,0,128,0,1:0:0:0:0:
256,192,0,128,0,1:0:0:0:0:
256,192,0,128,0,1:0:0:0:0:
256,192,0,128,0,1:0:0:0:0:
256,192,0,128,0,1:0:0:0:0:
256,192,0,128,0,1:0:0:0:0:
256,192,0,128,0,1:0:0:0:0:
256,192,0,128,0,1:0:0:0:0:
256,192,0,128,0,1:0:0:0:0:
256,192,0,128,0,1:0:0:0:0:
256,192,0,128,0,1:0:0:0:0:
256,192,0,128,0,1:0:0:0:0:
256,192,0,128,0,1:0:0:0:0:
256,192,0,128,0,1:0:0:0:0:
256,192,0,128,0,1:0:0:0:0:
256,192,0,128,0,1:0:0:0:0:
256,192,0,128,0,1:0:0:0:0:
256,192,0,128,0,1:0:0:0:0:
256,192,0,128,0,1:0:0:0:0:
256,192,0,128,0,1:0:0:0:0:
256,192,0,128,0,1:0:0:0:0:
256,192,0,128,0,1:0:0:0:0:
256,192,0,128,0,1:0:0:0:0:
256,192,0,128,0,1:0:0:0:0:
256,192,0,128,0,1:0:0:0:0:
256,192,0,128,0,1:0:0:0:0:
256,192,0,128,0,1:0:0:0:0:
256,192,0,128,0,1:0:0:0:0:
256,192,0,128,0,1:0:0:0:0:
256,192,0,128,0,1:0:0:0:0:
256,192,0,128,0,1:0:0:0:0:
256,192,0,128,0,1:0:0:0:0:
256,192,0,128,0,1:0:0:0:0:
256,192,0,128,0,1:0:0:0:0:
256,192,0,128,0,1:0:0:0:0:
256,192,0,128,0,1:0:0:0:0:
256,192,0,128,0,1:0:0:0:0:
256,192,0,128,0,1:0:0:0:0:
256,192,0,128,0,1:0:0:0:0:
256,192,0,128,0,1:0:0:0:0:
256,192,0,128,0,1:0:0:0:0:
256,192,0,128,0,1:0:0:0:0:
256,192,0,128,0,1:0:0:0:0:
256,192,0,128,0,1:0:0:0:0:
256,192,0,128,0,1:0:0:0:0:
256,192,0,128,0,1:0:0:0:0:
256,192,0,128,0,1:0:0:0:0:
256,192,0,128,0,1:0:0:0:0:
256,192,0,128,0,1:0:0:0:0:
256,192,0,128,0,1:0:0:0:0:
256,192,0,128,0,1:0:0:0:0:
256,192,0,128,0,1:0:0:0:0:
256,192,0,128,0,1:0:0:0:0:
256,192,0,128,0,1:0:0:0:0:
256,192,0,128,0,1:0:0:0:0:
256,192,0,128,0,1:0:0:0:0:
256,192,0,128,0,1:0:0:0:0:
256,192,0,128,0,1:0:0:0:0:
256,192,0,128,0,1:0:0:0:0:
256,192,0,128,0,1:0:0:0:0:
256,192,0,128,0,1:0:0:0:0:
256,192,0,128,0,1:0:0:0:0:
256,192,0,128,0,1:0:0:0:0:
256,192,0,128,0,1:0:0:0:0:
256,192,0,128,0,1:0:0:0:0:
256,192,0,128,0,1:0:0:0:0:
256,192,0,128,0,1:0:0:0:0:
256,192,0,128,0,1:0:0:0:0:
256,192,0,128,0,1:0:0:0:0:
256,192,0,128,0,1:0:0:0:0:
256,192,0,128,0,1:0:0:0:0:
256,192,0,128,0,1:0:0:0:0:
256,192,0,128,0,1:0:0:0:0:
256,192,0,128,0,1:0:0:0:0:
256,192,0,128,0,1:0:0:0:0:
256,192,0,128,0,1:0:0:0:0:
256,192,0,128,0,1:0:0:0:0:
256,192,0,128,0,1:0:0:0:0:
256,192,0,128,0,1:0:0:0:0:
256,192,0,128,0,1:0:0:0:0:
256,192,0,128,0,1:0:0:0:0:
256,192,0,128,0,1:0:0:0:0:
256,192,0,128,0,1:0:0:0:0:
256,192,0,128,0,1:0:0:0:0:
256,192,0,128,0,1:0:0:0:0:
256,192,0,128,0,1:0:0:0:0:
256,192,0,128,0,1:0:0:0:0:
256,192,0,128,0,1:0:0:0:0:
256,192,0,128,0,1:0:0:0:0:
256,192,0,128,0,1:0:0:0:0:
256,192,0,128,0,1:0:0:0:0:
256,192,0,128,0,1:0:0:0:0:
256,192,0,128,0,1:0:0:0:0:
256,192,0,128,0,1:0:0:0:0:
256,192,0,128,0,1:0:0:0:0:
256,192,0,128,0,1:0:0:0:0:
256,192,0,128,0,1:0:0:0:0:
256,192,0,128,0,1:0:0:0:0:
256,192,0,128,0,1:0:0:0:0:
256,192,0,128,0,1:0:0:0:0:
256,192,0,128,0,1:0:0:0:0:
256,192,0,128,0,1:0:0:0:0:
256,192,0,128,0,1:0:0:0:0:
256,192,0,128,0,1:0:0:0:0:
256,192,0,128,0,1:0:0:0:0:
256,192,0,128,0,1:0:0:0:0:
256,192,0,128,0,1:0:0:0:0:
256,192,0,128,0,1:0:0:0:0:
256,192,0,128,0,1:0:0:0:0:
256,192,0,128,0,1:0:0:0:0:
256,192,0,128,0,1:0:0:0:0:
256,192,0,128,0,1:0:0:0:0:
256,192,0,128,0,1:0:0:0:0:
256,192,0,128,0,1:0:0:0:0:
256,192,0,128,0,1:0:0:0:0:
256,192,0,128,0,1:0:0:0:0:
256,192,0,128,0,1:0:0:0:0:
256,192,0,128,0,1:0:0:0:0:
256,192,0,128,0,1:0:0:0:0:
256,192,0,128,0,1:0:0:0:0:
256,192,0,128,0,1:0:0:0:0:
256,192,0,128,0,1:0:0:0:0:
256,192,0,128,0,1:0:0:0:0:
256,192,0,128,0,1:0:0:0:0:
256,192,0,128,0,1:0:0:0:0:
256,192,0,128,0,1:0:0:0:0:
256,192,0,128,0,1:0:0:0:0:
256,192,0,128,0,1:0:0:0:0:
256,192,0,128,0,1:0:0:0:0:
256,192,0,128,0,1:0:0:0:0:
256,192,0,128,0,1:0:0:0:0:
256,192,0,128,0,1:0:0:0:0:
256,192,0,128,0,1:0:0:0:0:
256,192,0,128,0,1:0:0:0:0:
256,192,0,128,0,1:0:0:0:0:
256,192,0,128,0,1:0:0:0:0:
256,192,0,128,0,1:0:0:0:0:
256,192,0,128,0,1:0:0:0:0:
256,192,0,128,0,1:0:0:0:0:
256,192,0,128,0,1:0:0:0:0:
256,192,0,128,0,1:0:0:0:0:
256,192,0,128,0,1:0:0:0:0:
256,192,0,128,0,1:0:0:0:0:
256,192,0,128,0,1:0:0:0:0:
256,192,0,128,0,1:0:0:0:0:
256,192,0,128,0,1:0:0:0:0:
256,192,0,128,0,1:0:0:0:0:
256,192,0,128,0,1:0:0:0:0:
256,192,0,128,0,1:0:0:0:0:
256,192,0,128,0,1:0:0:0:0:
256,192,0,128,0,1:0:0:0:0:
256,192,0,128,0,1:0:0:0:0:
256,192,0,128,0,1:0:0:0:0:
256,192,0,128,0,1:0:0:0:0:
256,192,0,128,0,1:0:0:0:0:
256,192,0,128,0,1:0:0:0:0:
256,192,0,128,0,1:0:0:0:0:
256,192,0,128,0,1:0:0:0:0:
256,192,0,128,0,1:0:0:0:0:
256,192,0,128,0,1:0:0:0:0:
256,192,0,128,0,1:0:0:0:0:
256,192,0,128,0,1:0:0:0:0:
256,192,0,128,0,1:0:0:0:0:
256,192,0,128,0,1:0:0:0:0:
256,192,0,128,0,1:0:0:0:0:
256,192,0,128,0,1:0:0:0:0:
256,192,0,128,0,1:0:0:0:0:
256,192,0,128,0,1:0:0:0:0:
256,192,0,128,0,1:0:0:0:0:
256,192,0,128,0,1:0:0:0:0:
256,192,0,128,0,1:0:0:0:0:
256,192,0,128,0,1:0:0:0:0:
256,192,0,128,0,1:0:0:0:0:
256,192,0,128,0,1:0:0:0:0:
256,192,0,128,0,1:0:0:0:0:
256,192,0,128,0,1:0:0:0:0:
256,192,0,128,0,1:0:0:0:0:
256,192,0,128,0,1:0:0:0:0:
256,192,0,128,0,1:0:0:0:0:
256,192,0,128,0,1:0:0:0:0:
256,192,0,128,0,1:0:0:0:0:
256,192,0,128,0,1:0:0:0:0:
256,192,0,128,0,1:0:0:0:0:
256,192,0,128,0,1:0:0:0:0:
256,192,0,128,0,1:0:0:0:0:
256,192,0,128,0,1:0:0:0:0:
256,192,0,128,0,1:0:0:0:0:
256,192,0,128,0,1:0:0:0:0:
256,192,0,128,0,1:0:0:0:0:
256,192,0,128,0,1:0:0:0:0:
256,192,0,128,0,1:0:0:0:0:
256,192,0,128,0,1:0:0:0:0:
256,192,0,128,0,1:0:0:0:0:
256,192,0,128,0,1:0:0:0:0:
256,192,0,128,0,1:0:0:0:0:
256,192,0,128,0,1:0:0:0:0:
256,192,0,128,0,1:0:0:0:0:
256,192,0,128,0,1:0:0:0:0:
256,192,0,128,0,1:0:0:0:0:
256,192,0,128,0,1:0:0:0:0:
256,192,0,128,0,1:0:0:0:0:
256,192,0,128,0,1:0:0:0:0:
256,192,0,128,0,1:0:0:0:0:
256,192,0,128,0,1:0:0:0:0:
256,192,0,128,0,1:0:0:0:0:
256,192,0,128,0,1:0:0:0:0:
256,192,0,128,0,1:0:0:0:0:
256,192,0,128,0,1:0:0:0:0:
256,192,0,128,0,1:0:0:0:0:
256,192,0,128,0,1:0:0:0:0:
256,192,0,128,0,1:0:0:0:0:
256,192,0,128,0,1:0:0:0:0:
256,192,0,128,0,1:0:0:0:0:
256,192,0,128,0,1:0:0:0:0:
256,192,0,128,0,1:0:0:0:0:
256,192,0,128,0,1:0:0:0:0:
256,192,0,128,0,1:0:0:0:0:
256,192,0,128,0,1:0:0:0:0:
256,192,0,128,0,1:0:0:0:0:
256,192,0,128,0,1:0:0:0:0:
256,192,0,128,0,1:0:0:0:0:
256,192,0,128,0,1:0:0:0:0:
256,192,0,128,0,1:0:0:0:0:
256,192,0,128,0,1:0:0:0:0:
256,192,0,128,0,1:0:0:0:0:
256,192,0,128,0,1:0:0:0:0:
256,192,0,128,0,1:0:0:0:0:
256,192,0,128,0,1:0:0:0:0:
256,192,0,128,0,1:0:0:0:0:
256,192,0,128,0,1:0:0:0:0:
256,192,0,128,0,1:0:0:0:0:
256,192,0,128,0,1:0:0:0:0:
256,192,0,128,0,1:0:0:0:0:
256,192,0,128,0,1:0:0:0:0:
256,192,0,128,0,1:0:0:0:0:
256,192,0,128,0,1:0:0:0:0:
256,192,0,128,0,1:0:0:0:0:
256,192,0,128,0,1:0:0:0:0:
256,192,0,128,0,1:0:0:0:0:
256,192,0,128,0,1:0:0:0:0:
256,192,0,128,0,1:0:0:0:0:
256,192,0,128,0,1:0:0:0:0:
256,192,0,128,0,1:0:0:0:0:
256,192,0,128,0,1:0:0:0:0:
256,192,0,128,0,1:0:0:0:0:
256,192,0,128,0,1:0:0:0:0:
256,192,0,128,0,1:0:0:0:0:
256,192,0,128,0,1:0:0:0:0:
256,192,0,128,0,1:0:0:0:0:
256,192,0,128,0,1:0:0:0:0:
256,192,0,128,0,1:0:0:0:0:
256,192,0,128,0,1:0:0:0:0:
256,192,0,128,0,1:0:0:0:0:
256,192,0,128,0,1:0:0:0:0:
256,192,0,128,0,1:0:0:0:0:
256,192,0,128,0,1:0:0:0:0:
256,192,0,128,0,1:0:0:0:0:
256,192,0,128,0,1:0:0:0:0:
256,192,0,128,0,1:0:0:0:0:
256,192,0,128,0,1:0:0:0:0:
256,192,0,128,0,1:0:0:0:0:
256,192,0,128,0,1:0:0:0:0:
256,192,0,128,0,1:0:0:0:0:
256,192,0,128,0,1:0:0:0:0:
256,192,0,128,0,1:0:0:0:0:
256,192,0,128,0,1:0:0:0:0:
256,192,0,128,0,1:0:0:0:0:
256,192,0,128,0,1:0:0:0:0:
256,192,0,128,0,1:0:0:0:0:
256,192,0,128,0,1:0:0:0:0:
256,192,0,128,0,1:0:0:0:0:
256,192,0,128,0,1:0:0:0:0:
256,192,0,128,0,1:0:0:0:0:
256,192,0,128,0,1:0:0:0:0:
256,192,0,128,0,1:0:0:0:0:
256,192,0,128,0,1:0:0:0:0:
256,192,0,128,0,1:0:0:0:0:
256,192,0,128,0,1:0:0:0:0:
256,192,0,128,0,1:0:0:0:0:
256,192,0,128,0,1:0:0:0:0:
256,192,0,128,0,1:0:0:0:0:
256,192,0,128,0,1:0:0:0:0:
256,192,0,128,0,1:0:0:0:0:
256,192,0,128,0,1:0:0:0:0:
256,192,0,128,0,1:0:0:0:0:
256,192,0,128,0,1:0:0:0:0:
256,192,0,128,0,1:0:0:0:0:
256,192,0,128,0,1:0:0:0:0:
256,192,0,128,0,1:0:0:0:0:
256,192,0,128,0,1:0:0:0:0:
256,192,0,128,0,1:0:0:0:0:
256,192,0,128,0,1:0:0:0:0:
256,192,0,128,0,1:0:0:0:0:
256,192,0,128,0,1:0:0:0:0:
256,192,0,128,0,1:0:0:0:0:
256,192,0,128,0,1:0:0:0:0:
256,192,0,128,0,1:0:0:0:0:
256,192,0,128,0,1:0:0:0:0:
256,192,0,128,0,1:0:0:0:0:
256,192,0,128,0,1:0:0:0:0:
256,192,0,128,0,1:0:0:0:0:
256,192,0,128,0,1:0:0:0:0:
256,192,0,128,0,1:0:0:0:0:
256,192,0,128,0,1:0:0:0:0:
256,192,0,128,0,1:0:0:0:0:
256,192,0,128,0,1:0:0:0:0:
256,192,0,128,0,1:0:0:0:0:
256,192,0,128,0,1:0:0:0:0:
256,192,0,128,0,1:0:0:0:0:
256,192,0,128,0,1:0:0:0:0:
256,192,0,128,0,1:0:0:0:0:
256,192,0,128,0,1:0:0:0:0:
256,192,0,128,0,1:0:0:0:0:
256,192,0,128,0,1:0:0:0:0:
256,192,0,128,0,1:0:0:0:0:
256,192,0,128,0,1:0:0:0:0:
256,192,0,128,0,1:0:0:0:0:
256,192,0,128,0,1:0:0:0:0:
256,192,0,128,0,1:0:0:0:0:
256,192,0,128,0,1:0:0:0:0:
256,192,0,128,0,1:0:0:0:0:
256,192,0,128,0,1:0:0:0:0:
256,192,0,128,0,1:0:0:0:0:
256,192,0,128,0,1:0:0:0:0:
256,192,0,128,0,1:0:0:0:0:
256,192,0,128,0,1:0:0:0:0:
256,192,0,128,0,1:0:0:0:0:
256,192,0,128,0,1:0:0:0:0:
256,192,0,128,0,1:0:0:0:0:
256,192,0,128,0,1:0:0:0:0:
256,192,0,128,0,1:0:0:0:0:
256,192,0,128,0,1:0:0:0:0:
256,192,0,128,0,1:0:0:0:0:
256,192,0,128,0,1:0:0:0:0:
256,192,0,128,0,1:0:0:0:0:
256,192,0,128,0,1:0:0:0:0:
256,192,0,128,0,1:0:0:0:0:
256,192,0,128,0,1:0:0:0:0:
256,192,0,128,0,1:0:0:0:0:
256,192,0,128,0,1:0:0:0:0:
256,192,0,128,0,1:0:0:0:0:
256,192,0,128,0,1:0:0:0:0:
256,192,0,128,0,1:0:0:0:0:
256,192,0,128,0,1:0:0:0:0:
256,192,0,128,0,1:0:0:0:0:
256,192,0,128,0,1:0:0:0:0:
256,192,0,128,0,1:0:0:0:0:
256,192,0,128,0,1:0:0:0:0:
256,192,0,128,0,1:0:0:0:0:
256,192,0,128,0,1:0:0:0:0:
256,192,0,128,0,1:0:0:0:0:
256,192,0,128,0,1:0:0:0:0:
256,192,0,128,0,1:0:0:0:0:
256,192,0,128,0,1:0:0:0:0:
256,192,0,128,0,1:0:0:0:0:
256,192,0,128,0,1:0:0:0:0:
256,192,0,128,0,1:0:0:0:0:
256,192,0,128,0,1:0:0:0:0:
256,192,0,128,0,1:0:0:0:0:
256,192,0,128,0,1:0:0:0:0:
256,192,0,128,0,1:0:0:0:0:
256,192,0,128,0,1:0:0:0:0:
256,192,0,128,0,1:0:0:0:0:
256,192,0,128,0,1:0:0:0:0:
256,192,0,128,0,1:0:0:0:0:
256,192,0,128,0,1:0:0:0:0:
256,192,0,128,0,1:0:0:0:0:
256,192,0,128,0,1:0:0:0:0:
256,192,0,128,0,1:0:0:0:0:
256,192,0,128,0,1:0:0:0:0:
256,192,0,128,0,1:0:0:0:0:
256,192,0,128,0,1:0:0:0:0:
256,192,0,128,0,1:0:0:0:0:
256,192,0,128,0,1:0:0:0:0:
256,192,0,128,0,1:0:0:0:0:
256,192,0,128,0,1:0:0:0:0:
256,192,0,128,0,1:0:0:0:0:
256,192,0,128,0,1:0:0:0:0:
256,192,0,128,0,1:0:0:0:0:
256,192,0,128,0,1:0:0:0:0:
256,192,0,128,0,1:0:0:0:0:
256,192,0,128,0,1:0:0:0:0:
256,192,0,128,0,1:0:0:0:0:
256,192,0,128,0,1:0:0:0:0:
256,192,0,128,0,1:0:0:0:0:
256,192,0,128,0,1:0:0:0:0:
256,192,0,128,0,1:0:0:0:0:
256,192,0,128,0,1:0:0:0:0:
256,192,0,128,0,1:0:0:0:0:
256,192,0,128,0,1:0:0:0:0:
256,192,0,128,0,1:0:0:0:0:
256,192,0,128,0,1:0:0:0:0:
256,192,0,128,0,1:0:0:0:0:
256,192,0,128,0,1:0:0:0:0:
256,192,0,128,0,1:0:0:0:0:
256,192,0,128,0,1:0:0:0:0:
256,192,0,128,0,1:0:0:0:0:
256,192,0,128,0,1:0:0:0:0:
256,192,0,128,0,1:0:0:0:0:
256,192,0,128,0,1:0:0:0:0:
256,192,0,128,0,1:0:0:0:0:
256,192,0,128,0,1:0:0:0:0:
256,192,0,128,0,1:0:0:0:0:
256,192,0,128,0,1:0:0:0:0:
256,192,0,128,0,1:0:0:0:0:
256,192,0,128,0,1:0:0:0:0:
256,192,0,128,0,1:0:0:0:0:
256,192,0,128,0,1:0:0:0:0:
256,192,0,128,0,1:0:0:0:0:
256,192,0,128,0,1:0:0:0:0:
256,192,0,128,0,1:0:0:0:0:
256,192,0,128,0,1:0:0:0:0:
256,192,0,128,0,1:0:0:0:0:
256,192,0,128,0,1:0:0:0:0:
256,192,0,128,0,1:0:0:0:0:
256,192,0,128,0,1:0:0:0:0:
256,192,0,128,0,1:0:0:0:0:
256,192,0,128,0,1:0:0:0:0:
256,192,0,128,0,1:0:0:0:0:
256,192,0,128,0,1:0:0:0:0:
256,192,0,128,0,1:0:0:0:0:
256,192,0,128,0,1:0:0:0:0:
256,192,0,128,0,1:0:0:0:0:
256,192,0,128,0,1:0:0:0:0:
256,192,0,128,0,1:0:0:0:0:
256,192,0,128,0,1:0:0:0:0:
256,192,0,128,0,1:0:0:0:0:
256,192,0,128,0,1:0:0:0:0:
256,192,0,128,0,1:0:0:0:0:
256,192,0,128,0,1:0:0:0:0:
256,192,0,128,0,1:0:0:0:0:
256,192,0,128,0,1:0:0:0:0:
256,192,0,128,0,1:0:0:0:0:
256,192,0,128,0,1:0:0:0:0:
256,192,0,128,0,1:0:0:0:0:
256,192,0,128,0,1:0:0:0:0:
256,192,0,128,0,1:0:0:0:0:
256,192,0,128,0,1:0:0:0:0:
256,192,0,128,0,1:0:0:0:0:
256,192,0,128,0,1:0:0:0:0:
256,192,0,128,0,1:0:0:0:0:
256,192,0,128,0,1:0:0:0:0:
256,192,0,128,0,1:0:0:0:0:
256,192,0,128,0,1:0:0:0:0:
256,192,0,128,0,1:0:0:0:0:
256,192,0,128,0,1:0:0:0:0:
256,192,0,128,0,1:0:0:0:0:
256,192,0,128,0,1:0:0:0:0:
256,192,0,128,0,1:0:0:0:0:
256,192,0,128,0,1:0:0:0:0:
256,192,0,128,0,1:0:0:0:0:
256,192,0,128,0,1:0:0:0:0:
256,192,0,128,0,1:0:0:0:0:
256,192,0,128,0,1:0:0:0:0:
256,192,0,128,0,1:0:0:0:0:
256,192,0,128,0,1:0:0:0:0:
256,192,0,128,0,1:0:0:0:0:
256,192,0,128,0,1:0:0:0:0:
256,192,0,128,0,1:0:0:0:0:
256,192,0,128,0,1:0:0:0:0:
256,192,0,128,0,1:0:0:0:0:
256,192,0,128,0,1:0:0:0:0:
256,192,0,128,0,1:0:0:0:0:
256,192,0,128,0,1:0:0:0:0:
256,192,0,128,0,1:0:0:0:0:
256,192,0,128,0,1:0:0:0:0:
256,192,0,128,0,1:0:0:0:0:
256,192,0,128,0,1:0:0:0:0:
256,192,0,128,0,1:0:0:0:0:
256,192,0,128,0,1:0:0:0:0:
256,192,0,128,0,1:0:0:0:0:
256,192,0,128,0,1:0:0:0:0:
256,192,0,128,0,1:0:0:0:0:
256,192,0,128,0,1:0:0:0:0:
256,192,0,128,0,1:0:0:0:0:
256,192,0,128,0,1:0:0:0:0:
256,192,0,128,0,1:0:0:0:0:
256,192,0,128,0,1:0:0:0:0:
256,192,0,128,0,1:0:0:0:0:
256,192,0,128,0,1:0:0:0:0:
256,192,0,128,0,1:0:0:0:0:
256,192,0,128,0,1:0:0:0:0:
256,192,0,128,0,1:0:0:0:0:
256,192,0,128,0,1:0:0:0:0:
256,192,0,128,0,1:0:0:0:0:
256,192,0,128,0,1:0:0:0:0:
256,192,0,128,0,1:0:0:0:0:
256,192,0,128,0,1:0:0:0:0:
256,192,0,128,0,1:0:0:0:0:
256,192,0,128,0,1:0:0:0:0:
256,192,0,128,0,1:0:0:0:0:
256,192,0,128,0,1:0:0:0:0:
256,192,0,128,0,1:0:0:0:0:
256,192,0,128,0,1:0:0:0:0:
256,192,0,128,0,1:0:0:0:0:
256,192,0,128,0,1:0:0:0:0:
256,192,0,128,0,1:0:0:0:0:
256,192,0,128,0,1:0:0:0:0:
256,192,0,128,0,1:0:0:0:0:
256,192,0,128,0,1:0:0:0:0:
256,192,0,128,0,1:0:0:0:0:
256,192,0,128,0,1:0:0:0:0:
256,192,0,128,0,1:0:0:0:0:
256,192,0,128,0,1:0:0:0:0:
256,192,0,128,0,1:0:0:0:0:
256,192,0,128,0,1:0:0:0:0:
256,192,0,128,0,1:0:0:0:0:
256,192,0,128,0,1:0:0:0:0:
256,192,0,128,0,1:0:0:0:0:
256,192,0,128,0,1:0:0:0:0:
256,192,0,128,0,1:0:0:0:0:
256,192,0,128,0,1:0:0:0:0:
256,192,0,128,0,1:0:0:0:0:
256,192,0,128,0,1:0:0:0:0:
256,192,0,128,0,1:0:0:0:0:
256,192,0,128,0,1:0:0:0:0:
256,192,0,128,0,1:0:0:0:0:
256,192,0,128,0,1:0:0:0:0:
256,192,0,128,0,1:0:0:0:0:
256,192,0,128,0,1:0:0:0:0:
256,192,0,128,0,1:0:0:0:0:
256,192,0,128,0,1:0:0:0:0:
256,192,0,128,0,1:0:0:0:0:
256,192,0,128,0,1:0:0:0:0:
256,192,0,128,0,1:0:0:0:0:
256,192,0,128,0,1:0:0:0:0:
256,192,0,128,0,1:0:0:0:0:
256,192,0,128,0,1:0:0:0:0:
256,192,0,128,0,1:0:0:0:0:
256,192,0,128,0,1:0:0:0:0:
256,192,0,128,0,1:0:0:0:0:
256,192,0,128,0,1:0:0:0:0:
256,192,0,128,0,1:0:0:0:0:
256,192,0,128,0,1:0:0:0:0:
256,192,0,128,0,1:0:0:0:0:
256,192,0,128,0,1:0:0:0:0:
256,192,0,128,0,1:0:0:0:0:
256,192,0,128,0,1:0:0:0:0:
256,192,0,128,0,1:0:0:0:0:
256,192,0,128,0,1:0:0:0:0:
256,192,0,128,0,1:0:0:0:0:
256,192,0,128,0,1:0:0:0:0:
256,192,0,128,0,1:0:0:0:0:
256,192,0,128,0,1:0:0:0:0:
256,192,0,128,0,1:0:0:0:0:
256,192,0,128,0,1:0:0:0:0:
256,192,0,128,0,1:0:0:0:0:
256,192,0,128,0,1:0:0:0:0:
256,192,0,128,0,1:0:0:0:0:
256,192,0,128,0,1:0:0:0:0:
256,192,0,128,0,1:0:0:0:0:
256,192,0,128,0,1:0:0:0:0:
256,192,0,128,0,1:0:0:0:0:
256,192,0,128,0,1:0:0:0:0:
256,192,0,128,0,1:0:0:0:0:
256,192,0,128,0,1:0:0:0:0:
256,192,0,128,0,1:0:0:0:0:
256,192,0,128,0,1:0:0:0:0:
256,192,0,128,0,1:0:0:0:0:
256,192,0,128,0,1:0:0:0:0:
256,192,0,128,0,1:0:0:0:0:
256,192,0,128,0,1:0:0:0:0:
256,192,0,128,0,1:0:0:0:0:
256,192,0,128,0,1:0:0:0:0:
256,192,0,128,0,1:0:0:0:0:
256,192,0,128,0,1:0:0:0:0:
256,192,0,128,0,1:0:0:0:0:
256,192,0,128,0,1:0:0:0:0:
256,192,0,128,0,1:0:0:0:0:
256,192,0,128,0,1:0:0:0:0:
256,192,0,128,0,1:0:0:0:0:
256,192,0,128,0,1:0:0:0:0:
256,192,0,128,0,1:0:0:0:0:
256,192,0,128,0,1:0:0:0:0:
256,192,0,128,0,1:0:0:0:0:
256,192,0,128,0,1:0:0:0:0:
256,192,0,128,0,1:0:0:0:0:
256,192,0,128,0,1:0:0:0:0:
256,192,0,128,0,1:0:0:0:0:
256,192,0,128,0,1:0:0:0:0:
256,192,0,128,0,1:0:0:0:0:
256,192,0,128,0,1:0:0:0:0:
256,192,0,128,0,1:0:0:0:0:
256,192,0,128,0,1:0:0:0:0:
256,192,0,128,0,1:0:0:0:0:
256,192,0,128,0,1:0:0:0:0:
256,192,0,128,0,1:0:0:0:0:
256,192,0,128,0,1:0:0:0:0:
256,192,0,128,0,1:0:0:0:0:
256,192,0,128,0,1:0:0:0:0:
256,192,0,128,0,1:0:0:0:0:
256,192,0,128,0,1:0:0:0:0:
256,192,0,128,0,1:0:0:0:0:
256,192,0,128,0,1:0:0:0:0:
256,192,0,128,0,1:0:0:0:0:
256,192,0,128,0,1:0:0:0:0:
256,192,0,128,0,1:0:0:0:0:
256,192,0,128,0,1:0:0:0:0:
256,192,0,128,0,1:0:0:0:0:
256,192,0,128,0,1:0:0:0:0:
256,192,0,128,0,1:0:0:0:0:
256,192,0,128,0,1:0:0:0:0:
256,192,0,128,0,1:0:0:0:0:
256,192,0,128,0,1:0:0:0:0:
256,192,0,128,0,1:0:0:0:0:
256,192,0,128,0,1:0:0:0:0:
256,192,0,128,0,1:0:0:0:0:
256,192,0,128,0,1:0:0:0:0:
256,192,0,128,0,1:0:0:0:0:
256,192,0,128,0,1:0:0:0:0:
256,192,0,128,0,1:0:0:0:0:
256,192,0,128,0,1:0:0:0:0:
256,192,0,128,0,1:0:0:0:0:
256,192,0,128,0,1:0:0:0:0:
256,192,0,128,0,1:0:0:0:0:
256,192,0,128,0,1:0:0:0:0:
256,192,0,128,0,1:0:0:0:0:
256,192,0,128,0,1:0:0:0:0:
256,192,0,128,0,1:0:0:0:0:
256,192,0,128,0,1:0:0:0:0:
256,192,0,128,0,1:0:0:0:0:
256,192,0,128,0,1:0:0:0:0:
256,192,0,128,0,1:0:0:0:0:
256,192,0,128,0,1:0:0:0:0:
256,192,0,128,0,1:0:0:0:0:
256,192,0,128,0,1:0:0:0:0:
256,192,0,128,0,1:0:0:0:0:
256,192,0,128,0,1:0:0:0:0:
256,192,0,128,0,1:0:0:0:0:
256,192,0,128,0,1:0:0:0:0:
256,192,0,128,0,1:0:0:0:0:
256,192,0,128,0,1:0:0:0:0:
256,192,0,128,0,1:0:0:0:0:
256,192,0,128,0,1:0:0:0:0:
256,192,0,128,0,1:0:0:0:0:
256,192,0,128,0,1:0:0:0:0:
256,192,0,128,0,1:0:0:0:0:
256,192,0,128,0,1:0:0:0:0:
256,192,0,128,0,1:0:0:0:0:
256,192,0,128,0,1:0:0:0:0:
256,192,0,128,0,1:0:0:0:0:
256,192,0,128,0,1:0:0:0:0:
256,192,0,128,0,1:0:0:0:0:
256,192,0,128,0,1:0:0:0:0:
256,192,0,128,0,1:0:0:0:0:
256,192,0,128,0,1:0:0:0:0:
256,192,0,128,0,1:0:0:0:0:
256,192,0,128,0,1:0:0:0:0:
256,192,0,128,0,1:0:0:0:0:
256,192,0,128,0,1:0:0:0:0:
256,192,0,128,0,1:0:0:0:0:
256,192,0,128,0,1:0:0:0:0:
256,192,0,128,0,1:0:0:0:0:
256,192,0,128,0,1:0:0:0:0:
256,192,0,128,0,1:0:0:0:0:
256,192,0,128,0,1:0:0:0:0:
256,192,0,128,0,1:0:0:0:0:
256,192,0,128,0,1:0:0:0:0:
256,192,0,128,0,1:0:0:0:0:
256,192,0,128,0,1:0:0:0:0:
256,192,0,128,0,1:0:0:0:0:
256,192,0,128,0,1:0:0:0:0:
256,192,0,128,0,1:0:0:0:0:
256,192,0,128,0,1:0:0:0:0:
256,192,0,128,0,1:0:0:0:0:
256,192,0,128,0,1:0:0:0:0:
256,192,0,128,0,1:0:0:0:0:
256,192,0,128,0,1:0:0:0:0:
256,192,0,128,0,1:0:0:0:0:
256,192,0,128,0,1:0:0:0:0:
256,192,0,128,0,1:0:0:0:0:
256,192,0,128,0,1:0:0:0:0:
256,192,0,128,0,1:0:0:0:0:
256,192,0,128,0,1:0:0:0:0:
256,192,0,128,0,1:0:0:0:0:
256,192,0,128,0,1:0:0:0:0:
256,192,0,128,0,1:0:0:0:0:
256,192,0,128,0,1:0:0:0:0:
256,192,0,128,0,1:0:0:0:0:
256,192,0,128,0,1:0:0:0:0:
256,192,0,128,0,1:0:0:0:0:
256,192,0,128,0,1:0:0:0:0:
256,192,0,128,0,1:0:0:0:0:
256,192,0,128,0,1:0:0:0:0:
256,192,0,128,0,1:0:0:0:0:
256,192,0,128,0,1:0:0:0:0:
256,192,0,128,0,1:0:0:0:0:
256,192,0,128,0,1:0:0:0:0:
256,192,0,128,0,1:0:0:0:0:
256,192,0,128,0,1:0:0:0:0:
256,192,0,128,0,1:0:0:0:0:
256,192,0,128,0,1:0:0:0:0:
256,192,0,128,0,1:0:0:0:0:
256,192,0,128,0,1:0:0:0:0:
256,192,0,128,0,1:0:0:0:0:
256,192,0,128,0,1:0:0:0:0:
256,192,0,128,0,1:0:0:0:0:
256,192,0,128,0,1:0:0:0:0:
256,192,0,128,0,1:0:0:0:0:
256,192,0,128,0,1:0:0:0:0:
256,192,0,128,0,1:0:0:0:0:
256,192,0,128,0,1:0:0:0:0:
256,192,0,128,0,1:0:0:0:0:
256,192,0,128,0,1:0:0:0:0:
256,192,0,128,0,1:0:0:0:0:
256,192,0,128,0,1:0:0:0:0:
256,192,0,128,0,1:0:0:0:0:
256,192,0,128,0,1:0:0:0:0:
256,192,0,128,0,1:0:0:0:0:
256,192,0,128,0,1:0:0:0:0:
256,192,0,128,0,1:0:0:0:0:
256,192,0,128,0,1:0:0:0:0:
256,192,0,128,0,1:0:0:0:0:
256,192,0,128,0,1:0:0:0:0:
256,192,0,128,0,1:0:0:0:0:
256,192,0,128,0,1:0:0:0:0:
256,192,0,128,0,1:0:0:0:0:
256,192,0,128,0,1:0:0:0:0:
256,192,0,128,0,1:0:0:0:0:
256,192,0,128,0,1:0:0:0:0:
256,192,0,128,0,1:0:0:0:0:
256,192,0,128,0,1:0:0:0:0:
256,192,0,128,0,1:0:0:0:0:
256,192,0,128,0,1:0:0:0:0:
256,192,0,128,0,1:0:0:0:0:
256,192,0,128,0,1:0:0:0:0:
256,192,0,128,0,1:0:0:0:0:
256,192,0,128,0,1:0:0:0:0:
256,192,0,128,0,1:0:0:0:0:
256,192,0,128,0,1:0:0:0:0:
256,192,0,128,0,1:0:0:0:0:
256,192,0,128,0,1:0:0:0:0:
256,192,0,128,0,1:0:0:0:0:
256,192,0,128,0,1:0:0:0:0:
256,192,0,128,0,1:0:0:0:0:
256,192,0,128,0,1:0:0:0:0:
256,192,0,128,0,1:0:0:0:0:
256,192,0,128,0,1:0:0:0:0:
256,192,0,128,0,1:0:0:0:0:
256,192,0,128,0,1:0:0:0:0:
256,192,0,128,0,1:0:0:0:0:
256,192,0,128,0,1:0:0:0:0:
256,192,0,128,0,1:0:0:0:0:
256,192,0,128,0,1:0:0:0:0:
256,192,0,128,0,1:0:0:0:0:
256,192,0,128,0,1:0:0:0:0:
256,192,0,128,0,1:0:0:0:0:
256,192,0,128,0,1:0:0:0:0:
256,192,0,128,0,1:0:0:0:0:
256,192,0,128,0,1:0:0:0:0:
256,192,0,128,0,1:0:0:0:0:
256,192,0,128,0,1:0:0:0:0:
256,192,0,128,0,1:0:0:0:0:
256,192,0,128,0,1:0:0:0:0:
256,192,0,128,0,1:0:0:0:0:
256,192,0,128,0,1:0:0:0:0:
256,192,0,128,0,1:0:0:0:0:
256,192,0,128,0,1:0:0:0:0:
256,192,0,128,0,1:0:0:0:0:
256,192,0,128,0,1:0:0:0:0:
256,192,0,128,0,1:0:0:0:0:
256,192,0,128,0,1:0:0:0:0:
256,192,0,128,0,1:0:0:0:0:
256,192,0,128,0,1:0:0:0:0:
256,192,0,128,0,1:0:0:0:0:
256,192,0,128,0,1:0:0:0:0:
256,192,0,128,0,1:0:0:0:0:
256,192,0,128,0,1:0:0:0:0:
256,192,0,128,0,1:0:0:0:0:
256,192,0,128,0,1:0:0:0:0:
256,192,0,128,0,1:0:0:0:0:
256,192,0,128,0,1:0:0:0:0:
256,192,0,128,0,1:0:0:0:0:
256,192,0,128,0,1:0:0:0:0:
256,192,0,128,0,1:0:0:0:0:
256,192,0,128,0,1:0:0:0:0:
256,192,0,128,0,1:0:0:0:0:
256,192,0,128,0,1:0:0:0:0:
256,192,0,128,0,1:0:0:0:0:
256,192,0,128,0,1:0:0:0:0:
256,192,0,128,0,1:0:0:0:0:
256,192,0,128,0,1:0:0:0:0:
256,192,0,128,0,1:0:0:0:0:
256,192,0,128,0,1:0:0:0:0:
256,192,0,128,0,1:0:0:0:0:
256,192,0,128,0,1:0:0:0:0:
256,192,0,128,0,1:0:0:0:0:
256,192,0,128,0,1:0:0:0:0:
256,192,0,128,0,1:0:0:0:0:
256,192,0,128,0,1:0:0:0:0:
256,192,0,128,0,1:0:0:0:0:
256,192,0,128,0,1:0:0:0:0:
256,192,0,128,0,1:0:0:0:0:
256,192,0,128,0,1:0:0:0:0:
256,192,0,128,0,1:0:0:0:0:
256,192,0,128,0,1:0:0:0:0:
256,192,0,128,0,1:0:0:0:0:
256,192,0,128,0,1:0:0:0:0:
256,192,0,128,0,1:0:0:0:0:
256,192,0,128,0,1:0:0:0:0:
256,192,0,128,0,1:0:0:0:0:
256,192,0,128,0,1:0:0:0:0:
256,192,0,128,0,1:0:0:0:0:
256,192,0,128,0,1:0:0:0:0:
256,192,0,128,0,1:0:0:0:0:
256,192,0,128,0,1:0:0:0:0:
256,192,0,128,0,1:0:0:0:0:
256,192,0,128,0,1:0:0:0:0:
256,192,0,128,0,1:0:0:0:0:
256,192,0,128,0,1:0:0:0:0:
256,192,0,128,0,1:0:0:0:0:
256,192,0,128,0,1:0:0:0:0:
256,192,0,128,0,1:0:0:0:0:
256,192,0,128,0,1:0:0:0:0:
256,192,0,128,0,1:0:0:0:0:
256,192,0,128,0,1:0:0:0:0:
256,192,0,128,0,1:0:0:0:0:
256,192,0,128,0,1:0:0:0:0:
256,192,0,128,0,1:0:0:0:0:
256,192,0,128,0,1:0:0:0:0:
256,192,0,128,0,1:0:0:0:0:
256,192,0,128,0,1:0:0:0:0:
256,192,0,128,0,1:0:0:0:0:
256,192,0,128,0,1:0:0:0:0:
256,192,0,128,0,1:0:0:0:0:
256,192,0,128,0,1:0:0:0:0:
256,192,0,128,0,1:0:0:0:0:
256,192,0,128,0,1:0:0:0:0:
256,192,0,128,0,1:0:0:0:0:
256,192,0,128,0,1:0:0:0:0:
256,192,0,128,0,1:0:0:0:0:
256,192,0,128,0,1:0:0:0:0:
256,192,0,128,0,1:0:0:0:0:
256,192,0,128,0,1:0:0:0:0:
256,192,0,128,0,1:0:0:0:0:
256,192,0,128,0,1:0:0:0:0:
256,192,0,128,0,1:0:0:0:0:
256,192,0,128,0,1:0:0:0:0:
256,192,0,128,0,1:0:0:0:0:
256,192,0,128,0,1:0:0:0:0:
256,192,0,128,0,1:0:0:0:0:
256,192,0,128,0,1:0:0:0:0:
256,192,0,128,0,1:0:0:0:0:
256,192,0,128,0,1:0:0:0:0:
256,192,0,128,0,1:0:0:0:0:
256,192,0,128,0,1:0:0:0:0:
256,192,0,128,0,1:0:0:0:0:
256,192,0,128,0,1:0:0:0:0:
256,192,0,128,0,1:0:0:0:0:
256,192,0,128,0,1:0:0:0:0:
256,192,0,128,0,1:0:0:0:0:
256,192,0,128,0,1:0:0:0:0:
256,192,0,128,0,1:0:0:0:0:
256,192,0,128,0,1:0:0:0:0:
256,192,0,128,0,1:0:0:0:0:
256,192,0,128,0,1:0:0:0:0:
256,192,0,128,0,1:0:0:0:0:
256,192,0,128,0,1:0:0:0:0:
256,192,0,128,0,1:0:0:0:0:
256,192,0,128,0,1:0:0:0:0:
256,192,0,128,0,1:0:0:0:0:
256,192,0,128,0,1:0:0:0:0:
256,192,0,128,0,1:0:0:0:0:
256,192,0,128,0,1:0:0:0:0:
256,192,0,128,0,1:0:0:0:0:
256,192,0,128,0,1:0:0:0:0:
256,192,0,128,0,1:0:0:0:0:
256,192,0,128,0,1:0:0:0:0:
256,192,0,128,0,1:0:0:0:0:
256,192,0,128,0,1:0:0:0:0:
256,192,0,128,0,1:0:0:0:0:
256,192,0,128,0,1:0:0:0:0:
256,192,0,128,0,1:0:0:0:0:
256,192,0,128,0,1:0:0:0:0:
256,192,0,128,0,1:0:0:0:0:
256,192,0,128,0,1:0:0:0:0:
256,192,0,128,0,1:0:0:0:0:
256,192,0,128,0,1:0:0:0:0:
256,192,0,128,0,1:0:0:0:0:
256,192,0,128,0,1:0:0:0:0:
256,192,0,128,0,1:0:0:0:0:
256,192,0,128,0,1:0:0:0:0:
256,192,0,128,0,1:0:0:0:0:
256,192,0,128,0,1:0:0:0:0:
256,192,0,128,0,1:0:0:0:0:
256,192,0,128,0,1:0:0:0:0:
256,192,0,128,0,1:0:0:0:0:
256,192,0,128,0,1:0:0:0:0:
256,192,0,128,0,1:0:0:0:0:
256,192,0,128,0,1:0:0:0:0:
256,192,0,128,0,1:0:0:0:0:
256,192,0,128,0,1:0:0:0:0:
256,192,0,128,0,1:0:0:0:0:
256,192,0,128,0,1:0:0:0:0:
256,192,0,128,0,1:0:0:0:0:
256,192,0,128,0,1:0:0:0:0:
256,192,0,128,0,1:0:0:0:0:
256,192,0,128,0,1:0:0:0:0:
256,192,0,128,0,1:0:0:0:0:
256,192,0,128,0,1:0:0:0:0:
256,192,0,128,0,1:0:0:0:0:
256,192,0,128,0,1:0:0:0:0:
256,192,0,128,0,1:0:0:0:0:
256,192,0,128,0,1:0:0:0:0:
256,192,0,128,0,1:0:0:0:0:
256,192,0,128,0,1:0:0:0:0:
256,192,0,128,0,1:0:0:0:0:
256,192,0,128,0,1:0:0:0:0:
256,192,0,128,0,1:0:0:0:0:
256,192,0,128,0,1:0:0:0:0:
256,192,0,128,0,1:0:0:0:0:
256,192,0,128,0,1:0:0:0:0:
256,192,0,128,0,1:0:0:0:0:
256,192,0,128,0,1:0:0:0:0:
256,192,0,128,0,1:0:0:0:0:
256,192,0,128,0,1:0:0:0:0:
256,192,0,128,0,1:0:0:0:0:
256,192,0,128,0,1:0:0:0:0:
256,192,0,128,0,1:0:0:0:0:
256,192,0,128,0,1:0:0:0:0:
256,192,0,128,0,1:0:0:0:0:
256,192,0,128,0,1:0:0:0:0:
256,192,0,128,0,1:0:0:0:0:
256,192,0,128,0,1:0:0:0:0:
256,192,0,128,0,1:0:0:0:0:
256,192,0,128,0,1:0:0:0:0:
256,192,0,128,0,1:0:0:0:0:
256,192,0,128,0,1:0:0:0:0:
256,192,0,128,0,1:0:0:0:0:
256,192,0,128,0,1:0:0:0:0:
256,192,0,128,0,1:0:0:0:0:
256,192,0,128,0,1:0:0:0:0:
256,192,0,128,0,1:0:0:0:0:
256,192,0,128,0,1:0:0:0:0:
256,192,0,128,0,1:0:0:0:0:
256,192,0,128,0,1:0:0:0:0:
256,192,0,128,0,1:0:0:0:0:
256,192,0,128,0,1:0:0:0:0:
256,192,0,128,0,1:0:0:0:0:
256,192,0,128,0,1:0:0:0:0:
256,192,0,128,0,1:0:0:0:0:
256,192,0,128,0,1:0:0:0:0:
256,192,0,128,0,1:0:0:0:0:
256,192,0,128,0,1:0:0:0:0:
256,192,0,128,0,1:0:0:0:0:
256,192,0,128,0,1:0:0:0:0:
256,192,0,128,0,1:0:0:0:0:
256,192,0,128,0,1:0:0:0:0:
256,192,0,128,0,1:0:0:0:0:
256,192,0,128,0,1:0:0:0:0:
256,192,0,128,0,1:0:0:0:0:
256,192,0,128,0,1:0:0:0:0:
256,192,0,128,0,1:0:0:0:0:
256,192,0,128,0,1:0:0:0:0:
256,192,0,128,0,1:0:0:0:0:
256,192,0,128,0,1:0:0:0:0:
256,192,0,128,0,1:0:0:0:0:
256,192,0,128,0,1:0:0:0:0:
256,192,0,128,0,1:0:0:0:0:
256,192,0,128,0,1:0:0:0:0:
256,192,0,128,0,1:0:0:0:0:
256,192,0,128,0,1:0:0:0:0:
256,192,0,128,0,1:0:0:0:0:
256,192,0,128,0,1:0:0:0:0:
256,192,0,128,0,1:0:0:0:0:
256,192,0,128,0,1:0:0:0:0:
256,192,0,128,0,1:0:0:0:0:
256,192,0,128,0,1:0:0:0:0:
256,192,0,128,0,1:0:0:0:0:
256,192,0,128,0,1:0:0:0:0:
256,192,0,128,0,1:0:0:0:0:
256,192,0,128,0,1:0:0:0:0:
256,192,0,128,0,1:0:0:0:0:
256,192,0,128,0,1:0:0:0:0:
256,192,0,128,0,1:0:0:0:0:
256,192,0,128,0,1:0:0:0:0:
256,192,0,128,0,1:0:0:0:0:
256,192,0,128,0,1:0:0:0:0:
256,192,0,128,0,1:0:0:0:0:
256,192,0,128,0,1:0:0:0:0:
256,192,0,128,0,1:0:0:0:0:
256,192,0,128,0,1:0:0:0:0:
256,192,0,128,0,1:0:0:0:0:
256,192,0,128,0,1:0:0:0:0:
256,192,0,128,0,1:0:0:0:0:
256,192,0,128,0,1:0:0:0:0:
256,192,0,128,0,1:0:0:0:0:
256,192,0,128,0,1:0:0:0:0:
256,192,0,128,0,1:0:0:0:0:
256,192,0,128,0,1:0:0:0:0:
256,192,0,128,0,1:0:0:0:0:
256,192,0,128,0,1:0:0:0:0:
256,192,0,128,0,1:0:0:0:0:
256,192,0,128,0,1:0:0:0:0:
256,192,0,128,0,1:0:0:0:0:
256,192,0,128,0,1:0:0:0:0:
256,192,0,128,0,1:0:0:0:0:
256,192,0,128,0,1:0:0:0:0:
256,192,0,128,0,1:0:0:0:0:
256,192,0,128,0,1:0:0:0:0:
256,192,0,128,0,1:0:0:0:0:
256,192,0,128,0,1:0:0:0:0:
256,192,0,128,0,1:0:0:0:0:
256,192,0,128,0,1:0:0:0:0:
256,192,0,128,0,1:0:0:0:0:
256,192,0,128,0,1:0:0:0:0:
256,192,0,128,0,1:0:0:0:0:
256,192,0,128,0,1:0:0:0:0:
256,192,0,128,0,1:0:0:0:0:
256,192,0,128,0,1:0:0:0:0:
256,192,0,128,0,1:0:0:0:0:
256,192,0,128,0,1:0:0:0:0:
256,192,0,128,0,1:0:0:0:0:
256,192,0,128,0,1:0:0:0:0:
256,192,0,128,0,1:0:0:0:0:
256,192,0,128,0,1:0:0:0:0:
256,192,0,128,0,1:0:0:0:0:
256,192,0,128,0,1:0:0:0:0:
256,192,0,128,0,1:0:0:0:0:
256,192,0,128,0,1:0:0:0:0:
256,192,0,128,0,1:0:0:0:0:
256,192,0,128,0,1:0:0:0:0:
256,192,0,128,0,1:0:0:0:0:
256,192,0,128,0,1:0:0:0:0:
256,192,0,128,0,1:0:0:0:0:
256,192,0,128,0,1:0:0:0:0:
256,192,0,128,0,1:0:0:0:0:
256,192,0,128,0,1:0:0:0:0:
256,192,0,128,0,1:0:0:0:0:
256,192,0,128,0,1:0:0:0:0:
256,192,0,128,0,1:0:0:0:0:
256,192,0,128,0,1:0:0:0:0:
256,192,0,128,0,1:0:0:0:0:
256,192,0,128,0,1:0:0:0:0:
256,192,0,128,0,1:0:0:0:0:
256,192,0,128,0,1:0:0:0:0:
256,192,0,128,0,1:0:0:0:0:
256,192,0,128,0,1:0:0:0:0:
256,192,0,128,0,1:0:0:0:0:
256,192,0,128,0,1:0:0:0:0:
256,192,0,128,0,1:0:0:0:0:
256,192,0,128,0,1:0:0:0:0:
256,192,0,128,0,1:0:0:0:0:
256,192,0,128,0,1:0:0:0:0:
256,192,0,128,0,1:0:0:0:0:
256,192,0,128,0,1:0:0:0:0:
256,192,0,128,0,1:0:0:0:0:
256,192,0,128,0,1:0:0:0:0:
256,192,0,128,0,1:0:0:0:0:
256,192,0,128,0,1:0:0:0:0:
256,192,0,128,0,1:0:0:0:0:
256,192,0,128,0,1:0:0:0:0:
256,192,0,128,0,1:0:0:0:0:
256,192,0,128,0,1:0:0:0:0:
256,192,0,128,0,1:0:0:0:0:
256,192,0,128,0,1:0:0:0:0:
256,192,0,128,0,1:0:0:0:0:
256,192,0,128,0,1:0:0:0:0:
256,192,0,128,0,1:0:0:0:0:
256,192,0,128,0,1:0:0:0:0:
256,192,0,128,0,1:0:0:0:0:
256,192,0,128,0,1:0:0:0:0:
256,192,0,128,0,1:0:0:0:0:
256,192,0,128,0,1:0:0:0:0:
256,192,0,128,0,1:0:0:0:0:
256,192,0,128,0,1:0:0:0:0:
256,192,0,128,0,1:0:0:0:0:
256,192,0,128,0,1:0:0:0:0:
256,192,0,128,0,1:0:0:0:0:
256,192,0,128,0,1:0:0:0:0:
256,192,0,128,0,1:0:0:0:0:
256,192,0,128,0,1:0:0:0:0:
256,192,0,128,0,1:0:0:0:0:
256,192,0,128,0,1:0:0:0:0:
256,192,0,128,0,1:0:0:0:0:
256,192,0,128,0,1:0:0:0:0:
256,192,0,128,0,1:0:0:0:0:
256,192,0,128,0,1:0:0:0:0:
256,192,0,128,0,1:0:0:0:0:
256,192,0,128,0,1:0:0:0:0:
256,192,0,128,0,1:0:0:0:0:
256,192,0,128,0,1:0:0:0:0:
256,192,0,128,0,1:0:0:0:0:
256,192,0,128,0,1:0:0:0:0:
256,192,0,128,0,1:0:0:0:0:
256,192,0,128,0,1:0:0:0:0:
256,192,0,128,0,1:0:0:0:0:
256,192,0,128,0,1:0:0:0:0:
256,192,0,128,0,1:0:0:0:0:
256,192,0,128,0,1:0:0:0:0:
256,192,0,128,0,1:0:0:0:0:
256,192,0,128,0,1:0:0:0:0:
256,192,0,128,0,1:0:0:0:0:
256,192,0,128,0,1:0:0:0:0:
256,192,0,128,0,1:0:0:0:0:
256,192,0,128,0,1:0:0:0:0:
256,192,0,128,0,1:0:0:0:0:
256,192,0,128,0,1:0:0:0:0:
256,192,0,128,0,1:0:0:0:0:
256,192,0,128,0,1:0:0:0:0:
256,192,0,128,0,1:0:0:0:0:
256,192,0,128,0,1:0:0:0:0:
256,192,0,128,0,1:0:0:0:0:
256,192,0,128,0,1:0:0:0:0:
256,192,0,128,0,1:0:0:0:0:
256,192,0,128,0,1:0:0:0:0:
256,192,0,128,0,1:0:0:0:0:
256,192,0,128,0,1:0:0:0:0:
256,192,0,128,0,1:0:0:0:0:
256,192,0,128,0,1:0:0:0:0:
256,192,0,128,0,1:0:0:0:0:
256,192,0,128,0,1:0:0:0:0:
256,192,0,128,0,1:0:0:0:0:
256,192,0,128,0,1:0:0:0:0:
256,192,0,128,0,1:0:0:0:0:
256,192,0,128,0,1:0:0:0:0:
256,192,0,128,0,1:0:0:0:0:
256,192,0,128,0,1:0:0:0:0:
256,192,0,128,0,1:0:0:0:0:
256,192,0,128,0,1:0:0:0:0:
256,192,0,128,0,1:0:0:0:0:
256,192,0,128,0,1:0:0:0:0:
256,192,0,128,0,1:0:0:0:0:
256,192,0,128,0,1:0:0:0:0:
256,192,0,128,0,1:0:0:0:0:
256,192,0,128,0,1:0:0:0:0:
256,192,0,128,0,1:0:0:0:0:
256,192,0,128,0,1:0:0:0:0:
256,192,0,128,0,1:0:0:0:0:
256,192,0,128,0,1:0:0:0:0:
256,192,0,128,0,1:0:0:0:0:
256,192,0,128,0,1:0:0:0:0:
256,192,0,128,0,1:0:0:0:0:
256,192,0,128,0,1:0:0:0:0:
256,192,0,128,0,1:0:0:0:0:
256,192,0,128,0,1:0:0:0:0:
256,192,0,128,0,1:0:0:0:0:
256,192,0,128,0,1:0:0:0:0:
256,192,0,128,0,1:0:0:0:0:
256,192,0,128,0,1:0:0:0:0:
256,192,0,128,0,1:0:0:0:0:
256,192,0,128,0,1:0:0:0:0:
256,192,0,128,0,1:0:0:0:0:
256,192,0,128,0,1:0:0:0:0:
256,192,0,128,0,1:0:0:0:0:
256,192,0,128,0,1:0:0:0:0:
256,192,0,128,0,1:0:0:0:0:
256,192,0,128,0,1:0:0:0:0:
256,192,0,128,0,1:0:0:0:0:
256,192,0,128,0,1:0:0:0:0:
256,192,0,128,0,1:0:0:0:0:
256,192,0,128,0,1:0:0:0:0:
256,192,0,128,0,1:0:0:0:0:
256,192,0,128,0,1:0:0:0:0:
256,192,0,128,0,1:0:0:0:0:
256,192,0,128,0,1:0:0:0:0:
256,192,0,128,0,1:0:0:0:0:
256,192,0,128,0,1:0:0:0:0:
256,192,0,128,0,1:0:0:0:0:
256,192,0,128,0,1:0:0:0:0:
256,192,0,128,0,1:0:0:0:0:
256,192,0,128,0,1:0:0:0:0:
256,192,0,128,0,1:0:0:0:0:
256,192,0,128,0,1:0:0:0:0:
256,192,0,128,0,1:0:0:0:0:
256,192,0,128,0,1:0:0:0:0:
256,192,0,128,0,1:0:0:0:0:
256,192,0,128,0,1:0:0:0:0:
256,192,0,128,0,1:0:0:0:0:
256,192,0,128,0,1:0:0:0:0:
256,192,0,128,0,1:0:0:0:0:
256,192,0,128,0,1:0:0:0:0:
256,192,0,128,0,1:0:0:0:0:
256,192,0,128,0,1:0:0:0:0:
256,192,0,128,0,1:0:0:0:0:
256,192,0,128,0,1:0:0:0:0:
256,192,0,128,0,1:0:0:0:0:
256,192,0,128,0,1:0:0:0:0:
256,192,0,128,0,1:0:0:0:0:
256,192,0,128,0,1:0:0:0:0:
256,192,0,128,0,1:0:0:0:0:
256,192,0,128,0,1:0:0:0:0:
256,192,0,128,0,1:0:0:0:0:
256,192,0,128,0,1:0:0:0:0:
256,192,0,128,0,1:0:0:0:0:
256,192,0,128,0,1:0:0:0:0:
256,192,0,128,0,1:0:0:0:0:
256,192,0,128,0,1:0:0:0:0:
256,192,0,128,0,1:0:0:0:0:
256,192,0,128,0,1:0:0:0:0:
256,192,0,128,0,1:0:0:0:0:
256,192,0,128,0,1:0:0:0:0:
256,192,0,128,0,1:0:0:0:0:
256,192,0,128,0,1:0:0:0:0:
256,192,0,128,0,1:0:0:0:0:
256,192,0,128,0,1:0:0:0:0:
256,192,0,128,0,1:0:0:0:0:
256,192,0,128,0,1:0:0:0:0:
256,192,0,128,0,1:0:0:0:0:
256,192,0,128,0,1:0:0:0:0:
256,192,0,128,0,1:0:0:0:0:
256,192,0,128,0,1:0:0:0:0:
256,192,0,128,0,1:0:0:0:0:
256,192,0,128,0,1:0:0:0:0:
256,192,0,128,0,1:0:0:0:0:
256,192,0,128,0,1:0:0:0:0:
256,192,0,128,0,1:0:0:0:0:
256,192,0,128,0,1:0:0:0:0:
256,192,0,128,0,1:0:0:0:0:
256,192,0,128,0,1:0:0:0:0:
256,192,0,128,0,1:0:0:0:0:
256,192,0,128,0,1:0:0:0:0:
256,192,0,128,0,1:0:0:0:0:
256,192,0,128,0,1:0:0:0:0:
256,192,0,128,0,1:0:0:0:0:
256,192,0,128,0,1:0:0:0:0:
256,192,0,128,0,1:0:0:0:0:
256,192,0,128,0,1:0:0:0:0:
256,192,0,128,0,1:0:0:0:0:
256,192,0,128,0,1:0:0:0:0:
256,192,0,128,0,1:0:0:0:0:
256,192,0,128,0,1:0:0:0:0:
256,192,0,128,0,1:0:0:0:0:
256,192,0,128,0,1:0:0:0:0:
256,192,0,128,0,1:0:0:0:0:
256,192,0,128,0,1:0:0:0:0:
256,192,0,128,0,1:0:0:0:0:
256,192,0,128,0,1:0:0:0:0:
256,192,0,128,0,1:0:0:0:0:
256,192,0,128,0,1:0:0:0:0:
256,192,0,128,0,1:0:0:0:0:
256,192,0,128,0,1:0:0:0:0:
256,192,0,128,0,1:0:0:0:0:
256,192,0,128,0,1:0:0:0:0:
256,192,0,128,0,1:0:0:0:0:
256,192,0,128,0,1:0:0:0:0:
256,192,0,128,0,1:0:0:0:0:
256,192,0,128,0,1:0:0:0:0:
256,192,0,128,0,1:0:0:0:0:
256,192,0,128,0,1:0:0:0:0:
256,192,0,128,0,1:0:0:0:0:
256,192,0,128,0,1:0:0:0:0:
256,192,0,128,0,1:0:0:0:0:
256,192,0,128,0,1:0:0:0:0:
256,192,0,128,0,1:0:0:0:0:
256,192,0,128,0,1:0:0:0:0:
256,192,0,128,0,1:0:0:0:0:
256,192,0,128,0,1:0:0:0:0:
256,192,0,128,0,1:0:0:0:0:
256,192,0,128,0,1:0:0:0:0:
256,192,0,128,0,1:0:0:0:0:
256,192,0,128,0,1:0:0:0:0:
256,192,0,128,0,1:0:0:0:0:
256,192,0,128,0,1:0:0:0:0:
256,192,0,128,0,1:0:0:0:0:
256,192,0,128,0,1:0:0:0:0:
256,192,0,128,0,1:0:0:0:0:
256,192,0,128,0,1:0:0:0:0:
256,192,0,128,0,1:0:0:0:0:
256,192,0,128,0,1:0:0:0:0:
256,192,0,128,0,1:0:0:0:0:
256,192,0,128,0,1:0:0:0:0:
256,192,0,128,0,1:0:0:0:0:
256,192,0,128,0,1:0:0:0:0:
256,192,0,128,0,1:0:0:0:0:
256,192,0,128,0,1:0:0:0:0:
256,192,0,128,0,1:0:0:0:0:
256,192,0,128,0,1:0:0:0:0:
256,192,0,128,0,1:0:0:0:0:
256,192,0,128,0,1:0:0:0:0:
256,192,0,128,0,1:0:0:0:0:
256,192,0,128,0,1:0:0:0:0:
256,192,0,128,0,1:0:0:0:0:
256,192,0,128,0,1:0:0:0:0:
256,192,0,128,0,1:0:0:0:0:
256,192,0,128,0,1:0:0:0:0:
256,192,0,128,0,1:0:0:0:0:
256,192,0,128,0,1:0:0:0:0:
256,192,0,128,0,1:0:0:0:0:
256,192,0,128,0,1:0:0:0:0:
256,192,0,128,0,1:0:0:0:0:
256,192,0,128,0,1:0:0:0:0:
256,192,0,128,0,1:0:0:0:0:
256,192,0,128,0,1:0:0:0:0:
256,192,0,128,0,1:0:0:0:0:
256,192,0,128,0,1:0:0:0:0:
256,192,0,128,0,1:0:0:0:0:
256,192,0,128,0,1:0:0:0:0:
256,192,0,128,0,1:0:0:0:0:
256,192,0,128,0,1:0:0:0:0:
256,192,0,128,0,1:0:0:0:0:
256,192,0,128,0,1:0:0:0:0:
256,192,0,128,0,1:0:0:0:0:
256,192,0,128,0,1:0:0:0:0:
256,192,0,128,0,1:0:0:0:0:
256,192,0,128,0,1:0:0:0:0:
256,192,0,128,0,1:0:0:0:0:
256,192,0,128,0,1:0:0:0:0:
256,192,0,128,0,1:0:0:0:0:
256,192,0,128,0,1:0:0:0:0:
256,192,0,128,0,1:0:0:0:0:
256,192,0,128,0,1:0:0:0:0:
256,192,0,128,0,1:0:0:0:0:
256,192,0,128,0,1:0:0:0:0:
256,192,0,128,0,1:0:0:0:0:
256,192,0,128,0,1:0:0:0:0:
256,192,0,128,0,1:0:0:0:0:
256,192,0,128,0,1:0:0:0:0:
256,192,0,128,0,1:0:0:0:0:
256,192,0,128,0,1:0:0:0:0:
256,192,0,128,0,1:0:0:0:0:
256,192,0,128,0,1:0:0:0:0:
256,192,0,128,0,1:0:0:0:0:
256,192,0,128,0,1:0:0:0:0:
256,192,0,128,0,1:0:0:0:0:
256,192,0,128,0,1:0:0:0:0:
256,192,0,128,0,1:0:0:0:0:
256,192,0,128,0,1:0:0:0:0:
256,192,0,128,0,1:0:0:0:0:
256,192,0,128,0,1:0:0:0:0:
256,192,0,128,0,1:0:0:0:0:
256,192,0,128,0,1:0:0:0:0:
256,192,0,128,0,1:0:0:0:0:
256,192,0,128,0,1:0:0:0:0:
256,192,0,128,0,1:0:0:0:0:
256,192,0,128,0,1:0:0:0:0:
256,192,0,128,0,1:0:0:0:0:
256,192,0,128,0,1:0:0:0:0:
256,192,0,128,0,1:0:0:0:0:
256,192,0,128,0,1:0:0:0:0:
256,192,0,128,0,1:0:0:0:0:
256,192,0,128,0,1:0:0:0:0:
256,192,0,128,0,1:0:0:0:0:
256,192,0,128,0,1:0:0:0:0:
256,192,0,128,0,1:0:0:0:0:
256,192,0,128,0,1:0:0:0:0:
256,192,0,128,0,1:0:0:0:0:
256,192,0,128,0,1:0:0:0:0:
256,192,0,128,0,1:0:0:0:0:
256,192,0,128,0,1:0:0:0:0:
256,192,0,128,0,1:0:0:0:0:
256,192,0,128,0,1:0:0:0:0:
256,192,0,128,0,1:0:0:0:0:
256,192,0,128,0,1:0:0:0:0:
256,192,0,128,0,1:0:0:0:0:
256,192,0,128,0,1:0:0:0:0:
256,192,0,128,0,1:0:0:0:0:
256,192,0,128,0,1:0:0:0:0:
256,192,0,128,0,1:0:0:0:0:
256,192,0,128,0,1:0:0:0:0:
256,192,0,128,0,1:0:0:0:0:
256,192,0,128,0,1:0:0:0:0:
256,192,0,128,0,1:0:0:0:0:
256,192,0,128,0,1:0:0:0:0:
256,192,0,128,0,1:0:0:0:0:
256,192,0,128,0,1:0:0:0:0:
256,192,0,128,0,1:0:0:0:0:
256,192,0,128,0,1:0:0:0:0:
256,192,0,128,0,1:0:0:0:0:
256,192,0,128,0,1:0:0:0:0:
256,192,0,128,0,1:0:0:0:0:
256,192,0,128,0,1:0:0:0:0:
256,192,0,128,0,1:0:0:0:0:
256,192,0,128,0,1:0:0:0:0:
256,192,0,128,0,1:0:0:0:0:
256,192,0,128,0,1:0:0:0:0:
256,192,0,128,0,1:0:0:0:0:
256,192,0,128,0,1:0:0:0:0:
256,192,0,128,0,1:0:0:0:0:
256,192,0,128,0,1:0:0:0:0:
256,192,0,128,0,1:0:0:0:0:
256,192,0,128,0,1:0:0:0:0:
256,192,0,128,0,1:0:0:0:0:
256,192,0,128,0,1:0:0:0:0:
256,192,0,128,0,1:0:0:0:0:
256,192,0,128,0,1:0:0:0:0:
256,192,0,128,0,1:0:0:0:0:
256,192,0,128,0,1:0:0:0:0:
256,192,0,128,0,1:0:0:0:0:
256,192,0,128,0,1:0:0:0:0:
256,192,0,128,0,1:0:0:0:0:
256,192,0,128,0,1:0:0:0:0:
256,192,0,128,0,1:0:0:0:0:
256,192,0,128,0,1:0:0:0:0:
256,192,0,128,0,1:0:0:0:0:
256,192,0,128,0,1:0:0:0:0:
256,192,0,128,0,1:0:0:0:0:
256,192,0,128,0,1:0:0:0:0:
256,192,0,128,0,1:0:0:0:0:
256,192,0,128,0,1:0:0:0:0:
256,192,0,128,0,1:0:0:0:0:
256,192,0,128,0,1:0:0:0:0:
256,192,0,128,0,1:0:0:0:0:
256,192,0,128,0,1:0:0:0:0:
256,192,0,128,0,1:0:0:0:0:
256,192,0,128,0,1:0:0:0:0:
256,192,0,128,0,1:0:0:0:0:
256,192,0,128,0,1:0:0:0:0:
256,192,0,128,0,1:0:0:0:0:
256,192,0,128,0,1:0:0:0:0:
256,192,0,128,0,1:0:0:0:0:
256,192,0,128,0,1:0:0:0:0:
256,192,0,128,0,1:0:0:0:0:
256,192,0,128,0,1:0:0:0:0:
256,192,0,128,0,1:0:0:0:0:
256,192,0,128,0,1:0:0:0:0:
256,192,0,128,0,1:0:0:0:0:
256,192,0,128,0,1:0:0:0:0:
256,192,0,128,0,1:0:0:0:0:
256,192,0,128,0,1:0:0:0:0:
256,192,0,128,0,1:0:0:0:0:
256,192,0,128,0,1:0:0:0:0:
256,192,0,128,0,1:0:0:0:0:
256,192,0,128,0,1:0:0:0:0:
256,192,0,128,0,1:0:0:0:0:
256,192,0,128,0,1:0:0:0:0:
256,192,0,128,0,1:0:0:0:0:
256,192,0,128,0,1:0:0:0:0:
256,192,0,128,0,1:0:0:0:0:
256,192,0,128,0,1:0:0:0:0:
256,192,0,128,0,1:0:0:0:0:
256,192,0,128,0,1:0:0:0:0:
256,192,0,128,0,1:0:0:0:0:
256,192,0,128,0,1:0:0:0:0:
256,192,0,128,0,1:0:0:0:0:
256,192,0,128,0,1:0:0:0:0:
256,192,0,128,0,1:0:0:0:0:
256,192,0,128,0,1:0:0:0:0:
256,192,0,128,0,1:0:0:0:0:
256,192,0,128,0,1:0:0:0:0:
256,192,0,128,0,1:0:0:0:0:
256,192,0,128,0,1:0:0:0:0:
256,192,0,128,0,1:0:0:0:0:
256,192,0,128,0,1:0:0:0:0:
256,192,0,128,0,1:0:0:0:0:
256,192,0,128,0,1:0:0:0:0:
256,192,0,128,0,1:0:0:0:0:
256,192,0,128,0,1:0:0:0:0:
256,192,0,128,0,1:0:0:0:0:
256,192,0,128,0,1:0:0:0:0:
256,192,0,128,0,1:0:0:0:0:
256,192,0,128,0,1:0:0:0:0:
256,192,0,128,0,1:0:0:0:0:
256,192,0,128,0,1:0:0:0:0:
256,192,0,128,0,1:0:0:0:0:
256,192,0,128,0,1:0:0:0:0:
256,192,0,128,0,1:0:0:0:0:
256,192,0,128,0,1:0:0:0:0:
256,192,0,128,0,1:0:0:0:0:
256,192,0,128,0,1:0:0:0:0:
256,192,0,128,0,1:0:0:0:0:
256,192,0,128,0,1:0:0:0:0:
256,192,0,128,0,1:0:0:0:0:
256,192,0,128,0,1:0:0:0:0:
256,192,0,128,0,1:0:0:0:0:
256,192,0,128,0,1:0:0:0:0:
256,192,0,128,0,1:0:0:0:0:
256,192,0,128,0,1:0:0:0:0:
256,192,0,128,0,1:0:0:0:0:
256,192,0,128,0,1:0:0:0:0:
256,192,0,128,0,1:0:0:0:0:
256,192,0,128,0,1:0:0:0:0:
256,192,0,128,0,1:0:0:0:0:
256,192,0,128,0,1:0:0:0:0:
256,192,0,128,0,1:0:0:0:0:
256,192,0,128,0,1:0:0:0:0:
256,192,0,128,0,1:0:0:0:0:
256,192,0,128,0,1:0:0:0:0:
256,192,0,128,0,1:0:0:0:0:
256,192,0,128,0,1:0:0:0:0:
256,192,0,128,0,1:0:0:0:0:
256,192,0,128,0,1:0:0:0:0:
256,192,0,128,0,1:0:0:0:0:
256,192,0,128,0,1:0:0:0:0:
256,192,0,128,0,1:0:0:0:0:
256,192,0,128,0,1:0:0:0:0:
256,192,0,128,0,1:0:0:0:0:
256,192,0,128,0,1:0:0:0:0:
256,192,0,128,0,1:0:0:0:0:
256,192,0,128,0,1:0:0:0:0:
256,192,0,128,0,1:0:0:0:0:
256,192,0,128,0,1:0:0:0:0:
256,192,0,128,0,1:0:0:0:0:
256,192,0,128,0,1:0:0:0:0:
256,192,0,128,0,1:0:0:0:0:
256,192,0,128,0,1:0:0:0:0:
256,192,0,128,0,1:0:0:0:0:
256,192,0,128,0,1:0:0:0:0:
256,192,0,128,0,1:0:0:0:0:
256,192,0,128,0,1:0:0:0:0:
256,192,0,128,0,1:0:0:0:0:
256,192,0,128,0,1:0:0:0:0:
256,192,0,128,0,1:0:0:0:0:
256,192,0,128,0,1:0:0:0:0:
256,192,0,128,0,1:0:0:0:0:
256,192,0,128,0,1:0:0:0:0:
256,192,0,128,0,1:0:0:0:0:
256,192,0,128,0,1:0:0:0:0:
256,192,0,128,0,1:0:0:0:0:
256,192,0,128,0,1:0:0:0:0:
256,192,0,128,0,1:0:0:0:0:
256,192,0,128,0,1:0:0:0:0:
256,192,0,128,0,1:0:0:0:0:
256,192,0,128,0,1:0:0:0:0:
256,192,0,128,0,1:0:0:0:0:
256,192,0,128,0,1:0:0:0:0:
256,192,0,128,0,1:0:0:0:0:
256,192,0,128,0,1:0:0:0:0:
256,192,0,128,0,1:0:0:0:0:
256,192,0,128,0,1:0:0:0:0:
256,192,0,128,0,1:0:0:0:0:
256,192,0,128,0,1:0:0:0:0:
256,192,0,128,0,1:0:0:0:0:
256,192,0,128,0,1:0:0:0:0:
256,192,0,128,0,1:0:0:0:0:
256,192,0,128,0,1:0:0:0:0:
256,192,0,128,0,1:0:0:0:0:
256,192,0,128,0,1:0:0:0:0:
256,192,0,128,0,1:0:0:0:0:
256,192,0,128,0,1:0:0:0:0:
256,192,0,128,0,1:0:0:0:0:
256,192,0,128,0,1:0:0:0:0:
256,192,0,128,0,1:0:0:0:0:
256,192,0,128,0,1:0:0:0:0:
256,192,0,128,0,1:0:0:0:0:
256,192,0,128,0,1:0:0:0:0:
256,192,0,128,0,1:0:0:0:0:
256,192,0,128,0,1:0:0:0:0:
256,192,0,128,0,1:0:0:0:0:
256,192,0,128,0,1:0:0:0:0:
256,192,0,128,0,1:0:0:0:0:
256,192,0,128,0,1:0:0:0:0:
256,192,0,128,0,1:0:0:0:0:
256,192,0,128,0,1:0:0:0:0:
256,192,0,128,0,1:0:0:0:0:
256,192,0,128,0,1:0:0:0:0:
256,192,0,128,0,1:0:0:0:0:
256,192,0,128,0,1:0:0:0:0:
256,192,0,128,0,1:0:0:0:0:
256,192,0,128,0,1:0:0:0:0:
256,192,0,128,0,1:0:0:0:0:
256,192,0,128,0,1:0:0:0:0:
256,192,0,128,0,1:0:0:0:0:
256,192,0,128,0,1:0:0:0:0:
256,192,0,128,0,1:0:0:0:0:
256,192,0,128,0,1:0:0:0:0:
256,192,0,128,0,1:0:0:0:0:
256,192,0,128,0,1:0:0:0:0:
256,192,0,128,0,1:0:0:0:0:
256,192,0,128,0,1:0:0:0:0:
256,192,0,128,0,1:0:0:0:0:
256,192,0,128,0,1:0:0:0:0:
256,192,0,128,0,1:0:0:0:0:
256,192,0,128,0,1:0:0:0:0:
256,192,0,128,0,1:0:0:0:0:
256,192,0,128,0,1:0:0:0:0:
256,192,0,128,0,1:0:0:0:0:
256,192,0,128,0,1:0:0:0:0:
256,192,0,128,0,1:0:0:0:0:
256,192,0,128,0,1:0:0:0:0:
256,192,0,128,0,1:0:0:0:0:
256,192,0,128,0,1:0:0:0:0:
256,192,0,128,0,1:0:0:0:0:
256,192,0,128,0,1:0:0:0:0:
256,192,0,128,0,1:0:0:0:0:
256,192,0,128,0,1:0:0:0:0:
256,192,0,128,0,1:0:0:0:0:
256,192,0,128,0,1:0:0:0:0:
256,192,0,128,0,1:0:0:0:0:
256,192,0,128,0,1:0:0:0:0:
256,192,0,128,0,1:0:0:0:0:
256,192,0,128,0,1:0:0:0:0:
256,192,0,128,0,1:0:0:0:0:
256,192,0,128,0,1:0:0:0:0:
256,192,0,128,0,1:0:0:0:0:
256,192,0,128,0,1:0:0:0:0:
256,192,0,128,0,1:0:0:0:0:
256,192,0,128,0,1:0:0:0:0:
256,192,0,128,0,1:0:0:0:0:
256,192,0,128,0,1:0:0:0:0:
256,192,0,128,0,1:0:0:0:0:
256,192,0,128,0,1:0:0:0:0:
256,192,0,128,0,1:0:0:0:0:
256,192,0,128,0,1:0:0:0:0:
256,192,0,128,0,1:0:0:0:0:
256,192,0,128,0,1:0:0:0:0:
256,192,0,128,0,1:0:0:0:0:
256,192,0,128,0,1:0:0:0:0:
256,192,0,128,0,1:0:0:0:0:
256,192,0,128,0,1:0:0:0:0:
256,192,0,128,0,1:0:0:0:0:
256,192,0,128,0,1:0:0:0:0:
256,192,0,128,0,1:0:0:0:0:
256,192,0,128,0,1:0:0:0:0:
256,192,0,128,0,1:0:0:0:0:
256,192,0,128,0,1:0:0:0:0:
256,192,0,128,0,1:0:0:0:0:
256,192,0,128,0,1:0:0:0:0:
256,192,0,128,0,1:0:0:0:0:
256,192,0,128,0,1:0:0:0:0:
256,192,0,128,0,1:0:0:0:0:
256,192,0,128,0,1:0:0:0:0:
256,192,0,128,0,1:0:0:0:0:
256,192,0,128,0,1:0:0:0:0:
256,192,0,128,0,1:0:0:0:0:
256,192,0,128,0,1:0:0:0:0:
256,192,0,128,0,1:0:0:0:0:
256,192,0,128,0,1:0:0:0:0:
256,192,0,128,0,1:0:0:0:0:
256,192,0,128,0,1:0:0:0:0:
256,192,0,128,0,1:0:0:0:0:
256,192,0,128,0,1:0:0:0:0:
256,192,0,128,0,1:0:0:0:0:
256,192,0,128,0,1:0:0:0:0:
256,192,0,128,0,1:0:0:0:0:
256,192,0,128,0,1:0:0:0:0:
256,192,0,128,0,1:0:0:0:0:
256,192,0,128,0,1:0:0:0:0:
256,192,0,128,0,1:0:0:0:0:
256,192,0,128,0,1:0:0:0:0:
256,192,0,128,0,1:0:0:0:0:
256,192,0,128,0,1:0:0:0:0:
256,192,0,128,0,1:0:0:0:0:
256,192,0,128,0,1:0:0:0:0:
256,192,0,128,0,1:0:0:0:0:
256,192,0,128,0,1:0:0:0:0:
256,192,0,128,0,1:0:0:0:0:
256,192,0,128,0,1:0:0:0:0:
256,192,0,128,0,1:0:0:0:0:
256,192,0,128,0,1:0:0:0:0:
256,192,0,128,0,1:0:0:0:0:
256,192,0,128,0,1:0:0:0:0:
256,192,0,128,0,1:0:0:0:0:
256,192,0,128,0,1:0:0:0:0:
256,192,0,128,0,1:0:0:0:0:
256,192,0,128,0,1:0:0:0:0:
256,192,0,128,0,1:0:0:0:0:
256,192,0,128,0,1:0:0:0:0:
256,192,0,128,0,1:0:0:0:0:
256,192,0,128,0,1:0:0:0:0:
256,192,0,128,0,1:0:0:0:0:
256,192,0,128,0,1:0:0:0:0:
256,192,0,128,0,1:0:0:0:0:
256,192,0,128,0,1:0:0:0:0:
256,192,0,128,0,1:0:0:0:0:
256,192,0,128,0,1:0:0:0:0:
256,192,0,128,0,1:0:0:0:0:
256,192,0,128,0,1:0:0:0:0:
256,192,0,128,0,1:0:0:0:0:
256,192,0,128,0,1:0:0:0:0:
256,192,0,128,0,1:0:0:0:0:
256,192,0,128,0,1:0:0:0:0:
256,192,0,128,0,1:0:0:0:0:
256,192,0,128,0,1:0:0:0:0:
256,192,0,128,0,1:0:0:0:0:
256,192,0,128,0,1:0:0:0:0:
256,192,0,128,0,1:0:0:0:0:
256,192,0,128,0,1:0:0:0:0:
256,192,0,128,0,1:0:0:0:0:
256,192,0,128,0,1:0:0:0:0:
256,192,0,128,0,1:0:0:0:0:
256,192,0,128,0,1:0:0:0:0:
256,192,0,128,0,1:0:0:0:0:
256,192,0,128,0,1:0:0:0:0:
256,192,0,128,0,1:0:0:0:0:
256,192,0,128,0,1:0:0:0:0:
256,192,0,128,0,1:0:0:0:0:
256,192,0,128,0,1:0:0:0:0:
256,192,0,128,0,1:0:0:0:0:
256,192,0,128,0,1:0:0:0:0:
256,192,0,128,0,1:0:0:0:0:
256,192,0,128,0,1:0:0:0:0:
256,192,0,128,0,1:0:0:0:0:
256,192,0,128,0,1:0:0:0:0:
256,192,0,128,0,1:0:0:0:0:
256,192,0,128,0,1:0:0:0:0:
256,192,0,128,0,1:0:0:0:0:
256,192,0,128,0,1:0:0:0:0:
256,192,0,128,0,1:0:0:0:0:
256,192,0,128,0,1:0:0:0:0:
256,192,0,128,0,1:0:0:0:0:
256,192,0,128,0,1:0:0:0:0:
256,192,0,128,0,1:0:0:0:0:
256,192,0,128,0,1:0:0:0:0:
256,192,0,128,0,1:0:0:0:0:
256,192,0,128,0,1:0:0:0:0:
256,192,0,128,0,1:0:0:0:0:
256,192,0,128,0,1:0:0:0:0:
256,192,0,128,0,1:0:0:0:0:
256,192,0,128,0,1:0:0:0:0:
256,192,0,128,0,1:0:0:0:0:
256,192,0,128,0,1:0:0:0:0:
256,192,0,128,0,1:0:0:0:0:
256,192,0,128,0,1:0:0:0:0:
256,192,0,128,0,1:0:0:0:0:
256,192,0,128,0,1:0:0:0:0:
256,192,0,128,0,1:0:0:0:0:
256,192,0,128,0,1:0:0:0:0:
256,192,0,128,0,1:0:0:0:0:
256,192,0,128,0,1:0:0:0:0:
256,192,0,128,0,1:0:0:0:0:
256,192,0,128,0,1:0:0:0:0:
256,192,0,128,0,1:0:0:0:0:
256,192,0,128,0,1:0:0:0:0:
256,192,0,128,0,1:0:0:0:0:
256,192,0,128,0,1:0:0:0:0:
256,192,0,128,0,1:0:0:0:0:
256,192,0,128,0,1:0:0:0:0:
256,192,0,128,0,1:0:0:0:0:
256,192,0,128,0,1:0:0:0:0:
256,192,0,128,0,1:0:0:0:0:
256,192,0,128,0,1:0:0:0:0:
256,192,0,128,0,1:0:0:0:0:
256,192,0,128,0,1:0:0:0:0:
256,192,0,128,0,1:0:0:0:0:
256,192,0,128,0,1:0:0:0:0:
256,192,0,128,0,1:0:0:0:0:
256,192,0,128,0,1:0:0:0:0:
256,192,0,128,0,1:0:0:0:0:
256,192,0,128,0,1:0:0:0:0:
256,192,0,128,0,1:0:0:0:0:
256,192,0,128,0,1:0:0:0:0:
256,192,0,128,0,1:0:0:0:0:
256,192,0,128,0,1:0:0:0:0:
256,192,0,128,0,1:0:0:0:0:
256,192,0,128,0,1:0:0:0:0:
256,192,0,128,0,1:0:0:0:0:
256,192,0,128,0,1:0:0:0:0:
256,192,0,128,0,1:0:0:0:0:
256,192,0,128,0,1:0:0:0:0:
256,192,0,128,0,1:0:0:0:0:
256,192,0,128,0,1:0:0:0:0:
256,192,0,128,0,1:0:0:0:0:
256,192,0,128,0,1:0:0:0:0:
256,192,0,128,0,1:0:0:0:0:
256,192,0,128,0,1:0:0:0:0:
256,192,0,128,0,1:0:0:0:0:
256,192,0,128,0,1:0:0:0:0:
256,192,0,128,0,1:0:0:0:0:
256,192,0,128,0,1:0:0:0:0:
256,192,0,128,0,1:0:0:0:0:
256,192,0,128,0,1:0:0:0:0:
256,192,0,128,0,1:0:0:0:0:
256,192,0,128,0,1:0:0:0:0:
256,192,0,128,0,1:0:0:0:0:
256,192,0,128,0,1:0:0:0:0:
256,192,0,128,0,1:0:0:0:0:
256,192,0,128,0,1:0:0:0:0:
256,192,0,128,0,1:0:0:0:0:
256,192,0,128,0,1:0:0:0:0:
256,192,0,128,0,1:0:0:0:0:
256,192,0,128,0,1:0:0:0:0:
256,192,0,128,0,1:0:0:0:0:
256,192,0,128,0,1:0:0:0:0:
256,192,0,128,0,1:0:0:0:0:
256,192,0,128,0,1:0:0:0:0:
256,192,0,128,0,1:0:0:0:0:
256,192,0,128,0,1:0:0:0:0:
256,192,0,128,0,1:0:0:0:0:
256,192,0,128,0,1:0:0:0:0:
256,192,0,128,0,1:0:0:0:0:
256,192,0,128,0,1:0:0:0:0:
256,192,0,128,0,1:0:0:0:0:
256,192,0,128,0,1:0:0:0:0:
256,192,0,128,0,1:0:0:0:0:
256,192,0,128,0,1:0:0:0:0:
256,192,0,128,0,1:0:0:0:0:
256,192,0,128,0,1:0:0:0:0:
256,192,0,128,0,1:0:0:0:0:
256,192,0,128,0,1:0:0:0:0:
256,192,0,128,0,1:0:0:0:0:
256,192,0,128,0,1:0:0:0:0:
256,192,0,128,0,1:0:0:0:0:
256,192,0,128,0,1:0:0:0:0:
256,192,0,128,0,1:0:0:0:0:
256,192,0,128,0,1:0:0:0:0:
256,192,0,128,0,1:0:0:0:0:
256,192,0,128,0,1:0:0:0:0:
256,192,0,128,0,1:0:0:0:0:
256,192,0,128,0,1:0:0:0:0:
256,192,0,128,0,1:0:0:0:0:
256,192,0,128,0,1:0:0:0:0:
256,192,0,128,0,1:0:0:0:0:
256,192,0,128,0,1:0:0:0:0:
256,192,0,128,0,1:0:0:0:0:
256,192,0,128,0,1:0:0:0:0:
256,192,0,128,0,1:0:0:0:0:
256,192,0,128,0,1:0:0:0:0:
256,192,0,128,0,1:0:0:0:0:
256,192,0,128,0,1:0:0:0:0:
256,192,0,128,0,1:0:0:0:0:
256,192,0,128,0,1:0:0:0:0:
256,192,0,128,0,1:0:0:0:0:
256,192,0,128,0,1:0:0:0:0:
256,192,0,128,0,1:0:0:0:0:
256,192,0,128,0,1:0:0:0:0:
256,192,0,128,0,1:0:0:0:0:
256,192,0,128,0,1:0:0:0:0:
256,192,0,128,0,1:0:0:0:0:
256,192,0,128,0,1:0:0:0:0:
256,192,0,128,0,1:0:0:0:0:
256,192,0,128,0,1:0:0:0:0:
256,192,0,128,0,1:0:0:0:0:
256,192,0,128,0,1:0:0:0:0:
256,192,0,128,0,1:0:0:0:0:
256,192,0,128,0,1:0:0:0:0:
256,192,0,128,0,1:0:0:0:0:
256,192,0,128,0,1:0:0:0:0:
256,192,0,128,0,1:0:0:0:0:
256,192,0,128,0,1:0:0:0:0:
256,192,0,128,0,1:0:0:0:0:
256,192,0,128,0,1:0:0:0:0:
256,192,0,128,0,1:0:0:0:0:
256,192,0,128,0,1:0:0:0:0:
256,192,0,128,0,1:0:0:0:0:
256,192,0,128,0,1:0:0:0:0:
256,192,0,128,0,1:0:0:0:0:
256,192,0,128,0,1:0:0:0:0:
256,192,0,128,0,1:0:0:0:0:
256,192,0,128,0,1:0:0:0:0:
256,192,0,128,0,1:0:0:0:0:
256,192,0,128,0,1:0:0:0:0:
256,192,0,128,0,1:0:0:0:0:
256,192,0,128,0,1:0:0:0:0:
256,192,0,128,0,1:0:0:0:0:
256,192,0,128,0,1:0:0:0:0:
256,192,0,128,0,1:0:0:0:0:
256,192,0,128,0,1:0:0:0:0:
256,192,0,128,0,1:0:0:0:0:
256,192,0,128,0,1:0:0:0:0:
256,192,0,128,0,1:0:0:0:0:
256,192,0,128,0,1:0:0:0:0:
256,192,0,128,0,1:0:0:0:0:
256,192,0,128,0,1:0:0:0:0:
256,192,0,128,0,1:0:0:0:0:
256,192,0,128,0,1:0:0:0:0:
256,192,0,128,0,1:0:0:0:0:
256,192,0,128,0,1:0:0:0:0:
256,192,0,128,0,1:0:0:0:0:
256,192,0,128,0,1:0:0:0:0:
256,192,0,128,0,1:0:0:0:0:
256,192,0,128,0,1:0:0:0:0:
256,192,0,128,0,1:0:0:0:0:
256,192,0,128,0,1:0:0:0:0:
256,192,0,128,0,1:0:0:0:0:
256,192,0,128,0,1:0:0:0:0:
256,192,0,128,0,1:0:0:0:0:
256,192,0,128,0,1:0:0:0:0:
256,192,0,128,0,1:0:0:0:0:
256,192,0,128,0,1:0:0:0:0:
256,192,0,128,0,1:0:0:0:0:
256,192,0,128,0,1:0:0:0:0:
256,192,0,128,0,1:0:0:0:0:
256,192,0,128,0,1:0:0:0:0:
256,192,0,128,0,1:0:0:0:0:
256,192,0,128,0,1:0:0:0:0:
256,192,0,128,0,1:0:0:0:0:
256,192,0,128,0,1:0:0:0:0:
256,192,0,128,0,1:0:0:0:0:
256,192,0,128,0,1:0:0:0:0:
256,192,0,128,0,1:0:0:0:0:
256,192,0,128,0,1:0:0:0:0:
256,192,0,128,0,1:0:0:0:0:
256,192,0,128,0,1:0:0:0:0:
256,192,0,128,0,1:0:0:0:0:
256,192,0,128,0,1:0:0:0:0:
256,192,0,128,0,1:0:0:0:0:
256,192,0,128,0,1:0:0:0:0:
256,192,0,128,0,1:0:0:0:0:
256,192,0,128,0,1:0:0:0:0:
256,192,0,128,0,1:0:0:0:0:
256,192,0,128,0,1:0:0:0:0:
256,192,0,128,0,1:0:0:0:0:
256,192,0,128,0,1:0:0:0:0:
256,192,0,128,0,1:0:0:0:0:
256,192,0,128,0,1:0:0:0:0:
256,192,0,128,0,1:0:0:0:0:
256,192,0,128,0,1:0:0:0:0:
256,192,0,128,0,1:0:0:0:0:
256,192,0,128,0,1:0:0:0:0:
256,192,0,128,0,1:0:0:0:0:
256,192,0,128,0,1:0:0:0:0:
256,192,0,128,0,1:0:0:0:0:
256,192,0,128,0,1:0:0:0:0:
256,192,0,128,0,1:0:0:0:0:
256,192,0,128,0,1:0:0:0:0:
256,192,0,128,0,1:0:0:0:0:
256,192,0,128,0,1:0:0:0:0:
256,192,0,128,0,1:0:0:0:0:
256,192,0,128,0,1:0:0:0:0:
256,192,0,128,0,1:0:0:0:0:
256,192,0,128,0,1:0:0:0:0:
256,192,0,128,0,1:0:0:0:0:
256,192,0,128,0,1:0:0:0:0:
256,192,0,128,0,1:0:0:0:0:
256,192,0,128,0,1:0:0:0:0:
256,192,0,128,0,1:0:0:0:0:
256,192,0,128,0,1:0:0:0:0:
256,192,0,128,0,1:0:0:0:0:
256,192,0,128,0,1:0:0:0:0:
256,192,0,128,0,1:0:0:0:0:
256,192,0,128,0,1:0:0:0:0:
256,192,0,128,0,1:0:0:0:0:
256,192,0,128,0,1:0:0:0:0:
256,192,0,128,0,1:0:0:0:0:
256,192,0,128,0,1:0:0:0:0:
256,192,0,128,0,1:0:0:0:0:
256,192,0,128,0,1:0:0:0:0:
256,192,0,128,0,1:0:0:0:0:
256,192,0,128,0,1:0:0:0:0:
256,192,0,128,0,1:0:0:0:0:
256,192,0,128,0,1:0:0:0:0:
256,192,0,128,0,1:0:0:0:0:
256,192,0,128,0,1:0:0:0:0:
256,192,0,128,0,1:0:0:0:0:
256,192,0,128,0,1:0:0:0:0:
256,192,0,128,0,1:0:0:0:0:
256,192,0,128,0,1:0:0:0:0:
256,192,0,128,0,1:0:0:0:0:
256,192,0,128,0,1:0:0:0:0:
256,192,0,128,0,1:0:0:0:0:
256,192,0,128,0,1:0:0:0:0:
256,192,0,128,0,1:0:0:0:0:
256,192,0,128,0,1:0:0:0:0:
256,192,0,128,0,1:0:0:0:0:
256,192,0,128,0,1:0:0:0:0:
256,192,0,128,0,1:0:0:0:0:
256,192,0,128,0,1:0:0:0:0:
256,192,0,128,0,1:0:0:0:0:
256,192,0,128,0,1:0:0:0:0:
256,192,0,128,0,1:0:0:0:0:
256,192,0,128,0,1:0:0:0:0:
256,192,0,128,0,1:0:0:0:0:
256,192,0,128,0,1:0:0:0:0:
256,192,0,128,0,1:0:0:0:0:
256,192,0,128,0,1:0:0:0:0:
256,192,0,128,0,1:0:0:0:0:
256,192,0,128,0,1:0:0:0:0:
256,192,0,128,0,1:0:0:0:0:
256,192,0,128,0,1:0:0:0:0:
256,192,0,128,0,1:0:0:0:0:
256,192,0,128,0,1:0:0:0:0:
256,192,0,128,0,1:0:0:0:0:
256,192,0,128,0,1:0:0:0:0:
256,192,0,128,0,1:0:0:0:0:
256,192,0,128,0,1:0:0:0:0:
256,192,0,128,0,1:0:0:0:0:
256,192,0,128,0,1:0:0:0:0:
256,192,0,128,0,1:0:0:0:0:
256,192,0,128,0,1:0:0:0:0:
256,192,0,128,0,1:0:0:0:0:
256,192,0,128,0,1:0:0:0:0:
256,192,0,128,0,1:0:0:0:0:
256,192,0,128,0,1:0:0:0:0:
256,192,0,128,0,1:0:0:0:0:
256,192,0,128,0,1:0:0:0:0:
256,192,0,128,0,1:0:0:0:0:
256,192,0,128,0,1:0:0:0:0:
256,192,0,128,0,1:0:0:0:0:
256,192,0,128,0,1:0:0:0:0:
256,192,0,128,0,1:0:0:0:0:
256,192,0,128,0,1:0:0:0:0:
256,192,0,128,0,1:0:0:0:0:
256,192,0,128,0,1:0:0:0:0:
256,192,0,128,0,1:0:0:0:0:
256,192,0,128,0,1:0:0:0:0:
256,192,0,128,0,1:0:0:0:0:
256,192,0,128,0,1:0:0:0:0:
256,192,0,128,0,1:0:0:0:0:
256,192,0,128,0,1:0:0:0:0:
256,192,0,128,0,1:0:0:0:0:
256,192,0,128,0,1:0:0:0:0:
256,192,0,128,0,1:0:0:0:0:
256,192,0,128,0,1:0:0:0:0:
256,192,0,128,0,1:0:0:0:0:
256,192,0,128,0,1:0:0:0:0:
256,192,0,128,0,1:0:0:0:0:
256,192,0,128,0,1:0:0:0:0:
256,192,0,128,0,1:0:0:0:0:
256,192,0,128,0,1:0:0:0:0:
256,192,0,128,0,1:0:0:0:0:
256,192,0,128,0,1:0:0:0:0:
256,192,0,128,0,1:0:0:0:0:
256,192,0,128,0,1:0:0:0:0:
256,192,0,128,0,1:0:0:0:0:
256,192,0,128,0,1:0:0:0:0:
256,192,0,128,0,1:0:0:0:0:
256,192,0,128,0,1:0:0:0:0:
256,192,0,128,0,1:0:0:0:0:
256,192,0,128,0,1:0:0:0:0:
256,192,0,128,0,1:0:0:0:0:
256,192,0,128,0,1:0:0:0:0:
256,192,0,128,0,1:0:0:0:0:
256,192,0,128,0,1:0:0:0:0:
256,192,0,128,0,1:0:0:0:0:
256,192,0,128,0,1:0:0:0:0:
256,192,0,128,0,1:0:0:0:0:
256,192,0,128,0,1:0:0:0:0:
256,192,0,128,0,1:0:0:0:0:
256,192,0,128,0,1:0:0:0:0:
256,192,0,128,0,1:0:0:0:0:
256,192,0,128,0,1:0:0:0:0:
256,192,0,128,0,1:0:0:0:0:
256,192,0,128,0,1:0:0:0:0:
256,192,0,128,0,1:0:0:0:0:
256,192,0,128,0,1:0:0:0:0:
256,192,0,128,0,1:0:0:0:0:
256,192,0,128,0,1:0:0:0:0:
256,192,0,128,0,1:0:0:0:0:
256,192,0,128,0,1:0:0:0:0:
256,192,0,128,0,1:0:0:0:0:
256,192,0,128,0,1:0:0:0:0:
256,192,0,128,0,1:0:0:0:0:
256,192,0,128,0,1:0:0:0:0:
256,192,0,128,0,1:0:0:0:0:
256,192,0,128,0,1:0:0:0:0:
256,192,0,128,0,1:0:0:0:0:
256,192,0,128,0,1:0:0:0:0:
256,192,0,128,0,1:0:0:0:0:
256,192,0,128,0,1:0:0:0:0:
256,192,0,128,0,1:0:0:0:0:
256,192,0,128,0,1:0:0:0:0:
256,192,0,128,0,1:0:0:0:0:
256,192,0,128,0,1:0:0:0:0:
256,192,0,128,0,1:0:0:0:0:
256,192,0,128,0,1:0:0:0:0:
256,192,0,128,0,1:0:0:0:0:
256,192,0,128,0,1:0:0:0:0:
256,192,0,128,0,1:0:0:0:0:
256,192,0,128,0,1:0:0:0:0:
256,192,0,128,0,1:0:0:0:0:
256,192,0,128,0,1:0:0:0:0:
256,192,0,128,0,1:0:0:0:0:
256,192,0,128,0,1:0:0:0:0:
256,192,0,128,0,1:0:0:0:0:
256,192,0,128,0,1:0:0:0:0:
256,192,0,128,0,1:0:0:0:0:
256,192,0,128,0,1:0:0:0:0:
256,192,0,128,0,1:0:0:0:0:
256,192,0,128,0,1:0:0:0:0:
256,192,0,128,0,1:0:0:0:0:
256,192,0,128,0,1:0:0:0:0:
256,192,0,128,0,1:0:0:0:0:
256,192,0,128,0,1:0:0:0:0:
256,192,0,128,0,1:0:0:0:0:
256,192,0,128,0,1:0:0:0:0:
256,192,0,128,0,1:0:0:0:0:
256,192,0,128,0,1:0:0:0:0:
256,192,0,128,0,1:0:0:0:0:
256,192,0,128,0,1:0:0:0:0:
256,192,0,128,0,1:0:0:0:0:
256,192,0,128,0,1:0:0:0:0:
256,192,0,128,0,1:0:0:0:0:
256,192,0,128,0,1:0:0:0:0:
256,192,0,128,0,1:0:0:0:0:
256,192,0,128,0,1:0:0:0:0:
256,192,0,128,0,1:0:0:0:0:
256,192,0,128,0,1:0:0:0:0:
256,192,0,128,0,1:0:0:0:0:
256,192,0,128,0,1:0:0:0:0:
256,192,0,128,0,1:0:0:0:0:
256,192,0,128,0,1:0:0:0:0:
256,192,0,128,0,1:0:0:0:0:
256,192,0,128,0,1:0:0:0:0:
256,192,0,128,0,1:0:0:0:0:
256,192,0,128,0,1:0:0:0:0:
256,192,0,128,0,1:0:0:0:0:
256,192,0,128,0,1:0:0:0:0:
256,192,0,128,0,1:0:0:0:0:
256,192,0,128,0,1:0:0:0:0:
256,192,0,128,0,1:0:0:0:0:
256,192,0,128,0,1:0:0:0:0:
256,192,0,128,0,1:0:0:0:0:
256,192,0,128,0,1:0:0:0:0:
256,192,0,128,0,1:0:0:0:0:
256,192,0,128,0,1:0:0:0:0:
256,192,0,128,0,1:0:0:0:0:
256,192,0,128,0,1:0:0:0:0:
256,192,0,128,0,1:0:0:0:0:
256,192,0,128,0,1:0:0:0:0:
256,192,0,128,0,1:0:0:0:0:
256,192,0,128,0,1:0:0:0:0:
256,192,0,128,0,1:0:0:0:0:
256,192,0,128,0,1:0:0:0:0:
256,192,0,128,0,1:0:0:0:0:
256,192,0,128,0,1:0:0:0:0:
256,192,0,128,0,1:0:0:0:0:
256,192,0,128,0,1:0:0:0:0:
256,192,0,128,0,1:0:0:0:0:
256,192,0,128,0,1:0:0:0:0:
256,192,0,128,0,1:0:0:0:0:
256,192,0,128,0,1:0:0:0:0:
256,192,0,128,0,1:0:0:0:0:
256,192,0,128,0,1:0:0:0:0:
256,192,0,128,0,1:0:0:0:0:
256,192,0,128,0,1:0:0:0:0:
256,192,0,128,0,1:0:0:0:0:
256,192,0,128,0,1:0:0:0:0:
256,192,0,128,0,1:0:0:0:0:
256,192,0,128,0,1:0:0:0:0:
256,192,0,128,0,1:0:0:0:0:
256,192,0,128,0,1:0:0:0:0:
256,192,0,128,0,1:0:0:0:0:
256,192,0,128,0,1:0:0:0:0:
256,192,0,128,0,1:0:0:0:0:
256,192,0,128,0,1:0:0:0:0:
256,192,0,128,0,1:0:0:0:0:
256,192,0,128,0,1:0:0:0:0:
256,192,0,128,0,1:0:0:0:0:
256,192,0,128,0,1:0:0:0:0:
256,192,0,128,0,1:0:0:0:0:
256,192,0,128,0,1:0:0:0:0:
256,192,0,128,0,1:0:0:0:0:
256,192,0,128,0,1:0:0:0:0:
256,192,0,128,0,1:0:0:0:0:
256,192,0,128,0,1:0:0:0:0:
256,192,0,128,0,1:0:0:0:0:
256,192,0,128,0,1:0:0:0:0:
256,192,0,128,0,1:0:0:0:0:
256,192,0,128,0,1:0:0:0:0:
256,192,0,128,0,1:0:0:0:0:
256,192,0,128,0,1:0:0:0:0:
256,192,0,128,0,1:0:0:0:0:
256,192,0,128,0,1:0:0:0:0:
256,192,0,128,0,1:0:0:0:0:
256,192,0,128,0,1:0:0:0:0:
256,192,0,128,0,1:0:0:0:0:
256,192,0,128,0,1:0:0:0:0:
256,192,0,128,0,1:0:0:0:0:
256,192,0,128,0,1:0:0:0:0:
256,192,0,128,0,1:0:0:0:0:
256,192,0,128,0,1:0:0:0:0:
256,192,0,128,0,1:0:0:0:0:
256,192,0,128,0,1:0:0:0:0:
256,192,0,128,0,1:0:0:0:0:
256,192,0,128,0,1:0:0:0:0:
256,192,0,128,0,1:0:0:0:0:
256,192,0,128,0,1:0:0:0:0:
256,192,0,128,0,1:0:0:0:0:
256,192,0,128,0,1:0:0:0:0:
256,192,0,128,0,1:0:0:0:0:
256,192,0,128,0,1:0:0:0:0:
256,192,0,128,0,1:0:0:0:0:
256,192,0,128,0,1:0:0:0:0:
256,192,0,128,0,1:0:0:0:0:
256,192,0,128,0,1:0:0:0:0:
256,192,0,128,0,1:0:0:0:0:
256,192,0,128,0,1:0:0:0:0:
256,192,0,128,0,1:0:0:0:0:
256,192,0,128,0,1:0:0:0:0:
256,192,0,128,0,1:0:0:0:0:
256,192,0,128,0,1:0:0:0:0:
256,192,0,128,0,1:0:0:0:0:
256,192,0,128,0,1:0:0:0:0:
256,192,0,128,0,1:0:0:0:0:
256,192,0,128,0,1:0:0:0:0:
256,192,0,128,0,1:0:0:0:0:
256,192,0,128,0,1:0:0:0:0:
256,192,0,128,0,1:0:0:0:0:
256,192,0,128,0,1:0:0:0:0:
256,192,0,128,0,1:0:0:0:0:
256,192,0,128,0,1:0:0:0:0:
256,192,0,128,0,1:0:0:0:0:
256,192,0,128,0,1:0:0:0:0:
256,192,0,128,0,1:0:0:0:0:
256,192,0,128,0,1:0:0:0:0:
256,192,0,128,0,1:0:0:0:0:
256,192,0,128,0,1:0:0:0:0:
256,192,0,128,0,1:0:0:0:0:
256,192,0,128,0,1:0:0:0:0:
256,192,0,128,0,1:0:0:0:0:
256,192,0,128,0,1:0:0:0:0:
256,192,0,128,0,1:0:0:0:0:
256,192,0,128,0,1:0:0:0:0:
256,192,0,128,0,1:0:0:0:0:
256,192,0,128,0,1:0:0:0:0:
256,192,0,128,0,1:0:0:0:0:
256,192,0,128,0,1:0:0:0:0:
256,192,0,128,0,1:0:0:0:0:
256,192,0,128,0,1:0:0:0:0:
256,192,0,128,0,1:0:0:0:0:
256,192,0,128,0,1:0:0:0:0:
256,192,0,128,0,1:0:0:0:0:
256,192,0,128,0,1:0:0:0:0:
256,192,0,128,0,1:0:0:0:0:
256,192,0,128,0,1:0:0:0:0:
256,192,0,128,0,1:0:0:0:0:
256,192,0,128,0,1:0:0:0:0:
256,192,0,128,0,1:0:0:0:0:
256,192,0,128,0,1:0:0:0:0:
256,192,0,128,0,1:0:0:0:0:
256,192,0,128,0,1:0:0:0:0:
256,192,0,128,0,1:0:0:0:0:
256,192,0,128,0,1:0:0:0:0:
256,192,0,128,0,1:0:0:0:0:
256,192,0,128,0,1:0:0:0:0:
256,192,0,128,0,1:0:0:0:0:
256,192,0,128,0,1:0:0:0:0:
256,192,0,128,0,1:0:0:0:0:
256,192,0,128,0,1:0:0:0:0:
256,192,0,128,0,1:0:0:0:0:
256,192,0,128,0,1:0:0:0:0:
256,192,0,128,0,1:0:0:0:0:
256,192,0,128,0,1:0:0:0:0:
256,192,0,128,0,1:0:0:0:0:
256,192,0,128,0,1:0:0:0:0:
256,192,0,128,0,1:0:0:0:0:
256,192,0,128,0,1:0:0:0:0:
256,192,0,128,0,1:0:0:0:0:
256,192,0,128,0,1:0:0:0:0:
256,192,0,128,0,1:0:0:0:0:
256,192,0,128,0,1:0:0:0:0:
256,192,0,128,0,1:0:0:0:0:
256,192,0,128,0,1:0:0:0:0:
256,192,0,128,0,1:0:0:0:0:
256,192,0,128,0,1:0:0:0:0:
256,192,0,128,0,1:0:0:0:0:
256,192,0,128,0,1:0:0:0:0:
256,192,0,128,0,1:0:0:0:0:
256,192,0,128,0,1:0:0:0:0:
256,192,0,128,0,1:0:0:0:0:
256,192,0,128,0,1:0:0:0:0:
256,192,0,128,0,1:0:0:0:0:
256,192,0,128,0,1:0:0:0:0:
256,192,0,128,0,1:0:0:0:0:
256,192,0,128,0,1:0:0:0:0:
256,192,0,128,0,1:0:0:0:0:
256,192,0,128,0,1:0:0:0:0:
256,192,0,128,0,1:0:0:0:0:
256,192,0,128,0,1:0:0:0:0:
256,192,0,128,0,1:0:0:0:0:
256,192,0,128,0,1:0:0:0:0:
256,192,0,128,0,1:0:0:0:0:
256,192,0,128,0,1:0:0:0:0:
256,192,0,128,0,1:0:0:0:0:
256,192,0,128,0,1:0:0:0:0:
256,192,0,128,0,1:0:0:0:0:
256,192,0,128,0,1:0:0:0:0:
256,192,0,128,0,1:0:0:0:0:
256,192,0,128,0,1:0:0:0:0:
256,192,0,128,0,1:0:0:0:0:
256,192,0,128,0,1:0:0:0:0:
256,192,0,128,0,1:0:0:0:0:
256,192,0,128,0,1:0:0:0:0:
256,192,0,128,0,1:0:0:0:0:
256,192,0,128,0,1:0:0:0:0:
256,192,0,128,0,1:0:0:0:0:
256,192,0,128,0,1:0:0:0:0:
256,192,0,128,0,1:0:0:0:0:
256,192,0,128,0,1:0:0:0:0:
256,192,0,128,0,1:0:0:0:0:
256,192,0,128,0,1:0:0:0:0:
256,192,0,128,0,1:0:0:0:0:
256,192,0,128,0,1:0:0:0:0:
256,192,0,128,0,1:0:0:0:0:
256,192,0,128,0,1:0:0:0:0:
256,192,0,128,0,1:0:0:0:0:
256,192,0,128,0,1:0:0:0:0:
256,192,0,128,0,1:0:0:0:0:
256,192,0,128,0,1:0:0:0:0:
256,192,0,128,0,1:0:0:0:0:
256,192,0,128,0,1:0:0:0:0:
256,192,0,128,0,1:0:0:0:0:
256,192,0,128,0,1:0:0:0:0:
256,192,0,128,0,1:0:0:0:0:
256,192,0,128,0,1:0:0:0:0:
256,192,0,128,0,1:0:0:0:0:
256,192,0,128,0,1:0:0:0:0:
256,192,0,128,0,1:0:0:0:0:
256,192,0,128,0,1:0:0:0:0:
256,192,0,128,0,1:0:0:0:0:
256,192,0,128,0,1:0:0:0:0:
256,192,0,128,0,1:0:0:0:0:
256,192,0,128,0,1:0:0:0:0:
256,192,0,128,0,1:0:0:0:0:
256,192,0,128,0,1:0:0:0:0:
256,192,0,128,0,1:0:0:0:0:
256,192,0,128,0,1:0:0:0:0:
256,192,0,128,0,1:0:0:0:0:
256,192,0,128,0,1:0:0:0:0:
256,192,0,128,0,1:0:0:0:0:
256,192,0,128,0,1:0:0:0:0:
256,192,0,128,0,1:0:0:0:0:
256,192,0,128,0,1:0:0:0:0:
256,192,0,128,0,1:0:0:0:0:
256,192,0,128,0,1:0:0:0:0:
256,192,0,128,0,1:0:0:0:0:
256,192,0,128,0,1:0:0:0:0:
256,192,0,128,0,1:0:0:0:0:
256,192,0,128,0,1:0:0:0:0:
256,192,0,128,0,1:0:0:0:0:
256,192,0,128,0,1:0:0:0:0:
256,192,0,128,0,1:0:0:0:0:
256,192,0,128,0,1:0:0:0:0:
256,192,0,128,0,1:0:0:0:0:
256,192,0,128,0,1:0:0:0:0:
256,192,0,128,0,1:0:0:0:0:
256,192,0,128,0,1:0:0:0:0:
256,192,0,128,0,1:0:0:0:0:
256,192,0,128,0,1:0:0:0:0:
256,192,0,128,0,1:0:0:0:0:
256,192,0,128,0,1:0:0:0:0:
256,192,0,128,0,1:0:0:0:0:
256,192,0,128,0,1:0:0:0:0:
256,192,0,128,0,1:0:0:0:0:
256,192,0,128,0,1:0:0:0:0:
256,192,0,128,0,1:0:0:0:0:
256,192,0,128,0,1:0:0:0:0:
256,192,0,128,0,1:0:0:0:0:
256,192,0,128,0,1:0:0:0:0:
256,192,0,128,0,1:0:0:0:0:
256,192,0,128,0,1:0:0:0:0:
256,192,0,128,0,1:0:0:0:0:
256,192,0,128,0,1:0:0:0:0:
256,192,0,128,0,1:0:0:0:0:
256,192,0,128,0,1:0:0:0:0:
256,192,0,128,0,1:0:0:0:0:
256,192,0,128,0,1:0:0:0:0:
256,192,0,128,0,1:0:0:0:0:
256,192,0,128,0,1:0:0:0:0:
256,192,0,128,0,1:0:0:0:0:
256,192,0,128,0,1:0:0:0:0:
256,192,0,128,0,1:0:0:0:0:
256,192,0,128,0,1:0:0:0:0:
256,192,0,128,0,1:0:0:0:0:
256,192,0,128,0,1:0:0:0:0:
256,192,0,128,0,1:0:0:0:0:
256,192,0,128,0,1:0:0:0:0:
256,192,0,128,0,1:0:0:0:0:
256,192,0,128,0,1:0:0:0:0:
256,192,0,128,0,1:0:0:0:0:
256,192,0,128,0,1:0:0:0:0:
256,192,0,128,0,1:0:0:0:0:
256,192,0,128,0,1:0:0:0:0:
256,192,0,128,0,1:0:0:0:0:
256,192,0,128,0,1:0:0:0:0:
256,192,0,128,0,1:0:0:0:0:
256,192,0,128,0,1:0:0:0:0:
256,192,0,128,0,1:0:0:0:0:
256,192,0,128,0,1:0:0:0:0:
256,192,0,128,0,1:0:0:0:0:
256,192,0,128,0,1:0:0:0:0:
256,192,0,128,0,1:0:0:0:0:
256,192,0,128,0,1:0:0:0:0:
256,192,0,128,0,1:0:0:0:0:
256,192,0,128,0,1:0:0:0:0:
256,192,0,128,0,1:0:0:0:0:
256,192,0,128,0,1:0:0:0:0:
256,192,0,128,0,1:0:0:0:0:
256,192,0,128,0,1:0:0:0:0:
256,192,0,128,0,1:0:0:0:0:
256,192,0,128,0,1:0:0:0:0:
256,192,0,128,0,1:0:0:0:0:
256,192,0,128,0,1:0:0:0:0:
256,192,0,128,0,1:0:0:0:0:
256,192,0,128,0,1:0:0:0:0:
256,192,0,128,0,1:0:0:0:0:
256,192,0,128,0,1:0:0:0:0:
256,192,0,128,0,1:0:0:0:0:
256,192,0,128,0,1:0:0:0:0:
256,192,0,128,0,1:0:0:0:0:
256,192,0,128,0,1:0:0:0:0:
256,192,0,128,0,1:0:0:0:0:
256,192,0,128,0,1:0:0:0:0:
256,192,0,128,0,1:0:0:0:0:
256,192,0,128,0,1:0:0:0:0:
256,192,0,128,0,1:0:0:0:0:
256,192,0,128,0,1:0:0:0:0:
256,192,0,128,0,1:0:0:0:0:
256,192,0,128,0,1:0:0:0:0:
256,192,0,128,0,1:0:0:0:0:
256,192,0,128,0,1:0:0:0:0:
256,192,0,128,0,1:0:0:0:0:
256,192,0,128,0,1:0:0:0:0:
256,192,0,128,0,1:0:0:0:0:
256,192,0,128,0,1:0:0:0:0:
256,192,0,128,0,1:0:0:0:0:
256,192,0,128,0,1:0:0:0:0:
256,192,0,128,0,1:0:0:0:0:
256,192,0,128,0,1:0:0:0:0:
256,192,0,128,0,1:0:0:0:0:
256,192,0,128,0,1:0:0:0:0:
256,192,0,128,0,1:0:0:0:0:
256,192,0,128,0,1:0:0:0:0:
256,192,0,128,0,1:0:0:0:0:
256,192,0,128,0,1:0:0:0:0:
256,192,0,128,0,1:0:0:0:0:
256,192,0,128,0,1:0:0:0:0:
256,192,0,128,0,1:0:0:0:0:
256,192,0,128,0,1:0:0:0:0:
256,192,0,128,0,1:0:0:0:0:
256,192,0,128,0,1:0:0:0:0:
256,192,0,128,0,1:0:0:0:0:
256,192,0,128,0,1:0:0:0:0:
256,192,0,128,0,1:0:0:0:0:
256,192,0,128,0,1:0:0:0:0:
256,192,0,128,0,1:0:0:0:0:
256,192,0,128,0,1:0:0:0:0:
256,192,0,128,0,1:0:0:0:0:
256,192,0,128,0,1:0:0:0:0:
256,192,0,128,0,1:0:0:0:0:
256,192,0,128,0,1:0:0:0:0:
256,192,0,128,0,1:0:0:0:0:
256,192,0,128,0,1:0:0:0:0:
256,192,0,128,0,1:0:0:0:0:
256,192,0,128,0,1:0:0:0:0:
256,192,0,128,0,1:0:0:0:0:
256,192,0,128,0,1:0:0:0:0:
256,192,0,128,0,1:0:0:0:0:
256,192,0,128,0,1:0:0:0:0:
256,192,0,128,0,1:0:0:0:0:
256,192,0,128,0,1:0:0:0:0:
256,192,0,128,0,1:0:0:0:0:
256,192,0,128,0,1:0:0:0:0:
256,192,0,128,0,1:0:0:0:0:
256,192,0,128,0,1:0:0:0:0:
256,192,0,128,0,1:0:0:0:0:
256,192,0,128,0,1:0:0:0:0:
256,192,0,128,0,1:0:0:0:0:
256,192,0,128,0,1:0:0:0:0:
256,192,0,128,0,1:0:0:0:0:
256,192,0,128,0,1:0:0:0:0:
256,192,0,128,0,1:0:0:0:0:
256,192,0,128,0,1:0:0:0:0:
256,192,0,128,0,1:0:0:0:0:
256,192,0,128,0,1:0:0:0:0:
256,192,0,128,0,1:0:0:0:0:
256,192,0,128,0,1:0:0:0:0:
256,192,0,128,0,1:0:0:0:0:
256,192,0,128,0,1:0:0:0:0:
256,192,0,128,0,1:0:0:0:0:
256,192,0,128,0,1:0:0:0:0:
256,192,0,128,0,1:0:0:0:0:
256,192,0,128,0,1:0:0:0:0:
256,192,0,128,0,1:0:0:0:0:
256,192,0,128,0,1:0:0:0:0:
256,192,0,128,0,1:0:0:0:0:
256,192,0,128,0,1:0:0:0:0:
256,192,0,128,0,1:0:0:0:0:
256,192,0,128,0,1:0:0:0:0:
256,192,0,128,0,1:0:0:0:0:
256,192,0,128,0,1:0:0:0:0:
256,192,0,128,0,1:0:0:0:0:
256,192,0,128,0,1:0:0:0:0:
256,192,0,128,0,1:0:0:0:0:
256,192,0,128,0,1:0:0:0:0:
256,192,0,128,0,1:0:0:0:0:
256,192,0,128,0,1:0:0:0:0:
256,192,0,128,0,1:0:0:0:0:
256,192,0,128,0,1:0:0:0:0:
256,192,0,128,0,1:0:0:0:0:
256,192,0,128,0,1:0:0:0:0:
256,192,0,128,0,1:0:0:0:0:
256,192,0,128,0,1:0:0:0:0:
256,192,0,128,0,1:0:0:0:0:
256,192,0,128,0,1:0:0:0:0:
256,192,0,128,0,1:0:0:0:0:
256,192,0,128,0,1:0:0:0:0:
256,192,0,128,0,1:0:0:0:0:
256,192,0,128,0,1:0:0:0:0:
256,192,0,128,0,1:0:0:0:0:
256,192,0,128,0,1:0:0:0:0:
256,192,0,128,0,1:0:0:0:0:
256,192,0,128,0,1:0:0:0:0:
256,192,0,128,0,1:0:0:0:0:
256,192,0,128,0,1:0:0:0:0:
256,192,0,128,0,1:0:0:0:0:
256,192,0,128,0,1:0:0:0:0:
256,192,0,128,0,1:0:0:0:0:
256,192,0,128,0,1:0:0:0:0:
256,192,0,128,0,1:0:0:0:0:
256,192,0,128,0,1:0:0:0:0:
256,192,0,128,0,1:0:0:0:0:
256,192,0,128,0,1:0:0:0:0:
256,192,0,128,0,1:0:0:0:0:
256,192,0,128,0,1:0:0:0:0:
256,192,0,128,0,1:0:0:0:0:
256,192,0,128,0,1:0:0:0:0:
256,192,0,128,0,1:0:0:0:0:
256,192,0,128,0,1:0:0:0:0:
256,192,0,128,0,1:0:0:0:0:
256,192,0,128,0,1:0:0:0:0:
256,192,0,128,0,1:0:0:0:0:
256,192,0,128,0,1:0:0:0:0:
256,192,0,128,0,1:0:0:0:0:
256,192,0,128,0,1:0:0:0:0:
256,192,0,128,0,1:0:0:0:0:
256,192,0,128,0,1:0:0:0:0:
256,192,0,128,0,1:0:0:0:0:
256,192,0,128,0,1:0:0:0:0:
256,192,0,128,0,1:0:0:0:0:
256,192,0,128,0,1:0:0:0:0:
256,192,0,128,0,1:0:0:0:0:
256,192,0,128,0,1:0:0:0:0:
256,192,0,128,0,1:0:0:0:0:
256,192,0,128,0,1:0:0:0:0:
256,192,0,128,0,1:0:0:0:0:
256,192,0,128,0,1:0:0:0:0:
256,192,0,128,0,1:0:0:0:0:
256,192,0,128,0,1:0:0:0:0:
256,192,0,128,0,1:0:0:0:0:
256,192,0,128,0,1:0:0:0:0:
256,192,0,128,0,1:0:0:0:0:
256,192,0,128,0,1:0:0:0:0:
256,192,0,128,0,1:0:0:0:0:
256,192,0,128,0,1:0:0:0:0:
256,192,0,128,0,1:0:0:0:0:
256,192,0,128,0,1:0:0:0:0:
256,192,0,128,0,1:0:0:0:0:
256,192,0,128,0,1:0:0:0:0:
256,192,0,128,0,1:0:0:0:0:
256,192,0,128,0,1:0:0:0:0:
256,192,0,128,0,1:0:0:0:0:
256,192,0,128,0,1:0:0:0:0:
256,192,0,128,0,1:0:0:0:0:
256,192,0,128,0,1:0:0:0:0:
256,192,0,128,0,1:0:0:0:0:
256,192,0,128,0,1:0:0:0:0:
256,192,0,128,0,1:0:0:0:0:
256,192,0,128,0,1:0:0:0:0:
256,192,0,128,0,1:0:0:0:0:
256,192,0,128,0,1:0:0:0:0:
256,192,0,128,0,1:0:0:0:0:
256,192,0,128,0,1:0:0:0:0:
256,192,0,128,0,1:0:0:0:0:
256,192,0,128,0,1:0:0:0:0:
256,192,0,128,0,1:0:0:0:0:
256,192,0,128,0,1:0:0:0:0:
256,192,0,128,0,1:0:0:0:0:
256,192,0,128,0,1:0:0:0:0:
256,192,0,128,0,1:0:0:0:0:
256,192,0,128,0,1:0:0:0:0:
256,192,0,128,0,1:0:0:0:0:
256,192,0,128,0,1:0:0:0:0:
256,192,0,128,0,1:0:0:0:0:
256,192,0,128,0,1:0:0:0:0:
256,192,0,128,0,1:0:0:0:0:
256,192,0,128,0,1:0:0:0:0:
256,192,0,128,0,1:0:0:0:0:
256,192,0,128,0,1:0:0:0:0:
256,192,0,128,0,1:0:0:0:0:
256,192,0,128,0,1:0:0:0:0:
256,192,0,128,0,1:0:0:0:0:
256,192,0,128,0,1:0:0:0:0:
256,192,0,128,0,1:0:0:0:0:
256,192,0,128,0,1:0:0:0:0:
256,192,0,128,0,1:0:0:0:0:
256,192,0,128,0,1:0:0:0:0:
256,192,0,128,0,1:0:0:0:0:
256,192,0,128,0,1:0:0:0:0:
256,192,0,128,0,1:0:0:0:0:
256,192,0,128,0,1:0:0:0:0:
256,192,0,128,0,1:0:0:0:0:
256,192,0,128,0,1:0:0:0:0:
256,192,0,128,0,1:0:0:0:0:
256,192,0,128,0,1:0:0:0:0:
256,192,0,128,0,1:0:0:0:0:
256,192,0,128,0,1:0:0:0:0:
256,192,0,128,0,1:0:0:0:0:
256,192,0,128,0,1:0:0:0:0:
256,192,0,128,0,1:0:0:0:0:
256,192,0,128,0,1:0:0:0:0:
256,192,0,128,0,1:0:0:0:0:
256,192,0,128,0,1:0:0:0:0:
256,192,0,128,0,1:0:0:0:0:
256,192,0,128,0,1:0:0:0:0:
256,192,0,128,0,1:0:0:0:0:
256,192,0,128,0,1:0:0:0:0:
256,192,0,128,0,1:0:0:0:0:
256,192,0,128,0,1:0:0:0:0:
256,192,0,128,0,1:0:0:0:0:
256,192,0,128,0,1:0:0:0:0:
256,192,0,128,0,1:0:0:0:0:
256,192,0,128,0,1:0:0:0:0:
256,192,0,128,0,1:0:0:0:0:
256,192,0,128,0,1:0:0:0:0:
256,192,0,128,0,1:0:0:0:0:
256,192,0,128,0,1:0:0:0:0:
256,192,0,128,0,1:0:0:0:0:
256,192,0,128,0,1:0:0:0:0:
256,192,0,128,0,1:0:0:0:0:
256,192,0,128,0,1:0:0:0:0:
256,192,0,128,0,1:0:0:0:0:
256,192,0,128,0,1:0:0:0:0:
256,192,0,128,0,1:0:0:0:0:
256,192,0,128,0,1:0:0:0:0:
256,192,0,128,0,1:0:0:0:0:
256,192,0,128,0,1:0:0:0:0:
256,192,0,128,0,1:0:0:0:0:
256,192,0,128,0,1:0:0:0:0:
256,192,0,128,0,1:0:0:0:0:
256,192,0,128,0,1:0:0:0:0:
256,192,0,128,0,1:0:0:0:0:
256,192,0,128,0,1:0:0:0:0:
256,192,0,128,0,1:0:0:0:0:
256,192,0,128,0,1:0:0:0:0:
256,192,0,128,0,1:0:0:0:0:
256,192,0,128,0,1:0:0:0:0:
256,192,0,128,0,1:0:0:0:0:
256,192,0,128,0,1:0:0:0:0:
256,192,0,128,0,1:0:0:0:0:
256,192,0,128,0,1:0:0:0:0:
256,192,0,128,0,1:0:0:0:0:
256,192,0,128,0,1:0:0:0:0:
256,192,0,128,0,1:0:0:0:0:
256,192,0,128,0,1:0:0:0:0:
256,192,0,128,0,1:0:0:0:0:
256,192,0,128,0,1:0:0:0:0:
256,192,0,128,0,1:0:0:0:0:
256,192,0,128,0,1:0:0:0:0:
256,192,0,128,0,1:0:0:0:0:
256,192,0,128,0,1:0:0:0:0:
256,192,0,128,0,1:0:0:0:0:
256,192,0,128,0,1:0:0:0:0:
256,192,0,128,0,1:0:0:0:0:
256,192,0,128,0,1:0:0:0:0:
256,192,0,128,0,1:0:0:0:0:
256,192,0,128,0,1:0:0:0:0:
256,192,0,128,0,1:0:0:0:0:
256,192,0,128,0,1:0:0:0:0:
256,192,0,128,0,1:0:0:0:0:
256,192,0,128,0,1:0:0:0:0:
256,192,0,128,0,1:0:0:0:0:
256,192,0,128,0,1:0:0:0:0:
256,192,0,128,0,1:0:0:0:0:
256,192,0,128,0,1:0:0:0:0:
256,192,0,128,0,1:0:0:0:0:
256,192,0,128,0,1:0:0:0:0:
256,192,0,128,0,1:0:0:0:0:
256,192,0,128,0,1:0:0:0:0:
256,192,0,128,0,1:0:0:0:0:
256,192,0,128,0,1:0:0:0:0:
256,192,0,128,0,1:0:0:0:0:
256,192,0,128,0,1:0:0:0:0:
256,192,0,128,0,1:0:0:0:0:
256,192,0,128,0,1:0:0:0:0:
256,192,0,128,0,1:0:0:0:0:
256,192,0,128,0,1:0:0:0:0:
256,192,0,128,0,1:0:0:0:0:
256,192,0,128,0,1:0:0:0:0:
256,192,0,128,0,1:0:0:0:0:
256,192,0,128,0,1:0:0:0:0:
256,192,0,128,0,1:0:0:0:0:
256,192,0,128,0,1:0:0:0:0:
256,192,0,128,0,1:0:0:0:0:
256,192,0,128,0,1:0:0:0:0:
256,192,0,128,0,1:0:0:0:0:
256,192,0,128,0,1:0:0:0:0:
256,192,0,128,0,1:0:0:0:0:
256,192,0,128,0,1:0:0:0:0:
256,192,0,128,0,1:0:0:0:0:
256,192,0,128,0,1:0:0:0:0:
256,192,0,128,0,1:0:0:0:0:
256,192,0,128,0,1:0:0:0:0:
256,192,0,128,0,1:0:0:0:0:
256,192,0,128,0,1:0:0:0:0:
256,192,0,128,0,1:0:0:0:0:
256,192,0,128,0,1:0:0:0:0:
256,192,0,128,0,1:0:0:0:0:
256,192,0,128,0,1:0:0:0:0:
256,192,0,128,0,1:0:0:0:0:
256,192,0,128,0,1:0:0:0:0:
256,192,0,128,0,1:0:0:0:0:
256,192,0,128,0,1:0:0:0:0:
256,192,0,128,0,1:0:0:0:0:
256,192,0,128,0,1:0:0:0:0:
256,192,0,128,0,1:0:0:0:0:
256,192,0,128,0,1:0:0:0:0:
256,192,0,128,0,1:0:0:0:0:
256,192,0,128,0,1:0:0:0:0:
256,192,0,128,0,1:0:0:0:0:
256,192,0,128,0,1:0:0:0:0:
256,192,0,128,0,1:0:0:0:0:
256,192,0,128,0,1:0:0:0:0:
256,192,0,128,0,1:0:0:0:0:
256,192,0,128,0,1:0:0:0:0:
256,192,0,128,0,1:0:0:0:0:
256,192,0,128,0,1:0:0:0:0:
256,192,0,128,0,1:0:0:0:0:
256,192,0,128,0,1:0:0:0:0:
256,192,0,128,0,1:0:0:0:0:
256,192,0,128,0,1:0:0:0:0:
256,192,0,128,0,1:0:0:0:0:
256,192,0,128,0,1:0:0:0:0:
256,192,0,128,0,1:0:0:0:0:
256,192,0,128,0,1:0:0:0:0:
256,192,0,128,0,1:0:0:0:0:
256,192,0,128,0,1:0:0:0:0:
256,192,0,128,0,1:0:0:0:0:
256,192,0,128,0,1:0:0:0:0:
256,192,0,128,0,1:0:0:0:0:
256,192,0,128,0,1:0:0:0:0:
256,192,0,128,0,1:0:0:0:0:
256,192,0,128,0,1:0:0:0:0:
256,192,0,128,0,1:0:0:0:0:
256,192,0,128,0,1:0:0:0:0:
256,192,0,128,0,1:0:0:0:0:
256,192,0,128,0,1:0:0:0:0:
256,192,0,128,0,1:0:0:0:0:
256,192,0,128,0,1:0:0:0:0:
256,192,0,128,0,1:0:0:0:0:
256,192,0,128,0,1:0:0:0:0:
256,192,0,128,0,1:0:0:0:0:
256,192,0,128,0,1:0:0:0:0:
256,192,0,128,0,1:0:0:0:0:
256,192,0,128,0,1:0:0:0:0:
256,192,0,128,0,1:0:0:0:0:
256,192,0,128,0,1:0:0:0:0:
256,192,0,128,0,1:0:0:0:0:
256,192,0,128,0,1:0:0:0:0:
256,192,0,128,0,1:0:0:0:0:
256,192,0,128,0,1:0:0:0:0:
256,192,0,128,0,1:0:0:0:0:
256,192,0,128,0,1:0:0:0:0:
256,192,0,128,0,1:0:0:0:0:
256,192,0,128,0,1:0:0:0:0:
256,192,0,128,0,1:0:0:0:0:
256,192,0,128,0,1:0:0:0:0:
256,192,0,128,0,1:0:0:0:0:
256,192,0,128,0,1:0:0:0:0:
256,192,0,128,0,1:0:0:0:0:
256,192,0,128,0,1:0:0:0:0:
256,192,0,128,0,1:0:0:0:0:
256,192,0,128,0,1:0:0:0:0:
256,192,0,128,0,1:0:0:0:0:
256,192,0,128,0,1:0:0:0:0:
256,192,0,128,0,1:0:0:0:0:
256,192,0,128,0,1:0:0:0:0:
256,192,0,128,0,1:0:0:0:0:
256,192,0,128,0,1:0:0:0:0:
256,192,0,128,0,1:0:0:0:0:
256,192,0,128,0,1:0:0:0:0:
256,192,0,128,0,1:0:0:0:0:
256,192,0,128,0,1:0:0:0:0:
256,192,0,128,0,1:0:0:0:0:
256,192,0,128,0,1:0:0:0:0:
256,192,0,128,0,1:0:0:0:0:
256,192,0,128,0,1:0:0:0:0:
256,192,0,128,0,1:0:0:0:0:
256,192,0,128,0,1:0:0:0:0:
256,192,0,128,0,1:0:0:0:0:
256,192,0,128,0,1:0:0:0:0:
256,192,0,128,0,1:0:0:0:0:
256,192,0,128,0,1:0:0:0:0:
256,192,0,128,0,1:0:0:0:0:
256,192,0,128,0,1:0:0:0:0:
256,192,0,128,0,1:0:0:0:0:
256,192,0,128,0,1:0:0:0:0:
256,192,0,128,0,1:0:0:0:0:
256,192,0,128,0,1:0:0:0:0:
256,192,0,128,0,1:0:0:0:0:
256,192,0,128,0,1:0:0:0:0:
256,192,0,128,0,1:0:0:0:0:
256,192,0,128,0,1:0:0:0:0:
256,192,0,128,0,1:0:0:0:0:
256,192,0,128,0,1:0:0:0:0:
256,192,0,128,0,1:0:0:0:0:
256,192,0,128,0,1:0:0:0:0:
256,192,0,128,0,1:0:0:0:0:
256,192,0,128,0,1:0:0:0:0:
256,192,0,128,0,1:0:0:0:0:
256,192,0,128,0,1:0:0:0:0:
256,192,0,128,0,1:0:0:0:0:
256,192,0,128,0,1:0:0:0:0:
256,192,0,128,0,1:0:0:0:0:
256,192,0,128,0,1:0:0:0:0:
256,192,0,128,0,1:0:0:0:0:
256,192,0,128,0,1:0:0:0:0:
256,192,0,128,0,1:0:0:0:0:
256,192,0,128,0,1:0:0:0:0:
256,192,0,128,0,1:0:0:0:0:
256,192,0,128,0,1:0:0:0:0:
256,192,0,128,0,1:0:0:0:0:
256,192,0,128,0,1:0:0:0:0:
256,192,0,128,0,1:0:0:0:0:
256,192,0,128,0,1:0:0:0:0:
256,192,0,128,0,1:0:0:0:0:
256,192,0,128,0,1:0:0:0:0:
256,192,0,128,0,1:0:0:0:0:
256,192,0,128,0,1:0:0:0:0:
256,192,0,128,0,1:0:0:0:0:
256,192,0,128,0,1:0:0:0:0:
256,192,0,128,0,1:0:0:0:0:
256,192,0,128,0,1:0:0:0:0:
256,192,0,128,0,1:0:0:0:0:
256,192,0,128,0,1:0:0:0:0:
256,192,0,128,0,1:0:0:0:0:
256,192,0,128,0,1:0:0:0:0:
256,192,0,128,0,1:0:0:0:0:
256,192,0,128,0,1:0:0:0:0:
256,192,0,128,0,1:0:0:0:0:
256,192,0,128,0,1:0:0:0:0:
256,192,0,128,0,1:0:0:0:0:
256,192,0,128,0,1:0:0:0:0:
256,192,0,128,0,1:0:0:0:0:
256,192,0,128,0,1:0:0:0:0:
256,192,0,128,0,1:0:0:0:0:
256,192,0,128,0,1:0:0:0:0:
256,192,0,128,0,1:0:0:0:0:
256,192,0,128,0,1:0:0:0:0:
256,192,0,128,0,1:0:0:0:0:
256,192,0,128,0,1:0:0:0:0:
256,192,0,128,0,1:0:0:0:0:
256,192,0,128,0,1:0:0:0:0:
256,192,0,128,0,1:0:0:0:0:
256,192,0,128,0,1:0:0:0:0:
256,192,0,128,0,1:0:0:0:0:
256,192,0,128,0,1:0:0:0:0:
256,192,0,128,0,1:0:0:0:0:
256,192,0,128,0,1:0:0:0:0:
256,192,0,128,0,1:0:0:0:0:
256,192,0,128,0,1:0:0:0:0:
256,192,0,128,0,1:0:0:0:0:
256,192,0,128,0,1:0:0:0:0:
256,192,0,128,0,1:0:0:0:0:
256,192,0,128,0,1:0:0:0:0:
256,192,0,128,0,1:0:0:0:0:
256,192,0,128,0,1:0:0:0:0:
256,192,0,128,0,1:0:0:0:0:
256,192,0,128,0,1:0:0:0:0:
256,192,0,128,0,1:0:0:0:0:
256,192,0,128,0,1:0:0:0:0:
256,192,0,128,0,1:0:0:0:0:
256,192,0,128,0,1:0:0:0:0:
256,192,0,128,0,1:0:0:0:0:
256,192,0,128,0,1:0:0:0:0:
256,192,0,128,0,1:0:0:0:0:
256,192,0,128,0,1:0:0:0:0:
256,192,0,128,0,1:0:0:0:0:
256,192,0,128,0,1:0:0:0:0:
256,192,0,128,0,1:0:0:0:0:
256,192,0,128,0,1:0:0:0:0:
256,192,0,128,0,1:0:0:0:0:
256,192,0,128,0,1:0:0:0:0:
256,192,0,128,0,1:0:0:0:0:
256,192,0,128,0,1:0:0:0:0:
256,192,0,128,0,1:0:0:0:0:
256,192,0,128,0,1:0:0:0:0:
256,192,0,128,0,1:0:0:0:0:
256,192,0,128,0,1:0:0:0:0:
256,192,0,128,0,1:0:0:0:0:
256,192,0,128,0,1:0:0:0:0:
256,192,0,128,0,1:0:0:0:0:
256,192,0,128,0,1:0:0:0:0:
256,192,0,128,0,1:0:0:0:0:
256,192,0,128,0,1:0:0:0:0:
256,192,0,128,0,1:0:0:0:0:
256,192,0,128,0,1:0:0:0:0:
256,192,0,128,0,1:0:0:0:0:
256,192,0,128,0,1:0:0:0:0:
256,192,0,128,0,1:0:0:0:0:
256,192,0,128,0,1:0:0:0:0:
256,192,0,128,0,1:0:0:0:0:
256,192,0,128,0,1:0:0:0:0:
256,192,0,128,0,1:0:0:0:0:
256,192,0,128,0,1:0:0:0:0:
256,192,0,128,0,1:0:0:0:0:
256,192,0,128,0,1:0:0:0:0:
256,192,0,128,0,1:0:0:0:0:
256,192,0,128,0,1:0:0:0:0:
256,192,0,128,0,1:0:0:0:0:
256,192,0,128,0,1:0:0:0:0:
256,192,0,128,0,1:0:0:0:0:
256,192,0,128,0,1:0:0:0:0:
256,192,0,128,0,1:0:0:0:0:
256,192,0,128,0,1:0:0:0:0:
256,192,0,128,0,1:0:0:0:0:
256,192,0,128,0,1:0:0:0:0:
256,192,0,128,0,1:0:0:0:0:
256,192,0,128,0,1:0:0:0:0:
256,192,0,128,0,1:0:0:0:0:
256,192,0,128,0,1:0:0:0:0:
256,192,0,128,0,1:0:0:0:0:
256,192,0,128,0,1:0:0:0:0:
256,192,0,128,0,1:0:0:0:0:
256,192,0,128,0,1:0:0:0:0:
256,192,0,128,0,1:0:0:0:0:
256,192,0,128,0,1:0:0:0:0:
256,192,0,128,0,1:0:0:0:0:
256,192,0,128,0,1:0:0:0:0:
256,192,0,128,0,1:0:0:0:0:
256,192,0,128,0,1:0:0:0:0:
256,192,0,128,0,1:0:0:0:0:
256,192,0,128,0,1:0:0:0:0:
256,192,0,128,0,1:0:0:0:0:
256,192,0,128,0,1:0:0:0:0:
256,192,0,128,0,1:0:0:0:0:
256,192,0,128,0,1:0:0:0:0:
256,192,0,128,0,1:0:0:0:0:
256,192,0,128,0,1:0:0:0:0:
256,192,0,128,0,1:0:0:0:0:
256,192,0,128,0,1:0:0:0:0:
256,192,0,128,0,1:0:0:0:0:
256,192,0,128,0,1:0:0:0:0:
256,192,0,128,0,1:0:0:0:0:
256,192,0,128,0,1:0:0:0:0:
256,192,0,128,0,1:0:0:0:0:
256,192,0,128,0,1:0:0:0:0:
256,192,0,128,0,1:0:0:0:0:
256,192,0,128,0,1:0:0:0:0:
256,192,0,128,0,1:0:0:0:0:
256,192,0,128,0,1:0:0:0:0:
256,192,0,128,0,1:0:0:0:0:
256,192,0,128,0,1:0:0:0:0:
256,192,0,128,0,1:0:0:0:0:
256,192,0,128,0,1:0:0:0:0:
256,192,0,128,0,1:0:0:0:0:
256,192,0,128,0,1:0:0:0:0:
256,192,0,128,0,1:0:0:0:0:
256,192,0,128,0,1:0:0:0:0:
256,192,0,128,0,1:0:0:0:0:
256,192,0,128,0,1:0:0:0:0:
256,192,0,128,0,1:0:0:0:0:
256,192,0,128,0,1:0:0:0:0:
256,192,0,128,0,1:0:0:0:0:
256,192,0,128,0,1:0:0:0:0:
256,192,0,128,0,1:0:0:0:0:
256,192,0,128,0,1:0:0:0:0:
256,192,0,128,0,1:0:0:0:0:
256,192,0,128,0,1:0:0:0:0:
256,192,0,128,0,1:0:0:0:0:
256,192,0,128,0,1:0:0:0:0:
256,192,0,128,0,1:0:0:0:0:
256,192,0,128,0,1:0:0:0:0:
256,192,0,128,0,1:0:0:0:0:
256,192,0,128,0,1:0:0:0:0:
256,192,0,128,0,1:0:0:0:0:
256,192,0,128,0,1:0:0:0:0:
256,192,0,128,0,1:0:0:0:0:
256,192,0,128,0,1:0:0:0:0:
256,192,0,128,0,1:0:0:0:0:
256,192,0,128,0,1:0:0:0:0:
256,192,0,128,0,1:0:0:0:0:
256,192,0,128,0,1:0:0:0:0:
256,192,0,128,0,1:0:0:0:0:
256,192,0,128,0,1:0:0:0:0:
256,192,0,128,0,1:0:0:0:0:
256,192,0,128,0,1:0:0:0:0:
256,192,0,128,0,1:0:0:0:0:
256,192,0,128,0,1:0:0:0:0:
256,192,0,128,0,1:0:0:0:0:
256,192,0,128,0,1:0:0:0:0:
256,192,0,128,0,1:0:0:0:0:
256,192,0,128,0,1:0:0:0:0:
256,192,0,128,0,1:0:0:0:0:
256,192,0,128,0,1:0:0:0:0:
256,192,0,128,0,1:0:0:0:0:
256,192,0,128,0,1:0:0:0:0:
256,192,0,128,0,1:0:0:0:0:
256,192,0,128,0,1:0:0:0:0:
256,192,0,128,0,1:0:0:0:0:
256,192,0,128,0,1:0:0:0:0:
256,192,0,128,0,1:0:0:0:0:
256,192,0,128,0,1:0:0:0:0:
256,192,0,128,0,1:0:0:0:0:
256,192,0,128,0,1:0:0:0:0:
256,192,0,128,0,1:0:0:0:0:
256,192,0,128,0,1:0:0:0:0:
256,192,0,128,0,1:0:0:0:0:
256,192,0,128,0,1:0:0:0:0:
256,192,0,128,0,1:0:0:0:0:
256,192,0,128,0,1:0:0:0:0:
256,192,0,128,0,1:0:0:0:0:
256,192,0,128,0,1:0:0:0:0:
256,192,0,128,0,1:0:0:0:0:
256,192,0,128,0,1:0:0:0:0:
256,192,0,128,0,1:0:0:0:0:
256,192,0,128,0,1:0:0:0:0:
256,192,0,128,0,1:0:0:0:0:
256,192,0,128,0,1:0:0:0:0:
256,192,0,128,0,1:0:0:0:0:
256,192,0,128,0,1:0:0:0:0:
256,192,0,128,0,1:0:0:0:0:
256,192,0,128,0,1:0:0:0:0:
256,192,0,128,0,1:0:0:0:0:
256,192,0,128,0,1:0:0:0:0:
256,192,0,128,0,1:0:0:0:0:
256,192,0,128,0,1:0:0:0:0:
256,192,0,128,0,1:0:0:0:0:
256,192,0,128,0,1:0:0:0:0:
256,192,0,128,0,1:0:0:0:0:
256,192,0,128,0,1:0:0:0:0:
256,192,0,128,0,1:0:0:0:0:
256,192,0,128,0,1:0:0:0:0:
256,192,0,128,0,1:0:0:0:0:
256,192,0,128,0,1:0:0:0:0:
256,192,0,128,0,1:0:0:0:0:
256,192,0,128,0,1:0:0:0:0:
256,192,0,128,0,1:0:0:0:0:
256,192,0,128,0,1:0:0:0:0:
256,192,0,128,0,1:0:0:0:0:
256,192,0,128,0,1:0:0:0:0:
256,192,0,128,0,1:0:0:0:0:
256,192,0,128,0,1:0:0:0:0:
256,192,0,128,0,1:0:0:0:0:
256,192,0,128,0,1:0:0:0:0:
256,192,0,128,0,1:0:0:0:0:
256,192,0,128,0,1:0:0:0:0:
256,192,0,128,0,1:0:0:0:0:
256,192,0,128,0,1:0:0:0:0:
256,192,0,128,0,1:0:0:0:0:
256,192,0,128,0,1:0:0:0:0:
256,192,0,128,0,1:0:0:0:0:
256,192,0,128,0,1:0:0:0:0:
256,192,0,128,0,1:0:0:0:0:
256,192,0,128,0,1:0:0:0:0:
256,192,0,128,0,1:0:0:0:0:
256,192,0,128,0,1:0:0:0:0:
256,192,0,128,0,1:0:0:0:0:
256,192,0,128,0,1:0:0:0:0:
256,192,0,128,0,1:0:0:0:0:
256,192,0,128,0,1:0:0:0:0:
256,192,0,128,0,1:0:0:0:0:
256,192,0,128,0,1:0:0:0:0:
256,192,0,128,0,1:0:0:0:0:
256,192,0,128,0,1:0:0:0:0:
256,192,0,128,0,1:0:0:0:0:
256,192,0,128,0,1:0:0:0:0:
256,192,0,128,0,1:0:0:0:0:
256,192,0,128,0,1:0:0:0:0:
256,192,0,128,0,1:0:0:0:0:
256,192,0,128,0,1:0:0:0:0:
256,192,0,128,0,1:0:0:0:0:
256,192,0,128,0,1:0:0:0:0:
256,192,0,128,0,1:0:0:0:0:
256,192,0,128,0,1:0:0:0:0:
256,192,0,128,0,1:0:0:0:0:
256,192,0,128,0,1:0:0:0:0:
256,192,0,128,0,1:0:0:0:0:
256,192,0,128,0,1:0:0:0:0:
256,192,0,128,0,1:0:0:0:0:
256,192,0,128,0,1:0:0:0:0:
256,192,0,128,0,1:0:0:0:0:
256,192,0,128,0,1:0:0:0:0:
256,192,0,128,0,1:0:0:0:0:
256,192,0,128,0,1:0:0:0:0:
256,192,0,128,0,1:0:0:0:0:
256,192,0,128,0,1:0:0:0:0:
256,192,0,128,0,1:0:0:0:0:
256,192,0,128,0,1:0:0:0:0:
256,192,0,128,0,1:0:0:0:0:
256,192,0,128,0,1:0:0:0:0:
256,192,0,128,0,1:0:0:0:0:
256,192,0,128,0,1:0:0:0:0:
256,192,0,128,0,1:0:0:0:0:
256,192,0,128,0,1:0:0:0:0:
256,192,0,128,0,1:0:0:0:0:
256,192,0,128,0,1:0:0:0:0:
256,192,0,128,0,1:0:0:0:0:
256,192,0,128,0,1:0:0:0:0:
256,192,0,128,0,1:0:0:0:0:
256,192,0,128,0,1:0:0:0:0:
256,192,0,128,0,1:0:0:0:0:
256,192,0,128,0,1:0:0:0:0:
256,192,0,128,0,1:0:0:0:0:
256,192,0,128,0,1:0:0:0:0:
256,192,0,128,0,1:0:0:0:0:
256,192,0,128,0,1:0:0:0:0:
256,192,0,128,0,1:0:0:0:0:
256,192,0,128,0,1:0:0:0:0:
256,192,0,128,0,1:0:0:0:0:
256,192,0,128,0,1:0:0:0:0:
256,192,0,128,0,1:0:0:0:0:
256,192,0,128,0,1:0:0:0:0:
256,192,0,128,0,1:0:0:0:0:
256,192,0,128,0,1:0:0:0:0:
256,192,0,128,0,1:0:0:0:0:
256,192,0,128,0,1:0:0:0:0:
256,192,0,128,0,1:0:0:0:0:
256,192,0,128,0,1:0:0:0:0:
256,192,0,128,0,1:0:0:0:0:
256,192,0,128,0,1:0:0:0:0:
256,192,0,128,0,1:0:0:0:0:
256,192,0,128,0,1:0:0:0:0:
256,192,0,128,0,1:0:0:0:0:
256,192,0,128,0,1:0:0:0:0:
256,192,0,128,0,1:0:0:0:0:
256,192,0,128,0,1:0:0:0:0:
256,192,0,128,0,1:0:0:0:0:
256,192,0,128,0,1:0:0:0:0:
256,192,0,128,0,1:0:0:0:0:
256,192,0,128,0,1:0:0:0:0:
256,192,0,128,0,1:0:0:0:0:
256,192,0,128,0,1:0:0:0:0:
256,192,0,128,0,1:0:0:0:0:
256,192,0,128,0,1:0:0:0:0:
256,192,0,128,0,1:0:0:0:0:
256,192,0,128,0,1:0:0:0:0:
256,192,0,128,0,1:0:0:0:0:
256,192,0,128,0,1:0:0:0:0:
256,192,0,128,0,1:0:0:0:0:
256,192,0,128,0,1:0:0:0:0:
256,192,0,128,0,1:0:0:0:0:
256,192,0,128,0,1:0:0:0:0:
256,192,0,128,0,1:0:0:0:0:
256,192,0,128,0,1:0:0:0:0:
256,192,0,128,0,1:0:0:0:0:
256,192,0,128,0,1:0:0:0:0:
256,192,0,128,0,1:0:0:0:0:
256,192,0,128,0,1:0:0:0:0:
256,192,0,128,0,1:0:0:0:0:
256,192,0,128,0,1:0:0:0:0:
256,192,0,128,0,1:0:0:0:0:
256,192,0,128,0,1:0:0:0:0:
256,192,0,128,0,1:0:0:0:0:
256,192,0,128,0,1:0:0:0:0:
256,192,0,128,0,1:0:0:0:0:
256,192,0,128,0,1:0:0:0:0:
256,192,0,128,0,1:0:0:0:0:
256,192,0,128,0,1:0:0:0:0:
256,192,0,128,0,1:0:0:0:0:
256,192,0,128,0,1:0:0:0:0:
256,192,0,128,0,1:0:0:0:0:
256,192,0,128,0,1:0:0:0:0:
256,192,0,128,0,1:0:0:0:0:
256,192,0,128,0,1:0:0:0:0:
256,192,0,128,0,1:0:0:0:0:
256,192,0,128,0,1:0:0:0:0:
256,192,0,128,0,1:0:0:0:0:
256,192,0,128,0,1:0:0:0:0:
256,192,0,128,0,1:0:0:0:0:
256,192,0,128,0,1:0:0:0:0:
256,192,0,128,0,1:0:0:0:0:
256,192,0,128,0,1:0:0:0:0:
256,192,0,128,0,1:0:0:0:0:
256,192,0,128,0,1:0:0:0:0:
256,192,0,128,0,1:0:0:0:0:
256,192,0,128,0,1:0:0:0:0:
256,192,0,128,0,1:0:0:0:0:
256,192,0,128,0,1:0:0:0:0:
256,192,0,128,0,1:0:0:0:0:
256,192,0,128,0,1:0:0:0:0:
256,192,0,128,0,1:0:0:0:0:
256,192,0,128,0,1:0:0:0:0:
256,192,0,128,0,1:0:0:0:0:
256,192,0,128,0,1:0:0:0:0:
256,192,0,128,0,1:0:0:0:0:
256,192,0,128,0,1:0:0:0:0:
256,192,0,128,0,1:0:0:0:0:
256,192,0,128,0,1:0:0:0:0:
256,192,0,128,0,1:0:0:0:0:
256,192,0,128,0,1:0:0:0:0:
256,192,0,128,0,1:0:0:0:0:
256,192,0,128,0,1:0:0:0:0:
256,192,0,128,0,1:0:0:0:0:
256,192,0,128,0,1:0:0:0:0:
256,192,0,128,0,1:0:0:0:0:
256,192,0,128,0,1:0:0:0:0:
256,192,0,128,0,1:0:0:0:0:
256,192,0,128,0,1:0:0:0:0:
256,192,0,128,0,1:0:0:0:0:
256,192,0,128,0,1:0:0:0:0:
256,192,0,128,0,1:0:0:0:0:
256,192,0,128,0,1:0:0:0:0:
256,192,0,128,0,1:0:0:0:0:
256,192,0,128,0,1:0:0:0:0:
256,192,0,128,0,1:0:0:0:0:
256,192,0,128,0,1:0:0:0:0:
256,192,0,128,0,1:0:0:0:0:
256,192,0,128,0,1:0:0:0:0:
256,192,0,128,0,1:0:0:0:0:
256,192,0,128,0,1:0:0:0:0:
256,192,0,128,0,1:0:0:0:0:
256,192,0,128,0,1:0:0:0:0:
256,192,0,128,0,1:0:0:0:0:
256,192,0,128,0,1:0:0:0:0:
256,192,0,128,0,1:0:0:0:0:
256,192,0,128,0,1:0:0:0:0:
256,192,0,128,0,1:0:0:0:0:
256,192,0,128,0,1:0:0:0:0:
256,192,0,128,0,1:0:0:0:0:
256,192,0,128,0,1:0:0:0:0:
256,192,0,128,0,1:0:0:0:0:
256,192,0,128,0,1:0:0:0:0:
256,192,0,128,0,1:0:0:0:0:
256,192,0,128,0,1:0:0:0:0:
256,192,0,128,0,1:0:0:0:0:
256,192,0,128,0,1:0:0:0:0:
256,192,0,128,0,1:0:0:0:0:
256,192,0,128,0,1:0:0:0:0:
256,192,0,128,0,1:0:0:0:0:
256,192,0,128,0,1:0:0:0:0:
256,192,0,128,0,1:0:0:0:0:
256,192,0,128,0,1:0:0:0:0:
256,192,0,128,0,1:0:0:0:0:
256,192,0,128,0,1:0:0:0:0:
256,192,0,128,0,1:0:0:0:0:
256,192,0,128,0,1:0:0:0:0:
256,192,0,128,0,1:0:0:0:0:
256,192,0,128,0,1:0:0:0:0:
256,192,0,128,0,1:0:0:0:0:
256,192,0,128,0,1:0:0:0:0:
256,192,0,128,0,1:0:0:0:0:
256,192,0,128,0,1:0:0:0:0:
256,192,0,128,0,1:0:0:0:0:
256,192,0,128,0,1:0:0:0:0:
256,192,0,128,0,1:0:0:0:0:
256,192,0,128,0,1:0:0:0:0:
256,192,0,128,0,1:0:0:0:0:
256,192,0,128,0,1:0:0:0:0:
256,192,0,128,0,1:0:0:0:0:
256,192,0,128,0,1:0:0:0:0:
256,192,0,128,0,1:0:0:0:0:
256,192,0,128,0,1:0:0:0:0:
256,192,0,128,0,1:0:0:0:0:
256,192,0,128,0,1:0:0:0:0:
256,192,0,128,0,1:0:0:0:0:
256,192,0,128,0,1:0:0:0:0:
256,192,0,128,0,1:0:0:0:0:
256,192,0,128,0,1:0:0:0:0:
256,192,0,128,0,1:0:0:0:0:
256,192,0,128,0,1:0:0:0:0:
256,192,0,128,0,1:0:0:0:0:
256,192,0,128,0,1:0:0:0:0:
256,192,0,128,0,1:0:0:0:0:
256,192,0,128,0,1:0:0:0:0:
256,192,0,128,0,1:0:0:0:0:
256,192,0,128,0,1:0:0:0:0:
256,192,0,128,0,1:0:0:0:0:
256,192,0,128,0,1:0:0:0:0:
256,192,0,128,0,1:0:0:0:0:
256,192,0,128,0,1:0:0:0:0:
256,192,0,128,0,1:0:0:0:0:
256,192,0,128,0,1:0:0:0:0:
256,192,0,128,0,1:0:0:0:0:
256,192,0,128,0,1:0:0:0:0:
256,192,0,128,0,1:0:0:0:0:
256,192,0,128,0,1:0:0:0:0:
256,192,0,128,0,1:0:0:0:0:
256,192,0,128,0,1:0:0:0:0:
256,192,0,128,0,1:0:0:0:0:
256,192,0,128,0,1:0:0:0:0:
256,192,0,128,0,1:0:0:0:0:
256,192,0,128,0,1:0:0:0:0:
256,192,0,128,0,1:0:0:0:0:
256,192,0,128,0,1:0:0:0:0:
256,192,0,128,0,1:0:0:0:0:
256,192,0,128,0,1:0:0:0:0:
256,192,0,128,0,1:0:0:0:0:
256,192,0,128,0,1:0:0:0:0:
256,192,0,128,0,1:0:0:0:0:
256,192,0,128,0,1:0:0:0:0:
256,192,0,128,0,1:0:0:0:0:
256,192,0,128,0,1:0:0:0:0:
256,192,0,128,0,1:0:0:0:0:
256,192,0,128,0,1:0:0:0:0:
256,192,0,128,0,1:0:0:0:0:
256,192,0,128,0,1:0:0:0:0:
256,192,0,128,0,1:0:0:0:0:
256,192,0,128,0,1:0:0:0:0:
256,192,0,128,0,1:0:0:0:0:
256,192,0,128,0,1:0:0:0:0:
256,192,0,128,0,1:0:0:0:0:
256,192,0,128,0,1:0:0:0:0:
256,192,0,128,0,1:0:0:0:0:
256,192,0,128,0,1:0:0:0:0:
256,192,0,128,0,1:0:0:0:0:
256,192,0,128,0,1:0:0:0:0:
256,192,0,128,0,1:0:0:0:0:
256,192,0,128,0,1:0:0:0:0:
256,192,0,128,0,1:0:0:0:0:
256,192,0,128,0,1:0:0:0:0:
256,192,0,128,0,1:0:0:0:0:
256,192,0,128,0,1:0:0:0:0:
256,192,0,128,0,1:0:0:0:0:
256,192,0,128,0,1:0:0:0:0:
256,192,0,128,0,1:0:0:0:0:
256,192,0,128,0,1:0:0:0:0:
256,192,0,128,0,1:0:0:0:0:
256,192,0,128,0,1:0:0:0:0:
256,192,0,128,0,1:0:0:0:0:
256,192,0,128,0,1:0:0:0:0:
256,192,0,128,0,1:0:0:0:0:
256,192,0,128,0,1:0:0:0:0:
256,192,0,128,0,1:0:0:0:0:
256,192,0,128,0,1:0:0:0:0:
256,192,0,128,0,1:0:0:0:0:
256,192,0,128,0,1:0:0:0:0:
256,192,0,128,0,1:0:0:0:0:
256,192,0,128,0,1:0:0:0:0:
256,192,0,128,0,1:0:0:0:0:
256,192,0,128,0,1:0:0:0:0:
256,192,0,128,0,1:0:0:0:0:
256,192,0,128,0,1:0:0:0:0:
256,192,0,128,0,1:0:0:0:0:
256,192,0,128,0,1:0:0:0:0:
256,192,0,128,0,1:0:0:0:0:
256,192,0,128,0,1:0:0:0:0:
256,192,0,128,0,1:0:0:0:0:
256,192,0,128,0,1:0:0:0:0:
256,192,0,128,0,1:0:0:0:0:
256,192,0,128,0,1:0:0:0:0:
256,192,0,128,0,1:0:0:0:0:
256,192,0,128,0,1:0:0:0:0:
256,192,0,128,0,1:0:0:0:0:
256,192,0,128,0,1:0:0:0:0:
256,192,0,128,0,1:0:0:0:0:
256,192,0,128,0,1:0:0:0:0:
256,192,0,128,0,1:0:0:0:0:
256,192,0,128,0,1:0:0:0:0:
256,192,0,128,0,1:0:0:0:0:
256,192,0,128,0,1:0:0:0:0:
256,192,0,128,0,1:0:0:0:0:
256,192,0,128,0,1:0:0:0:0:
256,192,0,128,0,1:0:0:0:0:
256,192,0,128,0,1:0:0:0:0:
256,192,0,128,0,1:0:0:0:0:
256,192,0,128,0,1:0:0:0:0:
256,192,0,128,0,1:0:0:0:0:
256,192,0,128,0,1:0:0:0:0:
256,192,0,128,0,1:0:0:0:0:
256,192,0,128,0,1:0:0:0:0:
256,192,0,128,0,1:0:0:0:0:
256,192,0,128,0,1:0:0:0:0:
256,192,0,128,0,1:0:0:0:0:
256,192,0,128,0,1:0:0:0:0:
256,192,0,128,0,1:0:0:0:0:
256,192,0,128,0,1:0:0:0:0:
256,192,0,128,0,1:0:0:0:0:
256,192,0,128,0,1:0:0:0:0:
256,192,0,128,0,1:0:0:0:0:
256,192,0,128,0,1:0:0:0:0:
256,192,0,128,0,1:0:0:0:0:
256,192,0,128,0,1:0:0:0:0:
256,192,0,128,0,1:0:0:0:0:
256,192,0,128,0,1:0:0:0:0:
256,192,0,128,0,1:0:0:0:0:
256,192,0,128,0,1:0:0:0:0:
256,192,0,128,0,1:0:0:0:0:
256,192,0,128,0,1:0:0:0:0:
256,192,0,128,0,1:0:0:0:0:
256,192,0,128,0,1:0:0:0:0:
256,192,0,128,0,1:0:0:0:0:
256,192,0,128,0,1:0:0:0:0:
256,192,0,128,0,1:0:0:0:0:
256,192,0,128,0,1:0:0:0:0:
256,192,0,128,0,1:0:0:0:0:
256,192,0,128,0,1:0:0:0:0:
256,192,0,128,0,1:0:0:0:0:
256,192,0,128,0,1:0:0:0:0:
256,192,0,128,0,1:0:0:0:0:
256,192,0,128,0,1:0:0:0:0:
256,192,0,128,0,1:0:0:0:0:
256,192,0,128,0,1:0:0:0:0:
256,192,0,128,0,1:0:0:0:0:
256,192,0,128,0,1:0:0:0:0:
256,192,0,128,0,1:0:0:0:0:
256,192,0,128,0,1:0:0:0:0:
256,192,0,128,0,1:0:0:0:0:
256,192,0,128,0,1:0:0:0:0:
256,192,0,128,0,1:0:0:0:0:
256,192,0,128,0,1:0:0:0:0:
256,192,0,128,0,1:0:0:0:0:
256,192,0,128,0,1:0:0:0:0:
256,192,0,128,0,1:0:0:0:0:
256,192,0,128,0,1:0:0:0:0:
256,192,0,128,0,1:0:0:0:0:
256,192,0,128,0,1:0:0:0:0:
256,192,0,128,0,1:0:0:0:0:
256,192,0,128,0,1:0:0:0:0:
256,192,0,128,0,1:0:0:0:0:
256,192,0,128,0,1:0:0:0:0:
256,192,0,128,0,1:0:0:0:0:
256,192,0,128,0,1:0:0:0:0:
256,192,0,128,0,1:0:0:0:0:
256,192,0,128,0,1:0:0:0:0:
256,192,0,128,0,1:0:0:0:0:
256,192,0,128,0,1:0:0:0:0:
256,192,0,128,0,1:0:0:0:0:
256,192,0,128,0,1:0:0:0:0:
256,192,0,128,0,1:0:0:0:0:
256,192,0,128,0,1:0:0:0:0:
256,192,0,128,0,1:0:0:0:0:
256,192,0,128,0,1:0:0:0:0:
256,192,0,128,0,1:0:0:0:0:
256,192,0,128,0,1:0:0:0:0:
256,192,0,128,0,1:0:0:0:0:
256,192,0,128,0,1:0:0:0:0:
256,192,0,128,0,1:0:0:0:0:
256,192,0,128,0,1:0:0:0:0:
256,192,0,128,0,1:0:0:0:0:
256,192,0,128,0,1:0:0:0:0:
256,192,0,128,0,1:0:0:0:0:
256,192,0,128,0,1:0:0:0:0:
256,192,0,128,0,1:0:0:0:0:
256,192,0,128,0,1:0:0:0:0:
256,192,0,128,0,1:0:0:0:0:
256,192,0,128,0,1:0:0:0:0:
256,192,0,128,0,1:0:0:0:0:
256,192,0,128,0,1:0:0:0:0:
256,192,0,128,0,1:0:0:0:0:
256,192,0,128,0,1:0:0:0:0:
256,192,0,128,0,1:0:0:0:0:
256,192,0,128,0,1:0:0:0:0:
256,192,0,128,0,1:0:0:0:0:
256,192,0,128,0,1:0:0:0:0:
256,192,0,128,0,1:0:0:0:0:
256,192,0,128,0,1:0:0:0:0:
256,192,0,128,0,1:0:0:0:0:
256,192,0,128,0,1:0:0:0:0:
256,192,0,128,0,1:0:0:0:0:
256,192,0,128,0,1:0:0:0:0:
256,192,0,128,0,1:0:0:0:0:
256,192,0,128,0,1:0:0:0:0:
256,192,0,128,0,1:0:0:0:0:
256,192,0,128,0,1:0:0:0:0:
256,192,0,128,0,1:0:0:0:0:
256,192,0,128,0,1:0:0:0:0:
256,192,0,128,0,1:0:0:0:0:
256,192,0,128,0,1:0:0:0:0:
256,192,0,128,0,1:0:0:0:0:
256,192,0,128,0,1:0:0:0:0:
256,192,0,128,0,1:0:0:0:0:
256,192,0,128,0,1:0:0:0:0:
256,192,0,128,0,1:0:0:0:0:
256,192,0,128,0,1:0:0:0:0:
256,192,0,128,0,1:0:0:0:0:
256,192,0,128,0,1:0:0:0:0:
256,192,0,128,0,1:0:0:0:0:
256,192,0,128,0,1:0:0:0:0:
256,192,0,128,0,1:0:0:0:0:
256,192,0,128,0,1:0:0:0:0:
256,192,0,128,0,1:0:0:0:0:
256,192,0,128,0,1:0:0:0:0:
256,192,0,128,0,1:0:0:0:0:
256,192,0,128,0,1:0:0:0:0:
256,192,0,128,0,1:0:0:0:0:
256,192,0,128,0,1:0:0:0:0:
256,192,0,128,0,1:0:0:0:0:
256,192,0,128,0,1:0:0:0:0:
256,192,0,128,0,1:0:0:0:0:
256,192,0,128,0,1:0:0:0:0:
256,192,0,128,0,1:0:0:0:0:
256,192,0,128,0,1:0:0:0:0:
256,192,0,128,0,1:0:0:0:0:
256,192,0,128,0,1:0:0:0:0:
256,192,0,128,0,1:0:0:0:0:
256,192,0,128,0,1:0:0:0:0:
256,192,0,128,0,1:0:0:0:0:
256,192,0,128,0,1:0:0:0:0:
256,192,0,128,0,1:0:0:0:0:
256,192,0,128,0,1:0:0:0:0:
256,192,0,128,0,1:0:0:0:0:
256,192,0,128,0,1:0:0:0:0:
256,192,0,128,0,1:0:0:0:0:
256,192,0,128,0,1:0:0:0:0:
256,192,0,128,0,1:0:0:0:0:
256,192,0,128,0,1:0:0:0:0:
256,192,0,128,0,1:0:0:0:0:
256,192,0,128,0,1:0:0:0:0:
256,192,0,128,0,1:0:0:0:0:
256,192,0,128,0,1:0:0:0:0:
256,192,0,128,0,1:0:0:0:0:
256,192,0,128,0,1:0:0:0:0:
256,192,0,128,0,1:0:0:0:0:
256,192,0,128,0,1:0:0:0:0:
256,192,0,128,0,1:0:0:0:0:
256,192,0,128,0,1:0:0:0:0:
256,192,0,128,0,1:0:0:0:0:
256,192,0,128,0,1:0:0:0:0:
256,192,0,128,0,1:0:0:0:0:
256,192,0,128,0,1:0:0:0:0:
256,192,0,128,0,1:0:0:0:0:
256,192,0,128,0,1:0:0:0:0:
256,192,0,128,0,1:0:0:0:0:
256,192,0,128,0,1:0:0:0:0:
256,192,0,128,0,1:0:0:0:0:
256,192,0,128,0,1:0:0:0:0:
256,192,0,128,0,1:0:0:0:0:
256,192,0,128,0,1:0:0:0:0:
256,192,0,128,0,1:0:0:0:0:
256,192,0,128,0,1:0:0:0:0:
256,192,0,128,0,1:0:0:0:0:
256,192,0,128,0,1:0:0:0:0:
256,192,0,128,0,1:0:0:0:0:
256,192,0,128,0,1:0:0:0:0:
256,192,0,128,0,1:0:0:0:0:
256,192,0,128,0,1:0:0:0:0:
256,192,0,128,0,1:0:0:0:0:
256,192,0,128,0,1:0:0:0:0:
256,192,0,128,0,1:0:0:0:0:
256,192,0,128,0,1:0:0:0:0:
256,192,0,128,0,1:0:0:0:0:
256,192,0,128,0,1:0:0:0:0:
256,192,0,128,0,1:0:0:0:0:
256,192,0,128,0,1:0:0:0:0:
256,192,0,128,0,1:0:0:0:0:
256,192,0,128,0,1:0:0:0:0:
256,192,0,128,0,1:0:0:0:0:
256,192,0,128,0,1:0:0:0:0:
256,192,0,128,0,1:0:0:0:0:
256,192,0,128,0,1:0:0:0:0:
256,192,0,128,0,1:0:0:0:0:
256,192,0,128,0,1:0:0:0:0:
256,192,0,128,0,1:0:0:0:0:
256,192,0,128,0,1:0:0:0:0:
256,192,0,128,0,1:0:0:0:0:
256,192,0,128,0,1:0:0:0:0:
256,192,0,128,0,1:0:0:0:0:
256,192,0,128,0,1:0:0:0:0:
256,192,0,128,0,1:0:0:0:0:
256,192,0,128,0,1:0:0:0:0:
256,192,0,128,0,1:0:0:0:0:
256,192,0,128,0,1:0:0:0:0:
256,192,0,128,0,1:0:0:0:0:
256,192,0,128,0,1:0:0:0:0:
256,192,0,128,0,1:0:0:0:0:
256,192,0,128,0,1:0:0:0:0:
256,192,0,128,0,1:0:0:0:0:
256,192,0,128,0,1:0:0:0:0:
256,192,0,128,0,1:0:0:0:0:
256,192,0,128,0,1:0:0:0:0:
256,192,0,128,0,1:0:0:0:0:
256,192,0,128,0,1:0:0:0:0:
256,192,0,128,0,1:0:0:0:0:
256,192,0,128,0,1:0:0:0:0:
256,192,0,128,0,1:0:0:0:0:
256,192,0,128,0,1:0:0:0:0:
256,192,0,128,0,1:0:0:0:0:
256,192,0,128,0,1:0:0:0:0:
256,192,0,128,0,1:0:0:0:0:
256,192,0,128,0,1:0:0:0:0:
256,192,0,128,0,1:0:0:0:0:
256,192,0,128,0,1:0:0:0:0:
256,192,0,128,0,1:0:0:0:0:
256,192,0,128,0,1:0:0:0:0:
256,192,0,128,0,1:0:0:0:0:
256,192,0,128,0,1:0:0:0:0:
256,192,0,128,0,1:0:0:0:0:
256,192,0,128,0,1:0:0:0:0:
256,192,0,128,0,1:0:0:0:0:
256,192,0,128,0,1:0:0:0:0:
256,192,0,128,0,1:0:0:0:0:
256,192,0,128,0,1:0:0:0:0:
256,192,0,128,0,1:0:0:0:0:
256,192,0,128,0,1:0:0:0:0:
256,192,0,128,0,1:0:0:0:0:
256,192,0,128,0,1:0:0:0:0:
256,192,0,128,0,1:0:0:0:0:
256,192,0,128,0,1:0:0:0:0:
256,192,0,128,0,1:0:0:0:0:
256,192,0,128,0,1:0:0:0:0:
256,192,0,128,0,1:0:0:0:0:
256,192,0,128,0,1:0:0:0:0:
256,192,0,128,0,1:0:0:0:0:
256,192,0,128,0,1:0:0:0:0:
256,192,0,128,0,1:0:0:0:0:
256,192,0,128,0,1:0:0:0:0:
256,192,0,128,0,1:0:0:0:0:
256,192,0,128,0,1:0:0:0:0:
256,192,0,128,0,1:0:0:0:0:
256,192,0,128,0,1:0:0:0:0:
256,192,0,128,0,1:0:0:0:0:
256,192,0,128,0,1:0:0:0:0:
256,192,0,128,0,1:0:0:0:0:
256,192,0,128,0,1:0:0:0:0:
256,192,0,128,0,1:0:0:0:0:
256,192,0,128,0,1:0:0:0:0:
256,192,0,128,0,1:0:0:0:0:
256,192,0,128,0,1:0:0:0:0:
256,192,0,128,0,1:0:0:0:0:
256,192,0,128,0,1:0:0:0:0:
256,192,0,128,0,1:0:0:0:0:
256,192,0,128,0,1:0:0:0:0:
256,192,0,128,0,1:0:0:0:0:
256,192,0,128,0,1:0:0:0:0:
256,192,0,128,0,1:0:0:0:0:
256,192,0,128,0,1:0:0:0:0:
256,192,0,128,0,1:0:0:0:0:
256,192,0,128,0,1:0:0:0:0:
256,192,0,128,0,1:0:0:0:0:
256,192,0,128,0,1:0:0:0:0:
256,192,0,128,0,1:0:0:0:0:
256,192,0,128,0,1:0:0:0:0:
256,192,0,128,0,1:0:0:0:0:
256,192,0,128,0,1:0:0:0:0:
256,192,0,128,0,1:0:0:0:0:
256,192,0,128,0,1:0:0:0:0:
256,192,0,128,0,1:0:0:0:0:
256,192,0,128,0,1:0:0:0:0:
256,192,0,128,0,1:0:0:0:0:
256,192,0,128,0,1:0:0:0:0:
256,192,0,128,0,1:0:0:0:0:
256,192,0,128,0,1:0:0:0:0:
256,192,0,128,0,1:0:0:0:0:
256,192,0,128,0,1:0:0:0:0:
256,192,0,128,0,1:0:0:0:0:
256,192,0,128,0,1:0:0:0:0:
256,192,0,128,0,1:0:0:0:0:
256,192,0,128,0,1:0:0:0:0:
256,192,0,128,0,1:0:0:0:0:
256,192,0,128,0,1:0:0:0:0:
256,192,0,128,0,1:0:0:0:0:
256,192,0,128,0,1:0:0:0:0:
256,192,0,128,0,1:0:0:0:0:
256,192,0,128,0,1:0:0:0:0:
256,192,0,128,0,1:0:0:0:0:
256,192,0,128,0,1:0:0:0:0:
256,192,0,128,0,1:0:0:0:0:
256,192,0,128,0,1:0:0:0:0:
256,192,0,128,0,1:0:0:0:0:
256,192,0,128,0,1:0:0:0:0:
256,192,0,128,0,1:0:0:0:0:
256,192,0,128,0,1:0:0:0:0:
256,192,0,128,0,1:0:0:0:0:
256,192,0,128,0,1:0:0:0:0:
256,192,0,128,0,1:0:0:0:0:
256,192,0,128,0,1:0:0:0:0:
256,192,0,128,0,1:0:0:0:0:
256,192,0,128,0,1:0:0:0:0:
256,192,0,128,0,1:0:0:0:0:
256,192,0,128,0,1:0:0:0:0:
256,192,0,128,0,1:0:0:0:0:
256,192,0,128,0,1:0:0:0:0:
256,192,0,128,0,1:0:0:0:0:
256,192,0,128,0,1:0:0:0:0:
256,192,0,128,0,1:0:0:0:0:
256,192,0,128,0,1:0:0:0:0:
256,192,0,128,0,1:0:0:0:0:
256,192,0,128,0,1:0:0:0:0:
256,192,0,128,0,1:0:0:0:0:
256,192,0,128,0,1:0:0:0:0:
256,192,0,128,0,1:0:0:0:0:
256,192,0,128,0,1:0:0:0:0:
256,192,0,128,0,1:0:0:0:0:
256,192,0,128,0,1:0:0:0:0:
256,192,0,128,0,1:0:0:0:0:
256,192,0,128,0,1:0:0:0:0:
256,192,0,128,0,1:0:0:0:0:
256,192,0,128,0,1:0:0:0:0:
256,192,0,128,0,1:0:0:0:0:
256,192,0,128,0,1:0:0:0:0:
256,192,0,128,0,1:0:0:0:0:
256,192,0,128,0,1:0:0:0:0:
256,192,0,128,0,1:0:0:0:0:
256,192,0,128,0,1:0:0:0:0:
256,192,0,128,0,1:0:0:0:0:
256,192,0,128,0,1:0:0:0:0:
256,192,0,128,0,1:0:0:0:0:
256,192,0,128,0,1:0:0:0:0:
256,192,0,128,0,1:0:0:0:0:
256,192,0,128,0,1:0:0:0:0:
256,192,0,128,0,1:0:0:0:0:
256,192,0,128,0,1:0:0:0:0:
256,192,0,128,0,1:0:0:0:0:
256,192,0,128,0,1:0:0:0:0:
256,192,0,128,0,1:0:0:0:0:
256,192,0,128,0,1:0:0:0:0:
256,192,0,128,0,1:0:0:0:0:
256,192,0,128,0,1:0:0:0:0:
256,192,0,128,0,1:0:0:0:0:
256,192,0,128,0,1:0:0:0:0:
256,192,0,128,0,1:0:0:0:0:
256,192,0,128,0,1:0:0:0:0:
256,192,0,128,0,1:0:0:0:0:
256,192,0,128,0,1:0:0:0:0:
256,192,0,128,0,1:0:0:0:0:
256,192,0,128,0,1:0:0:0:0:
256,192,0,128,0,1:0:0:0:0:
256,192,0,128,0,1:0:0:0:0:
256,192,0,128,0,1:0:0:0:0:
256,192,0,128,0,1:0:0:0:0:
256,192,0,128,0,1:0:0:0:0:
256,192,0,128,0,1:0:0:0:0:
256,192,0,128,0,1:0:0:0:0:
256,192,0,128,0,1:0:0:0:0:
256,192,0,128,0,1:0:0:0:0:
256,192,0,128,0,1:0:0:0:0:
256,192,0,128,0,1:0:0:0:0:
256,192,0,128,0,1:0:0:0:0:
256,192,0,128,0,1:0:0:0:0:
256,192,0,128,0,1:0:0:0:0:
256,192,0,128,0,1:0:0:0:0:
256,192,0,128,0,1:0:0:0:0:
256,192,0,128,0,1:0:0:0:0:
256,192,0,128,0,1:0:0:0:0:
256,192,0,128,0,1:0:0:0:0:
256,192,0,128,0,1:0:0:0:0:
256,192,0,128,0,1:0:0:0:0:
256,192,0,128,0,1:0:0:0:0:
256,192,0,128,0,1:0:0:0:0:
256,192,0,128,0,1:0:0:0:0:
256,192,0,128,0,1:0:0:0:0:
256,192,0,128,0,1:0:0:0:0:
256,192,0,128,0,1:0:0:0:0:
256,192,0,128,0,1:0:0:0:0:
256,192,0,128,0,1:0:0:0:0:
256,192,0,128,0,1:0:0:0:0:
256,192,0,128,0,1:0:0:0:0:
256,192,0,128,0,1:0:0:0:0:
256,192,0,128,0,1:0:0:0:0:
256,192,0,128,0,1:0:0:0:0:
256,192,0,128,0,1:0:0:0:0:
256,192,0,128,0,1:0:0:0:0:
256,192,0,128,0,1:0:0:0:0:
256,192,0,128,0,1:0:0:0:0:
256,192,0,128,0,1:0:0:0:0:
256,192,0,128,0,1:0:0:0:0:
256,192,0,128,0,1:0:0:0:0:
256,192,0,128,0,1:0:0:0:0:
256,192,0,128,0,1:0:0:0:0:
256,192,0,128,0,1:0:0:0:0:
256,192,0,128,0,1:0:0:0:0:
256,192,0,128,0,1:0:0:0:0:
256,192,0,128,0,1:0:0:0:0:
256,192,0,128,0,1:0:0:0:0:
256,192,0,128,0,1:0:0:0:0:
256,192,0,128,0,1:0:0:0:0:
256,192,0,128,0,1:0:0:0:0:
256,192,0,128,0,1:0:0:0:0:
256,192,0,128,0,1:0:0:0:0:
256,192,0,128,0,1:0:0:0:0:
256,192,0,128,0,1:0:0:0:0:
256,192,0,128,0,1:0:0:0:0:
256,192,0,128,0,1:0:0:0:0:
256,192,0,128,0,1:0:0:0:0:
256,192,0,128,0,1:0:0:0:0:
256,192,0,128,0,1:0:0:0:0:
256,192,0,128,0,1:0:0:0:0:
256,192,0,128,0,1:0:0:0:0:
256,192,0,128,0,1:0:0:0:0:
256,192,0,128,0,1:0:0:0:0:
256,192,0,128,0,1:0:0:0:0:
256,192,0,128,0,1:0:0:0:0:
256,192,0,128,0,1:0:0:0:0:
256,192,0,128,0,1:0:0:0:0:
256,192,0,128,0,1:0:0:0:0:
256,192,0,128,0,1:0:0:0:0:
256,192,0,128,0,1:0:0:0:0:
256,192,0,128,0,1:0:0:0:0:
256,192,0,128,0,1:0:0:0:0:
256,192,0,128,0,1:0:0:0:0:
256,192,0,128,0,1:0:0:0:0:
256,192,0,128,0,1:0:0:0:0:
256,192,0,128,0,1:0:0:0:0:
256,192,0,128,0,1:0:0:0:0:
256,192,0,128,0,1:0:0:0:0:
256,192,0,128,0,1:0:0:0:0:
256,192,0,128,0,1:0:0:0:0:
256,192,0,128,0,1:0:0:0:0:
256,192,0,128,0,1:0:0:0:0:
256,192,0,128,0,1:0:0:0:0:
256,192,0,128,0,1:0:0:0:0:
256,192,0,128,0,1:0:0:0:0:
256,192,0,128,0,1:0:0:0:0:
256,192,0,128,0,1:0:0:0:0:
256,192,0,128,0,1:0:0:0:0:
256,192,0,128,0,1:0:0:0:0:
256,192,0,128,0,1:0:0:0:0:
256,192,0,128,0,1:0:0:0:0:
256,192,0,128,0,1:0:0:0:0:
256,192,0,128,0,1:0:0:0:0:
256,192,0,128,0,1:0:0:0:0:
256,192,0,128,0,1:0:0:0:0:
256,192,0,128,0,1:0:0:0:0:
256,192,0,128,0,1:0:0:0:0:
256,192,0,128,0,1:0:0:0:0:
256,192,0,128,0,1:0:0:0:0:
256,192,0,128,0,1:0:0:0:0:
256,192,0,128,0,1:0:0:0:0:
256,192,0,128,0,1:0:0:0:0:
256,192,0,128,0,1:0:0:0:0:
256,192,0,128,0,1:0:0:0:0:
256,192,0,128,0,1:0:0:0:0:
256,192,0,128,0,1:0:0:0:0:
256,192,0,128,0,1:0:0:0:0:
256,192,0,128,0,1:0:0:0:0:
256,192,0,128,0,1:0:0:0:0:
256,192,0,128,0,1:0:0:0:0:
256,192,0,128,0,1:0:0:0:0:
256,192,0,128,0,1:0:0:0:0:
256,192,0,128,0,1:0:0:0:0:
256,192,0,128,0,1:0:0:0:0:
256,192,0,128,0,1:0:0:0:0:
256,192,0,128,0,1:0:0:0:0:
256,192,0,128,0,1:0:0:0:0:
256,192,0,128,0,1:0:0:0:0:
256,192,0,128,0,1:0:0:0:0:
256,192,0,128,0,1:0:0:0:0:
256,192,0,128,0,1:0:0:0:0:
256,192,0,128,0,1:0:0:0:0:
256,192,0,128,0,1:0:0:0:0:
256,192,0,128,0,1:0:0:0:0:
256,192,0,128,0,1:0:0:0:0:
256,192,0,128,0,1:0:0:0:0:
256,192,0,128,0,1:0:0:0:0:
256,192,0,128,0,1:0:0:0:0:
256,192,0,128,0,1:0:0:0:0:
256,192,0,128,0,1:0:0:0:0:
256,192,0,128,0,1:0:0:0:0:
256,192,0,128,0,1:0:0:0:0:
256,192,0,128,0,1:0:0:0:0:
256,192,0,128,0,1:0:0:0:0:
256,192,0,128,0,1:0:0:0:0:
256,192,0,128,0,1:0:0:0:0:
256,192,0,128,0,1:0:0:0:0:
256,192,0,128,0,1:0:0:0:0:
256,192,0,128,0,1:0:0:0:0:
256,192,0,128,0,1:0:0:0:0:
256,192,0,128,0,1:0:0:0:0:
256,192,0,128,0,1:0:0:0:0:
256,192,0,128,0,1:0:0:0:0:
256,192,0,128,0,1:0:0:0:0:
256,192,0,128,0,1:0:0:0:0:
256,192,0,128,0,1:0:0:0:0:
256,192,0,128,0,1:0:0:0:0:
256,192,0,128,0,1:0:0:0:0:
256,192,0,128,0,1:0:0:0:0:
256,192,0,128,0,1:0:0:0:0:
256,192,0,128,0,1:0:0:0:0:
256,192,0,128,0,1:0:0:0:0:
256,192,0,128,0,1:0:0:0:0:
256,192,0,128,0,1:0:0:0:0:
256,192,0,128,0,1:0:0:0:0:
256,192,0,128,0,1:0:0:0:0:
256,192,0,128,0,1:0:0:0:0:
256,192,0,128,0,1:0:0:0:0:
256,192,0,128,0,1:0:0:0:0:
256,192,0,128,0,1:0:0:0:0:
256,192,0,128,0,1:0:0:0:0:
256,192,0,128,0,1:0:0:0:0:
256,192,0,128,0,1:0:0:0:0:
256,192,0,128,0,1:0:0:0:0:
256,192,0,128,0,1:0:0:0:0:
256,192,0,128,0,1:0:0:0:0:
256,192,0,128,0,1:0:0:0:0:
256,192,0,128,0,1:0:0:0:0:
256,192,0,128,0,1:0:0:0:0:
256,192,0,128,0,1:0:0:0:0:
256,192,0,128,0,1:0:0:0:0:
256,192,0,128,0,1:0:0:0:0:
256,192,0,128,0,1:0:0:0:0:
256,192,0,128,0,1:0:0:0:0:
256,192,0,128,0,1:0:0:0:0:
256,192,0,128,0,1:0:0:0:0:
256,192,0,128,0,1:0:0:0:0:
256,192,0,128,0,1:0:0:0:0:
256,192,0,128,0,1:0:0:0:0:
256,192,0,128,0,1:0:0:0:0:
256,192,0,128,0,1:0:0:0:0:
256,192,0,128,0,1:0:0:0:0:
256,192,0,128,0,1:0:0:0:0:
256,192,0,128,0,1:0:0:0:0:
256,192,0,128,0,1:0:0:0:0:
256,192,0,128,0,1:0:0:0:0:
256,192,0,128,0,1:0:0:0:0:
256,192,0,128,0,1:0:0:0:0:
256,192,0,128,0,1:0:0:0:0:
256,192,0,128,0,1:0:0:0:0:
256,192,0,128,0,1:0:0:0:0:
256,192,0,128,0,1:0:0:0:0:
256,192,0,128,0,1:0:0:0:0:
256,192,0,128,0,1:0:0:0:0:
256,192,0,128,0,1:0:0:0:0:
256,192,0,128,0,1:0:0:0:0:
256,192,0,128,0,1:0:0:0:0:
256,192,0,128,0,1:0:0:0:0:
256,192,0,128,0,1:0:0:0:0:
256,192,0,128,0,1:0:0:0:0:
256,192,0,128,0,1:0:0:0:0:
256,192,0,128,0,1:0:0:0:0:
256,192,0,128,0,1:0:0:0:0:
256,192,0,128,0,1:0:0:0:0:
256,192,0,128,0,1:0:0:0:0:
256,192,0,128,0,1:0:0:0:0:
256,192,0,128,0,1:0:0:0:0:
256,192,0,128,0,1:0:0:0:0:
256,192,0,128,0,1:0:0:0:0:
256,192,0,128,0,1:0:0:0:0:
256,192,0,128,0,1:0:0:0:0:
256,192,0,128,0,1:0:0:0:0:
256,192,0,128,0,1:0:0:0:0:
256,192,0,128,0,1:0:0:0:0:
256,192,0,128,0,1:0:0:0:0:
256,192,0,128,0,1:0:0:0:0:
256,192,0,128,0,1:0:0:0:0:
256,192,0,128,0,1:0:0:0:0:
256,192,0,128,0,1:0:0:0:0:
256,192,0,128,0,1:0:0:0:0:
256,192,0,128,0,1:0:0:0:0:
256,192,0,128,0,1:0:0:0:0:
256,192,0,128,0,1:0:0:0:0:
256,192,0,128,0,1:0:0:0:0:
256,192,0,128,0,1:0:0:0:0:
256,192,0,128,0,1:0:0:0:0:
256,192,0,128,0,1:0:0:0:0:
256,192,0,128,0,1:0:0:0:0:
256,192,0,128,0,1:0:0:0:0:
256,192,0,128,0,1:0:0:0:0:
256,192,0,128,0,1:0:0:0:0:
256,192,0,128,0,1:0:0:0:0:
256,192,0,128,0,1:0:0:0:0:
256,192,0,128,0,1:0:0:0:0:
256,192,0,128,0,1:0:0:0:0:
256,192,0,128,0,1:0:0:0:0:
256,192,0,128,0,1:0:0:0:0:
256,192,0,128,0,1:0:0:0:0:
256,192,0,128,0,1:0:0:0:0:
256,192,0,128,0,1:0:0:0:0:
256,192,0,128,0,1:0:0:0:0:
256,192,0,128,0,1:0:0:0:0:
256,192,0,128,0,1:0:0:0:0:
256,192,0,128,0,1:0:0:0:0:
256,192,0,128,0,1:0:0:0:0:
256,192,0,128,0,1:0:0:0:0:
256,192,0,128,0,1:0:0:0:0:
256,192,0,128,0,1:0:0:0:0:
256,192,0,128,0,1:0:0:0:0:
256,192,0,128,0,1:0:0:0:0:
256,192,0,128,0,1:0:0:0:0:
256,192,0,128,0,1:0:0:0:0:
256,192,0,128,0,1:0:0:0:0:
256,192,0,128,0,1:0:0:0:0:
256,192,0,128,0,1:0:0:0:0:
256,192,0,128,0,1:0:0:0:0:
256,192,0,128,0,1:0:0:0:0:
256,192,0,128,0,1:0:0:0:0:
256,192,0,128,0,1:0:0:0:0:
256,192,0,128,0,1:0:0:0:0:
256,192,0,128,0,1:0:0:0:0:
256,192,0,128,0,1:0:0:0:0:
256,192,0,128,0,1:0:0:0:0:
256,192,0,128,0,1:0:0:0:0:
256,192,0,128,0,1:0:0:0:0:
256,192,0,128,0,1:0:0:0:0:
256,192,0,128,0,1:0:0:0:0:
256,192,0,128,0,1:0:0:0:0:
256,192,0,128,0,1:0:0:0:0:
256,192,0,128,0,1:0:0:0:0:
256,192,0,128,0,1:0:0:0:0:
256,192,0,128,0,1:0:0:0:0:
256,192,0,128,0,1:0:0:0:0:
256,192,0,128,0,1:0:0:0:0:
256,192,0,128,0,1:0:0:0:0:
256,192,0,128,0,1:0:0:0:0:
256,192,0,128,0,1:0:0:0:0:
256,192,0,128,0,1:0:0:0:0:
256,192,0,128,0,1:0:0:0:0:
256,192,0,128,0,1:0:0:0:0:
256,192,0,128,0,1:0:0:0:0:
256,192,0,128,0,1:0:0:0:0:
256,192,0,128,0,1:0:0:0:0:
256,192,0,128,0,1:0:0:0:0:
256,192,0,128,0,1:0:0:0:0:
256,192,0,128,0,1:0:0:0:0:
256,192,0,128,0,1:0:0:0:0:
256,192,0,128,0,1:0:0:0:0:
256,192,0,128,0,1:0:0:0:0:
256,192,0,128,0,1:0:0:0:0:
256,192,0,128,0,1:0:0:0:0:
256,192,0,128,0,1:0:0:0:0:
256,192,0,128,0,1:0:0:0:0:
256,192,0,128,0,1:0:0:0:0:
256,192,0,128,0,1:0:0:0:0:
256,192,0,128,0,1:0:0:0:0:
256,192,0,128,0,1:0:0:0:0:
256,192,0,128,0,1:0:0:0:0:
256,192,0,128,0,1:0:0:0:0:
256,192,0,128,0,1:0:0:0:0:
256,192,0,128,0,1:0:0:0:0:
256,192,0,128,0,1:0:0:0:0:
256,192,0,128,0,1:0:0:0:0:
256,192,0,128,0,1:0:0:0:0:
256,192,0,128,0,1:0:0:0:0:
256,192,0,128,0,1:0:0:0:0:
256,192,0,128,0,1:0:0:0:0:
256,192,0,128,0,1:0:0:0:0:
256,192,0,128,0,1:0:0:0:0:
256,192,0,128,0,1:0:0:0:0:
256,192,0,128,0,1:0:0:0:0:
256,192,0,128,0,1:0:0:0:0:
256,192,0,128,0,1:0:0:0:0:
256,192,0,128,0,1:0:0:0:0:
256,192,0,128,0,1:0:0:0:0:
256,192,0,128,0,1:0:0:0:0:
256,192,0,128,0,1:0:0:0:0:
256,192,0,128,0,1:0:0:0:0:
256,192,0,128,0,1:0:0:0:0:
256,192,0,128,0,1:0:0:0:0:
256,192,0,128,0,1:0:0:0:0:
256,192,0,128,0,1:0:0:0:0:
256,192,0,128,0,1:0:0:0:0:
256,192,0,128,0,1:0:0:0:0:
256,192,0,128,0,1:0:0:0:0:
256,192,0,128,0,1:0:0:0:0:
256,192,0,128,0,1:0:0:0:0:
256,192,0,128,0,1:0:0:0:0:
256,192,0,128,0,1:0:0:0:0:
256,192,0,128,0,1:0:0:0:0:
256,192,0,128,0,1:0:0:0:0:
256,192,0,128,0,1:0:0:0:0:
256,192,0,128,0,1:0:0:0:0:
256,192,0,128,0,1:0:0:0:0:
256,192,0,128,0,1:0:0:0:0:
256,192,0,128,0,1:0:0:0:0:
256,192,0,128,0,1:0:0:0:0:
256,192,0,128,0,1:0:0:0:0:
256,192,0,128,0,1:0:0:0:0:
256,192,0,128,0,1:0:0:0:0:
256,192,0,128,0,1:0:0:0:0:
256,192,0,128,0,1:0:0:0:0:
256,192,0,128,0,1:0:0:0:0:
256,192,0,128,0,1:0:0:0:0:
256,192,0,128,0,1:0:0:0:0:
256,192,0,128,0,1:0:0:0:0:
256,192,0,128,0,1:0:0:0:0:
256,192,0,128,0,1:0:0:0:0:
256,192,0,128,0,1:0:0:0:0:
256,192,0,128,0,1:0:0:0:0:
256,192,0,128,0,1:0:0:0:0:
256,192,0,128,0,1:0:0:0:0:
256,192,0,128,0,1:0:0:0:0:
256,192,0,128,0,1:0:0:0:0:
256,192,0,128,0,1:0:0:0:0:
256,192,0,128,0,1:0:0:0:0:
256,192,0,128,0,1:0:0:0:0:
256,192,0,128,0,1:0:0:0:0:
256,192,0,128,0,1:0:0:0:0:
256,192,0,128,0,1:0:0:0:0:
256,192,0,128,0,1:0:0:0:0:
256,192,0,128,0,1:0:0:0:0:
256,192,0,128,0,1:0:0:0:0:
256,192,0,128,0,1:0:0:0:0:
256,192,0,128,0,1:0:0:0:0:
256,192,0,128,0,1:0:0:0:0:
256,192,0,128,0,1:0:0:0:0:
256,192,0,128,0,1:0:0:0:0:
256,192,0,128,0,1:0:0:0:0:
256,192,0,128,0,1:0:0:0:0:
256,192,0,128,0,1:0:0:0:0:
256,192,0,128,0,1:0:0:0:0:
256,192,0,128,0,1:0:0:0:0:
256,192,0,128,0,1:0:0:0:0:
256,192,0,128,0,1:0:0:0:0:
256,192,0,128,0,1:0:0:0:0:
256,192,0,128,0,1:0:0:0:0:
256,192,0,128,0,1:0:0:0:0:
256,192,0,128,0,1:0:0:0:0:
256,192,0,128,0,1:0:0:0:0:
256,192,0,128,0,1:0:0:0:0:
256,192,0,128,0,1:0:0:0:0:
256,192,0,128,0,1:0:0:0:0:
256,192,0,128,0,1:0:0:0:0:
256,192,0,128,0,1:0:0:0:0:
256,192,0,128,0,1:0:0:0:0:
256,192,0,128,0,1:0:0:0:0:
256,192,0,128,0,1:0:0:0:0:
256,192,0,128,0,1:0:0:0:0:
256,192,0,128,0,1:0:0:0:0:
256,192,0,128,0,1:0:0:0:0:
256,192,0,128,0,1:0:0:0:0:
256,192,0,128,0,1:0:0:0:0:
256,192,0,128,0,1:0:0:0:0:
256,192,0,128,0,1:0:0:0:0:
256,192,0,128,0,1:0:0:0:0:
256,192,0,128,0,1:0:0:0:0:
256,192,0,128,0,1:0:0:0:0:
256,192,0,128,0,1:0:0:0:0:
256,192,0,128,0,1:0:0:0:0:
256,192,0,128,0,1:0:0:0:0:
256,192,0,128,0,1:0:0:0:0:
256,192,0,128,0,1:0:0:0:0:
256,192,0,128,0,1:0:0:0:0:
256,192,0,128,0,1:0:0:0:0:
256,192,0,128,0,1:0:0:0:0:
256,192,0,128,0,1:0:0:0:0:
256,192,0,128,0,1:0:0:0:0:
256,192,0,128,0,1:0:0:0:0:
256,192,0,128,0,1:0:0:0:0:
256,192,0,128,0,1:0:0:0:0:
256,192,0,128,0,1:0:0:0:0:
256,192,0,128,0,1:0:0:0:0:
256,192,0,128,0,1:0:0:0:0:
256,192,0,128,0,1:0:0:0:0:
256,192,0,128,0,1:0:0:0:0:
256,192,0,128,0,1:0:0:0:0:
256,192,0,128,0,1:0:0:0:0:
256,192,0,128,0,1:0:0:0:0:
256,192,0,128,0,1:0:0:0:0:
256,192,0,128,0,1:0:0:0:0:
256,192,0,128,0,1:0:0:0:0:
256,192,0,128,0,1:0:0:0:0:
256,192,0,128,0,1:0:0:0:0:
256,192,0,128,0,1:0:0:0:0:
256,192,0,128,0,1:0:0:0:0:
256,192,0,128,0,1:0:0:0:0:
256,192,0,128,0,1:0:0:0:0:
256,192,0,128,0,1:0:0:0:0:
256,192,0,128,0,1:0:0:0:0:
256,192,0,128,0,1:0:0:0:0:
256,192,0,128,0,1:0:0:0:0:
256,192,0,128,0,1:0:0:0:0:
256,192,0,128,0,1:0:0:0:0:
256,192,0,128,0,1:0:0:0:0:
256,192,0,128,0,1:0:0:0:0:
256,192,0,128,0,1:0:0:0:0:
256,192,0,128,0,1:0:0:0:0:
256,192,0,128,0,1:0:0:0:0:
256,192,0,128,0,1:0:0:0:0:
256,192,0,128,0,1:0:0:0:0:
256,192,0,128,0,1:0:0:0:0:
256,192,0,128,0,1:0:0:0:0:
256,192,0,128,0,1:0:0:0:0:
256,192,0,128,0,1:0:0:0:0:
256,192,0,128,0,1:0:0:0:0:
256,192,0,128,0,1:0:0:0:0:
256,192,0,128,0,1:0:0:0:0:
256,192,0,128,0,1:0:0:0:0:
256,192,0,128,0,1:0:0:0:0:
256,192,0,128,0,1:0:0:0:0:
256,192,0,128,0,1:0:0:0:0:
256,192,0,128,0,1:0:0:0:0:
256,192,0,128,0,1:0:0:0:0:
256,192,0,128,0,1:0:0:0:0:
256,192,0,128,0,1:0:0:0:0:
256,192,0,128,0,1:0:0:0:0:
256,192,0,128,0,1:0:0:0:0:
256,192,0,128,0,1:0:0:0:0:
256,192,0,128,0,1:0:0:0:0:
256,192,0,128,0,1:0:0:0:0:
256,192,0,128,0,1:0:0:0:0:
256,192,0,128,0,1:0:0:0:0:
256,192,0,128,0,1:0:0:0:0:
256,192,0,128,0,1:0:0:0:0:
256,192,0,128,0,1:0:0:0:0:
256,192,0,128,0,1:0:0:0:0:
256,192,0,128,0,1:0:0:0:0:
256,192,0,128,0,1:0:0:0:0:
256,192,0,128,0,1:0:0:0:0:
256,192,0,128,0,1:0:0:0:0:
256,192,0,128,0,1:0:0:0:0:
256,192,0,128,0,1:0:0:0:0:
256,192,0,128,0,1:0:0:0:0:
256,192,0,128,0,1:0:0:0:0:
256,192,0,128,0,1:0:0:0:0:
256,192,0,128,0,1:0:0:0:0:
256,192,0,128,0,1:0:0:0:0:
256,192,0,128,0,1:0:0:0:0:
256,192,0,128,0,1:0:0:0:0:
256,192,0,128,0,1:0:0:0:0:
256,192,0,128,0,1:0:0:0:0:
256,192,0,128,0,1:0:0:0:0:
256,192,0,128,0,1:0:0:0:0:
256,192,0,128,0,1:0:0:0:0:
256,192,0,128,0,1:0:0:0:0:
256,192,0,128,0,1:0:0:0:0:
256,192,0,128,0,1:0:0:0:0:
256,192,0,128,0,1:0:0:0:0:
256,192,0,128,0,1:0:0:0:0:
256,192,0,128,0,1:0:0:0:0:
256,192,0,128,0,1:0:0:0:0:
256,192,0,128,0,1:0:0:0:0:
256,192,0,128,0,1:0:0:0:0:
256,192,0,128,0,1:0:0:0:0:
256,192,0,128,0,1:0:0:0:0:
256,192,0,128,0,1:0:0:0:0:
256,192,0,128,0,1:0:0:0:0:
256,192,0,128,0,1:0:0:0:0:
256,192,0,128,0,1:0:0:0:0:
256,192,0,128,0,1:0:0:0:0:
256,192,0,128,0,1:0:0:0:0:
256,192,0,128,0,1:0:0:0:0:
256,192,0,128,0,1:0:0:0:0:
256,192,0,128,0,1:0:0:0:0:
256,192,0,128,0,1:0:0:0:0:
256,192,0,128,0,1:0:0:0:0:
256,192,0,128,0,1:0:0:0:0:
256,192,0,128,0,1:0:0:0:0:
256,192,0,128,0,1:0:0:0:0:
256,192,0,128,0,1:0:0:0:0:
256,192,0,128,0,1:0:0:0:0:
256,192,0,128,0,1:0:0:0:0:
256,192,0,128,0,1:0:0:0:0:
256,192,0,128,0,1:0:0:0:0:
256,192,0,128,0,1:0:0:0:0:
256,192,0,128,0,1:0:0:0:0:
256,192,0,128,0,1:0:0:0:0:
256,192,0,128,0,1:0:0:0:0:
256,192,0,128,0,1:0:0:0:0:
256,192,0,128,0,1:0:0:0:0:
256,192,0,128,0,1:0:0:0:0:
256,192,0,128,0,1:0:0:0:0:
256,192,0,128,0,1:0:0:0:0:
256,192,0,128,0,1:0:0:0:0:
256,192,0,128,0,1:0:0:0:0:
256,192,0,128,0,1:0:0:0:0:
256,192,0,128,0,1:0:0:0:0:
256,192,0,128,0,1:0:0:0:0:
256,192,0,128,0,1:0:0:0:0:
256,192,0,128,0,1:0:0:0:0:
256,192,0,128,0,1:0:0:0:0:
256,192,0,128,0,1:0:0:0:0:
256,192,0,128,0,1:0:0:0:0:
256,192,0,128,0,1:0:0:0:0:
256,192,0,128,0,1:0:0:0:0:
256,192,0,128,0,1:0:0:0:0:
256,192,0,128,0,1:0:0:0:0:
256,192,0,128,0,1:0:0:0:0:
256,192,0,128,0,1:0:0:0:0:
256,192,0,128,0,1:0:0:0:0:
256,192,0,128,0,1:0:0:0:0:
256,192,0,128,0,1:0:0:0:0:
256,192,0,128,0,1:0:0:0:0:
256,192,0,128,0,1:0:0:0:0:
256,192,0,128,0,1:0:0:0:0:
256,192,0,128,0,1:0:0:0:0:
256,192,0,128,0,1:0:0:0:0:
256,192,0,128,0,1:0:0:0:0:
256,192,0,128,0,1:0:0:0:0:
256,192,0,128,0,1:0:0:0:0:
256,192,0,128,0,1:0:0:0:0:
256,192,0,128,0,1:0:0:0:0:
256,192,0,128,0,1:0:0:0:0:
256,192,0,128,0,1:0:0:0:0:
256,192,0,128,0,1:0:0:0:0:
256,192,0,128,0,1:0:0:0:0:
256,192,0,128,0,1:0:0:0:0:
256,192,0,128,0,1:0:0:0:0:
256,192,0,128,0,1:0:0:0:0:
256,192,0,128,0,1:0:0:0:0:
256,192,0,128,0,1:0:0:0:0:
256,192,0,128,0,1:0:0:0:0:
256,192,0,128,0,1:0:0:0:0:
256,192,0,128,0,1:0:0:0:0:
256,192,0,128,0,1:0:0:0:0:
256,192,0,128,0,1:0:0:0:0:
256,192,0,128,0,1:0:0:0:0:
256,192,0,128,0,1:0:0:0:0:
256,192,0,128,0,1:0:0:0:0:
256,192,0,128,0,1:0:0:0:0:
256,192,0,128,0,1:0:0:0:0:
256,192,0,128,0,1:0:0:0:0:
256,192,0,128,0,1:0:0:0:0:
256,192,0,128,0,1:0:0:0:0:
256,192,0,128,0,1:0:0:0:0:
256,192,0,128,0,1:0:0:0:0:
256,192,0,128,0,1:0:0:0:0:
256,192,0,128,0,1:0:0:0:0:
256,192,0,128,0,1:0:0:0:0:
256,192,0,128,0,1:0:0:0:0:
256,192,0,128,0,1:0:0:0:0:
256,192,0,128,0,1:0:0:0:0:
256,192,0,128,0,1:0:0:0:0:
256,192,0,128,0,1:0:0:0:0:
256,192,0,128,0,1:0:0:0:0:
256,192,0,128,0,1:0:0:0:0:
256,192,0,128,0,1:0:0:0:0:
256,192,0,128,0,1:0:0:0:0:
256,192,0,128,0,1:0:0:0:0:
256,192,0,128,0,1:0:0:0:0:
256,192,0,128,0,1:0:0:0:0:
256,192,0,128,0,1:0:0:0:0:
256,192,0,128,0,1:0:0:0:0:
256,192,0,128,0,1:0:0:0:0:
256,192,0,128,0,1:0:0:0:0:
256,192,0,128,0,1:0:0:0:0:
256,192,0,128,0,1:0:0:0:0:
256,192,0,128,0,1:0:0:0:0:
256,192,0,128,0,1:0:0:0:0:
256,192,0,128,0,1:0:0:0:0:
256,192,0,128,0,1:0:0:0:0:
256,192,0,128,0,1:0:0:0:0:
256,192,0,128,0,1:0:0:0:0:
256,192,0,128,0,1:0:0:0:0:
256,192,0,128,0,1:0:0:0:0:
256,192,0,128,0,1:0:0:0:0:
256,192,0,128,0,1:0:0:0:0:
256,192,0,128,0,1:0:0:0:0:
256,192,0,128,0,1:0:0:0:0:
256,192,0,128,0,1:0:0:0:0:
256,192,0,128,0,1:0:0:0:0:
256,192,0,128,0,1:0:0:0:0:
256,192,0,128,0,1:0:0:0:0:
256,192,0,128,0,1:0:0:0:0:
256,192,0,128,0,1:0:0:0:0:
256,192,0,128,0,1:0:0:0:0:
256,192,0,128,0,1:0:0:0:0:
256,192,0,128,0,1:0:0:0:0:
256,192,0,128,0,1:0:0:0:0:
256,192,0,128,0,1:0:0:0:0:
256,192,0,128,0,1:0:0:0:0:
256,192,0,128,0,1:0:0:0:0:
256,192,0,128,0,1:0:0:0:0:
256,192,0,128,0,1:0:0:0:0:
256,192,0,128,0,1:0:0:0:0:
256,192,0,128,0,1:0:0:0:0:
256,192,0,128,0,1:0:0:0:0:
256,192,0,128,0,1:0:0:0:0:
256,192,0,128,0,1:0:0:0:0:
256,192,0,128,0,1:0:0:0:0:
256,192,0,128,0,1:0:0:0:0:
256,192,0,128,0,1:0:0:0:0:
256,192,0,128,0,1:0:0:0:0:
256,192,0,128,0,1:0:0:0:0:
256,192,0,128,0,1:0:0:0:0:
256,192,0,128,0,1:0:0:0:0:
256,192,0,128,0,1:0:0:0:0:
256,192,0,128,0,1:0:0:0:0:
256,192,0,128,0,1:0:0:0:0:
256,192,0,128,0,1:0:0:0:0:
256,192,0,128,0,1:0:0:0:0:
256,192,0,128,0,1:0:0:0:0:
256,192,0,128,0,1:0:0:0:0:
256,192,0,128,0,1:0:0:0:0:
256,192,0,128,0,1:0:0:0:0:
256,192,0,128,0,1:0:0:0:0:
256,192,0,128,0,1:0:0:0:0:
256,192,0,128,0,1:0:0:0:0:
256,192,0,128,0,1:0:0:0:0:
256,192,0,128,0,1:0:0:0:0:
256,192,0,128,0,1:0:0:0:0:
256,192,0,128,0,1:0:0:0:0:
256,192,0,128,0,1:0:0:0:0:
256,192,0,128,0,1:0:0:0:0:
256,192,0,128,0,1:0:0:0:0:
256,192,0,128,0,1:0:0:0:0:
256,192,0,128,0,1:0:0:0:0:
256,192,0,128,0,1:0:0:0:0:
256,192,0,128,0,1:0:0:0:0:
256,192,0,128,0,1:0:0:0:0:
256,192,0,128,0,1:0:0:0:0:
256,192,0,128,0,1:0:0:0:0:
256,192,0,128,0,1:0:0:0:0:
256,192,0,128,0,1:0:0:0:0:
256,192,0,128,0,1:0:0:0:0:
256,192,0,128,0,1:0:0:0:0:
256,192,0,128,0,1:0:0:0:0:
256,192,0,128,0,1:0:0:0:0:
256,192,0,128,0,1:0:0:0:0:
256,192,0,128,0,1:0:0:0:0:
256,192,0,128,0,1:0:0:0:0:
256,192,0,128,0,1:0:0:0:0:
256,192,0,128,0,1:0:0:0:0:
256,192,0,128,0,1:0:0:0:0:
256,192,0,128,0,1:0:0:0:0:
256,192,0,128,0,1:0:0:0:0:
256,192,0,128,0,1:0:0:0:0:
256,192,0,128,0,1:0:0:0:0:
256,192,0,128,0,1:0:0:0:0:
256,192,0,128,0,1:0:0:0:0:
256,192,0,128,0,1:0:0:0:0:
256,192,0,128,0,1:0:0:0:0:
256,192,0,128,0,1:0:0:0:0:
256,192,0,128,0,1:0:0:0:0:
256,192,0,128,0,1:0:0:0:0:
256,192,0,128,0,1:0:0:0:0:
256,192,0,128,0,1:0:0:0:0:
256,192,0,128,0,1:0:0:0:0:
256,192,0,128,0,1:0:0:0:0:
256,192,0,128,0,1:0:0:0:0:
256,192,0,128,0,1:0:0:0:0:
256,192,0,128,0,1:0:0:0:0:
256,192,0,128,0,1:0:0:0:0:
256,192,0,128,0,1:0:0:0:0:
256,192,0,128,0,1:0:0:0:0:
256,192,0,128,0,1:0:0:0:0:
256,192,0,128,0,1:0:0:0:0:
256,192,0,128,0,1:0:0:0:0:
256,192,0,128,0,1:0:0:0:0:
256,192,0,128,0,1:0:0:0:0:
256,192,0,128,0,1:0:0:0:0:
256,192,0,128,0,1:0:0:0:0:
256,192,0,128,0,1:0:0:0:0:
256,192,0,128,0,1:0:0:0:0:
256,192,0,128,0,1:0:0:0:0:
256,192,0,128,0,1:0:0:0:0:
256,192,0,128,0,1:0:0:0:0:
256,192,0,128,0,1:0:0:0:0:
256,192,0,128,0,1:0:0:0:0:
256,192,0,128,0,1:0:0:0:0:
256,192,0,128,0,1:0:0:0:0:
256,192,0,128,0,1:0:0:0:0:
256,192,0,128,0,1:0:0:0:0:
256,192,0,128,0,1:0:0:0:0:
256,192,0,128,0,1:0:0:0:0:
256,192,0,128,0,1:0:0:0:0:
256,192,0,128,0,1:0:0:0:0:
256,192,0,128,0,1:0:0:0:0:
256,192,0,128,0,1:0:0:0:0:
256,192,0,128,0,1:0:0:0:0:
256,192,0,128,0,1:0:0:0:0:
256,192,0,128,0,1:0:0:0:0:
256,192,0,128,0,1:0:0:0:0:
256,192,0,128,0,1:0:0:0:0:
256,192,0,128,0,1:0:0:0:0:
256,192,0,128,0,1:0:0:0:0:
256,192,0,128,0,1:0:0:0:0:
256,192,0,128,0,1:0:0:0:0:
256,192,0,128,0,1:0:0:0:0:
256,192,0,128,0,1:0:0:0:0:
256,192,0,128,0,1:0:0:0:0:
256,192,0,128,0,1:0:0:0:0:
256,192,0,128,0,1:0:0:0:0:
256,192,0,128,0,1:0:0:0:0:
256,192,0,128,0,1:0:0:0:0:
256,192,0,128,0,1:0:0:0:0:
256,192,0,128,0,1:0:0:0:0:
256,192,0,128,0,1:0:0:0:0:
256,192,0,128,0,1:0:0:0:0:
256,192,0,128,0,1:0:0:0:0:
256,192,0,128,0,1:0:0:0:0:
256,192,0,128,0,1:0:0:0:0:
256,192,0,128,0,1:0:0:0:0:
256,192,0,128,0,1:0:0:0:0:
256,192,0,128,0,1:0:0:0:0:
256,192,0,128,0,1:0:0:0:0:
256,192,0,128,0,1:0:0:0:0:
256,192,0,128,0,1:0:0:0:0:
256,192,0,128,0,1:0:0:0:0:
256,192,0,128,0,1:0:0:0:0:
256,192,0,128,0,1:0:0:0:0:
256,192,0,128,0,1:0:0:0:0:
256,192,0,128,0,1:0:0:0:0:
256,192,0,128,0,1:0:0:0:0:
256,192,0,128,0,1:0:0:0:0:
256,192,0,128,0,1:0:0:0:0:
256,192,0,128,0,1:0:0:0:0:
256,192,0,128,0,1:0:0:0:0:
256,192,0,128,0,1:0:0:0:0:
256,192,0,128,0,1:0:0:0:0:
256,192,0,128,0,1:0:0:0:0:
256,192,0,128,0,1:0:0:0:0:
256,192,0,128,0,1:0:0:0:0:
256,192,0,128,0,1:0:0:0:0:
256,192,0,128,0,1:0:0:0:0:
256,192,0,128,0,1:0:0:0:0:
256,192,0,128,0,1:0:0:0:0:
256,192,0,128,0,1:0:0:0:0:
256,192,0,128,0,1:0:0:0:0:
256,192,0,128,0,1:0:0:0:0:
256,192,0,128,0,1:0:0:0:0:
256,192,0,128,0,1:0:0:0:0:
256,192,0,128,0,1:0:0:0:0:
256,192,0,128,0,1:0:0:0:0:
256,192,0,128,0,1:0:0:0:0:
256,192,0,128,0,1:0:0:0:0:
256,192,0,128,0,1:0:0:0:0:
256,192,0,128,0,1:0:0:0:0:
256,192,0,128,0,1:0:0:0:0:
256,192,0,128,0,1:0:0:0:0:
256,192,0,128,0,1:0:0:0:0:
256,192,0,128,0,1:0:0:0:0:
256,192,0,128,0,1:0:0:0:0:
256,192,0,128,0,1:0:0:0:0:
256,192,0,128,0,1:0:0:0:0:
256,192,0,128,0,1:0:0:0:0:
256,192,0,128,0,1:0:0:0:0:
256,192,0,128,0,1:0:0:0:0:
256,192,0,128,0,1:0:0:0:0:
256,192,0,128,0,1:0:0:0:0:
256,192,0,128,0,1:0:0:0:0:
256,192,0,128,0,1:0:0:0:0:
256,192,0,128,0,1:0:0:0:0:
256,192,0,128,0,1:0:0:0:0:
256,192,0,128,0,1:0:0:0:0:
256,192,0,128,0,1:0:0:0:0:
256,192,0,128,0,1:0:0:0:0:
256,192,0,128,0,1:0:0:0:0:
256,192,0,128,0,1:0:0:0:0:
256,192,0,128,0,1:0:0:0:0:
256,192,0,128,0,1:0:0:0:0:
256,192,0,128,0,1:0:0:0:0:
256,192,0,128,0,1:0:0:0:0:
256,192,0,128,0,1:0:0:0:0:
256,192,0,128,0,1:0:0:0:0:
256,192,0,128,0,1:0:0:0:0:
256,192,0,128,0,1:0:0:0:0:
256,192,0,128,0,1:0:0:0:0:
256,192,0,128,0,1:0:0:0:0:
256,192,0,128,0,1:0:0:0:0:
256,192,0,128,0,1:0:0:0:0:
256,192,0,128,0,1:0:0:0:0:
256,192,0,128,0,1:0:0:0:0:
256,192,0,128,0,1:0:0:0:0:
256,192,0,128,0,1:0:0:0:0:
256,192,0,128,0,1:0:0:0:0:
256,192,0,128,0,1:0:0:0:0:
256,192,0,128,0,1:0:0:0:0:
256,192,0,128,0,1:0:0:0:0:
256,192,0,128,0,1:0:0:0:0:
256,192,0,128,0,1:0:0:0:0:
256,192,0,128,0,1:0:0:0:0:
256,192,0,128,0,1:0:0:0:0:
256,192,0,128,0,1:0:0:0:0:
256,192,0,128,0,1:0:0:0:0:
256,192,0,128,0,1:0:0:0:0:
256,192,0,128,0,1:0:0:0:0:
256,192,0,128,0,1:0:0:0:0:
256,192,0,128,0,1:0:0:0:0:
256,192,0,128,0,1:0:0:0:0:
256,192,0,128,0,1:0:0:0:0:
256,192,0,128,0,1:0:0:0:0:
256,192,0,128,0,1:0:0:0:0:
256,192,0,128,0,1:0:0:0:0:
256,192,0,128,0,1:0:0:0:0:
256,192,0,128,0,1:0:0:0:0:
256,192,0,128,0,1:0:0:0:0:
256,192,0,128,0,1:0:0:0:0:
256,192,0,128,0,1:0:0:0:0:
256,192,0,128,0,1:0:0:0:0:
256,192,0,128,0,1:0:0:0:0:
256,192,0,128,0,1:0:0:0:0:
256,192,0,128,0,1:0:0:0:0:
256,192,0,128,0,1:0:0:0:0:
256,192,0,128,0,1:0:0:0:0:
256,192,0,128,0,1:0:0:0:0:
256,192,0,128,0,1:0:0:0:0:
256,192,0,128,0,1:0:0:0:0:
256,192,0,128,0,1:0:0:0:0:
256,192,0,128,0,1:0:0:0:0:
256,192,0,128,0,1:0:0:0:0:
256,192,0,128,0,1:0:0:0:0:
256,192,0,128,0,1:0:0:0:0:
256,192,0,128,0,1:0:0:0:0:
256,192,0,128,0,1:0:0:0:0:
256,192,0,128,0,1:0:0:0:0:
256,192,0,128,0,1:0:0:0:0:
256,192,0,128,0,1:0:0:0:0:
256,192,0,128,0,1:0:0:0:0:
256,192,0,128,0,1:0:0:0:0:
256,192,0,128,0,1:0:0:0:0:
256,192,0,128,0,1:0:0:0:0:
256,192,0,128,0,1:0:0:0:0:
256,192,0,128,0,1:0:0:0:0:
256,192,0,128,0,1:0:0:0:0:
256,192,0,128,0,1:0:0:0:0:
256,192,0,128,0,1:0:0:0:0:
256,192,0,128,0,1:0:0:0:0:
256,192,0,128,0,1:0:0:0:0:
256,192,0,128,0,1:0:0:0:0:
256,192,0,128,0,1:0:0:0:0:
256,192,0,128,0,1:0:0:0:0:
256,192,0,128,0,1:0:0:0:0:
256,192,0,128,0,1:0:0:0:0:
256,192,0,128,0,1:0:0:0:0:
256,192,0,128,0,1:0:0:0:0:
256,192,0,128,0,1:0:0:0:0:
256,192,0,128,0,1:0:0:0:0:
256,192,0,128,0,1:0:0:0:0:
256,192,0,128,0,1:0:0:0:0:
256,192,0,128,0,1:0:0:0:0:
256,192,0,128,0,1:0:0:0:0:
256,192,0,128,0,1:0:0:0:0:
256,192,0,128,0,1:0:0:0:0:
256,192,0,128,0,1:0:0:0:0:
256,192,0,128,0,1:0:0:0:0:
256,192,0,128,0,1:0:0:0:0:
256,192,0,128,0,1:0:0:0:0:
256,192,0,128,0,1:0:0:0:0:
256,192,0,128,0,1:0:0:0:0:
256,192,0,128,0,1:0:0:0:0:
256,192,0,128,0,1:0:0:0:0:
256,192,0,128,0,1:0:0:0:0:
256,192,0,128,0,1:0:0:0:0:
256,192,0,128,0,1:0:0:0:0:
256,192,0,128,0,1:0:0:0:0:
256,192,0,128,0,1:0:0:0:0:
256,192,0,128,0,1:0:0:0:0:
256,192,0,128,0,1:0:0:0:0:
256,192,0,128,0,1:0:0:0:0:
256,192,0,128,0,1:0:0:0:0:
256,192,0,128,0,1:0:0:0:0:
256,192,0,128,0,1:0:0:0:0:
256,192,0,128,0,1:0:0:0:0:
256,192,0,128,0,1:0:0:0:0:
256,192,0,128,0,1:0:0:0:0:
256,192,0,128,0,1:0:0:0:0:
256,192,0,128,0,1:0:0:0:0:
256,192,0,128,0,1:0:0:0:0:
256,192,0,128,0,1:0:0:0:0:
256,192,0,128,0,1:0:0:0:0:
256,192,0,128,0,1:0:0:0:0:
256,192,0,128,0,1:0:0:0:0:
256,192,0,128,0,1:0:0:0:0:
256,192,0,128,0,1:0:0:0:0:
256,192,0,128,0,1:0:0:0:0:
256,192,0,128,0,1:0:0:0:0:
256,192,0,128,0,1:0:0:0:0:
256,192,0,128,0,1:0:0:0:0:
256,192,0,128,0,1:0:0:0:0:
256,192,0,128,0,1:0:0:0:0:
256,192,0,128,0,1:0:0:0:0:
256,192,0,128,0,1:0:0:0:0:
256,192,0,128,0,1:0:0:0:0:
256,192,0,128,0,1:0:0:0:0:
256,192,0,128,0,1:0:0:0:0:
256,192,0,128,0,1:0:0:0:0:
256,192,0,128,0,1:0:0:0:0:
256,192,0,128,0,1:0:0:0:0:
256,192,0,128,0,1:0:0:0:0:
256,192,0,128,0,1:0:0:0:0:
256,192,0,128,0,1:0:0:0:0:
256,192,0,128,0,1:0:0:0:0:
256,192,0,128,0,1:0:0:0:0:
256,192,0,128,0,1:0:0:0:0:
256,192,0,128,0,1:0:0:0:0:
256,192,0,128,0,1:0:0:0:0:
256,192,0,128,0,1:0:0:0:0:
256,192,0,128,0,1:0:0:0:0:
256,192,0,128,0,1:0:0:0:0:
256,192,0,128,0,1:0:0:0:0:
256,192,0,128,0,1:0:0:0:0:
256,192,0,128,0,1:0:0:0:0:
256,192,0,128,0,1:0:0:0:0:
256,192,0,128,0,1:0:0:0:0:
256,192,0,128,0,1:0:0:0:0:
256,192,0,128,0,1:0:0:0:0:
256,192,0,128,0,1:0:0:0:0:
256,192,0,128,0,1:0:0:0:0:
256,192,0,128,0,1:0:0:0:0:
256,192,0,128,0,1:0:0:0:0:
256,192,0,128,0,1:0:0:0:0:
256,192,0,128,0,1:0:0:0:0:
256,192,0,128,0,1:0:0:0:0:
256,192,0,128,0,1:0:0:0:0:
256,192,0,128,0,1:0:0:0:0:
256,192,0,128,0,1:0:0:0:0:
256,192,0,128,0,1:0:0:0:0:
256,192,0,128,0,1:0:0:0:0:
256,192,0,128,0,1:0:0:0:0:
256,192,0,128,0,1:0:0:0:0:
256,192,0,128,0,1:0:0:0:0:
256,192,0,128,0,1:0:0:0:0:
256,192,0,128,0,1:0:0:0:0:
256,192,0,128,0,1:0:0:0:0:
256,192,0,128,0,1:0:0:0:0:
256,192,0,128,0,1:0:0:0:0:
256,192,0,128,0,1:0:0:0:0:
256,192,0,128,0,1:0:0:0:0:
256,192,0,128,0,1:0:0:0:0:
256,192,0,128,0,1:0:0:0:0:
256,192,0,128,0,1:0:0:0:0:
256,192,0,128,0,1:0:0:0:0:
256,192,0,128,0,1:0:0:0:0:
256,192,0,128,0,1:0:0:0:0:
256,192,0,128,0,1:0:0:0:0:
256,192,0,128,0,1:0:0:0:0:
256,192,0,128,0,1:0:0:0:0:
256,192,0,128,0,1:0:0:0:0:
256,192,0,128,0,1:0:0:0:0:
256,192,0,128,0,1:0:0:0:0:
256,192,0,128,0,1:0:0:0:0:
256,192,0,128,0,1:0:0:0:0:
256,192,0,128,0,1:0:0:0:0:
256,192,0,128,0,1:0:0:0:0:
256,192,0,128,0,1:0:0:0:0:
256,192,0,128,0,1:0:0:0:0:
256,192,0,128,0,1:0:0:0:0:
256,192,0,128,0,1:0:0:0:0:
256,192,0,128,0,1:0:0:0:0:
256,192,0,128,0,1:0:0:0:0:
256,192,0,128,0,1:0:0:0:0:
256,192,0,128,0,1:0:0:0:0:
256,192,0,128,0,1:0:0:0:0:
256,192,0,128,0,1:0:0:0:0:
256,192,0,128,0,1:0:0:0:0:
256,192,0,128,0,1:0:0:0:0:
256,192,0,128,0,1:0:0:0:0:
256,192,0,128,0,1:0:0:0:0:
256,192,0,128,0,1:0:0:0:0:
256,192,0,128,0,1:0:0:0:0:
256,192,0,128,0,1:0:0:0:0:
256,192,0,128,0,1:0:0:0:0:
256,192,0,128,0,1:0:0:0:0:
256,192,0,128,0,1:0:0:0:0:
256,192,0,128,0,1:0:0:0:0:
256,192,0,128,0,1:0:0:0:0:
256,192,0,128,0,1:0:0:0:0:
256,192,0,128,0,1:0:0:0:0:
256,192,0,128,0,1:0:0:0:0:
256,192,0,128,0,1:0:0:0:0:
256,192,0,128,0,1:0:0:0:0:
256,192,0,128,0,1:0:0:0:0:
256,192,0,128,0,1:0:0:0:0:
256,192,0,128,0,1:0:0:0:0:
256,192,0,128,0,1:0:0:0:0:
256,192,0,128,0,1:0:0:0:0:
256,192,0,128,0,1:0:0:0:0:
256,192,0,128,0,1:0:0:0:0:
256,192,0,128,0,1:0:0:0:0:
256,192,0,128,0,1:0:0:0:0:
256,192,0,128,0,1:0:0:0:0:
256,192,0,128,0,1:0:0:0:0:
256,192,0,128,0,1:0:0:0:0:
256,192,0,128,0,1:0:0:0:0:
256,192,0,128,0,1:0:0:0:0:
256,192,0,128,0,1:0:0:0:0:
256,192,0,128,0,1:0:0:0:0:
256,192,0,128,0,1:0:0:0:0:
256,192,0,128,0,1:0:0:0:0:
256,192,0,128,0,1:0:0:0:0:
256,192,0,128,0,1:0:0:0:0:
256,192,0,128,0,1:0:0:0:0:
256,192,0,128,0,1:0:0:0:0:
256,192,0,128,0,1:0:0:0:0:
256,192,0,128,0,1:0:0:0:0:
256,192,0,128,0,1:0:0:0:0:
256,192,0,128,0,1:0:0:0:0:
256,192,0,128,0,1:0:0:0:0:
256,192,0,128,0,1:0:0:0:0:
256,192,0,128,0,1:0:0:0:0:
256,192,0,128,0,1:0:0:0:0:
256,192,0,128,0,1:0:0:0:0:
256,192,0,128,0,1:0:0:0:0:
256,192,0,128,0,1:0:0:0:0:
256,192,0,128,0,1:0:0:0:0:
256,192,0,128,0,1:0:0:0:0:
256,192,0,128,0,1:0:0:0:0:
256,192,0,128,0,1:0:0:0:0:
256,192,0,128,0,1:0:0:0:0:
256,192,0,128,0,1:0:0:0:0:
256,192,0,128,0,1:0:0:0:0:
256,192,0,128,0,1:0:0:0:0:
256,192,0,128,0,1:0:0:0:0:
256,192,0,128,0,1:0:0:0:0:
256,192,0,128,0,1:0:0:0:0:
256,192,0,128,0,1:0:0:0:0:
256,192,0,128,0,1:0:0:0:0:
256,192,0,128,0,1:0:0:0:0:
256,192,0,128,0,1:0:0:0:0:
256,192,0,128,0,1:0:0:0:0:
256,192,0,128,0,1:0:0:0:0:
256,192,0,128,0,1:0:0:0:0:
256,192,0,128,0,1:0:0:0:0:
256,192,0,128,0,1:0:0:0:0:
256,192,0,128,0,1:0:0:0:0:
256,192,0,128,0,1:0:0:0:0:
256,192,0,128,0,1:0:0:0:0:
256,192,0,128,0,1:0:0:0:0:
256,192,0,128,0,1:0:0:0:0:
256,192,0,128,0,1:0:0:0:0:
256,192,0,128,0,1:0:0:0:0:
256,192,0,128,0,1:0:0:0:0:
256,192,0,128,0,1:0:0:0:0:
256,192,0,128,0,1:0:0:0:0:
256,192,0,128,0,1:0:0:0:0:
256,192,0,128,0,1:0:0:0:0:
256,192,0,128,0,1:0:0:0:0:
256,192,0,128,0,1:0:0:0:0:
256,192,0,128,0,1:0:0:0:0:
256,192,0,128,0,1:0:0:0:0:
256,192,0,128,0,1:0:0:0:0:
256,192,0,128,0,1:0:0:0:0:
256,192,0,128,0,1:0:0:0:0:
256,192,0,128,0,1:0:0:0:0:
256,192,0,128,0,1:0:0:0:0:
256,192,0,128,0,1:0:0:0:0:
256,192,0,128,0,1:0:0:0:0:
256,192,0,128,0,1:0:0:0:0:
256,192,0,128,0,1:0:0:0:0:
256,192,0,128,0,1:0:0:0:0:
256,192,0,128,0,1:0:0:0:0:
256,192,0,128,0,1:0:0:0:0:
256,192,0,128,0,1:0:0:0:0:
256,192,0,128,0,1:0:0:0:0:
256,192,0,128,0,1:0:0:0:0:
256,192,0,128,0,1:0:0:0:0:
256,192,0,128,0,1:0:0:0:0:
256,192,0,128,0,1:0:0:0:0:
256,192,0,128,0,1:0:0:0:0:
256,192,0,128,0,1:0:0:0:0:
256,192,0,128,0,1:0:0:0:0:
256,192,0,128,0,1:0:0:0:0:
256,192,0,128,0,1:0:0:0:0:
256,192,0,128,0,1:0:0:0:0:
256,192,0,128,0,1:0:0:0:0:
256,192,0,128,0,1:0:0:0:0:
256,192,0,128,0,1:0:0:0:0:
256,192,0,128,0,1:0:0:0:0:
256,192,0,128,0,1:0:0:0:0:
256,192,0,128,0,1:0:0:0:0:
256,192,0,128,0,1:0:0:0:0:
256,192,0,128,0,1:0:0:0:0:
256,192,0,128,0,1:0:0:0:0:
256,192,0,128,0,1:0:0:0:0:
256,192,0,128,0,1:0:0:0:0:
256,192,0,128,0,1:0:0:0:0:
256,192,0,128,0,1:0:0:0:0:
256,192,0,128,0,1:0:0:0:0:
256,192,0,128,0,1:0:0:0:0:
256,192,0,128,0,1:0:0:0:0:
256,192,0,128,0,1:0:0:0:0:
256,192,0,128,0,1:0:0:0:0:
256,192,0,128,0,1:0:0:0:0:
256,192,0,128,0,1:0:0:0:0:
256,192,0,128,0,1:0:0:0:0:
256,192,0,128,0,1:0:0:0:0:
256,192,0,128,0,1:0:0:0:0:
256,192,0,128,0,1:0:0:0:0:
256,192,0,128,0,1:0:0:0:0:
256,192,0,128,0,1:0:0:0:0:
256,192,0,128,0,1:0:0:0:0:
256,192,0,128,0,1:0:0:0:0:
256,192,0,128,0,1:0:0:0:0:
256,192,0,128,0,1:0:0:0:0:
256,192,0,128,0,1:0:0:0:0:
256,192,0,128,0,1:0:0:0:0:
256,192,0,128,0,1:0:0:0:0:
256,192,0,128,0,1:0:0:0:0:
256,192,0,128,0,1:0:0:0:0:
256,192,0,128,0,1:0:0:0:0:
256,192,0,128,0,1:0:0:0:0:
256,192,0,128,0,1:0:0:0:0:
256,192,0,128,0,1:0:0:0:0:
256,192,0,128,0,1:0:0:0:0:
256,192,0,128,0,1:0:0:0:0:
256,192,0,128,0,1:0:0:0:0:
256,192,0,128,0,1:0:0:0:0:
256,192,0,128,0,1:0:0:0:0:
256,192,0,128,0,1:0:0:0:0:
256,192,0,128,0,1:0:0:0:0:
256,192,0,128,0,1:0:0:0:0:
256,192,0,128,0,1:0:0:0:0:
256,192,0,128,0,1:0:0:0:0:
256,192,0,128,0,1:0:0:0:0:
256,192,0,128,0,1:0:0:0:0:
256,192,0,128,0,1:0:0:0:0:
256,192,0,128,0,1:0:0:0:0:
256,192,0,128,0,1:0:0:0:0:
256,192,0,128,0,1:0:0:0:0:
256,192,0,128,0,1:0:0:0:0:
256,192,0,128,0,1:0:0:0:0:
256,192,0,128,0,1:0:0:0:0:
256,192,0,128,0,1:0:0:0:0:
256,192,0,128,0,1:0:0:0:0:
256,192,0,128,0,1:0:0:0:0:
256,192,0,128,0,1:0:0:0:0:
256,192,0,128,0,1:0:0:0:0:
256,192,0,128,0,1:0:0:0:0:
256,192,0,128,0,1:0:0:0:0:
256,192,0,128,0,1:0:0:0:0:
256,192,0,128,0,1:0:0:0:0:
256,192,0,128,0,1:0:0:0:0:
256,192,0,128,0,1:0:0:0:0:
256,192,0,128,0,1:0:0:0:0:
256,192,0,128,0,1:0:0:0:0:
256,192,0,128,0,1:0:0:0:0:
256,192,0,128,0,1:0:0:0:0:
256,192,0,128,0,1:0:0:0:0:
256,192,0,128,0,1:0:0:0:0:
256,192,0,128,0,1:0:0:0:0:
256,192,0,128,0,1:0:0:0:0:
256,192,0,128,0,1:0:0:0:0:
256,192,0,128,0,1:0:0:0:0:
256,192,0,128,0,1:0:0:0:0:
256,192,0,128,0,1:0:0:0:0:
256,192,0,128,0,1:0:0:0:0:
256,192,0,128,0,1:0:0:0:0:
256,192,0,128,0,1:0:0:0:0:
256,192,0,128,0,1:0:0:0:0:
256,192,0,128,0,1:0:0:0:0:
256,192,0,128,0,1:0:0:0:0:
256,192,0,128,0,1:0:0:0:0:
256,192,0,128,0,1:0:0:0:0:
256,192,0,128,0,1:0:0:0:0:
256,192,0,128,0,1:0:0:0:0:
256,192,0,128,0,1:0:0:0:0:
256,192,0,128,0,1:0:0:0:0:
256,192,0,128,0,1:0:0:0:0:
256,192,0,128,0,1:0:0:0:0:
256,192,0,128,0,1:0:0:0:0:
256,192,0,128,0,1:0:0:0:0:
256,192,0,128,0,1:0:0:0:0:
256,192,0,128,0,1:0:0:0:0:
256,192,0,128,0,1:0:0:0:0:
256,192,0,128,0,1:0:0:0:0:
256,192,0,128,0,1:0:0:0:0:
256,192,0,128,0,1:0:0:0:0:
256,192,0,128,0,1:0:0:0:0:
256,192,0,128,0,1:0:0:0:0:
256,192,0,128,0,1:0:0:0:0:
256,192,0,128,0,1:0:0:0:0:
256,192,0,128,0,1:0:0:0:0:
256,192,0,128,0,1:0:0:0:0:
256,192,0,128,0,1:0:0:0:0:
256,192,0,128,0,1:0:0:0:0:
256,192,0,128,0,1:0:0:0:0:
256,192,0,128,0,1:0:0:0:0:
256,192,0,128,0,1:0:0:0:0:
256,192,0,128,0,1:0:0:0:0:
256,192,0,128,0,1:0:0:0:0:
256,192,0,128,0,1:0:0:0:0:
256,192,0,128,0,1:0:0:0:0:
256,192,0,128,0,1:0:0:0:0:
256,192,0,128,0,1:0:0:0:0:
256,192,0,128,0,1:0:0:0:0:
256,192,0,128,0,1:0:0:0:0:
256,192,0,128,0,1:0:0:0:0:
256,192,0,128,0,1:0:0:0:0:
256,192,0,128,0,1:0:0:0:0:
256,192,0,128,0,1:0:0:0:0:
256,192,0,128,0,1:0:0:0:0:
256,192,0,128,0,1:0:0:0:0:
256,192,0,128,0,1:0:0:0:0:
256,192,0,128,0,1:0:0:0:0:
256,192,0,128,0,1:0:0:0:0:
256,192,0,128,0,1:0:0:0:0:
256,192,0,128,0,1:0:0:0:0:
256,192,0,128,0,1:0:0:0:0:
256,192,0,128,0,1:0:0:0:0:
256,192,0,128,0,1:0:0:0:0:
256,192,0,128,0,1:0:0:0:0:
256,192,0,128,0,1:0:0:0:0:
256,192,0,128,0,1:0:0:0:0:
256,192,0,128,0,1:0:0:0:0:
256,192,0,128,0,1:0:0:0:0:
256,192,0,128,0,1:0:0:0:0:
256,192,0,128,0,1:0:0:0:0:
256,192,0,128,0,1:0:0:0:0:
256,192,0,128,0,1:0:0:0:0:
256,192,0,128,0,1:0:0:0:0:
256,192,0,128,0,1:0:0:0:0:
256,192,0,128,0,1:0:0:0:0:
256,192,0,128,0,1:0:0:0:0:
256,192,0,128,0,1:0:0:0:0:
256,192,0,128,0,1:0:0:0:0:
256,192,0,128,0,1:0:0:0:0:
256,192,0,128,0,1:0:0:0:0:
256,192,0,128,0,1:0:0:0:0:
256,192,0,128,0,1:0:0:0:0:
256,192,0,128,0,1:0:0:0:0:
256,192,0,128,0,1:0:0:0:0:
256,192,0,128,0,1:0:0:0:0:
256,192,0,128,0,1:0:0:0:0:
256,192,0,128,0,1:0:0:0:0:
256,192,0,128,0,1:0:0:0:0:
256,192,0,128,0,1:0:0:0:0:
256,192,0,128,0,1:0:0:0:0:
256,192,0,128,0,1:0:0:0:0:
256,192,0,128,0,1:0:0:0:0:
256,192,0,128,0,1:0:0:0:0:
256,192,0,128,0,1:0:0:0:0:
256,192,0,128,0,1:0:0:0:0:
256,192,0,128,0,1:0:0:0:0:
256,192,0,128,0,1:0:0:0:0:
256,192,0,128,0,1:0:0:0:0:
256,192,0,128,0,1:0:0:0:0:
256,192,0,128,0,1:0:0:0:0:
256,192,0,128,0,1:0:0:0:0:
256,192,0,128,0,1:0:0:0:0:
256,192,0,128,0,1:0:0:0:0:
256,192,0,128,0,1:0:0:0:0:
256,192,0,128,0,1:0:0:0:0:
256,192,0,128,0,1:0:0:0:0:
256,192,0,128,0,1:0:0:0:0:
256,192,0,128,0,1:0:0:0:0:
256,192,0,128,0,1:0:0:0:0:
256,192,0,128,0,1:0:0:0:0:
256,192,0,128,0,1:0:0:0:0:
256,192,0,128,0,1:0:0:0:0:
256,192,0,128,0,1:0:0:0:0:
256,192,0,128,0,1:0:0:0:0:
256,192,0,128,0,1:0:0:0:0:
256,192,0,128,0,1:0:0:0:0:
256,192,0,128,0,1:0:0:0:0:
256,192,0,128,0,1:0:0:0:0:
256,192,0,128,0,1:0:0:0:0:
256,192,0,128,0,1:0:0:0:0:
256,192,0,128,0,1:0:0:0:0:
256,192,0,128,0,1:0:0:0:0:
256,192,0,128,0,1:0:0:0:0:
256,192,0,128,0,1:0:0:0:0:
256,192,0,128,0,1:0:0:0:0:
256,192,0,128,0,1:0:0:0:0:
256,192,0,128,0,1:0:0:0:0:
256,192,0,128,0,1:0:0:0:0:
256,192,0,128,0,1:0:0:0:0:
256,192,0,128,0,1:0:0:0:0:
256,192,0,128,0,1:0:0:0:0:
256,192,0,128,0,1:0:0:0:0:
256,192,0,128,0,1:0:0:0:0:
256,192,0,128,0,1:0:0:0:0:
256,192,0,128,0,1:0:0:0:0:
256,192,0,128,0,1:0:0:0:0:
256,192,0,128,0,1:0:0:0:0:
256,192,0,128,0,1:0:0:0:0:
256,192,0,128,0,1:0:0:0:0:
256,192,0,128,0,1:0:0:0:0:
256,192,0,128,0,1:0:0:0:0:
256,192,0,128,0,1:0:0:0:0:
256,192,0,128,0,1:0:0:0:0:
256,192,0,128,0,1:0:0:0:0:
256,192,0,128,0,1:0:0:0:0:
256,192,0,128,0,1:0:0:0:0:
256,192,0,128,0,1:0:0:0:0:
256,192,0,128,0,1:0:0:0:0:
256,192,0,128,0,1:0:0:0:0:
256,192,0,128,0,1:0:0:0:0:
256,192,0,128,0,1:0:0:0:0:
256,192,0,128,0,1:0:0:0:0:
256,192,0,128,0,1:0:0:0:0:
256,192,0,128,0,1:0:0:0:0:
256,192,0,128,0,1:0:0:0:0:
256,192,0,128,0,1:0:0:0:0:
256,192,0,128,0,1:0:0:0:0:
256,192,0,128,0,1:0:0:0:0:
256,192,0,128,0,1:0:0:0:0:
256,192,0,128,0,1:0:0:0:0:
256,192,0,128,0,1:0:0:0:0:
256,192,0,128,0,1:0:0:0:0:
256,192,0,128,0,1:0:0:0:0:
256,192,0,128,0,1:0:0:0:0:
256,192,0,128,0,1:0:0:0:0:
256,192,0,128,0,1:0:0:0:0:
256,192,0,128,0,1:0:0:0:0:
256,192,0,128,0,1:0:0:0:0:
256,192,0,128,0,1:0:0:0:0:
256,192,0,128,0,1:0:0:0:0:
256,192,0,128,0,1:0:0:0:0:
256,192,0,128,0,1:0:0:0:0:
256,192,0,128,0,1:0:0:0:0:
256,192,0,128,0,1:0:0:0:0:
256,192,0,128,0,1:0:0:0:0:
256,192,0,128,0,1:0:0:0:0:
256,192,0,128,0,1:0:0:0:0:
256,192,0,128,0,1:0:0:0:0:
256,192,0,128,0,1:0:0:0:0:
256,192,0,128,0,1:0:0:0:0:
256,192,0,128,0,1:0:0:0:0:
256,192,0,128,0,1:0:0:0:0:
256,192,0,128,0,1:0:0:0:0:
256,192,0,128,0,1:0:0:0:0:
256,192,0,128,0,1:0:0:0:0:
256,192,0,128,0,1:0:0:0:0:
256,192,0,128,0,1:0:0:0:0:
256,192,0,128,0,1:0:0:0:0:
256,192,0,128,0,1:0:0:0:0:
256,192,0,128,0,1:0:0:0:0:
256,192,0,128,0,1:0:0:0:0:
256,192,0,128,0,1:0:0:0:0:
256,192,0,128,0,1:0:0:0:0:
256,192,0,128,0,1:0:0:0:0:
256,192,0,128,0,1:0:0:0:0:
256,192,0,128,0,1:0:0:0:0:
256,192,0,128,0,1:0:0:0:0:
256,192,0,128,0,1:0:0:0:0:
256,192,0,128,0,1:0:0:0:0:
256,192,0,128,0,1:0:0:0:0:
256,192,0,128,0,1:0:0:0:0:
256,192,0,128,0,1:0:0:0:0:
256,192,0,128,0,1:0:0:0:0:
256,192,0,128,0,1:0:0:0:0:
256,192,0,128,0,1:0:0:0:0:
256,192,0,128,0,1:0:0:0:0:
256,192,0,128,0,1:0:0:0:0:
256,192,0,128,0,1:0:0:0:0:
256,192,0,128,0,1:0:0:0:0:
256,192,0,128,0,1:0:0:0:0:
256,192,0,128,0,1:0:0:0:0:
256,192,0,128,0,1:0:0:0:0:
256,192,0,128,0,1:0:0:0:0:
256,192,0,128,0,1:0:0:0:0:
256,192,0,128,0,1:0:0:0:0:
256,192,0,128,0,1:0:0:0:0:
256,192,0,128,0,1:0:0:0:0:
256,192,0,128,0,1:0:0:0:0:
256,192,0,128,0,1:0:0:0:0:
256,192,0,128,0,1:0:0:0:0:
256,192,0,128,0,1:0:0:0:0:
256,192,0,128,0,1:0:0:0:0:
256,192,0,128,0,1:0:0:0:0:
256,192,0,128,0,1:0:0:0:0:
256,192,0,128,0,1:0:0:0:0:
256,192,0,128,0,1:0:0:0:0:
256,192,0,128,0,1:0:0:0:0:
256,192,0,128,0,1:0:0:0:0:
256,192,0,128,0,1:0:0:0:0:
256,192,0,128,0,1:0:0:0:0:
256,192,0,128,0,1:0:0:0:0:
256,192,0,128,0,1:0:0:0:0:
256,192,0,128,0,1:0:0:0:0:
256,192,0,128,0,1:0:0:0:0:
256,192,0,128,0,1:0:0:0:0:
256,192,0,128,0,1:0:0:0:0:
256,192,0,128,0,1:0:0:0:0:
256,192,0,128,0,1:0:0:0:0:
256,192,0,128,0,1:0:0:0:0:
256,192,0,128,0,1:0:0:0:0:
256,192,0,128,0,1:0:0:0:0:
256,192,0,128,0,1:0:0:0:0:
256,192,0,128,0,1:0:0:0:0:
256,192,0,128,0,1:0:0:0:0:
256,192,0,128,0,1:0:0:0:0:
256,192,0,128,0,1:0:0:0:0:
256,192,0,128,0,1:0:0:0:0:
256,192,0,128,0,1:0:0:0:0:
256,192,0,128,0,1:0:0:0:0:
256,192,0,128,0,1:0:0:0:0:
256,192,0,128,0,1:0:0:0:0:
256,192,0,128,0,1:0:0:0:0:
256,192,0,128,0,1:0:0:0:0:
256,192,0,128,0,1:0:0:0:0:
256,192,0,128,0,1:0:0:0:0:
256,192,0,128,0,1:0:0:0:0:
256,192,0,128,0,1:0:0:0:0:
256,192,0,128,0,1:0:0:0:0:
256,192,0,128,0,1:0:0:0:0:
256,192,0,128,0,1:0:0:0:0:
256,192,0,128,0,1:0:0:0:0:
256,192,0,128,0,1:0:0:0:0:
256,192,0,128,0,1:0:0:0:0:
256,192,0,128,0,1:0:0:0:0:
256,192,0,128,0,1:0:0:0:0:
256,192,0,128,0,1:0:0:0:0:
256,192,0,128,0,1:0:0:0:0:
256,192,0,128,0,1:0:0:0:0:
256,192,0,128,0,1:0:0:0:0:
256,192,0,128,0,1:0:0:0:0:
256,192,0,128,0,1:0:0:0:0:
256,192,0,128,0,1:0:0:0:0:
256,192,0,128,0,1:0:0:0:0:
256,192,0,128,0,1:0:0:0:0:
256,192,0,128,0,1:0:0:0:0:
256,192,0,128,0,1:0:0:0:0:
256,192,0,128,0,1:0:0:0:0:
256,192,0,128,0,1:0:0:0:0:
256,192,0,128,0,1:0:0:0:0:
256,192,0,128,0,1:0:0:0:0:
256,192,0,128,0,1:0:0:0:0:
256,192,0,128,0,1:0:0:0:0:
256,192,0,128,0,1:0:0:0:0:
256,192,0,128,0,1:0:0:0:0:
256,192,0,128,0,1:0:0:0:0:
256,192,0,128,0,1:0:0:0:0:
256,192,0,128,0,1:0:0:0:0:
256,192,0,128,0,1:0:0:0:0:
256,192,0,128,0,1:0:0:0:0:
256,192,0,128,0,1:0:0:0:0:
256,192,0,128,0,1:0:0:0:0:
256,192,0,128,0,1:0:0:0:0:
256,192,0,128,0,1:0:0:0:0:
256,192,0,128,0,1:0:0:0:0:
256,192,0,128,0,1:0:0:0:0:
256,192,0,128,0,1:0:0:0:0:
256,192,0,128,0,1:0:0:0:0:
256,192,0,128,0,1:0:0:0:0:
256,192,0,128,0,1:0:0:0:0:
256,192,0,128,0,1:0:0:0:0:
256,192,0,128,0,1:0:0:0:0:
256,192,0,128,0,1:0:0:0:0:
256,192,0,128,0,1:0:0:0:0:
256,192,0,128,0,1:0:0:0:0:
256,192,0,128,0,1:0:0:0:0:
256,192,0,128,0,1:0:0:0:0:
256,192,0,128,0,1:0:0:0:0:
256,192,0,128,0,1:0:0:0:0:
256,192,0,128,0,1:0:0:0:0:
256,192,0,128,0,1:0:0:0:0:
256,192,0,128,0,1:0:0:0:0:
256,192,0,128,0,1:0:0:0:0:
256,192,0,128,0,1:0:0:0:0:
256,192,0,128,0,1:0:0:0:0:
256,192,0,128,0,1:0:0:0:0:
256,192,0,128,0,1:0:0:0:0:
256,192,0,128,0,1:0:0:0:0:
256,192,0,128,0,1:0:0:0:0:
256,192,0,128,0,1:0:0:0:0:
256,192,0,128,0,1:0:0:0:0:
256,192,0,128,0,1:0:0:0:0:
256,192,0,128,0,1:0:0:0:0:
256,192,0,128,0,1:0:0:0:0:
256,192,0,128,0,1:0:0:0:0:
256,192,0,128,0,1:0:0:0:0:
256,192,0,128,0,1:0:0:0:0:
256,192,0,128,0,1:0:0:0:0:
256,192,0,128,0,1:0:0:0:0:
256,192,0,128,0,1:0:0:0:0:
256,192,0,128,0,1:0:0:0:0:
256,192,0,128,0,1:0:0:0:0:
256,192,0,128,0,1:0:0:0:0:
256,192,0,128,0,1:0:0:0:0:
256,192,0,128,0,1:0:0:0:0:
256,192,0,128,0,1:0:0:0:0:
256,192,0,128,0,1:0:0:0:0:
256,192,0,128,0,1:0:0:0:0:
256,192,0,128,0,1:0:0:0:0:
256,192,0,128,0,1:0:0:0:0:
256,192,0,128,0,1:0:0:0:0:
256,192,0,128,0,1:0:0:0:0:
256,192,0,128,0,1:0:0:0:0:
256,192,0,128,0,1:0:0:0:0:
256,192,0,128,0,1:0:0:0:0:
256,192,0,128,0,1:0:0:0:0:
256,192,0,128,0,1:0:0:0:0:
256,192,0,128,0,1:0:0:0:0:
256,192,0,128,0,1:0:0:0:0:
256,192,0,128,0,1:0:0:0:0:
256,192,0,128,0,1:0:0:0:0:
256,192,0,128,0,1:0:0:0:0:
256,192,0,128,0,1:0:0:0:0:
256,192,0,128,0,1:0:0:0:0:
256,192,0,128,0,1:0:0:0:0:
256,192,0,128,0,1:0:0:0:0:
256,192,0,128,0,1:0:0:0:0:
256,192,0,128,0,1:0:0:0:0:
256,192,0,128,0,1:0:0:0:0:
256,192,0,128,0,1:0:0:0:0:
256,192,0,128,0,1:0:0:0:0:
256,192,0,128,0,1:0:0:0:0:
256,192,0,128,0,1:0:0:0:0:
256,192,0,128,0,1:0:0:0:0:
256,192,0,128,0,1:0:0:0:0:
256,192,0,128,0,1:0:0:0:0:
256,192,0,128,0,1:0:0:0:0:
256,192,0,128,0,1:0:0:0:0:
256,192,0,128,0,1:0:0:0:0:
256,192,0,128,0,1:0:0:0:0:
256,192,0,128,0,1:0:0:0:0:
256,192,0,128,0,1:0:0:0:0:
256,192,0,128,0,1:0:0:0:0:
256,192,0,128,0,1:0:0:0:0:
256,192,0,128,0,1:0:0:0:0:
256,192,0,128,0,1:0:0:0:0:
256,192,0,128,0,1:0:0:0:0:
256,192,0,128,0,1:0:0:0:0:
256,192,0,128,0,1:0:0:0:0:
256,192,0,128,0,1:0:0:0:0:
256,192,0,128,0,1:0:0:0:0:
256,192,0,128,0,1:0:0:0:0:
256,192,0,128,0,1:0:0:0:0:
256,192,0,128,0,1:0:0:0:0:
256,192,0,128,0,1:0:0:0:0:
256,192,0,128,0,1:0:0:0:0:
256,192,0,128,0,1:0:0:0:0:
256,192,0,128,0,1:0:0:0:0:
256,192,0,128,0,1:0:0:0:0:
256,192,0,128,0,1:0:0:0:0:
256,192,0,128,0,1:0:0:0:0:
256,192,0,128,0,1:0:0:0:0:
256,192,0,128,0,1:0:0:0:0:
256,192,0,128,0,1:0:0:0:0:
256,192,0,128,0,1:0:0:0:0:
256,192,0,128,0,1:0:0:0:0:
256,192,0,128,0,1:0:0:0:0:
256,192,0,128,0,1:0:0:0:0:
256,192,0,128,0,1:0:0:0:0:
256,192,0,128,0,1:0:0:0:0:
256,192,0,128,0,1:0:0:0:0:
256,192,0,128,0,1:0:0:0:0:
256,192,0,128,0,1:0:0:0:0:
256,192,0,128,0,1:0:0:0:0:
256,192,0,128,0,1:0:0:0:0:
256,192,0,128,0,1:0:0:0:0:
256,192,0,128,0,1:0:0:0:0:
256,192,0,128,0,1:0:0:0:0:
256,192,0,128,0,1:0:0:0:0:
256,192,0,128,0,1:0:0:0:0:
256,192,0,128,0,1:0:0:0:0:
256,192,0,128,0,1:0:0:0:0:
256,192,0,128,0,1:0:0:0:0:
256,192,0,128,0,1:0:0:0:0:
256,192,0,128,0,1:0:0:0:0:
256,192,0,128,0,1:0:0:0:0:
256,192,0,128,0,1:0:0:0:0:
256,192,0,128,0,1:0:0:0:0:
256,192,0,128,0,1:0:0:0:0:
256,192,0,128,0,1:0:0:0:0:
256,192,0,128,0,1:0:0:0:0:
256,192,0,128,0,1:0:0:0:0:
256,192,0,128,0,1:0:0:0:0:
256,192,0,128,0,1:0:0:0:0:
256,192,0,128,0,1:0:0:0:0:
256,192,0,128,0,1:0:0:0:0:
256,192,0,128,0,1:0:0:0:0:
256,192,0,128,0,1:0:0:0:0:
256,192,0,128,0,1:0:0:0:0:
256,192,0,128,0,1:0:0:0:0:
256,192,0,128,0,1:0:0:0:0:
256,192,0,128,0,1:0:0:0:0:
256,192,0,128,0,1:0:0:0:0:
256,192,0,128,0,1:0:0:0:0:
256,192,0,128,0,1:0:0:0:0:
256,192,0,128,0,1:0:0:0:0:
256,192,0,128,0,1:0:0:0:0:
256,192,0,128,0,1:0:0:0:0:
256,192,0,128,0,1:0:0:0:0:
256,192,0,128,0,1:0:0:0:0:
256,192,0,128,0,1:0:0:0:0:
256,192,0,128,0,1:0:0:0:0:
256,192,0,128,0,1:0:0:0:0:
256,192,0,128,0,1:0:0:0:0:
256,192,0,128,0,1:0:0:0:0:
256,192,0,128,0,1:0:0:0:0:
256,192,0,128,0,1:0:0:0:0:
256,192,0,128,0,1:0:0:0:0:
256,192,0,128,0,1:0:0:0:0:
256,192,0,128,0,1:0:0:0:0:
256,192,0,128,0,1:0:0:0:0:
256,192,0,128,0,1:0:0:0:0:
256,192,0,128,0,1:0:0:0:0:
256,192,0,128,0,1:0:0:0:0:
256,192,0,128,0,1:0:0:0:0:
256,192,0,128,0,1:0:0:0:0:
256,192,0,128,0,1:0:0:0:0:
256,192,0,128,0,1:0:0:0:0:
256,192,0,128,0,1:0:0:0:0:
256,192,0,128,0,1:0:0:0:0:
256,192,0,128,0,1:0:0:0:0:
256,192,0,128,0,1:0:0:0:0:
256,192,0,128,0,1:0:0:0:0:
256,192,0,128,0,1:0:0:0:0:
256,192,0,128,0,1:0:0:0:0:
256,192,0,128,0,1:0:0:0:0:
256,192,0,128,0,1:0:0:0:0:
256,192,0,128,0,1:0:0:0:0:
256,192,0,128,0,1:0:0:0:0:
256,192,0,128,0,1:0:0:0:0:
256,192,0,128,0,1:0:0:0:0:
256,192,0,128,0,1:0:0:0:0:
256,192,0,128,0,1:0:0:0:0:
256,192,0,128,0,1:0:0:0:0:
256,192,0,128,0,1:0:0:0:0:
256,192,0,128,0,1:0:0:0:0:
256,192,0,128,0,1:0:0:0:0:
256,192,0,128,0,1:0:0:0:0:
256,192,0,128,0,1:0:0:0:0:
256,192,0,128,0,1:0:0:0:0:
256,192,0,128,0,1:0:0:0:0:
256,192,0,128,0,1:0:0:0:0:
256,192,0,128,0,1:0:0:0:0:
256,192,0,128,0,1:0:0:0:0:
256,192,0,128,0,1:0:0:0:0:
256,192,0,128,0,1:0:0:0:0:
256,192,0,128,0,1:0:0:0:0:
256,192,0,128,0,1:0:0:0:0:
256,192,0,128,0,1:0:0:0:0:
256,192,0,128,0,1:0:0:0:0:
256,192,0,128,0,1:0:0:0:0:
256,192,0,128,0,1:0:0:0:0:
256,192,0,128,0,1:0:0:0:0:
256,192,0,128,0,1:0:0:0:0:
256,192,0,128,0,1:0:0:0:0:
256,192,0,128,0,1:0:0:0:0:
256,192,0,128,0,1:0:0:0:0:
256,192,0,128,0,1:0:0:0:0:
256,192,0,128,0,1:0:0:0:0:
256,192,0,128,0,1:0:0:0:0:
256,192,0,128,0,1:0:0:0:0:
256,192,0,128,0,1:0:0:0:0:
256,192,0,128,0,1:0:0:0:0:
256,192,0,128,0,1:0:0:0:0:
256,192,0,128,0,1:0:0:0:0:
256,192,0,128,0,1:0:0:0:0:
256,192,0,128,0,1:0:0:0:0:
256,192,0,128,0,1:0:0:0:0:
256,192,0,128,0,1:0:0:0:0:
256,192,0,128,0,1:0:0:0:0:
256,192,0,128,0,1:0:0:0:0:
256,192,0,128,0,1:0:0:0:0:
256,192,0,128,0,1:0:0:0:0:
256,192,0,128,0,1:0:0:0:0:
256,192,0,128,0,1:0:0:0:0:
256,192,0,128,0,1:0:0:0:0:
256,192,0,128,0,1:0:0:0:0:
256,192,0,128,0,1:0:0:0:0:
256,192,0,128,0,1:0:0:0:0:
256,192,0,128,0,1:0:0:0:0:
256,192,0,128,0,1:0:0:0:0:
256,192,0,128,0,1:0:0:0:0:
256,192,0,128,0,1:0:0:0:0:
256,192,0,128,0,1:0:0:0:0:
256,192,0,128,0,1:0:0:0:0:
256,192,0,128,0,1:0:0:0:0:
256,192,0,128,0,1:0:0:0:0:
256,192,0,128,0,1:0:0:0:0:
256,192,0,128,0,1:0:0:0:0:
256,192,0,128,0,1:0:0:0:0:
256,192,0,128,0,1:0:0:0:0:
256,192,0,128,0,1:0:0:0:0:
256,192,0,128,0,1:0:0:0:0:
256,192,0,128,0,1:0:0:0:0:
256,192,0,128,0,1:0:0:0:0:
256,192,0,128,0,1:0:0:0:0:
256,192,0,128,0,1:0:0:0:0:
256,192,0,128,0,1:0:0:0:0:
256,192,0,128,0,1:0:0:0:0:
256,192,0,128,0,1:0:0:0:0:
256,192,0,128,0,1:0:0:0:0:
256,192,0,128,0,1:0:0:0:0:
256,192,0,128,0,1:0:0:0:0:
256,192,0,128,0,1:0:0:0:0:
256,192,0,128,0,1:0:0:0:0:
256,192,0,128,0,1:0:0:0:0:
256,192,0,128,0,1:0:0:0:0:
256,192,0,128,0,1:0:0:0:0:
256,192,0,128,0,1:0:0:0:0:
256,192,0,128,0,1:0:0:0:0:
256,192,0,128,0,1:0:0:0:0:
256,192,0,128,0,1:0:0:0:0:
256,192,0,128,0,1:0:0:0:0:
256,192,0,128,0,1:0:0:0:0:
256,192,0,128,0,1:0:0:0:0:
256,192,0,128,0,1:0:0:0:0:
256,192,0,128,0,1:0:0:0:0:
256,192,0,128,0,1:0:0:0:0:
256,192,0,128,0,1:0:0:0:0:
256,192,0,128,0,1:0:0:0:0:
256,192,0,128,0,1:0:0:0:0:
256,192,0,128,0,1:0:0:0:0:
256,192,0,128,0,1:0:0:0:0:
256,192,0,128,0,1:0:0:0:0:
256,192,0,128,0,1:0:0:0:0:
256,192,0,128,0,1:0:0:0:0:
256,192,0,128,0,1:0:0:0:0:
256,192,0,128,0,1:0:0:0:0:
256,192,0,128,0,1:0:0:0:0:
256,192,0,128,0,1:0:0:0:0:
256,192,0,128,0,1:0:0:0:0:
256,192,0,128,0,1:0:0:0:0:
256,192,0,128,0,1:0:0:0:0:
256,192,0,128,0,1:0:0:0:0:
256,192,0,128,0,1:0:0:0:0:
256,192,0,128,0,1:0:0:0:0:
256,192,0,128,0,1:0:0:0:0:
256,192,0,128,0,1:0:0:0:0:
256,192,0,128,0,1:0:0:0:0:
256,192,0,128,0,1:0:0:0:0:
256,192,0,128,0,1:0:0:0:0:
256,192,0,128,0,1:0:0:0:0:
256,192,0,128,0,1:0:0:0:0:
256,192,0,128,0,1:0:0:0:0:
256,192,0,128,0,1:0:0:0:0:
256,192,0,128,0,1:0:0:0:0:
256,192,0,128,0,1:0:0:0:0:
256,192,0,128,0,1:0:0:0:0:
256,192,0,128,0,1:0:0:0:0:
256,192,0,128,0,1:0:0:0:0:
256,192,0,128,0,1:0:0:0:0:
256,192,0,128,0,1:0:0:0:0:
256,192,0,128,0,1:0:0:0:0:
256,192,0,128,0,1:0:0:0:0:
256,192,0,128,0,1:0:0:0:0:
256,192,0,128,0,1:0:0:0:0:
256,192,0,128,0,1:0:0:0:0:
256,192,0,128,0,1:0:0:0:0:
256,192,0,128,0,1:0:0:0:0:
256,192,0,128,0,1:0:0:0:0:
256,192,0,128,0,1:0:0:0:0:
256,192,0,128,0,1:0:0:0:0:
256,192,0,128,0,1:0:0:0:0:
256,192,0,128,0,1:0:0:0:0:
256,192,0,128,0,1:0:0:0:0:
256,192,0,128,0,1:0:0:0:0:
256,192,0,128,0,1:0:0:0:0:
256,192,0,128,0,1:0:0:0:0:
256,192,0,128,0,1:0:0:0:0:
256,192,0,128,0,1:0:0:0:0:
256,192,0,128,0,1:0:0:0:0:
256,192,0,128,0,1:0:0:0:0:
256,192,0,128,0,1:0:0:0:0:
256,192,0,128,0,1:0:0:0:0:
256,192,0,128,0,1:0:0:0:0:
256,192,0,128,0,1:0:0:0:0:
256,192,0,128,0,1:0:0:0:0:
256,192,0,128,0,1:0:0:0:0:
256,192,0,128,0,1:0:0:0:0:
256,192,0,128,0,1:0:0:0:0:
256,192,0,128,0,1:0:0:0:0:
256,192,0,128,0,1:0:0:0:0:
256,192,0,128,0,1:0:0:0:0:
256,192,0,128,0,1:0:0:0:0:
256,192,0,128,0,1:0:0:0:0:
256,192,0,128,0,1:0:0:0:0:
256,192,0,128,0,1:0:0:0:0:
256,192,0,128,0,1:0:0:0:0:
256,192,0,128,0,1:0:0:0:0:
256,192,0,128,0,1:0:0:0:0:
256,192,0,128,0,1:0:0:0:0:
256,192,0,128,0,1:0:0:0:0:
256,192,0,128,0,1:0:0:0:0:
256,192,0,128,0,1:0:0:0:0:
256,192,0,128,0,1:0:0:0:0:
256,192,0,128,0,1:0:0:0:0:
256,192,0,128,0,1:0:0:0:0:
256,192,0,128,0,1:0:0:0:0:
256,192,0,128,0,1:0:0:0:0:
256,192,0,128,0,1:0:0:0:0:
256,192,0,128,0,1:0:0:0:0:
256,192,0,128,0,1:0:0:0:0:
256,192,0,128,0,1:0:0:0:0:
256,192,0,128,0,1:0:0:0:0:
256,192,0,128,0,1:0:0:0:0:
256,192,0,128,0,1:0:0:0:0:
256,192,0,128,0,1:0:0:0:0:
256,192,0,128,0,1:0:0:0:0:
256,192,0,128,0,1:0:0:0:0:
256,192,0,128,0,1:0:0:0:0:
256,192,0,128,0,1:0:0:0:0:
256,192,0,128,0,1:0:0:0:0:
256,192,0,128,0,1:0:0:0:0:
256,192,0,128,0,1:0:0:0:0:
256,192,0,128,0,1:0:0:0:0:
256,192,0,128,0,1:0:0:0:0:
256,192,0,128,0,1:0:0:0:0:
256,192,0,128,0,1:0:0:0:0:
256,192,0,128,0,1:0:0:0:0:
256,192,0,128,0,1:0:0:0:0:
256,192,0,128,0,1:0:0:0:0:
256,192,0,128,0,1:0:0:0:0:
256,192,0,128,0,1:0:0:0:0:
256,192,0,128,0,1:0:0:0:0:
256,192,0,128,0,1:0:0:0:0:
256,192,0,128,0,1:0:0:0:0:
256,192,0,128,0,1:0:0:0:0:
256,192,0,128,0,1:0:0:0:0:
256,192,0,128,0,1:0:0:0:0:
256,192,0,128,0,1:0:0:0:0:
256,192,0,128,0,1:0:0:0:0:
256,192,0,128,0,1:0:0:0:0:
256,192,0,128,0,1:0:0:0:0:
256,192,0,128,0,1:0:0:0:0:
256,192,0,128,0,1:0:0:0:0:
256,192,0,128,0,1:0:0:0:0:
256,192,0,128,0,1:0:0:0:0:
256,192,0,128,0,1:0:0:0:0:
256,192,0,128,0,1:0:0:0:0:
256,192,0,128,0,1:0:0:0:0:
256,192,0,128,0,1:0:0:0:0:
256,192,0,128,0,1:0:0:0:0:
256,192,0,128,0,1:0:0:0:0:
256,192,0,128,0,1:0:0:0:0:
256,192,0,128,0,1:0:0:0:0:
256,192,0,128,0,1:0:0:0:0:
256,192,0,128,0,1:0:0:0:0:
256,192,0,128,0,1:0:0:0:0:
256,192,0,128,0,1:0:0:0:0:
256,192,0,128,0,1:0:0:0:0:
256,192,0,128,0,1:0:0:0:0:
256,192,0,128,0,1:0:0:0:0:
256,192,0,128,0,1:0:0:0:0:
256,192,0,128,0,1:0:0:0:0:
256,192,0,128,0,1:0:0:0:0:
256,192,0,128,0,1:0:0:0:0:
256,192,0,128,0,1:0:0:0:0:
256,192,0,128,0,1:0:0:0:0:
256,192,0,128,0,1:0:0:0:0:
256,192,0,128,0,1:0:0:0:0:
256,192,0,128,0,1:0:0:0:0:
256,192,0,128,0,1:0:0:0:0:
256,192,0,128,0,1:0:0:0:0:
256,192,0,128,0,1:0:0:0:0:
256,192,0,128,0,1:0:0:0:0:
256,192,0,128,0,1:0:0:0:0:
256,192,0,128,0,1:0:0:0:0:
256,192,0,128,0,1:0:0:0:0:
256,192,0,128,0,1:0:0:0:0:
256,192,0,128,0,1:0:0:0:0:
256,192,0,128,0,1:0:0:0:0:
256,192,0,128,0,1:0:0:0:0:
256,192,0,128,0,1:0:0:0:0:
256,192,0,128,0,1:0:0:0:0:
256,192,0,128,0,1:0:0:0:0:
256,192,0,128,0,1:0:0:0:0:
256,192,0,128,0,1:0:0:0:0:
256,192,0,128,0,1:0:0:0:0:
256,192,0,128,0,1:0:0:0:0:
256,192,0,128,0,1:0:0:0:0:
256,192,0,128,0,1:0:0:0:0:
256,192,0,128,0,1:0:0:0:0:
256,192,0,128,0,1:0:0:0:0:
256,192,0,128,0,1:0:0:0:0:
256,192,0,128,0,1:0:0:0:0:
256,192,0,128,0,1:0:0:0:0:
256,192,0,128,0,1:0:0:0:0:
256,192,0,128,0,1:0:0:0:0:
256,192,0,128,0,1:0:0:0:0:
256,192,0,128,0,1:0:0:0:0:
256,192,0,128,0,1:0:0:0:0:
256,192,0,128,0,1:0:0:0:0:
256,192,0,128,0,1:0:0:0:0:
256,192,0,128,0,1:0:0:0:0:
256,192,0,128,0,1:0:0:0:0:
256,192,0,128,0,1:0:0:0:0:
256,192,0,128,0,1:0:0:0:0:
256,192,0,128,0,1:0:0:0:0:
256,192,0,128,0,1:0:0:0:0:
256,192,0,128,0,1:0:0:0:0:
256,192,0,128,0,1:0:0:0:0:
256,192,0,128,0,1:0:0:0:0:
256,192,0,128,0,1:0:0:0:0:
256,192,0,128,0,1:0:0:0:0:
256,192,0,128,0,1:0:0:0:0:
256,192,0,128,0,1:0:0:0:0:
256,192,0,128,0,1:0:0:0:0:
256,192,0,128,0,1:0:0:0:0:
256,192,0,128,0,1:0:0:0:0:
256,192,0,128,0,1:0:0:0:0:
256,192,0,128,0,1:0:0:0:0:
256,192,0,128,0,1:0:0:0:0:
256,192,0,128,0,1:0:0:0:0:
256,192,0,128,0,1:0:0:0:0:
256,192,0,128,0,1:0:0:0:0:
256,192,0,128,0,1:0:0:0:0:
256,192,0,128,0,1:0:0:0:0:
256,192,0,128,0,1:0:0:0:0:
256,192,0,128,0,1:0:0:0:0:
256,192,0,128,0,1:0:0:0:0:
256,192,0,128,0,1:0:0:0:0:
256,192,0,128,0,1:0:0:0:0:
256,192,0,128,0,1:0:0:0:0:
256,192,0,128,0,1:0:0:0:0:
256,192,0,128,0,1:0:0:0:0:
256,192,0,128,0,1:0:0:0:0:
256,192,0,128,0,1:0:0:0:0:
256,192,0,128,0,1:0:0:0:0:
256,192,0,128,0,1:0:0:0:0:
256,192,0,128,0,1:0:0:0:0:
256,192,0,128,0,1:0:0:0:0:
256,192,0,128,0,1:0:0:0:0:
256,192,0,128,0,1:0:0:0:0:
256,192,0,128,0,1:0:0:0:0:
256,192,0,128,0,1:0:0:0:0:
256,192,0,128,0,1:0:0:0:0:
256,192,0,128,0,1:0:0:0:0:
256,192,0,128,0,1:0:0:0:0:
256,192,0,128,0,1:0:0:0:0:
256,192,0,128,0,1:0:0:0:0:
256,192,0,128,0,1:0:0:0:0:
256,192,0,128,0,1:0:0:0:0:
256,192,0,128,0,1:0:0:0:0:
256,192,0,128,0,1:0:0:0:0:
256,192,0,128,0,1:0:0:0:0:
256,192,0,128,0,1:0:0:0:0:
256,192,0,128,0,1:0:0:0:0:
256,192,0,128,0,1:0:0:0:0:
256,192,0,128,0,1:0:0:0:0:
256,192,0,128,0,1:0:0:0:0:
256,192,0,128,0,1:0:0:0:0:
256,192,0,128,0,1:0:0:0:0:
256,192,0,128,0,1:0:0:0:0:
256,192,0,128,0,1:0:0:0:0:
256,192,0,128,0,1:0:0:0:0:
256,192,0,128,0,1:0:0:0:0:
256,192,0,128,0,1:0:0:0:0:
256,192,0,128,0,1:0:0:0:0:
256,192,0,128,0,1:0:0:0:0:
256,192,0,128,0,1:0:0:0:0:
256,192,0,128,0,1:0:0:0:0:
256,192,0,128,0,1:0:0:0:0:
256,192,0,128,0,1:0:0:0:0:
256,192,0,128,0,1:0:0:0:0:
256,192,0,128,0,1:0:0:0:0:
256,192,0,128,0,1:0:0:0:0:
256,192,0,128,0,1:0:0:0:0:
256,192,0,128,0,1:0:0:0:0:
256,192,0,128,0,1:0:0:0:0:
256,192,0,128,0,1:0:0:0:0:
256,192,0,128,0,1:0:0:0:0:
256,192,0,128,0,1:0:0:0:0:
256,192,0,128,0,1:0:0:0:0:
256,192,0,128,0,1:0:0:0:0:
256,192,0,128,0,1:0:0:0:0:
256,192,0,128,0,1:0:0:0:0:
256,192,0,128,0,1:0:0:0:0:
256,192,0,128,0,1:0:0:0:0:
256,192,0,128,0,1:0:0:0:0:
256,192,0,128,0,1:0:0:0:0:
256,192,0,128,0,1:0:0:0:0:
256,192,0,128,0,1:0:0:0:0:
256,192,0,128,0,1:0:0:0:0:
256,192,0,128,0,1:0:0:0:0:
256,192,0,128,0,1:0:0:0:0:
256,192,0,128,0,1:0:0:0:0:
256,192,0,128,0,1:0:0:0:0:
256,192,0,128,0,1:0:0:0:0:
256,192,0,128,0,1:0:0:0:0:
256,192,0,128,0,1:0:0:0:0:
256,192,0,128,0,1:0:0:0:0:
256,192,0,128,0,1:0:0:0:0:
256,192,0,128,0,1:0:0:0:0:
256,192,0,128,0,1:0:0:0:0:
256,192,0,128,0,1:0:0:0:0:
256,192,0,128,0,1:0:0:0:0:
256,192,0,128,0,1:0:0:0:0:
256,192,0,128,0,1:0:0:0:0:
256,192,0,128,0,1:0:0:0:0:
256,192,0,128,0,1:0:0:0:0:
256,192,0,128,0,1:0:0:0:0:
256,192,0,128,0,1:0:0:0:0:
256,192,0,128,0,1:0:0:0:0:
256,192,0,128,0,1:0:0:0:0:
256,192,0,128,0,1:0:0:0:0:
256,192,0,128,0,1:0:0:0:0:
256,192,0,128,0,1:0:0:0:0:
256,192,0,128,0,1:0:0:0:0:
256,192,0,128,0,1:0:0:0:0:
256,192,0,128,0,1:0:0:0:0:
256,192,0,128,0,1:0:0:0:0:
256,192,0,128,0,1:0:0:0:0:
256,192,0,128,0,1:0:0:0:0:
256,192,0,128,0,1:0:0:0:0:
256,192,0,128,0,1:0:0:0:0:
256,192,0,128,0,1:0:0:0:0:
256,192,0,128,0,1:0:0:0:0:
256,192,0,128,0,1:0:0:0:0:
256,192,0,128,0,1:0:0:0:0:
256,192,0,128,0,1:0:0:0:0:
256,192,0,128,0,1:0:0:0:0:
256,192,0,128,0,1:0:0:0:0:
256,192,0,128,0,1:0:0:0:0:
256,192,0,128,0,1:0:0:0:0:
256,192,0,128,0,1:0:0:0:0:
256,192,0,128,0,1:0:0:0:0:
256,192,0,128,0,1:0:0:0:0:
256,192,0,128,0,1:0:0:0:0:
256,192,0,128,0,1:0:0:0:0:
256,192,0,128,0,1:0:0:0:0:
256,192,0,128,0,1:0:0:0:0:
256,192,0,128,0,1:0:0:0:0:
256,192,0,128,0,1:0:0:0:0:
256,192,0,128,0,1:0:0:0:0:
256,192,0,128,0,1:0:0:0:0:
256,192,0,128,0,1:0:0:0:0:
256,192,0,128,0,1:0:0:0:0:
256,192,0,128,0,1:0:0:0:0:
256,192,0,128,0,1:0:0:0:0:
256,192,0,128,0,1:0:0:0:0:
256,192,0,128,0,1:0:0:0:0:
256,192,0,128,0,1:0:0:0:0:
256,192,0,128,0,1:0:0:0:0:
256,192,0,128,0,1:0:0:0:0:
256,192,0,128,0,1:0:0:0:0:
256,192,0,128,0,1:0:0:0:0:
256,192,0,128,0,1:0:0:0:0:
256,192,0,128,0,1:0:0:0:0:
256,192,0,128,0,1:0:0:0:0:
256,192,0,128,0,1:0:0:0:0:
256,192,0,128,0,1:0:0:0:0:
256,192,0,128,0,1:0:0:0:0:
256,192,0,128,0,1:0:0:0:0:
256,192,0,128,0,1:0:0:0:0:
256,192,0,128,0,1:0:0:0:0:
256,192,0,128,0,1:0:0:0:0:
256,192,0,128,0,1:0:0:0:0:
256,192,0,128,0,1:0:0:0:0:
256,192,0,128,0,1:0:0:0:0:
256,192,0,128,0,1:0:0:0:0:
256,192,0,128,0,1:0:0:0:0:
256,192,0,128,0,1:0:0:0:0:
256,192,0,128,0,1:0:0:0:0:
256,192,0,128,0,1:0:0:0:0:
256,192,0,128,0,1:0:0:0:0:
256,192,0,128,0,1:0:0:0:0:
256,192,0,128,0,1:0:0:0:0:
256,192,0,128,0,1:0:0:0:0:
256,192,0,128,0,1:0:0:0:0:
256,192,0,128,0,1:0:0:0:0:
256,192,0,128,0,1:0:0:0:0:
256,192,0,128,0,1:0:0:0:0:
256,192,0,128,0,1:0:0:0:0:
256,192,0,128,0,1:0:0:0:0:
256,192,0,128,0,1:0:0:0:0:
256,192,0,128,0,1:0:0:0:0:
256,192,0,128,0,1:0:0:0:0:
256,192,0,128,0,1:0:0:0:0:
256,192,0,128,0,1:0:0:0:0:
256,192,0,128,0,1:0:0:0:0:
256,192,0,128,0,1:0:0:0:0:
256,192,0,128,0,1:0:0:0:0:
256,192,0,128,0,1:0:0:0:0:
256,192,0,128,0,1:0:0:0:0:
256,192,0,128,0,1:0:0:0:0:
256,192,0,128,0,1:0:0:0:0:
256,192,0,128,0,1:0:0:0:0:
256,192,0,128,0,1:0:0:0:0:
256,192,0,128,0,1:0:0:0:0:
256,192,0,128,0,1:0:0:0:0:
256,192,0,128,0,1:0:0:0:0:
256,192,0,128,0,1:0:0:0:0:
256,192,0,128,0,1:0:0:0:0:
256,192,0,128,0,1:0:0:0:0:
256,192,0,128,0,1:0:0:0:0:
256,192,0,128,0,1:0:0:0:0:
256,192,0,128,0,1:0:0:0:0:
256,192,0,128,0,1:0:0:0:0:
256,192,0,128,0,1:0:0:0:0:
256,192,0,128,0,1:0:0:0:0:
256,192,0,128,0,1:0:0:0:0:
256,192,0,128,0,1:0:0:0:0:
256,192,0,128,0,1:0:0:0:0:
256,192,0,128,0,1:0:0:0:0:
256,192,0,128,0,1:0:0:0:0:
256,192,0,128,0,1:0:0:0:0:
256,192,0,128,0,1:0:0:0:0:
256,192,0,128,0,1:0:0:0:0:
256,192,0,128,0,1:0:0:0:0:
256,192,0,128,0,1:0:0:0:0:
256,192,0,128,0,1:0:0:0:0:
256,192,0,128,0,1:0:0:0:0:
256,192,0,128,0,1:0:0:0:0:
256,192,0,128,0,1:0:0:0:0:
256,192,0,128,0,1:0:0:0:0:
256,192,0,128,0,1:0:0:0:0:
256,192,0,128,0,1:0:0:0:0:
256,192,0,128,0,1:0:0:0:0:
256,192,0,128,0,1:0:0:0:0:
256,192,0,128,0,1:0:0:0:0:
256,192,0,128,0,1:0:0:0:0:
256,192,0,128,0,1:0:0:0:0:
256,192,0,128,0,1:0:0:0:0:
256,192,0,128,0,1:0:0:0:0:
256,192,0,128,0,1:0:0:0:0:
256,192,0,128,0,1:0:0:0:0:
256,192,0,128,0,1:0:0:0:0:
256,192,0,128,0,1:0:0:0:0:
256,192,0,128,0,1:0:0:0:0:
256,192,0,128,0,1:0:0:0:0:
256,192,0,128,0,1:0:0:0:0:
256,192,0,128,0,1:0:0:0:0:
256,192,0,128,0,1:0:0:0:0:
256,192,0,128,0,1:0:0:0:0:
256,192,0,128,0,1:0:0:0:0:
256,192,0,128,0,1:0:0:0:0:
256,192,0,128,0,1:0:0:0:0:
256,192,0,128,0,1:0:0:0:0:
256,192,0,128,0,1:0:0:0:0:
256,192,0,128,0,1:0:0:0:0:
256,192,0,128,0,1:0:0:0:0:
256,192,0,128,0,1:0:0:0:0:
256,192,0,128,0,1:0:0:0:0:
256,192,0,128,0,1:0:0:0:0:
256,192,0,128,0,1:0:0:0:0:
256,192,0,128,0,1:0:0:0:0:
256,192,0,128,0,1:0:0:0:0:
256,192,0,128,0,1:0:0:0:0:
256,192,0,128,0,1:0:0:0:0:
256,192,0,128,0,1:0:0:0:0:
256,192,0,128,0,1:0:0:0:0:
256,192,0,128,0,1:0:0:0:0:
256,192,0,128,0,1:0:0:0:0:
256,192,0,128,0,1:0:0:0:0:
256,192,0,128,0,1:0:0:0:0:
256,192,0,128,0,1:0:0:0:0:
256,192,0,128,0,1:0:0:0:0:
256,192,0,128,0,1:0:0:0:0:
256,192,0,128,0,1:0:0:0:0:
256,192,0,128,0,1:0:0:0:0:
256,192,0,128,0,1:0:0:0:0:
256,192,0,128,0,1:0:0:0:0:
256,192,0,128,0,1:0:0:0:0:
256,192,0,128,0,1:0:0:0:0:
256,192,0,128,0,1:0:0:0:0:
256,192,0,128,0,1:0:0:0:0:
256,192,0,128,0,1:0:0:0:0:
256,192,0,128,0,1:0:0:0:0:
256,192,0,128,0,1:0:0:0:0:
256,192,0,128,0,1:0:0:0:0:
256,192,0,128,0,1:0:0:0:0:
256,192,0,128,0,1:0:0:0:0:
256,192,0,128,0,1:0:0:0:0:
256,192,0,128,0,1:0:0:0:0:
256,192,0,128,0,1:0:0:0:0:
256,192,0,128,0,1:0:0:0:0:
256,192,0,128,0,1:0:0:0:0:
256,192,0,128,0,1:0:0:0:0:
256,192,0,128,0,1:0:0:0:0:
256,192,0,128,0,1:0:0:0:0:
256,192,0,128,0,1:0:0:0:0:
256,192,0,128,0,1:0:0:0:0:
256,192,0,128,0,1:0:0:0:0:
256,192,0,128,0,1:0:0:0:0:
256,192,0,128,0,1:0:0:0:0:
256,192,0,128,0,1:0:0:0:0:
256,192,0,128,0,1:0:0:0:0:
256,192,0,128,0,1:0:0:0:0:
256,192,0,128,0,1:0:0:0:0:
256,192,0,128,0,1:0:0:0:0:
256,192,0,128,0,1:0:0:0:0:
256,192,0,128,0,1:0:0:0:0:
256,192,0,128,0,1:0:0:0:0:
256,192,0,128,0,1:0:0:0:0:
256,192,0,128,0,1:0:0:0:0:
256,192,0,128,0,1:0:0:0:0:
256,192,0,128,0,1:0:0:0:0:
256,192,0,128,0,1:0:0:0:0:
256,192,0,128,0,1:0:0:0:0:
256,192,0,128,0,1:0:0:0:0:
256,192,0,128,0,1:0:0:0:0:
256,192,0,128,0,1:0:0:0:0:
256,192,0,128,0,1:0:0:0:0:
256,192,0,128,0,1:0:0:0:0:
256,192,0,128,0,1:0:0:0:0:
256,192,0,128,0,1:0:0:0:0:
256,192,0,128,0,1:0:0:0:0:
256,192,0,128,0,1:0:0:0:0:
256,192,0,128,0,1:0:0:0:0:
256,192,0,128,0,1:0:0:0:0:
256,192,0,128,0,1:0:0:0:0:
256,192,0,128,0,1:0:0:0:0:
256,192,0,128,0,1:0:0:0:0:
256,192,0,128,0,1:0:0:0:0:
256,192,0,128,0,1:0:0:0:0:
256,192,0,128,0,1:0:0:0:0:
256,192,0,128,0,1:0:0:0:0:
256,192,0,128,0,1:0:0:0:0:
256,192,0,128,0,1:0:0:0:0:
256,192,0,128,0,1:0:0:0:0:
256,192,0,128,0,1:0:0:0:0:
256,192,0,128,0,1:0:0:0:0:
256,192,0,128,0,1:0:0:0:0:
256,192,0,128,0,1:0:0:0:0:
256,192,0,128,0,1:0:0:0:0:
256,192,0,128,0,1:0:0:0:0:
256,192,0,128,0,1:0:0:0:0:
256,192,0,128,0,1:0:0:0:0:
256,192,0,128,0,1:0:0:0:0:
256,192,0,128,0,1:0:0:0:0:
256,192,0,128,0,1:0:0:0:0:
256,192,0,128,0,1:0:0:0:0:
256,192,0,128,0,1:0:0:0:0:
256,192,0,128,0,1:0:0:0:0:
256,192,0,128,0,1:0:0:0:0:
256,192,0,128,0,1:0:0:0:0:
256,192,0,128,0,1:0:0:0:0:
256,192,0,128,0,1:0:0:0:0:
256,192,0,128,0,1:0:0:0:0:
256,192,0,128,0,1:0:0:0:0:
256,192,0,128,0,1:0:0:0:0:
256,192,0,128,0,1:0:0:0:0:
256,192,0,128,0,1:0:0:0:0:
256,192,0,128,0,1:0:0:0:0:
256,192,0,128,0,1:0:0:0:0:
256,192,0,128,0,1:0:0:0:0:
256,192,0,128,0,1:0:0:0:0:
256,192,0,128,0,1:0:0:0:0:
256,192,0,128,0,1:0:0:0:0:
256,192,0,128,0,1:0:0:0:0:
256,192,0,128,0,1:0:0:0:0:
256,192,0,128,0,1:0:0:0:0:
256,192,0,128,0,1:0:0:0:0:
256,192,0,128,0,1:0:0:0:0:
256,192,0,128,0,1:0:0:0:0:
256,192,0,128,0,1:0:0:0:0:
256,192,0,128,0,1:0:0:0:0:
256,192,0,128,0,1:0:0:0:0:
256,192,0,128,0,1:0:0:0:0:
256,192,0,128,0,1:0:0:0:0:
256,192,0,128,0,1:0:0:0:0:
256,192,0,128,0,1:0:0:0:0:
256,192,0,128,0,1:0:0:0:0:
256,192,0,128,0,1:0:0:0:0:
256,192,0,128,0,1:0:0:0:0:
256,192,0,128,0,1:0:0:0:0:
256,192,0,128,0,1:0:0:0:0:
256,192,0,128,0,1:0:0:0:0:
256,192,0,128,0,1:0:0:0:0:
256,192,0,128,0,1:0:0:0:0:
256,192,0,128,0,1:0:0:0:0:
256,192,0,128,0,1:0:0:0:0:
256,192,0,128,0,1:0:0:0:0:
256,192,0,128,0,1:0:0:0:0:
256,192,0,128,0,1:0:0:0:0:
256,192,0,128,0,1:0:0:0:0:
256,192,0,128,0,1:0:0:0:0:
256,192,0,128,0,1:0:0:0:0:
256,192,0,128,0,1:0:0:0:0:
256,192,0,128,0,1:0:0:0:0:
256,192,0,128,0,1:0:0:0:0:
256,192,0,128,0,1:0:0:0:0:
256,192,0,128,0,1:0:0:0:0:
256,192,0,128,0,1:0:0:0:0:
256,192,0,128,0,1:0:0:0:0:
256,192,0,128,0,1:0:0:0:0:
256,192,0,128,0,1:0:0:0:0:
256,192,0,128,0,1:0:0:0:0:
256,192,0,128,0,1:0:0:0:0:
256,192,0,128,0,1:0:0:0:0:
256,192,0,128,0,1:0:0:0:0:
256,192,0,128,0,1:0:0:0:0:
256,192,0,128,0,1:0:0:0:0:
256,192,0,128,0,1:0:0:0:0:
256,192,0,128,0,1:0:0:0:0:
256,192,0,128,0,1:0:0:0:0:
256,192,0,128,0,1:0:0:0:0:
256,192,0,128,0,1:0:0:0:0:
256,192,0,128,0,1:0:0:0:0:
256,192,0,128,0,1:0:0:0:0:
256,192,0,128,0,1:0:0:0:0:
256,192,0,128,0,1:0:0:0:0:
256,192,0,128,0,1:0:0:0:0:
256,192,0,128,0,1:0:0:0:0:
256,192,0,128,0,1:0:0:0:0:
256,192,0,128,0,1:0:0:0:0:
256,192,0,128,0,1:0:0:0:0:
256,192,0,128,0,1:0:0:0:0:
256,192,0,128,0,1:0:0:0:0:
256,192,0,128,0,1:0:0:0:0:
256,192,0,128,0,1:0:0:0:0:
256,192,0,128,0,1:0:0:0:0:
256,192,0,128,0,1:0:0:0:0:
256,192,0,128,0,1:0:0:0:0:
256,192,0,128,0,1:0:0:0:0:
256,192,0,128,0,1:0:0:0:0:
256,192,0,128,0,1:0:0:0:0:
256,192,0,128,0,1:0:0:0:0:
256,192,0,128,0,1:0:0:0:0:
256,192,0,128,0,1:0:0:0:0:
256,192,0,128,0,1:0:0:0:0:
256,192,0,128,0,1:0:0:0:0:
256,192,0,128,0,1:0:0:0:0:
256,192,0,128,0,1:0:0:0:0:
256,192,0,128,0,1:0:0:0:0:
256,192,0,128,0,1:0:0:0:0:
256,192,0,128,0,1:0:0:0:0:
256,192,0,128,0,1:0:0:0:0:
256,192,0,128,0,1:0:0:0:0:
256,192,0,128,0,1:0:0:0:0:
256,192,0,128,0,1:0:0:0:0:
256,192,0,128,0,1:0:0:0:0:
256,192,0,128,0,1:0:0:0:0:
256,192,0,128,0,1:0:0:0:0:
256,192,0,128,0,1:0:0:0:0:
256,192,0,128,0,1:0:0:0:0:
256,192,0,128,0,1:0:0:0:0:
256,192,0,128,0,1:0:0:0:0:
256,192,0,128,0,1:0:0:0:0:
256,192,0,128,0,1:0:0:0:0:
256,192,0,128,0,1:0:0:0:0:
256,192,0,128,0,1:0:0:0:0:
256,192,0,128,0,1:0:0:0:0:
256,192,0,128,0,1:0:0:0:0:
256,192,0,128,0,1:0:0:0:0:
256,192,0,128,0,1:0:0:0:0:
256,192,0,128,0,1:0:0:0:0:
256,192,0,128,0,1:0:0:0:0:
256,192,0,128,0,1:0:0:0:0:
256,192,0,128,0,1:0:0:0:0:
256,192,0,128,0,1:0:0:0:0:
256,192,0,128,0,1:0:0:0:0:
256,192,0,128,0,1:0:0:0:0:
256,192,0,128,0,1:0:0:0:0:
256,192,0,128,0,1:0:0:0:0:
256,192,0,128,0,1:0:0:0:0:
256,192,0,128,0,1:0:0:0:0:
256,192,0,128,0,1:0:0:0:0:
256,192,0,128,0,1:0:0:0:0:
256,192,0,128,0,1:0:0:0:0:
256,192,0,128,0,1:0:0:0:0:
256,192,0,128,0,1:0:0:0:0:
256,192,0,128,0,1:0:0:0:0:
256,192,0,128,0,1:0:0:0:0:
256,192,0,128,0,1:0:0:0:0:
256,192,0,128,0,1:0:0:0:0:
256,192,0,128,0,1:0:0:0:0:
256,192,0,128,0,1:0:0:0:0:
256,192,0,128,0,1:0:0:0:0:
256,192,0,128,0,1:0:0:0:0:
256,192,0,128,0,1:0:0:0:0:
256,192,0,128,0,1:0:0:0:0:
256,192,0,128,0,1:0:0:0:0:
256,192,0,128,0,1:0:0:0:0:
256,192,0,128,0,1:0:0:0:0:
256,192,0,128,0,1:0:0:0:0:
256,192,0,128,0,1:0:0:0:0:
256,192,0,128,0,1:0:0:0:0:
256,192,0,128,0,1:0:0:0:0:
256,192,0,128,0,1:0:0:0:0:
256,192,0,128,0,1:0:0:0:0:
256,192,0,128,0,1:0:0:0:0:
256,192,0,128,0,1:0:0:0:0:
256,192,0,128,0,1:0:0:0:0:
256,192,0,128,0,1:0:0:0:0:
256,192,0,128,0,1:0:0:0:0:
256,192,0,128,0,1:0:0:0:0:
256,192,0,128,0,1:0:0:0:0:
256,192,0,128,0,1:0:0:0:0:
256,192,0,128,0,1:0:0:0:0:
256,192,0,128,0,1:0:0:0:0:
256,192,0,128,0,1:0:0:0:0:
256,192,0,128,0,1:0:0:0:0:
256,192,0,128,0,1:0:0:0:0:
256,192,0,128,0,1:0:0:0:0:
256,192,0,128,0,1:0:0:0:0:
256,192,0,128,0,1:0:0:0:0:
256,192,0,128,0,1:0:0:0:0:
256,192,0,128,0,1:0:0:0:0:
256,192,0,128,0,1:0:0:0:0:
256,192,0,128,0,1:0:0:0:0:
256,192,0,128,0,1:0:0:0:0:
256,192,0,128,0,1:0:0:0:0:
256,192,0,128,0,1:0:0:0:0:
256,192,0,128,0,1:0:0:0:0:
256,192,0,128,0,1:0:0:0:0:
256,192,0,128,0,1:0:0:0:0:
256,192,0,128,0,1:0:0:0:0:
256,192,0,128,0,1:0:0:0:0:
256,192,0,128,0,1:0:0:0:0:
256,192,0,128,0,1:0:0:0:0:
256,192,0,128,0,1:0:0:0:0:
256,192,0,128,0,1:0:0:0:0:
256,192,0,128,0,1:0:0:0:0:
256,192,0,128,0,1:0:0:0:0:
256,192,0,128,0,1:0:0:0:0:
256,192,0,128,0,1:0:0:0:0:
256,192,0,128,0,1:0:0:0:0:
256,192,0,128,0,1:0:0:0:0:
256,192,0,128,0,1:0:0:0:0:
256,192,0,128,0,1:0:0:0:0:
256,192,0,128,0,1:0:0:0:0:
256,192,0,128,0,1:0:0:0:0:
256,192,0,128,0,1:0:0:0:0:
256,192,0,128,0,1:0:0:0:0:
256,192,0,128,0,1:0:0:0:0:
256,192,0,128,0,1:0:0:0:0:
256,192,0,128,0,1:0:0:0:0:
256,192,0,128,0,1:0:0:0:0:
256,192,0,128,0,1:0:0:0:0:
256,192,0,128,0,1:0:0:0:0:
256,192,0,128,0,1:0:0:0:0:
256,192,0,128,0,1:0:0:0:0:
256,192,0,128,0,1:0:0:0:0:
256,192,0,128,0,1:0:0:0:0:
256,192,0,128,0,1:0:0:0:0:
256,192,0,128,0,1:0:0:0:0:
256,192,0,128,0,1:0:0:0:0:
256,192,0,128,0,1:0:0:0:0:
256,192,0,128,0,1:0:0:0:0:
256,192,0,128,0,1:0:0:0:0:
256,192,0,128,0,1:0:0:0:0:
256,192,0,128,0,1:0:0:0:0:
256,192,0,128,0,1:0:0:0:0:
256,192,0,128,0,1:0:0:0:0:
256,192,0,128,0,1:0:0:0:0:
256,192,0,128,0,1:0:0:0:0:
256,192,0,128,0,1:0:0:0:0:
256,192,0,128,0,1:0:0:0:0:
256,192,0,128,0,1:0:0:0:0:
256,192,0,128,0,1:0:0:0:0:
256,192,0,128,0,1:0:0:0:0:
256,192,0,128,0,1:0:0:0:0:
256,192,0,128,0,1:0:0:0:0:
256,192,0,128,0,1:0:0:0:0:
256,192,0,128,0,1:0:0:0:0:
256,192,0,128,0,1:0:0:0:0:
256,192,0,128,0,1:0:0:0:0:
256,192,0,128,0,1:0:0:0:0:
256,192,0,128,0,1:0:0:0:0:
256,192,0,128,0,1:0:0:0:0:
256,192,0,128,0,1:0:0:0:0:
256,192,0,128,0,1:0:0:0:0:
256,192,0,128,0,1:0:0:0:0:
256,192,0,128,0,1:0:0:0:0:
256,192,0,128,0,1:0:0:0:0:
256,192,0,128,0,1:0:0:0:0:
256,192,0,128,0,1:0:0:0:0:
256,192,0,128,0,1:0:0:0:0:
256,192,0,128,0,1:0:0:0:0:
256,192,0,128,0,1:0:0:0:0:
256,192,0,128,0,1:0:0:0:0:
256,192,0,128,0,1:0:0:0:0:
256,192,0,128,0,1:0:0:0:0:
256,192,0,128,0,1:0:0:0:0:
256,192,0,128,0,1:0:0:0:0:
256,192,0,128,0,1:0:0:0:0:
256,192,0,128,0,1:0:0:0:0:
256,192,0,128,0,1:0:0:0:0:
256,192,0,128,0,1:0:0:0:0:
256,192,0,128,0,1:0:0:0:0:
256,192,0,128,0,1:0:0:0:0:
256,192,0,128,0,1:0:0:0:0:
256,192,0,128,0,1:0:0:0:0:
256,192,0,128,0,1:0:0:0:0:
256,192,0,128,0,1:0:0:0:0:
256,192,0,128,0,1:0:0:0:0:
256,192,0,128,0,1:0:0:0:0:
256,192,0,128,0,1:0:0:0:0:
256,192,0,128,0,1:0:0:0:0:
256,192,0,128,0,1:0:0:0:0:
256,192,0,128,0,1:0:0:0:0:
256,192,0,128,0,1:0:0:0:0:
256,192,0,128,0,1:0:0:0:0:
256,192,0,128,0,1:0:0:0:0:
256,192,0,128,0,1:0:0:0:0:
256,192,0,128,0,1:0:0:0:0:
256,192,0,128,0,1:0:0:0:0:
256,192,0,128,0,1:0:0:0:0:
256,192,0,128,0,1:0:0:0:0:
256,192,0,128,0,1:0:0:0:0:
256,192,0,128,0,1:0:0:0:0:
256,192,0,128,0,1:0:0:0:0:
256,192,0,128,0,1:0:0:0:0:
256,192,0,128,0,1:0:0:0:0:
256,192,0,128,0,1:0:0:0:0:
256,192,0,128,0,1:0:0:0:0:
256,192,0,128,0,1:0:0:0:0:
256,192,0,128,0,1:0:0:0:0:
256,192,0,128,0,1:0:0:0:0:
256,192,0,128,0,1:0:0:0:0:
256,192,0,128,0,1:0:0:0:0:
256,192,0,128,0,1:0:0:0:0:
256,192,0,128,0,1:0:0:0:0:
256,192,0,128,0,1:0:0:0:0:
256,192,0,128,0,1:0:0:0:0:
256,192,0,128,0,1:0:0:0:0:
256,192,0,128,0,1:0:0:0:0:
256,192,0,128,0,1:0:0:0:0:
256,192,0,128,0,1:0:0:0:0:
256,192,0,128,0,1:0:0:0:0:
256,192,0,128,0,1:0:0:0:0:
256,192,0,128,0,1:0:0:0:0:
256,192,0,128,0,1:0:0:0:0:
256,192,0,128,0,1:0:0:0:0:
256,192,0,128,0,1:0:0:0:0:
256,192,0,128,0,1:0:0:0:0:
256,192,0,128,0,1:0:0:0:0:
256,192,0,128,0,1:0:0:0:0:
256,192,0,128,0,1:0:0:0:0:
256,192,0,128,0,1:0:0:0:0:
256,192,0,128,0,1:0:0:0:0:
256,192,0,128,0,1:0:0:0:0:
256,192,0,128,0,1:0:0:0:0:
256,192,0,128,0,1:0:0:0:0:
256,192,0,128,0,1:0:0:0:0:
256,192,0,128,0,1:0:0:0:0:
256,192,0,128,0,1:0:0:0:0:
256,192,0,128,0,1:0:0:0:0:
256,192,0,128,0,1:0:0:0:0:
256,192,0,128,0,1:0:0:0:0:
256,192,0,128,0,1:0:0:0:0:
256,192,0,128,0,1:0:0:0:0:
256,192,0,128,0,1:0:0:0:0:
256,192,0,128,0,1:0:0:0:0:
256,192,0,128,0,1:0:0:0:0:
256,192,0,128,0,1:0:0:0:0:
256,192,0,128,0,1:0:0:0:0:
256,192,0,128,0,1:0:0:0:0:
256,192,0,128,0,1:0:0:0:0:
256,192,0,128,0,1:0:0:0:0:
256,192,0,128,0,1:0:0:0:0:
256,192,0,128,0,1:0:0:0:0:
256,192,0,128,0,1:0:0:0:0:
256,192,0,128,0,1:0:0:0:0:
256,192,0,128,0,1:0:0:0:0:
256,192,0,128,0,1:0:0:0:0:
256,192,0,128,0,1:0:0:0:0:
256,192,0,128,0,1:0:0:0:0:
256,192,0,128,0,1:0:0:0:0:
256,192,0,128,0,1:0:0:0:0:
256,192,0,128,0,1:0:0:0:0:
256,192,0,128,0,1:0:0:0:0:
256,192,0,128,0,1:0:0:0:0:
256,192,0,128,0,1:0:0:0:0:
256,192,0,128,0,1:0:0:0:0:
256,192,0,128,0,1:0:0:0:0:
256,192,0,128,0,1:0:0:0:0:
256,192,0,128,0,1:0:0:0:0:
256,192,0,128,0,1:0:0:0:0:
256,192,0,128,0,1:0:0:0:0:
256,192,0,128,0,1:0:0:0:0:
256,192,0,128,0,1:0:0:0:0:
256,192,0,128,0,1:0:0:0:0:
256,192,0,128,0,1:0:0:0:0:
256,192,0,128,0,1:0:0:0:0:
256,192,0,128,0,1:0:0:0:0:
256,192,0,128,0,1:0:0:0:0:
256,192,0,128,0,1:0:0:0:0:
256,192,0,128,0,1:0:0:0:0:
256,192,0,128,0,1:0:0:0:0:
256,192,0,128,0,1:0:0:0:0:
256,192,0,128,0,1:0:0:0:0:
256,192,0,128,0,1:0:0:0:0:
256,192,0,128,0,1:0:0:0:0:
256,192,0,128,0,1:0:0:0:0:
256,192,0,128,0,1:0:0:0:0:
256,192,0,128,0,1:0:0:0:0:
256,192,0,128,0,1:0:0:0:0:
256,192,0,128,0,1:0:0:0:0:
256,192,0,128,0,1:0:0:0:0:
256,192,0,128,0,1:0:0:0:0:
256,192,0,128,0,1:0:0:0:0:
256,192,0,128,0,1:0:0:0:0:
256,192,0,128,0,1:0:0:0:0:
256,192,0,128,0,1:0:0:0:0:
256,192,0,128,0,1:0:0:0:0:
256,192,0,128,0,1:0:0:0:0:
256,192,0,128,0,1:0:0:0:0:
256,192,0,128,0,1:0:0:0:0:
256,192,0,128,0,1:0:0:0:0:
256,192,0,128,0,1:0:0:0:0:
256,192,0,128,0,1:0:0:0:0:
256,192,0,128,0,1:0:0:0:0:
256,192,0,128,0,1:0:0:0:0:
256,192,0,128,0,1:0:0:0:0:
256,192,0,128,0,1:0:0:0:0:
256,192,0,128,0,1:0:0:0:0:
256,192,0,128,0,1:0:0:0:0:
256,192,0,128,0,1:0:0:0:0:
256,192,0,128,0,1:0:0:0:0:
256,192,0,128,0,1:0:0:0:0:
256,192,0,128,0,1:0:0:0:0:
256,192,0,128,0,1:0:0:0:0:
256,192,0,128,0,1:0:0:0:0:
256,192,0,128,0,1:0:0:0:0:
256,192,0,128,0,1:0:0:0:0:
256,192,0,128,0,1:0:0:0:0:
256,192,0,128,0,1:0:0:0:0:
256,192,0,128,0,1:0:0:0:0:
256,192,0,128,0,1:0:0:0:0:
256,192,0,128,0,1:0:0:0:0:
256,192,0,128,0,1:0:0:0:0:
256,192,0,128,0,1:0:0:0:0:
256,192,0,128,0,1:0:0:0:0:
256,192,0,128,0,1:0:0:0:0:
256,192,0,128,0,1:0:0:0:0:
256,192,0,128,0,1:0:0:0:0:
256,192,0,128,0,1:0:0:0:0:
256,192,0,128,0,1:0:0:0:0:
256,192,0,128,0,1:0:0:0:0:
256,192,0,128,0,1:0:0:0:0:
256,192,0,128,0,1:0:0:0:0:
256,192,0,128,0,1:0:0:0:0:
256,192,0,128,0,1:0:0:0:0:
256,192,0,128,0,1:0:0:0:0:
256,192,0,128,0,1:0:0:0:0:
256,192,0,128,0,1:0:0:0:0:
256,192,0,128,0,1:0:0:0:0:
256,192,0,128,0,1:0:0:0:0:
256,192,0,128,0,1:0:0:0:0:
256,192,0,128,0,1:0:0:0:0:
256,192,0,128,0,1:0:0:0:0:
256,192,0,128,0,1:0:0:0:0:
256,192,0,128,0,1:0:0:0:0:
256,192,0,128,0,1:0:0:0:0:
256,192,0,128,0,1:0:0:0:0:
256,192,0,128,0,1:0:0:0:0:
256,192,0,128,0,1:0:0:0:0:
256,192,0,128,0,1:0:0:0:0:
256,192,0,128,0,1:0:0:0:0:
256,192,0,128,0,1:0:0:0:0:
256,192,0,128,0,1:0:0:0:0:
256,192,0,128,0,1:0:0:0:0:
256,192,0,128,0,1:0:0:0:0:
256,192,0,128,0,1:0:0:0:0:
256,192,0,128,0,1:0:0:0:0:
256,192,0,128,0,1:0:0:0:0:
256,192,0,128,0,1:0:0:0:0:
256,192,0,128,0,1:0:0:0:0:
256,192,0,128,0,1:0:0:0:0:
256,192,0,128,0,1:0:0:0:0:
256,192,0,128,0,1:0:0:0:0:
256,192,0,128,0,1:0:0:0:0:
256,192,0,128,0,1:0:0:0:0:
256,192,0,128,0,1:0:0:0:0:
256,192,0,128,0,1:0:0:0:0:
256,192,0,128,0,1:0:0:0:0:
256,192,0,128,0,1:0:0:0:0:
256,192,0,128,0,1:0:0:0:0:
256,192,0,128,0,1:0:0:0:0:
256,192,0,128,0,1:0:0:0:0:
256,192,0,128,0,1:0:0:0:0:
256,192,0,128,0,1:0:0:0:0:
256,192,0,128,0,1:0:0:0:0:
256,192,0,128,0,1:0:0:0:0:
256,192,0,128,0,1:0:0:0:0:
256,192,0,128,0,1:0:0:0:0:
256,192,0,128,0,1:0:0:0:0:
256,192,0,128,0,1:0:0:0:0:
256,192,0,128,0,1:0:0:0:0:
256,192,0,128,0,1:0:0:0:0:
256,192,0,128,0,1:0:0:0:0:
256,192,0,128,0,1:0:0:0:0:
256,192,0,128,0,1:0:0:0:0:
256,192,0,128,0,1:0:0:0:0:
256,192,0,128,0,1:0:0:0:0:
256,192,0,128,0,1:0:0:0:0:
256,192,0,128,0,1:0:0:0:0:
256,192,0,128,0,1:0:0:0:0:
256,192,0,128,0,1:0:0:0:0:
256,192,0,128,0,1:0:0:0:0:
256,192,0,128,0,1:0:0:0:0:
256,192,0,128,0,1:0:0:0:0:
256,192,0,128,0,1:0:0:0:0:
256,192,0,128,0,1:0:0:0:0:
256,192,0,128,0,1:0:0:0:0:
256,192,0,128,0,1:0:0:0:0:
256,192,0,128,0,1:0:0:0:0:
256,192,0,128,0,1:0:0:0:0:
256,192,0,128,0,1:0:0:0:0:
256,192,0,128,0,1:0:0:0:0:
256,192,0,128,0,1:0:0:0:0:
256,192,0,128,0,1:0:0:0:0:
256,192,0,128,0,1:0:0:0:0:
256,192,0,128,0,1:0:0:0:0:
256,192,0,128,0,1:0:0:0:0:
256,192,0,128,0,1:0:0:0:0:
256,192,0,128,0,1:0:0:0:0:
256,192,0,128,0,1:0:0:0:0:
256,192,0,128,0,1:0:0:0:0:
256,192,0,128,0,1:0:0:0:0:
256,192,0,128,0,1:0:0:0:0:
256,192,0,128,0,1:0:0:0:0:
256,192,0,128,0,1:0:0:0:0:
256,192,0,128,0,1:0:0:0:0:
256,192,0,128,0,1:0:0:0:0:
256,192,0,128,0,1:0:0:0:0:
256,192,0,128,0,1:0:0:0:0:
256,192,0,128,0,1:0:0:0:0:
256,192,0,128,0,1:0:0:0:0:
256,192,0,128,0,1:0:0:0:0:
256,192,0,128,0,1:0:0:0:0:
256,192,0,128,0,1:0:0:0:0:
256,192,0,128,0,1:0:0:0:0:
256,192,0,128,0,1:0:0:0:0:
256,192,0,128,0,1:0:0:0:0:
256,192,0,128,0,1:0:0:0:0:
256,192,0,128,0,1:0:0:0:0:
256,192,0,128,0,1:0:0:0:0:
256,192,0,128,0,1:0:0:0:0:
256,192,0,128,0,1:0:0:0:0:
256,192,0,128,0,1:0:0:0:0:
256,192,0,128,0,1:0:0:0:0:
256,192,0,128,0,1:0:0:0:0:
256,192,0,128,0,1:0:0:0:0:
256,192,0,128,0,1:0:0:0:0:
256,192,0,128,0,1:0:0:0:0:
256,192,0,128,0,1:0:0:0:0:
256,192,0,128,0,1:0:0:0:0:
256,192,0,128,0,1:0:0:0:0:
256,192,0,128,0,1:0:0:0:0:
256,192,0,128,0,1:0:0:0:0:
256,192,0,128,0,1:0:0:0:0:
256,192,0,128,0,1:0:0:0:0:
256,192,0,128,0,1:0:0:0:0:
256,192,0,128,0,1:0:0:0:0:
256,192,0,128,0,1:0:0:0:0:
256,192,0,128,0,1:0:0:0:0:
256,192,0,128,0,1:0:0:0:0:
256,192,0,128,0,1:0:0:0:0:
256,192,0,128,0,1:0:0:0:0:
256,192,0,128,0,1:0:0:0:0:
256,192,0,128,0,1:0:0:0:0:
256,192,0,128,0,1:0:0:0:0:
256,192,0,128,0,1:0:0:0:0:
256,192,0,128,0,1:0:0:0:0:
256,192,0,128,0,1:0:0:0:0:
256,192,0,128,0,1:0:0:0:0:
256,192,0,128,0,1:0:0:0:0:
256,192,0,128,0,1:0:0:0:0:
256,192,0,128,0,1:0:0:0:0:
256,192,0,128,0,1:0:0:0:0:
256,192,0,128,0,1:0:0:0:0:
256,192,0,128,0,1:0:0:0:0:
256,192,0,128,0,1:0:0:0:0:
256,192,0,128,0,1:0:0:0:0:
256,192,0,128,0,1:0:0:0:0:
256,192,0,128,0,1:0:0:0:0:
256,192,0,128,0,1:0:0:0:0:
256,192,0,128,0,1:0:0:0:0:
256,192,0,128,0,1:0:0:0:0:
256,192,0,128,0,1:0:0:0:0:
256,192,0,128,0,1:0:0:0:0:
256,192,0,128,0,1:0:0:0:0:
256,192,0,128,0,1:0:0:0:0:
256,192,0,128,0,1:0:0:0:0:
256,192,0,128,0,1:0:0:0:0:
256,192,0,128,0,1:0:0:0:0:
256,192,0,128,0,1:0:0:0:0:
256,192,0,128,0,1:0:0:0:0:
256,192,0,128,0,1:0:0:0:0:
256,192,0,128,0,1:0:0:0:0:
256,192,0,128,0,1:0:0:0:0:
256,192,0,128,0,1:0:0:0:0:
256,192,0,128,0,1:0:0:0:0:
256,192,0,128,0,1:0:0:0:0:
256,192,0,128,0,1:0:0:0:0:
256,192,0,128,0,1:0:0:0:0:
256,192,0,128,0,1:0:0:0:0:
256,192,0,128,0,1:0:0:0:0:
256,192,0,128,0,1:0:0:0:0:
256,192,0,128,0,1:0:0:0:0:
256,192,0,128,0,1:0:0:0:0:
256,192,0,128,0,1:0:0:0:0:
256,192,0,128,0,1:0:0:0:0:
256,192,0,128,0,1:0:0:0:0:
256,192,0,128,0,1:0:0:0:0:
256,192,0,128,0,1:0:0:0:0:
256,192,0,128,0,1:0:0:0:0:
256,192,0,128,0,1:0:0:0:0:
256,192,0,128,0,1:0:0:0:0:
256,192,0,128,0,1:0:0:0:0:
256,192,0,128,0,1:0:0:0:0:
256,192,0,128,0,1:0:0:0:0:
256,192,0,128,0,1:0:0:0:0:
256,192,0,128,0,1:0:0:0:0:
256,192,0,128,0,1:0:0:0:0:
256,192,0,128,0,1:0:0:0:0:
256,192,0,128,0,1:0:0:0:0:
256,192,0,128,0,1:0:0:0:0:
256,192,0,128,0,1:0:0:0:0:
256,192,0,128,0,1:0:0:0:0:
256,192,0,128,0,1:0:0:0:0:
256,192,0,128,0,1:0:0:0:0:
256,192,0,128,0,1:0:0:0:0:
256,192,0,128,0,1:0:0:0:0:
256,192,0,128,0,1:0:0:0:0:
256,192,0,128,0,1:0:0:0:0:
256,192,0,128,0,1:0:0:0:0:
256,192,0,128,0,1:0:0:0:0:
256,192,0,128,0,1:0:0:0:0:
256,192,0,128,0,1:0:0:0:0:
256,192,0,128,0,1:0:0:0:0:
256,192,0,128,0,1:0:0:0:0:
256,192,0,128,0,1:0:0:0:0:
256,192,0,128,0,1:0:0:0:0:
256,192,0,128,0,1:0:0:0:0:
256,192,0,128,0,1:0:0:0:0:
256,192,0,128,0,1:0:0:0:0:
256,192,0,128,0,1:0:0:0:0:
256,192,0,128,0,1:0:0:0:0:
256,192,0,128,0,1:0:0:0:0:
256,192,0,128,0,1:0:0:0:0:
256,192,0,128,0,1:0:0:0:0:
256,192,0,128,0,1:0:0:0:0:
256,192,0,128,0,1:0:0:0:0:
256,192,0,128,0,1:0:0:0:0:
256,192,0,128,0,1:0:0:0:0:
256,192,0,128,0,1:0:0:0:0:
256,192,0,128,0,1:0:0:0:0:
256,192,0,128,0,1:0:0:0:0:
256,192,0,128,0,1:0:0:0:0:
256,192,0,128,0,1:0:0:0:0:
256,192,0,128,0,1:0:0:0:0:
256,192,0,128,0,1:0:0:0:0:
256,192,0,128,0,1:0:0:0:0:
256,192,0,128,0,1:0:0:0:0:
256,192,0,128,0,1:0:0:0:0:
256,192,0,128,0,1:0:0:0:0:
256,192,0,128,0,1:0:0:0:0:
256,192,0,128,0,1:0:0:0:0:
256,192,0,128,0,1:0:0:0:0:
256,192,0,128,0,1:0:0:0:0:
256,192,0,128,0,1:0:0:0:0:
256,192,0,128,0,1:0:0:0:0:
256,192,0,128,0,1:0:0:0:0:
256,192,0,128,0,1:0:0:0:0:
256,192,0,128,0,1:0:0:0:0:
256,192,0,128,0,1:0:0:0:0:
256,192,0,128,0,1:0:0:0:0:
256,192,0,128,0,1:0:0:0:0:
256,192,0,128,0,1:0:0:0:0:
256,192,0,128,0,1:0:0:0:0:
256,192,0,128,0,1:0:0:0:0:
256,192,0,128,0,1:0:0:0:0:
256,192,0,128,0,1:0:0:0:0:
256,192,0,128,0,1:0:0:0:0:
256,192,0,128,0,1:0:0:0:0:
256,192,0,128,0,1:0:0:0:0:
256,192,0,128,0,1:0:0:0:0:
256,192,0,128,0,1:0:0:0:0:
256,192,0,128,0,1:0:0:0:0:
256,192,0,128,0,1:0:0:0:0:
256,192,0,128,0,1:0:0:0:0:
256,192,0,128,0,1:0:0:0:0:
256,192,0,128,0,1:0:0:0:0:
256,192,0,128,0,1:0:0:0:0:
256,192,0,128,0,1:0:0:0:0:
256,192,0,128,0,1:0:0:0:0:
256,192,0,128,0,1:0:0:0:0:
256,192,0,128,0,1:0:0:0:0:
256,192,0,128,0,1:0:0:0:0:
256,192,0,128,0,1:0:0:0:0:
256,192,0,128,0,1:0:0:0:0:
256,192,0,128,0,1:0:0:0:0:
256,192,0,128,0,1:0:0:0:0:
256,192,0,128,0,1:0:0:0:0:
256,192,0,128,0,1:0:0:0:0:
256,192,0,128,0,1:0:0:0:0:
256,192,0,128,0,1:0:0:0:0:
256,192,0,128,0,1:0:0:0:0:
256,192,0,128,0,1:0:0:0:0:
256,192,0,128,0,1:0:0:0:0:
256,192,0,128,0,1:0:0:0:0:
256,192,0,128,0,1:0:0:0:0:
256,192,0,128,0,1:0:0:0:0:
256,192,0,128,0,1:0:0:0:0:
256,192,0,128,0,1:0:0:0:0:
256,192,0,128,0,1:0:0:0:0:
256,192,0,128,0,1:0:0:0:0:
256,192,0,128,0,1:0:0:0:0:
256,192,0,128,0,1:0:0:0:0:
256,192,0,128,0,1:0:0:0:0:
256,192,0,128,0,1:0:0:0:0:
256,192,0,128,0,1:0:0:0:0:
256,192,0,128,0,1:0:0:0:0:
256,192,0,128,0,1:0:0:0:0:
256,192,0,128,0,1:0:0:0:0:
256,192,0,128,0,1:0:0:0:0:
256,192,0,128,0,1:0:0:0:0:
256,192,0,128,0,1:0:0:0:0:
256,192,0,128,0,1:0:0:0:0:
256,192,0,128,0,1:0:0:0:0:
256,192,0,128,0,1:0:0:0:0:
256,192,0,128,0,1:0:0:0:0:
256,192,0,128,0,1:0:0:0:0:
256,192,0,128,0,1:0:0:0:0:
256,192,0,128,0,1:0:0:0:0:
256,192,0,128,0,1:0:0:0:0:
256,192,0,128,0,1:0:0:0:0:
256,192,0,128,0,1:0:0:0:0:
256,192,0,128,0,1:0:0:0:0:
256,192,0,128,0,1:0:0:0:0:
256,192,0,128,0,1:0:0:0:0:
256,192,0,128,0,1:0:0:0:0:
256,192,0,128,0,1:0:0:0:0:
256,192,0,128,0,1:0:0:0:0:
256,192,0,128,0,1:0:0:0:0:
256,192,0,128,0,1:0:0:0:0:
256,192,0,128,0,1:0:0:0:0:
256,192,0,128,0,1:0:0:0:0:
256,192,0,128,0,1:0:0:0:0:
256,192,0,128,0,1:0:0:0:0:
256,192,0,128,0,1:0:0:0:0:
256,192,0,128,0,1:0:0:0:0:
256,192,0,128,0,1:0:0:0:0:
256,192,0,128,0,1:0:0:0:0:
256,192,0,128,0,1:0:0:0:0:
256,192,0,128,0,1:0:0:0:0:
256,192,0,128,0,1:0:0:0:0:
256,192,0,128,0,1:0:0:0:0:
256,192,0,128,0,1:0:0:0:0:
256,192,0,128,0,1:0:0:0:0:
256,192,0,128,0,1:0:0:0:0:
256,192,0,128,0,1:0:0:0:0:
256,192,0,128,0,1:0:0:0:0:
256,192,0,128,0,1:0:0:0:0:
256,192,0,128,0,1:0:0:0:0:
256,192,0,128,0,1:0:0:0:0:
256,192,0,128,0,1:0:0:0:0:
256,192,0,128,0,1:0:0:0:0:
256,192,0,128,0,1:0:0:0:0:
256,192,0,128,0,1:0:0:0:0:
256,192,0,128,0,1:0:0:0:0:
256,192,0,128,0,1:0:0:0:0:
256,192,0,128,0,1:0:0:0:0:
256,192,0,128,0,1:0:0:0:0:
256,192,0,128,0,1:0:0:0:0:
256,192,0,128,0,1:0:0:0:0:
256,192,0,128,0,1:0:0:0:0:
256,192,0,128,0,1:0:0:0:0:
256,192,0,128,0,1:0:0:0:0:
256,192,0,128,0,1:0:0:0:0:
256,192,0,128,0,1:0:0:0:0:
256,192,0,128,0,1:0:0:0:0:
256,192,0,128,0,1:0:0:0:0:
256,192,0,128,0,1:0:0:0:0:
256,192,0,128,0,1:0:0:0:0:
256,192,0,128,0,1:0:0:0:0:
256,192,0,128,0,1:0:0:0:0:
256,192,0,128,0,1:0:0:0:0:
256,192,0,128,0,1:0:0:0:0:
256,192,0,128,0,1:0:0:0:0:
256,192,0,128,0,1:0:0:0:0:
256,192,0,128,0,1:0:0:0:0:
256,192,0,128,0,1:0:0:0:0:
256,192,0,128,0,1:0:0:0:0:
256,192,0,128,0,1:0:0:0:0:
256,192,0,128,0,1:0:0:0:0:
256,192,0,128,0,1:0:0:0:0:
256,192,0,128,0,1:0:0:0:0:
256,192,0,128,0,1:0:0:0:0:
256,192,0,128,0,1:0:0:0:0:
256,192,0,128,0,1:0:0:0:0:
256,192,0,128,0,1:0:0:0:0:
256,192,0,128,0,1:0:0:0:0:
256,192,0,128,0,1:0:0:0:0:
256,192,0,128,0,1:0:0:0:0:
256,192,0,128,0,1:0:0:0:0:
256,192,0,128,0,1:0:0:0:0:
256,192,0,128,0,1:0:0:0:0:
256,192,0,128,0,1:0:0:0:0:
256,192,0,128,0,1:0:0:0:0:
256,192,0,128,0,1:0:0:0:0:
256,192,0,128,0,1:0:0:0:0:
256,192,0,128,0,1:0:0:0:0:
256,192,0,128,0,1:0:0:0:0:
256,192,0,128,0,1:0:0:0:0:
256,192,0,128,0,1:0:0:0:0:
256,192,0,128,0,1:0:0:0:0:
256,192,0,128,0,1:0:0:0:0:
256,192,0,128,0,1:0:0:0:0:
256,192,0,128,0,1:0:0:0:0:
256,192,0,128,0,1:0:0:0:0:
256,192,0,128,0,1:0:0:0:0:
256,192,0,128,0,1:0:0:0:0:
256,192,0,128,0,1:0:0:0:0:
256,192,0,128,0,1:0:0:0:0:
256,192,0,128,0,1:0:0:0:0:
256,192,0,128,0,1:0:0:0:0:
256,192,0,128,0,1:0:0:0:0:
256,192,0,128,0,1:0:0:0:0:
256,192,0,128,0,1:0:0:0:0:
256,192,0,128,0,1:0:0:0:0:
256,192,0,128,0,1:0:0:0:0:
256,192,0,128,0,1:0:0:0:0:
256,192,0,128,0,1:0:0:0:0:
256,192,0,128,0,1:0:0:0:0:
256,192,0,128,0,1:0:0:0:0:
256,192,0,128,0,1:0:0:0:0:
256,192,0,128,0,1:0:0:0:0:
256,192,0,128,0,1:0:0:0:0:
256,192,0,128,0,1:0:0:0:0:
256,192,0,128,0,1:0:0:0:0:
256,192,0,128,0,1:0:0:0:0:
256,192,0,128,0,1:0:0:0:0:
256,192,0,128,0,1:0:0:0:0:
256,192,0,128,0,1:0:0:0:0:
256,192,0,128,0,1:0:0:0:0:
256,192,0,128,0,1:0:0:0:0:
256,192,0,128,0,1:0:0:0:0:
256,192,0,128,0,1:0:0:0:0:
256,192,0,128,0,1:0:0:0:0:
256,192,0,128,0,1:0:0:0:0:
256,192,0,128,0,1:0:0:0:0:
256,192,0,128,0,1:0:0:0:0:
256,192,0,128,0,1:0:0:0:0:
256,192,0,128,0,1:0:0:0:0:
256,192,0,128,0,1:0:0:0:0:
256,192,0,128,0,1:0:0:0:0:
256,192,0,128,0,1:0:0:0:0:
256,192,0,128,0,1:0:0:0:0:
256,192,0,128,0,1:0:0:0:0:
256,192,0,128,0,1:0:0:0:0:
256,192,0,128,0,1:0:0:0:0:
256,192,0,128,0,1:0:0:0:0:
256,192,0,128,0,1:0:0:0:0:
256,192,0,128,0,1:0:0:0:0:
256,192,0,128,0,1:0:0:0:0:
256,192,0,128,0,1:0:0:0:0:
256,192,0,128,0,1:0:0:0:0:
256,192,0,128,0,1:0:0:0:0:
256,192,0,128,0,1:0:0:0:0:
256,192,0,128,0,1:0:0:0:0:
256,192,0,128,0,1:0:0:0:0:
256,192,0,128,0,1:0:0:0:0:
256,192,0,128,0,1:0:0:0:0:
256,192,0,128,0,1:0:0:0:0:
256,192,0,128,0,1:0:0:0:0:
256,192,0,128,0,1:0:0:0:0:
256,192,0,128,0,1:0:0:0:0:
256,192,0,128,0,1:0:0:0:0:
256,192,0,128,0,1:0:0:0:0:
256,192,0,128,0,1:0:0:0:0:
256,192,0,128,0,1:0:0:0:0:
256,192,0,128,0,1:0:0:0:0:
256,192,0,128,0,1:0:0:0:0:
256,192,0,128,0,1:0:0:0:0:
256,192,0,128,0,1:0:0:0:0:
256,192,0,128,0,1:0:0:0:0:
256,192,0,128,0,1:0:0:0:0:
256,192,0,128,0,1:0:0:0:0:
256,192,0,128,0,1:0:0:0:0:
256,192,0,128,0,1:0:0:0:0:
256,192,0,128,0,1:0:0:0:0:
256,192,0,128,0,1:0:0:0:0:
256,192,0,128,0,1:0:0:0:0:
256,192,0,128,0,1:0:0:0:0:
256,192,0,128,0,1:0:0:0:0:
256,192,0,128,0,1:0:0:0:0:
256,192,0,128,0,1:0:0:0:0:
256,192,0,128,0,1:0:0:0:0:
256,192,0,128,0,1:0:0:0:0:
256,192,0,128,0,1:0:0:0:0:
256,192,0,128,0,1:0:0:0:0:
256,192,0,128,0,1:0:0:0:0:
256,192,0,128,0,1:0:0:0:0:
256,192,0,128,0,1:0:0:0:0:
256,192,0,128,0,1:0:0:0:0:
256,192,0,128,0,1:0:0:0:0:
256,192,0,128,0,1:0:0:0:0:
256,192,0,128,0,1:0:0:0:0:
256,192,0,128,0,1:0:0:0:0:
256,192,0,128,0,1:0:0:0:0:
256,192,0,128,0,1:0:0:0:0:
256,192,0,128,0,1:0:0:0:0:
256,192,0,128,0,1:0:0:0:0:
256,192,0,128,0,1:0:0:0:0:
256,192,0,128,0,1:0:0:0:0:
256,192,0,128,0,1:0:0:0:0:
256,192,0,128,0,1:0:0:0:0:
256,192,0,128,0,1:0:0:0:0:
256,192,0,128,0,1:0:0:0:0:
256,192,0,128,0,1:0:0:0:0:
256,192,0,128,0,1:0:0:0:0:
256,192,0,128,0,1:0:0:0:0:
256,192,0,128,0,1:0:0:0:0:
256,192,0,128,0,1:0:0:0:0:
256,192,0,128,0,1:0:0:0:0:
256,192,0,128,0,1:0:0:0:0:
256,192,0,128,0,1:0:0:0:0:
256,192,0,128,0,1:0:0:0:0:
256,192,0,128,0,1:0:0:0:0:
256,192,0,128,0,1:0:0:0:0:
256,192,0,128,0,1:0:0:0:0:
256,192,0,128,0,1:0:0:0:0:
256,192,0,128,0,1:0:0:0:0:
256,192,0,128,0,1:0:0:0:0:
256,192,0,128,0,1:0:0:0:0:
256,192,0,128,0,1:0:0:0:0:
256,192,0,128,0,1:0:0:0:0:
256,192,0,128,0,1:0:0:0:0:
256,192,0,128,0,1:0:0:0:0:
256,192,0,128,0,1:0:0:0:0:
256,192,0,128,0,1:0:0:0:0:
256,192,0,128,0,1:0:0:0:0:
256,192,0,128,0,1:0:0:0:0:
256,192,0,128,0,1:0:0:0:0:
256,192,0,128,0,1:0:0:0:0:
256,192,0,128,0,1:0:0:0:0:
256,192,0,128,0,1:0:0:0:0:
256,192,0,128,0,1:0:0:0:0:
256,192,0,128,0,1:0:0:0:0:
256,192,0,128,0,1:0:0:0:0:
256,192,0,128,0,1:0:0:0:0:
256,192,0,128,0,1:0:0:0:0:
256,192,0,128,0,1:0:0:0:0:
256,192,0,128,0,1:0:0:0:0:
256,192,0,128,0,1:0:0:0:0:
256,192,0,128,0,1:0:0:0:0:
256,192,0,128,0,1:0:0:0:0:
256,192,0,128,0,1:0:0:0:0:
256,192,0,128,0,1:0:0:0:0:
256,192,0,128,0,1:0:0:0:0:
256,192,0,128,0,1:0:0:0:0:
256,192,0,128,0,1:0:0:0:0:
256,192,0,128,0,1:0:0:0:0:
256,192,0,128,0,1:0:0:0:0:
256,192,0,128,0,1:0:0:0:0:
256,192,0,128,0,1:0:0:0:0:
256,192,0,128,0,1:0:0:0:0:
256,192,0,128,0,1:0:0:0:0:
256,192,0,128,0,1:0:0:0:0:
256,192,0,128,0,1:0:0:0:0:
256,192,0,128,0,1:0:0:0:0:
256,192,0,128,0,1:0:0:0:0:
256,192,0,128,0,1:0:0:0:0:
256,192,0,128,0,1:0:0:0:0:
256,192,0,128,0,1:0:0:0:0:
256,192,0,128,0,1:0:0:0:0:
256,192,0,128,0,1:0:0:0:0:
256,192,0,128,0,1:0:0:0:0:
256,192,0,128,0,1:0:0:0:0:
256,192,0,128,0,1:0:0:0:0:
256,192,0,128,0,1:0:0:0:0:
256,192,0,128,0,1:0:0:0:0:
256,192,0,128,0,1:0:0:0:0:
256,192,0,128,0,1:0:0:0:0:
256,192,0,128,0,1:0:0:0:0:
256,192,0,128,0,1:0:0:0:0:
256,192,0,128,0,1:0:0:0:0:
256,192,0,128,0,1:0:0:0:0:
256,192,0,128,0,1:0:0:0:0:
256,192,0,128,0,1:0:0:0:0:
256,192,0,128,0,1:0:0:0:0:
256,192,0,128,0,1:0:0:0:0:
256,192,0,128,0,1:0:0:0:0:
256,192,0,128,0,1:0:0:0:0:
256,192,0,128,0,1:0:0:0:0:
256,192,0,128,0,1:0:0:0:0:
256,192,0,128,0,1:0:0:0:0:
256,192,0,128,0,1:0:0:0:0:
256,192,0,128,0,1:0:0:0:0:
256,192,0,128,0,1:0:0:0:0:
256,192,0,128,0,1:0:0:0:0:
256,192,0,128,0,1:0:0:0:0:
256,192,0,128,0,1:0:0:0:0:
256,192,0,128,0,1:0:0:0:0:
256,192,0,128,0,1:0:0:0:0:
256,192,0,128,0,1:0:0:0:0:
256,192,0,128,0,1:0:0:0:0:
256,192,0,128,0,1:0:0:0:0:
256,192,0,128,0,1:0:0:0:0:
256,192,0,128,0,1:0:0:0:0:
256,192,0,128,0,1:0:0:0:0:
256,192,0,128,0,1:0:0:0:0:
256,192,0,128,0,1:0:0:0:0:
256,192,0,128,0,1:0:0:0:0:
256,192,0,128,0,1:0:0:0:0:
256,192,0,128,0,1:0:0:0:0:
256,192,0,128,0,1:0:0:0:0:
256,192,0,128,0,1:0:0:0:0:
256,192,0,128,0,1:0:0:0:0:
256,192,0,128,0,1:0:0:0:0:
256,192,0,128,0,1:0:0:0:0:
256,192,0,128,0,1:0:0:0:0:
256,192,0,128,0,1:0:0:0:0:
256,192,0,128,0,1:0:0:0:0:
256,192,0,128,0,1:0:0:0:0:
256,192,0,128,0,1:0:0:0:0:
256,192,0,128,0,1:0:0:0:0:
256,192,0,128,0,1:0:0:0:0:
256,192,0,128,0,1:0:0:0:0:
256,192,0,128,0,1:0:0:0:0:
256,192,0,128,0,1:0:0:0:0:
256,192,0,128,0,1:0:0:0:0:
256,192,0,128,0,1:0:0:0:0:
256,192,0,128,0,1:0:0:0:0:
256,192,0,128,0,1:0:0:0:0:
256,192,0,128,0,1:0:0:0:0:
256,192,0,128,0,1:0:0:0:0:
256,192,0,128,0,1:0:0:0:0:
256,192,0,128,0,1:0:0:0:0:
256,192,0,128,0,1:0:0:0:0:
256,192,0,128,0,1:0:0:0:0:
256,192,0,128,0,1:0:0:0:0:
256,192,0,128,0,1:0:0:0:0:
256,192,0,128,0,1:0:0:0:0:
256,192,0,128,0,1:0:0:0:0:
256,192,0,128,0,1:0:0:0:0:
256,192,0,128,0,1:0:0:0:0:
256,192,0,128,0,1:0:0:0:0:
256,192,0,128,0,1:0:0:0:0:
256,192,0,128,0,1:0:0:0:0:
256,192,0,128,0,1:0:0:0:0:
256,192,0,128,0,1:0:0:0:0:
256,192,0,128,0,1:0:0:0:0:
256,192,0,128,0,1:0:0:0:0:
256,192,0,128,0,1:0:0:0:0:
256,192,0,128,0,1:0:0:0:0:
256,192,0,128,0,1:0:0:0:0:
256,192,0,128,0,1:0:0:0:0:
256,192,0,128,0,1:0:0:0:0:
256,192,0,128,0,1:0:0:0:0:
256,192,0,128,0,1:0:0:0:0:
256,192,0,128,0,1:0:0:0:0:
256,192,0,128,0,1:0:0:0:0:
256,192,0,128,0,1:0:0:0:0:
256,192,0,128,0,1:0:0:0:0:
256,192,0,128,0,1:0:0:0:0:
256,192,0,128,0,1:0:0:0:0:
256,192,0,128,0,1:0:0:0:0:
256,192,0,128,0,1:0:0:0:0:
256,192,0,128,0,1:0:0:0:0:
256,192,0,128,0,1:0:0:0:0:
256,192,0,128,0,1:0:0:0:0:
256,192,0,128,0,1:0:0:0:0:
256,192,0,128,0,1:0:0:0:0:
256,192,0,128,0,1:0:0:0:0:
256,192,0,128,0,1:0:0:0:0:
256,192,0,128,0,1:0:0:0:0:
256,192,0,128,0,1:0:0:0:0:
256,192,0,128,0,1:0:0:0:0:
256,192,0,128,0,1:0:0:0:0:
256,192,0,128,0,1:0:0:0:0:
256,192,0,128,0,1:0:0:0:0:
256,192,0,128,0,1:0:0:0:0:
256,192,0,128,0,1:0:0:0:0:
256,192,0,128,0,1:0:0:0:0:
256,192,0,128,0,1:0:0:0:0:
256,192,0,128,0,1:0:0:0:0:
256,192,0,128,0,1:0:0:0:0:
256,192,0,128,0,1:0:0:0:0:
256,192,0,128,0,1:0:0:0:0:
256,192,0,128,0,1:0:0:0:0:
256,192,0,128,0,1:0:0:0:0:
256,192,0,128,0,1:0:0:0:0:
256,192,0,128,0,1:0:0:0:0:
256,192,0,128,0,1:0:0:0:0:
256,192,0,128,0,1:0:0:0:0:
256,192,0,128,0,1:0:0:0:0:
256,192,0,128,0,1:0:0:0:0:
256,192,0,128,0,1:0:0:0:0:
256,192,0,128,0,1:0:0:0:0:
256,192,0,128,0,1:0:0:0:0:
256,192,0,128,0,1:0:0:0:0:
256,192,0,128,0,1:0:0:0:0:
256,192,0,128,0,1:0:0:0:0:
256,192,0,128,0,1:0:0:0:0:
256,192,0,128,0,1:0:0:0:0:
256,192,0,128,0,1:0:0:0:0:
256,192,0,128,0,1:0:0:0:0:
256,192,0,128,0,1:0:0:0:0:
256,192,0,128,0,1:0:0:0:0:
256,192,0,128,0,1:0:0:0:0:
256,192,0,128,0,1:0:0:0:0:
256,192,0,128,0,1:0:0:0:0:
256,192,0,128,0,1:0:0:0:0:
256,192,0,128,0,1:0:0:0:0:
256,192,0,128,0,1:0:0:0:0:
256,192,0,128,0,1:0:0:0:0:
256,192,0,128,0,1:0:0:0:0:
256,192,0,128,0,1:0:0:0:0:
256,192,0,128,0,1:0:0:0:0:
256,192,0,128,0,1:0:0:0:0:
256,192,0,128,0,1:0:0:0:0:
256,192,0,128,0,1:0:0:0:0:
256,192,0,128,0,1:0:0:0:0:
256,192,0,128,0,1:0:0:0:0:
256,192,0,128,0,1:0:0:0:0:
256,192,0,128,0,1:0:0:0:0:
256,192,0,128,0,1:0:0:0:0:
256,192,0,128,0,1:0:0:0:0:
256,192,0,128,0,1:0:0:0:0:
256,192,0,128,0,1:0:0:0:0:
256,192,0,128,0,1:0:0:0:0:
256,192,0,128,0,1:0:0:0:0:
256,192,0,128,0,1:0:0:0:0:
256,192,0,128,0,1:0:0:0:0:
256,192,0,128,0,1:0:0:0:0:
256,192,0,128,0,1:0:0:0:0:
256,192,0,128,0,1:0:0:0:0:
256,192,0,128,0,1:0:0:0:0:
256,192,0,128,0,1:0:0:0:0:
256,192,0,128,0,1:0:0:0:0:
256,192,0,128,0,1:0:0:0:0:
256,192,0,128,0,1:0:0:0:0:
256,192,0,128,0,1:0:0:0:0:
256,192,0,128,0,1:0:0:0:0:
256,192,0,128,0,1:0:0:0:0:
256,192,0,128,0,1:0:0:0:0:
256,192,0,128,0,1:0:0:0:0:
256,192,0,128,0,1:0:0:0:0:
256,192,0,128,0,1:0:0:0:0:
256,192,0,128,0,1:0:0:0:0:
256,192,0,128,0,1:0:0:0:0:
256,192,0,128,0,1:0:0:0:0:
256,192,0,128,0,1:0:0:0:0:
256,192,0,128,0,1:0:0:0:0:
256,192,0,128,0,1:0:0:0:0:
256,192,0,128,0,1:0:0:0:0:
256,192,0,128,0,1:0:0:0:0:
256,192,0,128,0,1:0:0:0:0:
256,192,0,128,0,1:0:0:0:0:
256,192,0,128,0,1:0:0:0:0:
256,192,0,128,0,1:0:0:0:0:
256,192,0,128,0,1:0:0:0:0:
256,192,0,128,0,1:0:0:0:0:
256,192,0,128,0,1:0:0:0:0:
256,192,0,128,0,1:0:0:0:0:
256,192,0,128,0,1:0:0:0:0:
256,192,0,128,0,1:0:0:0:0:
256,192,0,128,0,1:0:0:0:0:
256,192,0,128,0,1:0:0:0:0:
256,192,0,128,0,1:0:0:0:0:
256,192,0,128,0,1:0:0:0:0:
256,192,0,128,0,1:0:0:0:0:
256,192,0,128,0,1:0:0:0:0:
256,192,0,128,0,1:0:0:0:0:
256,192,0,128,0,1:0:0:0:0:
256,192,0,128,0,1:0:0:0:0:
256,192,0,128,0,1:0:0:0:0:
256,192,0,128,0,1:0:0:0:0:
256,192,0,128,0,1:0:0:0:0:
256,192,0,128,0,1:0:0:0:0:
256,192,0,128,0,1:0:0:0:0:
256,192,0,128,0,1:0:0:0:0:
256,192,0,128,0,1:0:0:0:0:
256,192,0,128,0,1:0:0:0:0:
256,192,0,128,0,1:0:0:0:0:
256,192,0,128,0,1:0:0:0:0:
256,192,0,128,0,1:0:0:0:0:
256,192,0,128,0,1:0:0:0:0:
256,192,0,128,0,1:0:0:0:0:
256,192,0,128,0,1:0:0:0:0:
256,192,0,128,0,1:0:0:0:0:
256,192,0,128,0,1:0:0:0:0:
256,192,0,128,0,1:0:0:0:0:
256,192,0,128,0,1:0:0:0:0:
256,192,0,128,0,1:0:0:0:0:
256,192,0,128,0,1:0:0:0:0:
256,192,0,128,0,1:0:0:0:0:
256,192,0,128,0,1:0:0:0:0:
256,192,0,128,0,1:0:0:0:0:
256,192,0,128,0,1:0:0:0:0:
256,192,0,128,0,1:0:0:0:0:
256,192,0,128,0,1:0:0:0:0:
256,192,0,128,0,1:0:0:0:0:
256,192,0,128,0,1:0:0:0:0:
256,192,0,128,0,1:0:0:0:0:
256,192,0,128,0,1:0:0:0:0:
256,192,0,128,0,1:0:0:0:0:
256,192,0,128,0,1:0:0:0:0:
256,192,0,128,0,1:0:0:0:0:
256,192,0,128,0,1:0:0:0:0:
256,192,0,128,0,1:0:0:0:0:
256,192,0,128,0,1:0:0:0:0:
256,192,0,128,0,1:0:0:0:0:
256,192,0,128,0,1:0:0:0:0:
256,192,0,128,0,1:0:0:0:0:
256,192,0,128,0,1:0:0:0:0:
256,192,0,128,0,1:0:0:0:0:
256,192,0,128,0,1:0:0:0:0:
256,192,0,128,0,1:0:0:0:0:
256,192,0,128,0,1:0:0:0:0:
256,192,0,128,0,1:0:0:0:0:
256,192,0,128,0,1:0:0:0:0:
256,192,0,128,0,1:0:0:0:0:
256,192,0,128,0,1:0:0:0:0:
256,192,0,128,0,1:0:0:0:0:
256,192,0,128,0,1:0:0:0:0:
256,192,0,128,0,1:0:0:0:0:
256,192,0,128,0,1:0:0:0:0:
256,192,0,128,0,1:0:0:0:0:
256,192,0,128,0,1:0:0:0:0:
256,192,0,128,0,1:0:0:0:0:
256,192,0,128,0,1:0:0:0:0:
256,192,0,128,0,1:0:0:0:0:
256,192,0,128,0,1:0:0:0:0:
256,192,0,128,0,1:0:0:0:0:
256,192,0,128,0,1:0:0:0:0:
256,192,0,128,0,1:0:0:0:0:
256,192,0,128,0,1:0:0:0:0:
256,192,0,128,0,1:0:0:0:0:
256,192,0,128,0,1:0:0:0:0:
256,192,0,128,0,1:0:0:0:0:
256,192,0,128,0,1:0:0:0:0:
256,192,0,128,0,1:0:0:0:0:
256,192,0,128,0,1:0:0:0:0:
256,192,0,128,0,1:0:0:0:0:
256,192,0,128,0,1:0:0:0:0:
256,192,0,128,0,1:0:0:0:0:
256,192,0,128,0,1:0:0:0:0:
256,192,0,128,0,1:0:0:0:0:
256,192,0,128,0,1:0:0:0:0:
256,192,0,128,0,1:0:0:0:0:
256,192,0,128,0,1:0:0:0:0:
256,192,0,128,0,1:0:0:0:0:
256,192,0,128,0,1:0:0:0:0:
256,192,0,128,0,1:0:0:0:0:
256,192,0,128,0,1:0:0:0:0:
256,192,0,128,0,1:0:0:0:0:
256,192,0,128,0,1:0:0:0:0:
256,192,0,128,0,1:0:0:0:0:
256,192,0,128,0,1:0:0:0:0:
256,192,0,128,0,1:0:0:0:0:
256,192,0,128,0,1:0:0:0:0:
256,192,0,128,0,1:0:0:0:0:
256,192,0,128,0,1:0:0:0:0:
256,192,0,128,0,1:0:0:0:0:
256,192,0,128,0,1:0:0:0:0:
256,192,0,128,0,1:0:0:0:0:
256,192,0,128,0,1:0:0:0:0:
256,192,0,128,0,1:0:0:0:0:
256,192,0,128,0,1:0:0:0:0:
256,192,0,128,0,1:0:0:0:0:
256,192,0,128,0,1:0:0:0:0:
256,192,0,128,0,1:0:0:0:0:
256,192,0,128,0,1:0:0:0:0:
256,192,0,128,0,1:0:0:0:0:
256,192,0,128,0,1:0:0:0:0:
256,192,0,128,0,1:0:0:0:0:
256,192,0,128,0,1:0:0:0:0:
256,192,0,128,0,1:0:0:0:0:
256,192,0,128,0,1:0:0:0:0:
256,192,0,128,0,1:0:0:0:0:
256,192,0,128,0,1:0:0:0:0:
256,192,0,128,0,1:0:0:0:0:
256,192,0,128,0,1:0:0:0:0:
256,192,0,128,0,1:0:0:0:0:
256,192,0,128,0,1:0:0:0:0:
256,192,0,128,0,1:0:0:0:0:
256,192,0,128,0,1:0:0:0:0:
256,192,0,128,0,1:0:0:0:0:
256,192,0,128,0,1:0:0:0:0:
256,192,0,128,0,1:0:0:0:0:
256,192,0,128,0,1:0:0:0:0:
256,192,0,128,0,1:0:0:0:0:
256,192,0,128,0,1:0:0:0:0:
256,192,0,128,0,1:0:0:0:0:
256,192,0,128,0,1:0:0:0:0:
256,192,0,128,0,1:0:0:0:0:
256,192,0,128,0,1:0:0:0:0:
256,192,0,128,0,1:0:0:0:0:
256,192,0,128,0,1:0:0:0:0:
256,192,0,128,0,1:0:0:0:0:
256,192,0,128,0,1:0:0:0:0:
256,192,0,128,0,1:0:0:0:0:
256,192,0,128,0,1:0:0:0:0:
256,192,0,128,0,1:0:0:0:0:
256,192,0,128,0,1:0:0:0:0:
256,192,0,128,0,1:0:0:0:0:
256,192,0,128,0,1:0:0:0:0:
256,192,0,128,0,1:0:0:0:0:
256,192,0,128,0,1:0:0:0:0:
256,192,0,128,0,1:0:0:0:0:
256,192,0,128,0,1:0:0:0:0:
256,192,0,128,0,1:0:0:0:0:
256,192,0,128,0,1:0:0:0:0:
256,192,0,128,0,1:0:0:0:0:
256,192,0,128,0,1:0:0:0:0:
256,192,0,128,0,1:0:0:0:0:
256,192,0,128,0,1:0:0:0:0:
256,192,0,128,0,1:0:0:0:0:
256,192,0,128,0,1:0:0:0:0:
256,192,0,128,0,1:0:0:0:0:
256,192,0,128,0,1:0:0:0:0:
256,192,0,128,0,1:0:0:0:0:
256,192,0,128,0,1:0:0:0:0:
256,192,0,128,0,1:0:0:0:0:
256,192,0,128,0,1:0:0:0:0:
256,192,0,128,0,1:0:0:0:0:
256,192,0,128,0,1:0:0:0:0:
256,192,0,128,0,1:0:0:0:0:
256,192,0,128,0,1:0:0:0:0:
256,192,0,128,0,1:0:0:0:0:
256,192,0,128,0,1:0:0:0:0:
256,192,0,128,0,1:0:0:0:0:
256,192,0,128,0,1:0:0:0:0:
256,192,0,128,0,1:0:0:0:0:
256,192,0,128,0,1:0:0:0:0:
256,192,0,128,0,1:0:0:0:0:
256,192,0,128,0,1:0:0:0:0:
256,192,0,128,0,1:0:0:0:0:
256,192,0,128,0,1:0:0:0:0:
256,192,0,128,0,1:0:0:0:0:
256,192,0,128,0,1:0:0:0:0:
256,192,0,128,0,1:0:0:0:0:
256,192,0,128,0,1:0:0:0:0:
256,192,0,128,0,1:0:0:0:0:
256,192,0,128,0,1:0:0:0:0:
256,192,0,128,0,1:0:0:0:0:
256,192,0,128,0,1:0:0:0:0:
256,192,0,128,0,1:0:0:0:0:
256,192,0,128,0,1:0:0:0:0:
256,192,0,128,0,1:0:0:0:0:
256,192,0,128,0,1:0:0:0:0:
256,192,0,128,0,1:0:0:0:0:
256,192,0,128,0,1:0:0:0:0:
256,192,0,128,0,1:0:0:0:0:
256,192,0,128,0,1:0:0:0:0:
256,192,0,128,0,1:0:0:0:0:
256,192,0,128,0,1:0:0:0:0:
256,192,0,128,0,1:0:0:0:0:
256,192,0,128,0,1:0:0:0:0:
256,192,0,128,0,1:0:0:0:0:
256,192,0,128,0,1:0:0:0:0:
256,192,0,128,0,1:0:0:0:0:
256,192,0,128,0,1:0:0:0:0:
256,192,0,128,0,1:0:0:0:0:
256,192,0,128,0,1:0:0:0:0:
256,192,0,128,0,1:0:0:0:0:
256,192,0,128,0,1:0:0:0:0:
256,192,0,128,0,1:0:0:0:0:
256,192,0,128,0,1:0:0:0:0:
256,192,0,128,0,1:0:0:0:0:
256,192,0,128,0,1:0:0:0:0:
256,192,0,128,0,1:0:0:0:0:
256,192,0,128,0,1:0:0:0:0:
256,192,0,128,0,1:0:0:0:0:
256,192,0,128,0,1:0:0:0:0:
256,192,0,128,0,1:0:0:0:0:
256,192,0,128,0,1:0:0:0:0:
256,192,0,128,0,1:0:0:0:0:
256,192,0,128,0,1:0:0:0:0:
256,192,0,128,0,1:0:0:0:0:
256,192,0,128,0,1:0:0:0:0:
256,192,0,128,0,1:0:0:0:0:
256,192,0,128,0,1:0:0:0:0:
256,192,0,128,0,1:0:0:0:0:
256,192,0,128,0,1:0:0:0:0:
256,192,0,128,0,1:0:0:0:0:
256,192,0,128,0,1:0:0:0:0:
256,192,0,128,0,1:0:0:0:0:
256,192,0,128,0,1:0:0:0:0:
256,192,0,128,0,1:0:0:0:0:
256,192,0,128,0,1:0:0:0:0:
256,192,0,128,0,1:0:0:0:0:
256,192,0,128,0,1:0:0:0:0:
256,192,0,128,0,1:0:0:0:0:
256,192,0,128,0,1:0:0:0:0:
256,192,0,128,0,1:0:0:0:0:
256,192,0,128,0,1:0:0:0:0:
256,192,0,128,0,1:0:0:0:0:
256,192,0,128,0,1:0:0:0:0:
256,192,0,128,0,1:0:0:0:0:
256,192,0,128,0,1:0:0:0:0:
256,192,0,128,0,1:0:0:0:0:
256,192,0,128,0,1:0:0:0:0:
256,192,0,128,0,1:0:0:0:0:
256,192,0,128,0,1:0:0:0:0:
256,192,0,128,0,1:0:0:0:0:
256,192,0,128,0,1:0:0:0:0:
256,192,0,128,0,1:0:0:0:0:
256,192,0,128,0,1:0:0:0:0:
256,192,0,128,0,1:0:0:0:0:
256,192,0,128,0,1:0:0:0:0:
256,192,0,128,0,1:0:0:0:0:
256,192,0,128,0,1:0:0:0:0:
256,192,0,128,0,1:0:0:0:0:
256,192,0,128,0,1:0:0:0:0:
256,192,0,128,0,1:0:0:0:0:
256,192,0,128,0,1:0:0:0:0:
256,192,0,128,0,1:0:0:0:0:
256,192,0,128,0,1:0:0:0:0:
256,192,0,128,0,1:0:0:0:0:
256,192,0,128,0,1:0:0:0:0:
256,192,0,128,0,1:0:0:0:0:
256,192,0,128,0,1:0:0:0:0:
256,192,0,128,0,1:0:0:0:0:
256,192,0,128,0,1:0:0:0:0:
256,192,0,128,0,1:0:0:0:0:
256,192,0,128,0,1:0:0:0:0:
256,192,0,128,0,1:0:0:0:0:
256,192,0,128,0,1:0:0:0:0:
256,192,0,128,0,1:0:0:0:0:
256,192,0,128,0,1:0:0:0:0:
256,192,0,128,0,1:0:0:0:0:
256,192,0,128,0,1:0:0:0:0:
256,192,0,128,0,1:0:0:0:0:
256,192,0,128,0,1:0:0:0:0:
256,192,0,128,0,1:0:0:0:0:
256,192,0,128,0,1:0:0:0:0:
256,192,0,128,0,1:0:0:0:0:
256,192,0,128,0,1:0:0:0:0:
256,192,0,128,0,1:0:0:0:0:
256,192,0,128,0,1:0:0:0:0:
256,192,0,128,0,1:0:0:0:0:
256,192,0,128,0,1:0:0:0:0:
256,192,0,128,0,1:0:0:0:0:
256,192,0,128,0,1:0:0:0:0:
256,192,0,128,0,1:0:0:0:0:
256,192,0,128,0,1:0:0:0:0:
256,192,0,128,0,1:0:0:0:0:
256,192,0,128,0,1:0:0:0:0:
256,192,0,128,0,1:0:0:0:0:
256,192,0,128,0,1:0:0:0:0:
256,192,0,128,0,1:0:0:0:0:
256,192,0,128,0,1:0:0:0:0:
256,192,0,128,0,1:0:0:0:0:
256,192,0,128,0,1:0:0:0:0:
256,192,0,128,0,1:0:0:0:0:
256,192,0,128,0,1:0:0:0:0:
256,192,0,128,0,1:0:0:0:0:
256,192,0,128,0,1:0:0:0:0:
256,192,0,128,0,1:0:0:0:0:
256,192,0,128,0,1:0:0:0:0:
256,192,0,128,0,1:0:0:0:0:
256,192,0,128,0,1:0:0:0:0:
256,192,0,128,0,1:0:0:0:0:
256,192,0,128,0,1:0:0:0:0:
256,192,0,128,0,1:0:0:0:0:
256,192,0,128,0,1:0:0:0:0:
256,192,0,128,0,1:0:0:0:0:
256,192,0,128,0,1:0:0:0:0:
256,192,0,128,0,1:0:0:0:0:
256,192,0,128,0,1:0:0:0:0:
256,192,0,128,0,1:0:0:0:0:
256,192,0,128,0,1:0:0:0:0:
256,192,0,128,0,1:0:0:0:0:
256,192,0,128,0,1:0:0:0:0:
256,192,0,128,0,1:0:0:0:0:
256,192,0,128,0,1:0:0:0:0:
256,192,0,128,0,1:0:0:0:0:
256,192,0,128,0,1:0:0:0:0:
256,192,0,128,0,1:0:0:0:0:
256,192,0,128,0,1:0:0:0:0:
256,192,0,128,0,1:0:0:0:0:
256,192,0,128,0,1:0:0:0:0:
256,192,0,128,0,1:0:0:0:0:
256,192,0,128,0,1:0:0:0:0:
256,192,0,128,0,1:0:0:0:0:
256,192,0,128,0,1:0:0:0:0:
256,192,0,128,0,1:0:0:0:0:
256,192,0,128,0,1:0:0:0:0:
256,192,0,128,0,1:0:0:0:0:
256,192,0,128,0,1:0:0:0:0:
256,192,0,128,0,1:0:0:0:0:
256,192,0,128,0,1:0:0:0:0:
256,192,0,128,0,1:0:0:0:0:
256,192,0,128,0,1:0:0:0:0:
256,192,0,128,0,1:0:0:0:0:
256,192,0,128,0,1:0:0:0:0:
256,192,0,128,0,1:0:0:0:0:
256,192,0,128,0,1:0:0:0:0:
256,192,0,128,0,1:0:0:0:0:
256,192,0,128,0,1:0:0:0:0:
256,192,0,128,0,1:0:0:0:0:
256,192,0,128,0,1:0:0:0:0:
256,192,0,128,0,1:0:0:0:0:
256,192,0,128,0,1:0:0:0:0:
256,192,0,128,0,1:0:0:0:0:
256,192,0,128,0,1:0:0:0:0:
256,192,0,128,0,1:0:0:0:0:
256,192,0,128,0,1:0:0:0:0:
256,192,0,128,0,1:0:0:0:0:
256,192,0,128,0,1:0:0:0:0:
256,192,0,128,0,1:0:0:0:0:
256,192,0,128,0,1:0:0:0:0:
256,192,0,128,0,1:0:0:0:0:
256,192,0,128,0,1:0:0:0:0:
256,192,0,128,0,1:0:0:0:0:
256,192,0,128,0,1:0:0:0:0:
256,192,0,128,0,1:0:0:0:0:
256,192,0,128,0,1:0:0:0:0:
256,192,0,128,0,1:0:0:0:0:
256,192,0,128,0,1:0:0:0:0:
256,192,0,128,0,1:0:0:0:0:
256,192,0,128,0,1:0:0:0:0:
256,192,0,128,0,1:0:0:0:0:
256,192,0,128,0,1:0:0:0:0:
256,192,0,128,0,1:0:0:0:0:
256,192,0,128,0,1:0:0:0:0:
256,192,0,128,0,1:0:0:0:0:
256,192,0,128,0,1:0:0:0:0:
256,192,0,128,0,1:0:0:0:0:
256,192,0,128,0,1:0:0:0:0:
256,192,0,128,0,1:0:0:0:0:
256,192,0,128,0,1:0:0:0:0:
256,192,0,128,0,1:0:0:0:0:
256,192,0,128,0,1:0:0:0:0:
256,192,0,128,0,1:0:0:0:0:
256,192,0,128,0,1:0:0:0:0:
256,192,0,128,0,1:0:0:0:0:
256,192,0,128,0,1:0:0:0:0:
256,192,0,128,0,1:0:0:0:0:
256,192,0,128,0,1:0:0:0:0:
256,192,0,128,0,1:0:0:0:0:
256,192,0,128,0,1:0:0:0:0:
256,192,0,128,0,1:0:0:0:0:
256,192,0,128,0,1:0:0:0:0:
256,192,0,128,0,1:0:0:0:0:
256,192,0,128,0,1:0:0:0:0:
256,192,0,128,0,1:0:0:0:0:
256,192,0,128,0,1:0:0:0:0:
256,192,0,128,0,1:0:0:0:0:
256,192,0,128,0,1:0:0:0:0:
256,192,0,128,0,1:0:0:0:0:
256,192,0,128,0,1:0:0:0:0:
256,192,0,128,0,1:0:0:0:0:
256,192,0,128,0,1:0:0:0:0:
256,192,0,128,0,1:0:0:0:0:
256,192,0,128,0,1:0:0:0:0:
256,192,0,128,0,1:0:0:0:0:
256,192,0,128,0,1:0:0:0:0:
256,192,0,128,0,1:0:0:0:0:
256,192,0,128,0,1:0:0:0:0:
256,192,0,128,0,1:0:0:0:0:
256,192,0,128,0,1:0:0:0:0:
256,192,0,128,0,1:0:0:0:0:
256,192,0,128,0,1:0:0:0:0:
256,192,0,128,0,1:0:0:0:0:
256,192,0,128,0,1:0:0:0:0:
256,192,0,128,0,1:0:0:0:0:
256,192,0,128,0,1:0:0:0:0:
256,192,0,128,0,1:0:0:0:0:
256,192,0,128,0,1:0:0:0:0:
256,192,0,128,0,1:0:0:0:0:
256,192,0,128,0,1:0:0:0:0:
256,192,0,128,0,1:0:0:0:0:
256,192,0,128,0,1:0:0:0:0:
256,192,0,128,0,1:0:0:0:0:
256,192,0,128,0,1:0:0:0:0:
256,192,0,128,0,1:0:0:0:0:
256,192,0,128,0,1:0:0:0:0:
256,192,0,128,0,1:0:0:0:0:
256,192,0,128,0,1:0:0:0:0:
256,192,0,128,0,1:0:0:0:0:
256,192,0,128,0,1:0:0:0:0:
256,192,0,128,0,1:0:0:0:0:
256,192,0,128,0,1:0:0:0:0:
256,192,0,128,0,1:0:0:0:0:
256,192,0,128,0,1:0:0:0:0:
256,192,0,128,0,1:0:0:0:0:
256,192,0,128,0,1:0:0:0:0:
256,192,0,128,0,1:0:0:0:0:
256,192,0,128,0,1:0:0:0:0:
256,192,0,128,0,1:0:0:0:0:
256,192,0,128,0,1:0:0:0:0:
256,192,0,128,0,1:0:0:0:0:
256,192,0,128,0,1:0:0:0:0:
256,192,0,128,0,1:0:0:0:0:
256,192,0,128,0,1:0:0:0:0:
256,192,0,128,0,1:0:0:0:0:
256,192,0,128,0,1:0:0:0:0:
256,192,0,128,0,1:0:0:0:0:
256,192,0,128,0,1:0:0:0:0:
256,192,0,128,0,1:0:0:0:0:
256,192,0,128,0,1:0:0:0:0:
256,192,0,128,0,1:0:0:0:0:
256,192,0,128,0,1:0:0:0:0:
256,192,0,128,0,1:0:0:0:0:
256,192,0,128,0,1:0:0:0:0:
256,192,0,128,0,1:0:0:0:0:
256,192,0,128,0,1:0:0:0:0:
256,192,0,128,0,1:0:0:0:0:
256,192,0,128,0,1:0:0:0:0:
256,192,0,128,0,1:0:0:0:0:
256,192,0,128,0,1:0:0:0:0:
256,192,0,128,0,1:0:0:0:0:
256,192,0,128,0,1:0:0:0:0:
256,192,0,128,0,1:0:0:0:0:
256,192,0,128,0,1:0:0:0:0:
256,192,0,128,0,1:0:0:0:0:
256,192,0,128,0,1:0:0:0:0:
256,192,0,128,0,1:0:0:0:0:
256,192,0,128,0,1:0:0:0:0:
256,192,0,128,0,1:0:0:0:0:
256,192,0,128,0,1:0:0:0:0:
256,192,0,128,0,1:0:0:0:0:
256,192,0,128,0,1:0:0:0:0:
256,192,0,128,0,1:0:0:0:0:
256,192,0,128,0,1:0:0:0:0:
256,192,0,128,0,1:0:0:0:0:
256,192,0,128,0,1:0:0:0:0:
256,192,0,128,0,1:0:0:0:0:
256,192,0,128,0,1:0:0:0:0:
256,192,0,128,0,1:0:0:0:0:
256,192,0,128,0,1:0:0:0:0:
256,192,0,128,0,1:0:0:0:0:
256,192,0,128,0,1:0:0:0:0:
256,192,0,128,0,1:0:0:0:0:
256,192,0,128,0,1:0:0:0:0:
256,192,0,128,0,1:0:0:0:0:
256,192,0,128,0,1:0:0:0:0:
256,192,0,128,0,1:0:0:0:0:
256,192,0,128,0,1:0:0:0:0:
256,192,0,128,0,1:0:0:0:0:
256,192,0,128,0,1:0:0:0:0:
256,192,0,128,0,1:0:0:0:0:
256,192,0,128,0,1:0:0:0:0:
256,192,0,128,0,1:0:0:0:0:
256,192,0,128,0,1:0:0:0:0:
256,192,0,128,0,1:0:0:0:0:
256,192,0,128,0,1:0:0:0:0:
256,192,0,128,0,1:0:0:0:0:
256,192,0,128,0,1:0:0:0:0:
256,192,0,128,0,1:0:0:0:0:
256,192,0,128,0,1:0:0:0:0:
256,192,0,128,0,1:0:0:0:0:
256,192,0,128,0,1:0:0:0:0:
256,192,0,128,0,1:0:0:0:0:
256,192,0,128,0,1:0:0:0:0:
256,192,0,128,0,1:0:0:0:0:
256,192,0,128,0,1:0:0:0:0:
256,192,0,128,0,1:0:0:0:0:
256,192,0,128,0,1:0:0:0:0:
256,192,0,128,0,1:0:0:0:0:
256,192,0,128,0,1:0:0:0:0:
256,192,0,128,0,1:0:0:0:0:
256,192,0,128,0,1:0:0:0:0:
256,192,0,128,0,1:0:0:0:0:
256,192,0,128,0,1:0:0:0:0:
256,192,0,128,0,1:0:0:0:0:
256,192,0,128,0,1:0:0:0:0:
256,192,0,128,0,1:0:0:0:0:
256,192,0,128,0,1:0:0:0:0:
256,192,0,128,0,1:0:0:0:0:
256,192,0,128,0,1:0:0:0:0:
256,192,0,128,0,1:0:0:0:0:
256,192,0,128,0,1:0:0:0:0:
256,192,0,128,0,1:0:0:0:0:
256,192,0,128,0,1:0:0:0:0:
256,192,0,128,0,1:0:0:0:0:
256,192,0,128,0,1:0:0:0:0:
256,192,0,128,0,1:0:0:0:0:
256,192,0,128,0,1:0:0:0:0:
256,192,0,128,0,1:0:0:0:0:
256,192,0,128,0,1:0:0:0:0:
256,192,0,128,0,1:0:0:0:0:
256,192,0,128,0,1:0:0:0:0:
256,192,0,128,0,1:0:0:0:0:
256,192,0,128,0,1:0:0:0:0:
256,192,0,128,0,1:0:0:0:0:
256,192,0,128,0,1:0:0:0:0:
256,192,0,128,0,1:0:0:0:0:
256,192,0,128,0,1:0:0:0:0:
256,192,0,128,0,1:0:0:0:0:
256,192,0,128,0,1:0:0:0:0:
256,192,0,128,0,1:0:0:0:0:
256,192,0,128,0,1:0:0:0:0:
256,192,0,128,0,1:0:0:0:0:
256,192,0,128,0,1:0:0:0:0:
256,192,0,128,0,1:0:0:0:0:
256,192,0,128,0,1:0:0:0:0:
256,192,0,128,0,1:0:0:0:0:
256,192,0,128,0,1:0:0:0:0:
256,192,0,128,0,1:0:0:0:0:
256,192,0,128,0,1:0:0:0:0:
256,192,0,128,0,1:0:0:0:0:
256,192,0,128,0,1:0:0:0:0:
256,192,0,128,0,1:0:0:0:0:
256,192,0,128,0,1:0:0:0:0:
256,192,0,128,0,1:0:0:0:0:
256,192,0,128,0,1:0:0:0:0:
256,192,0,128,0,1:0:0:0:0:
256,192,0,128,0,1:0:0:0:0:
256,192,0,128,0,1:0:0:0:0:
256,192,0,128,0,1:0:0:0:0:
256,192,0,128,0,1:0:0:0:0:
256,192,0,128,0,1:0:0:0:0:
256,192,0,128,0,1:0:0:0:0:
256,192,0,128,0,1:0:0:0:0:
256,192,0,128,0,1:0:0:0:0:
256,192,0,128,0,1:0:0:0:0:
256,192,0,128,0,1:0:0:0:0:
256,192,0,128,0,1:0:0:0:0:
256,192,0,128,0,1:0:0:0:0:
256,192,0,128,0,1:0:0:0:0:
256,192,0,128,0,1:0:0:0:0:
256,192,0,128,0,1:0:0:0:0:
256,192,0,128,0,1:0:0:0:0:
256,192,0,128,0,1:0:0:0:0:
256,192,0,128,0,1:0:0:0:0:
256,192,0,128,0,1:0:0:0:0:
256,192,0,128,0,1:0:0:0:0:
256,192,0,128,0,1:0:0:0:0:
256,192,0,128,0,1:0:0:0:0:
256,192,0,128,0,1:0:0:0:0:
256,192,0,128,0,1:0:0:0:0:
256,192,0,128,0,1:0:0:0:0:
256,192,0,128,0,1:0:0:0:0:
256,192,0,128,0,1:0:0:0:0:
256,192,0,128,0,1:0:0:0:0:
256,192,0,128,0,1:0:0:0:0:
256,192,0,128,0,1:0:0:0:0:
256,192,0,128,0,1:0:0:0:0:
256,192,0,128,0,1:0:0:0:0:
256,192,0,128,0,1:0:0:0:0:
256,192,0,128,0,1:0:0:0:0:
256,192,0,128,0,1:0:0:0:0:
256,192,0,128,0,1:0:0:0:0:
256,192,0,128,0,1:0:0:0:0:
256,192,0,128,0,1:0:0:0:0:
256,192,0,128,0,1:0:0:0:0:
256,192,0,128,0,1:0:0:0:0:
256,192,0,128,0,1:0:0:0:0:
256,192,0,128,0,1:0:0:0:0:
256,192,0,128,0,1:0:0:0:0:
256,192,0,128,0,1:0:0:0:0:
256,192,0,128,0,1:0:0:0:0:
256,192,0,128,0,1:0:0:0:0:
256,192,0,128,0,1:0:0:0:0:
256,192,0,128,0,1:0:0:0:0:
256,192,0,128,0,1:0:0:0:0:
256,192,0,128,0,1:0:0:0:0:
256,192,0,128,0,1:0:0:0:0:
256,192,0,128,0,1:0:0:0:0:
256,192,0,128,0,1:0:0:0:0:
256,192,0,128,0,1:0:0:0:0:
256,192,0,128,0,1:0:0:0:0:
256,192,0,128,0,1:0:0:0:0:
256,192,0,128,0,1:0:0:0:0:
256,192,0,128,0,1:0:0:0:0:
256,192,0,128,0,1:0:0:0:0:
256,192,0,128,0,1:0:0:0:0:
256,192,0,128,0,1:0:0:0:0:
256,192,0,128,0,1:0:0:0:0:
256,192,0,128,0,1:0:0:0:0:
256,192,0,128,0,1:0:0:0:0:
256,192,0,128,0,1:0:0:0:0:
256,192,0,128,0,1:0:0:0:0:
256,192,0,128,0,1:0:0:0:0:
256,192,0,128,0,1:0:0:0:0:
256,192,0,128,0,1:0:0:0:0:
256,192,0,128,0,1:0:0:0:0:
256,192,0,128,0,1:0:0:0:0:
256,192,0,128,0,1:0:0:0:0:
256,192,0,128,0,1:0:0:0:0:
256,192,0,128,0,1:0:0:0:0:
256,192,0,128,0,1:0:0:0:0:
256,192,0,128,0,1:0:0:0:0:
256,192,0,128,0,1:0:0:0:0:
256,192,0,128,0,1:0:0:0:0:
256,192,0,128,0,1:0:0:0:0:
256,192,0,128,0,1:0:0:0:0:
256,192,0,128,0,1:0:0:0:0:
256,192,0,128,0,1:0:0:0:0:
256,192,0,128,0,1:0:0:0:0:
256,192,0,128,0,1:0:0:0:0:
256,192,0,128,0,1:0:0:0:0:
256,192,0,128,0,1:0:0:0:0:
256,192,0,128,0,1:0:0:0:0:
256,192,0,128,0,1:0:0:0:0:
256,192,0,128,0,1:0:0:0:0:
256,192,0,128,0,1:0:0:0:0:
256,192,0,128,0,1:0:0:0:0:
256,192,0,128,0,1:0:0:0:0:
256,192,0,128,0,1:0:0:0:0:
256,192,0,128,0,1:0:0:0:0:
256,192,0,128,0,1:0:0:0:0:
256,192,0,128,0,1:0:0:0:0:
256,192,0,128,0,1:0:0:0:0:
256,192,0,128,0,1:0:0:0:0:
256,192,0,128,0,1:0:0:0:0:
256,192,0,128,0,1:0:0:0:0:
256,192,0,128,0,1:0:0:0:0:
256,192,0,128,0,1:0:0:0:0:
256,192,0,128,0,1:0:0:0:0:
256,192,0,128,0,1:0:0:0:0:
256,192,0,128,0,1:0:0:0:0:
256,192,0,128,0,1:0:0:0:0:
256,192,0,128,0,1:0:0:0:0:
256,192,0,128,0,1:0:0:0:0:
256,192,0,128,0,1:0:0:0:0:
256,192,0,128,0,1:0:0:0:0:
256,192,0,128,0,1:0:0:0:0:
256,192,0,128,0,1:0:0:0:0:
256,192,0,128,0,1:0:0:0:0:
256,192,0,128,0,1:0:0:0:0:
256,192,0,128,0,1:0:0:0:0:
256,192,0,128,0,1:0:0:0:0:
256,192,0,128,0,1:0:0:0:0:
256,192,0,128,0,1:0:0:0:0:
256,192,0,128,0,1:0:0:0:0:
256,192,0,128,0,1:0:0:0:0:
256,192,0,128,0,1:0:0:0:0:
256,192,0,128,0,1:0:0:0:0:
256,192,0,128,0,1:0:0:0:0:
256,192,0,128,0,1:0:0:0:0:
256,192,0,128,0,1:0:0:0:0:
256,192,0,128,0,1:0:0:0:0:
256,192,0,128,0,1:0:0:0:0:
256,192,0,128,0,1:0:0:0:0:
256,192,0,128,0,1:0:0:0:0:
256,192,0,128,0,1:0:0:0:0:
256,192,0,128,0,1:0:0:0:0:
256,192,0,128,0,1:0:0:0:0:
256,192,0,128,0,1:0:0:0:0:
256,192,0,128,0,1:0:0:0:0:
256,192,0,128,0,1:0:0:0:0:
256,192,0,128,0,1:0:0:0:0:
256,192,0,128,0,1:0:0:0:0:
256,192,0,128,0,1:0:0:0:0:
256,192,0,128,0,1:0:0:0:0:
256,192,0,128,0,1:0:0:0:0:
256,192,0,128,0,1:0:0:0:0:
256,192,0,128,0,1:0:0:0:0:
256,192,0,128,0,1:0:0:0:0:
256,192,0,128,0,1:0:0:0:0:
256,192,0,128,0,1:0:0:0:0:
256,192,0,128,0,1:0:0:0:0:
256,192,0,128,0,1:0:0:0:0:
256,192,0,128,0,1:0:0:0:0:
256,192,0,128,0,1:0:0:0:0:
256,192,0,128,0,1:0:0:0:0:
256,192,0,128,0,1:0:0:0:0:
256,192,0,128,0,1:0:0:0:0:
256,192,0,128,0,1:0:0:0:0:
256,192,0,128,0,1:0:0:0:0:
256,192,0,128,0,1:0:0:0:0:
256,192,0,128,0,1:0:0:0:0:
256,192,0,128,0,1:0:0:0:0:
256,192,0,128,0,1:0:0:0:0:
256,192,0,128,0,1:0:0:0:0:
256,192,0,128,0,1:0:0:0:0:
256,192,0,128,0,1:0:0:0:0:
256,192,0,128,0,1:0:0:0:0:
256,192,0,128,0,1:0:0:0:0:
256,192,0,128,0,1:0:0:0:0:
256,192,0,128,0,1:0:0:0:0:
256,192,0,128,0,1:0:0:0:0:
256,192,0,128,0,1:0:0:0:0:
256,192,0,128,0,1:0:0:0:0:
256,192,0,128,0,1:0:0:0:0:
256,192,0,128,0,1:0:0:0:0:
256,192,0,128,0,1:0:0:0:0:
256,192,0,128,0,1:0:0:0:0:
256,192,0,128,0,1:0:0:0:0:
256,192,0,128,0,1:0:0:0:0:
256,192,0,128,0,1:0:0:0:0:
256,192,0,128,0,1:0:0:0:0:
256,192,0,128,0,1:0:0:0:0:
256,192,0,128,0,1:0:0:0:0:
256,192,0,128,0,1:0:0:0:0:
256,192,0,128,0,1:0:0:0:0:
256,192,0,128,0,1:0:0:0:0:
256,192,0,128,0,1:0:0:0:0:
256,192,0,128,0,1:0:0:0:0:
256,192,0,128,0,1:0:0:0:0:
256,192,0,128,0,1:0:0:0:0:
256,192,0,128,0,1:0:0:0:0:
256,192,0,128,0,1:0:0:0:0:
256,192,0,128,0,1:0:0:0:0:
256,192,0,128,0,1:0:0:0:0:
256,192,0,128,0,1:0:0:0:0:
256,192,0,128,0,1:0:0:0:0:
256,192,0,128,0,1:0:0:0:0:
256,192,0,128,0,1:0:0:0:0:
256,192,0,128,0,1:0:0:0:0:
256,192,0,128,0,1:0:0:0:0:
256,192,0,128,0,1:0:0:0:0:
256,192,0,128,0,1:0:0:0:0:
256,192,0,128,0,1:0:0:0:0:
256,192,0,128,0,1:0:0:0:0:
256,192,0,128,0,1:0:0:0:0:
256,192,0,128,0,1:0:0:0:0:
256,192,0,128,0,1:0:0:0:0:
256,192,0,128,0,1:0:0:0:0:
256,192,0,128,0,1:0:0:0:0:
256,192,0,128,0,1:0:0:0:0:
256,192,0,128,0,1:0:0:0:0:
256,192,0,128,0,1:0:0:0:0:
256,192,0,128,0,1:0:0:0:0:
256,192,0,128,0,1:0:0:0:0:
256,192,0,128,0,1:0:0:0:0:
256,192,0,128,0,1:0:0:0:0:
256,192,0,128,0,1:0:0:0:0:
256,192,0,128,0,1:0:0:0:0:
256,192,0,128,0,1:0:0:0:0:
256,192,0,128,0,1:0:0:0:0:
256,192,0,128,0,1:0:0:0:0:
256,192,0,128,0,1:0:0:0:0:
256,192,0,128,0,1:0:0:0:0:
256,192,0,128,0,1:0:0:0:0:
256,192,0,128,0,1:0:0:0:0:
256,192,0,128,0,1:0:0:0:0:
256,192,0,128,0,1:0:0:0:0:
256,192,0,128,0,1:0:0:0:0:
256,192,0,128,0,1:0:0:0:0:
256,192,0,128,0,1:0:0:0:0:
256,192,0,128,0,1:0:0:0:0:
256,192,0,128,0,1:0:0:0:0:
256,192,0,128,0,1:0:0:0:0:
256,192,0,128,0,1:0:0:0:0:
256,192,0,128,0,1:0:0:0:0:
256,192,0,128,0,1:0:0:0:0:
256,192,0,128,0,1:0:0:0:0:
256,192,0,128,0,1:0:0:0:0:
256,192,0,128,0,1:0:0:0:0:
256,192,0,128,0,1:0:0:0:0:
256,192,0,128,0,1:0:0:0:0:
256,192,0,128,0,1:0:0:0:0:
256,192,0,128,0,1:0:0:0:0:
256,192,0,128,0,1:0:0:0:0:
256,192,0,128,0,1:0:0:0:0:
256,192,0,128,0,1:0:0:0:0:
256,192,0,128,0,1:0:0:0:0:
256,192,0,128,0,1:0:0:0:0:
256,192,0,128,0,1:0:0:0:0:
256,192,0,128,0,1:0:0:0:0:
256,192,0,128,0,1:0:0:0:0:
256,192,0,128,0,1:0:0:0:0:
256,192,0,128,0,1:0:0:0:0:
256,192,0,128,0,1:0:0:0:0:
256,192,0,128,0,1:0:0:0:0:
256,192,0,128,0,1:0:0:0:0:
256,192,0,128,0,1:0:0:0:0:
256,192,0,128,0,1:0:0:0:0:
256,192,0,128,0,1:0:0:0:0:
256,192,0,128,0,1:0:0:0:0:
256,192,0,128,0,1:0:0:0:0:
256,192,0,128,0,1:0:0:0:0:
256,192,0,128,0,1:0:0:0:0:
256,192,0,128,0,1:0:0:0:0:
256,192,0,128,0,1:0:0:0:0:
256,192,0,128,0,1:0:0:0:0:
256,192,0,128,0,1:0:0:0:0:
256,192,0,128,0,1:0:0:0:0:
256,192,0,128,0,1:0:0:0:0:
256,192,0,128,0,1:0:0:0:0:
256,192,0,128,0,1:0:0:0:0:
256,192,0,128,0,1:0:0:0:0:
256,192,0,128,0,1:0:0:0:0:
256,192,0,128,0,1:0:0:0:0:
256,192,0,128,0,1:0:0:0:0:
256,192,0,128,0,1:0:0:0:0:
256,192,0,128,0,1:0:0:0:0:
256,192,0,128,0,1:0:0:0:0:
256,192,0,128,0,1:0:0:0:0:
256,192,0,128,0,1:0:0:0:0:
256,192,0,128,0,1:0:0:0:0:
256,192,0,128,0,1:0:0:0:0:
256,192,0,128,0,1:0:0:0:0:
256,192,0,128,0,1:0:0:0:0:
256,192,0,128,0,1:0:0:0:0:
256,192,0,128,0,1:0:0:0:0:
256,192,0,128,0,1:0:0:0:0:
256,192,0,128,0,1:0:0:0:0:
256,192,0,128,0,1:0:0:0:0:
256,192,0,128,0,1:0:0:0:0:
256,192,0,128,0,1:0:0:0:0:
256,192,0,128,0,1:0:0:0:0:
256,192,0,128,0,1:0:0:0:0:
256,192,0,128,0,1:0:0:0:0:
256,192,0,128,0,1:0:0:0:0:
256,192,0,128,0,1:0:0:0:0:
256,192,0,128,0,1:0:0:0:0:
256,192,0,128,0,1:0:0:0:0:
256,192,0,128,0,1:0:0:0:0:
256,192,0,128,0,1:0:0:0:0:
256,192,0,128,0,1:0:0:0:0:
256,192,0,128,0,1:0:0:0:0:
256,192,0,128,0,1:0:0:0:0:
256,192,0,128,0,1:0:0:0:0:
256,192,0,128,0,1:0:0:0:0:
256,192,0,128,0,1:0:0:0:0:
256,192,0,128,0,1:0:0:0:0:
256,192,0,128,0,1:0:0:0:0:
256,192,0,128,0,1:0:0:0:0:
256,192,0,128,0,1:0:0:0:0:
256,192,0,128,0,1:0:0:0:0:
256,192,0,128,0,1:0:0:0:0:
256,192,0,128,0,1:0:0:0:0:
256,192,0,128,0,1:0:0:0:0:
256,192,0,128,0,1:0:0:0:0:
256,192,0,128,0,1:0:0:0:0:
256,192,0,128,0,1:0:0:0:0:
256,192,0,128,0,1:0:0:0:0:
256,192,0,128,0,1:0:0:0:0:
256,192,0,128,0,1:0:0:0:0:
256,192,0,128,0,1:0:0:0:0:
256,192,0,128,0,1:0:0:0:0:
256,192,0,128,0,1:0:0:0:0:
256,192,0,128,0,1:0:0:0:0:
256,192,0,128,0,1:0:0:0:0:
256,192,0,128,0,1:0:0:0:0:
256,192,0,128,0,1:0:0:0:0:
256,192,0,128,0,1:0:0:0:0:
256,192,0,128,0,1:0:0:0:0:
256,192,0,128,0,1:0:0:0:0:
256,192,0,128,0,1:0:0:0:0:
256,192,0,128,0,1:0:0:0:0:
256,192,0,128,0,1:0:0:0:0:
256,192,0,128,0,1:0:0:0:0:
256,192,0,128,0,1:0:0:0:0:
256,192,0,128,0,1:0:0:0:0:
256,192,0,128,0,1:0:0:0:0:
256,192,0,128,0,1:0:0:0:0:
256,192,0,128,0,1:0:0:0:0:
256,192,0,128,0,1:0:0:0:0:
256,192,0,128,0,1:0:0:0:0:
256,192,0,128,0,1:0:0:0:0:
256,192,0,128,0,1:0:0:0:0:
256,192,0,128,0,1:0:0:0:0:
256,192,0,128,0,1:0:0:0:0:
256,192,0,128,0,1:0:0:0:0:
256,192,0,128,0,1:0:0:0:0:
256,192,0,128,0,1:0:0:0:0:
256,192,0,128,0,1:0:0:0:0:
256,192,0,128,0,1:0:0:0:0:
256,192,0,128,0,1:0:0:0:0:
256,192,0,128,0,1:0:0:0:0:
256,192,0,128,0,1:0:0:0:0:
256,192,0,128,0,1:0:0:0:0:
256,192,0,128,0,1:0:0:0:0:
256,192,0,128,0,1:0:0:0:0:
256,192,0,128,0,1:0:0:0:0:
256,192,0,128,0,1:0:0:0:0:
256,192,0,128,0,1:0:0:0:0:
256,192,0,128,0,1:0:0:0:0:
256,192,0,128,0,1:0:0:0:0:
256,192,0,128,0,1:0:0:0:0:
256,192,0,128,0,1:0:0:0:0:
256,192,0,128,0,1:0:0:0:0:
256,192,0,128,0,1:0:0:0:0:
256,192,0,128,0,1:0:0:0:0:
256,192,0,128,0,1:0:0:0:0:
256,192,0,128,0,1:0:0:0:0:
256,192,0,128,0,1:0:0:0:0:
256,192,0,128,0,1:0:0:0:0:
256,192,0,128,0,1:0:0:0:0:
256,192,0,128,0,1:0:0:0:0:
256,192,0,128,0,1:0:0:0:0:
256,192,0,128,0,1:0:0:0:0:
256,192,0,128,0,1:0:0:0:0:
256,192,0,128,0,1:0:0:0:0:
256,192,0,128,0,1:0:0:0:0:
256,192,0,128,0,1:0:0:0:0:
256,192,0,128,0,1:0:0:0:0:
256,192,0,128,0,1:0:0:0:0:
256,192,0,128,0,1:0:0:0:0:
256,192,0,128,0,1:0:0:0:0:
256,192,0,128,0,1:0:0:0:0:
256,192,0,128,0,1:0:0:0:0:
256,192,0,128,0,1:0:0:0:0:
256,192,0,128,0,1:0:0:0:0:
256,192,0,128,0,1:0:0:0:0:
256,192,0,128,0,1:0:0:0:0:
256,192,0,128,0,1:0:0:0:0:
256,192,0,128,0,1:0:0:0:0:
256,192,0,128,0,1:0:0:0:0:
256,192,0,128,0,1:0:0:0:0:
256,192,0,128,0,1:0:0:0:0:
256,192,0,128,0,1:0:0:0:0:
256,192,0,128,0,1:0:0:0:0:
256,192,0,128,0,1:0:0:0:0:
256,192,0,128,0,1:0:0:0:0:
256,192,0,128,0,1:0:0:0:0:
256,192,0,128,0,1:0:0:0:0:
256,192,0,128,0,1:0:0:0:0:
256,192,0,128,0,1:0:0:0:0:
256,192,0,128,0,1:0:0:0:0:
256,192,0,128,0,1:0:0:0:0:
256,192,0,128,0,1:0:0:0:0:
256,192,0,128,0,1:0:0:0:0:
256,192,0,128,0,1:0:0:0:0:
256,192,0,128,0,1:0:0:0:0:
256,192,0,128,0,1:0:0:0:0:
256,192,0,128,0,1:0:0:0:0:
256,192,0,128,0,1:0:0:0:0:
256,192,0,128,0,1:0:0:0:0:
256,192,0,128,0,1:0:0:0:0:
256,192,0,128,0,1:0:0:0:0:
256,192,0,128,0,1:0:0:0:0:
256,192,0,128,0,1:0:0:0:0:
256,192,0,128,0,1:0:0:0:0:
256,192,0,128,0,1:0:0:0:0:
256,192,0,128,0,1:0:0:0:0:
256,192,0,128,0,1:0:0:0:0:
256,192,0,128,0,1:0:0:0:0:
256,192,0,128,0,1:0:0:0:0:
256,192,0,128,0,1:0:0:0:0:
256,192,0,128,0,1:0:0:0:0:
256,192,0,128,0,1:0:0:0:0:
256,192,0,128,0,1:0:0:0:0:
256,192,0,128,0,1:0:0:0:0:
256,192,0,128,0,1:0:0:0:0:
256,192,0,128,0,1:0:0:0:0:
256,192,0,128,0,1:0:0:0:0:
256,192,0,128,0,1:0:0:0:0:
256,192,0,128,0,1:0:0:0:0:
256,192,0,128,0,1:0:0:0:0:
256,192,0,128,0,1:0:0:0:0:
256,192,0,128,0,1:0:0:0:0:
256,192,0,128,0,1:0:0:0:0:
256,192,0,128,0,1:0:0:0:0:
256,192,0,128,0,1:0:0:0:0:
256,192,0,128,0,1:0:0:0:0:
256,192,0,128,0,1:0:0:0:0:
256,192,0,128,0,1:0:0:0:0:
256,192,0,128,0,1:0:0:0:0:
256,192,0,128,0,1:0:0:0:0:
256,192,0,128,0,1:0:0:0:0:
256,192,0,128,0,1:0:0:0:0:
256,192,0,128,0,1:0:0:0:0:
256,192,0,128,0,1:0:0:0:0:
256,192,0,128,0,1:0:0:0:0:
256,192,0,128,0,1:0:0:0:0:
256,192,0,128,0,1:0:0:0:0:
256,192,0,128,0,1:0:0:0:0:
256,192,0,128,0,1:0:0:0:0:
256,192,0,128,0,1:0:0:0:0:
256,192,0,128,0,1:0:0:0:0:
256,192,0,128,0,1:0:0:0:0:
256,192,0,128,0,1:0:0:0:0:
256,192,0,128,0,1:0:0:0:0:
256,192,0,128,0,1:0:0:0:0:
256,192,0,128,0,1:0:0:0:0:
256,192,0,128,0,1:0:0:0:0:
256,192,0,128,0,1:0:0:0:0:
256,192,0,128,0,1:0:0:0:0:
256,192,0,128,0,1:0:0:0:0:
256,192,0,128,0,1:0:0:0:0:
256,192,0,128,0,1:0:0:0:0:
256,192,0,128,0,1:0:0:0:0:
256,192,0,128,0,1:0:0:0:0:
256,192,0,128,0,1:0:0:0:0:
256,192,0,128,0,1:0:0:0:0:
256,192,0,128,0,1:0:0:0:0:
256,192,0,128,0,1:0:0:0:0:
256,192,0,128,0,1:0:0:0:0:
256,192,0,128,0,1:0:0:0:0:
256,192,0,128,0,1:0:0:0:0:
256,192,0,128,0,1:0:0:0:0:
256,192,0,128,0,1:0:0:0:0:
256,192,0,128,0,1:0:0:0:0:
256,192,0,128,0,1:0:0:0:0:
256,192,0,128,0,1:0:0:0:0:
256,192,0,128,0,1:0:0:0:0:
256,192,0,128,0,1:0:0:0:0:
256,192,0,128,0,1:0:0:0:0:
256,192,0,128,0,1:0:0:0:0:
256,192,0,128,0,1:0:0:0:0:
256,192,0,128,0,1:0:0:0:0:
256,192,0,128,0,1:0:0:0:0:
256,192,0,128,0,1:0:0:0:0:
256,192,0,128,0,1:0:0:0:0:
256,192,0,128,0,1:0:0:0:0:
256,192,0,128,0,1:0:0:0:0:
256,192,0,128,0,1:0:0:0:0:
256,192,0,128,0,1:0:0:0:0:
256,192,0,128,0,1:0:0:0:0:
256,192,0,128,0,1:0:0:0:0:
256,192,0,128,0,1:0:0:0:0:
256,192,0,128,0,1:0:0:0:0:
256,192,0,128,0,1:0:0:0:0:
256,192,0,128,0,1:0:0:0:0:
256,192,0,128,0,1:0:0:0:0:
256,192,0,128,0,1:0:0:0:0:
256,192,0,128,0,1:0:0:0:0:
256,192,0,128,0,1:0:0:0:0:
256,192,0,128,0,1:0:0:0:0:
256,192,0,128,0,1:0:0:0:0:
256,192,0,128,0,1:0:0:0:0:
256,192,0,128,0,1:0:0:0:0:
256,192,0,128,0,1:0:0:0:0:
256,192,0,128,0,1:0:0:0:0:
256,192,0,128,0,1:0:0:0:0:
256,192,0,128,0,1:0:0:0:0:
256,192,0,128,0,1:0:0:0:0:
256,192,0,128,0,1:0:0:0:0:
256,192,0,128,0,1:0:0:0:0:
256,192,0,128,0,1:0:0:0:0:
256,192,0,128,0,1:0:0:0:0:
256,192,0,128,0,1:0:0:0:0:
256,192,0,128,0,1:0:0:0:0:
256,192,0,128,0,1:0:0:0:0:
256,192,0,128,0,1:0:0:0:0:
256,192,0,128,0,1:0:0:0:0:
256,192,0,128,0,1:0:0:0:0:
256,192,0,128,0,1:0:0:0:0:
256,192,0,128,0,1:0:0:0:0:
256,192,0,128,0,1:0:0:0:0:
256,192,0,128,0,1:0:0:0:0:
256,192,0,128,0,1:0:0:0:0:
256,192,0,128,0,1:0:0:0:0:
256,192,0,128,0,1:0:0:0:0:
256,192,0,128,0,1:0:0:0:0:
256,192,0,128,0,1:0:0:0:0:
256,192,0,128,0,1:0:0:0:0:
256,192,0,128,0,1:0:0:0:0:
256,192,0,128,0,1:0:0:0:0:
256,192,0,128,0,1:0:0:0:0:
256,192,0,128,0,1:0:0:0:0:
256,192,0,128,0,1:0:0:0:0:
256,192,0,128,0,1:0:0:0:0:
256,192,0,128,0,1:0:0:0:0:
256,192,0,128,0,1:0:0:0:0:
256,192,0,128,0,1:0:0:0:0:
256,192,0,128,0,1:0:0:0:0:
256,192,0,128,0,1:0:0:0:0:
256,192,0,128,0,1:0:0:0:0:
256,192,0,128,0,1:0:0:0:0:
256,192,0,128,0,1:0:0:0:0:
256,192,0,128,0,1:0:0:0:0:
256,192,0,128,0,1:0:0:0:0:
256,192,0,128,0,1:0:0:0:0:
256,192,0,128,0,1:0:0:0:0:
256,192,0,128,0,1:0:0:0:0:
256,192,0,128,0,1:0:0:0:0:
256,192,0,128,0,1:0:0:0:0:
256,192,0,128,0,1:0:0:0:0:
256,192,0,128,0,1:0:0:0:0:
256,192,0,128,0,1:0:0:0:0:
256,192,0,128,0,1:0:0:0:0:
256,192,0,128,0,1:0:0:0:0:
256,192,0,128,0,1:0:0:0:0:
256,192,0,128,0,1:0:0:0:0:
256,192,0,128,0,1:0:0:0:0:
256,192,0,128,0,1:0:0:0:0:
256,192,0,128,0,1:0:0:0:0:
256,192,0,128,0,1:0:0:0:0:
256,192,0,128,0,1:0:0:0:0:
256,192,0,128,0,1:0:0:0:0:
256,192,0,128,0,1:0:0:0:0:
256,192,0,128,0,1:0:0:0:0:
256,192,0,128,0,1:0:0:0:0:
256,192,0,128,0,1:0:0:0:0:
256,192,0,128,0,1:0:0:0:0:
256,192,0,128,0,1:0:0:0:0:
256,192,0,128,0,1:0:0:0:0:
256,192,0,128,0,1:0:0:0:0:
256,192,0,128,0,1:0:0:0:0:
256,192,0,128,0,1:0:0:0:0:
256,192,0,128,0,1:0:0:0:0:
256,192,0,128,0,1:0:0:0:0:
256,192,0,128,0,1:0:0:0:0:
256,192,0,128,0,1:0:0:0:0:
256,192,0,128,0,1:0:0:0:0:
256,192,0,128,0,1:0:0:0:0:
256,192,0,128,0,1:0:0:0:0:
256,192,0,128,0,1:0:0:0:0:
256,192,0,128,0,1:0:0:0:0:
256,192,0,128,0,1:0:0:0:0:
256,192,0,128,0,1:0:0:0:0:
256,192,0,128,0,1:0:0:0:0:
256,192,0,128,0,1:0:0:0:0:
256,192,0,128,0,1:0:0:0:0:
256,192,0,128,0,1:0:0:0:0:
256,192,0,128,0,1:0:0:0:0:
256,192,0,128,0,1:0:0:0:0:
256,192,0,128,0,1:0:0:0:0:
256,192,0,128,0,1:0:0:0:0:
256,192,0,128,0,1:0:0:0:0:
256,192,0,128,0,1:0:0:0:0:
256,192,0,128,0,1:0:0:0:0:
256,192,0,128,0,1:0:0:0:0:
256,192,0,128,0,1:0:0:0:0:
256,192,0,128,0,1:0:0:0:0:
256,192,0,128,0,1:0:0:0:0:
256,192,0,128,0,1:0:0:0:0:
256,192,0,128,0,1:0:0:0:0:
256,192,0,128,0,1:0:0:0:0:
256,192,0,128,0,1:0:0:0:0:
256,192,0,128,0,1:0:0:0:0:
256,192,0,128,0,1:0:0:0:0:
256,192,0,128,0,1:0:0:0:0:
256,192,0,128,0,1:0:0:0:0:
256,192,0,128,0,1:0:0:0:0:
256,192,0,128,0,1:0:0:0:0:
256,192,0,128,0,1:0:0:0:0:
256,192,0,128,0,1:0:0:0:0:
256,192,0,128,0,1:0:0:0:0:
256,192,0,128,0,1:0:0:0:0:
256,192,0,128,0,1:0:0:0:0:
256,192,0,128,0,1:0:0:0:0:
256,192,0,128,0,1:0:0:0:0:
256,192,0,128,0,1:0:0:0:0:
256,192,0,128,0,1:0:0:0:0:
256,192,0,128,0,1:0:0:0:0:
256,192,0,128,0,1:0:0:0:0:
256,192,0,128,0,1:0:0:0:0:
256,192,0,128,0,1:0:0:0:0:
256,192,0,128,0,1:0:0:0:0:
256,192,0,128,0,1:0:0:0:0:
256,192,0,128,0,1:0:0:0:0:
256,192,0,128,0,1:0:0:0:0:
256,192,0,128,0,1:0:0:0:0:
256,192,0,128,0,1:0:0:0:0:
256,192,0,128,0,1:0:0:0:0:
256,192,0,128,0,1:0:0:0:0:
256,192,0,128,0,1:0:0:0:0:
256,192,0,128,0,1:0:0:0:0:
256,192,0,128,0,1:0:0:0:0:
256,192,0,128,0,1:0:0:0:0:
256,192,0,128,0,1:0:0:0:0:
256,192,0,128,0,1:0:0:0:0:
256,192,0,128,0,1:0:0:0:0:
256,192,0,128,0,1:0:0:0:0:
256,192,0,128,0,1:0:0:0:0:
256,192,0,128,0,1:0:0:0:0:
256,192,0,128,0,1:0:0:0:0:
256,192,0,128,0,1:0:0:0:0:
256,192,0,128,0,1:0:0:0:0:
256,192,0,128,0,1:0:0:0:0:
256,192,0,128,0,1:0:0:0:0:
256,192,0,128,0,1:0:0:0:0:
256,192,0,128,0,1:0:0:0:0:
256,192,0,128,0,1:0:0:0:0:
256,192,0,128,0,1:0:0:0:0:
256,192,0,128,0,1:0:0:0:0:
256,192,0,128,0,1:0:0:0:0:
256,192,0,128,0,1:0:0:0:0:
256,192,0,128,0,1:0:0:0:0:
256,192,0,128,0,1:0:0:0:0:
256,192,0,128,0,1:0:0:0:0:
256,192,0,128,0,1:0:0:0:0:
256,192,0,128,0,1:0:0:0:0:
256,192,0,128,0,1:0:0:0:0:
256,192,0,128,0,1:0:0:0:0:
256,192,0,128,0,1:0:0:0:0:
256,192,0,128,0,1:0:0:0:0:
256,192,0,128,0,1:0:0:0:0:
256,192,0,128,0,1:0:0:0:0:
256,192,0,128,0,1:0:0:0:0:
256,192,0,128,0,1:0:0:0:0:
256,192,0,128,0,1:0:0:0:0:
256,192,0,128,0,1:0:0:0:0:
256,192,0,128,0,1:0:0:0:0:
256,192,0,128,0,1:0:0:0:0:
256,192,0,128,0,1:0:0:0:0:
256,192,0,128,0,1:0:0:0:0:
256,192,0,128,0,1:0:0:0:0:
256,192,0,128,0,1:0:0:0:0:
256,192,0,128,0,1:0:0:0:0:
256,192,0,128,0,1:0:0:0:0:
256,192,0,128,0,1:0:0:0:0:
256,192,0,128,0,1:0:0:0:0:
256,192,0,128,0,1:0:0:0:0:
256,192,0,128,0,1:0:0:0:0:
256,192,0,128,0,1:0:0:0:0:
256,192,0,128,0,1:0:0:0:0:
256,192,0,128,0,1:0:0:0:0:
256,192,0,128,0,1:0:0:0:0:
256,192,0,128,0,1:0:0:0:0:
256,192,0,128,0,1:0:0:0:0:
256,192,0,128,0,1:0:0:0:0:
256,192,0,128,0,1:0:0:0:0:
256,192,0,128,0,1:0:0:0:0:
256,192,0,128,0,1:0:0:0:0:
256,192,0,128,0,1:0:0:0:0:
256,192,0,128,0,1:0:0:0:0:
256,192,0,128,0,1:0:0:0:0:
256,192,0,128,0,1:0:0:0:0:
256,192,0,128,0,1:0:0:0:0:
256,192,0,128,0,1:0:0:0:0:
256,192,0,128,0,1:0:0:0:0:
256,192,0,128,0,1:0:0:0:0:
256,192,0,128,0,1:0:0:0:0:
256,192,0,128,0,1:0:0:0:0:
256,192,0,128,0,1:0:0:0:0:
256,192,0,128,0,1:0:0:0:0:
256,192,0,128,0,1:0:0:0:0:
256,192,0,128,0,1:0:0:0:0:
256,192,0,128,0,1:0:0:0:0:
256,192,0,128,0,1:0:0:0:0:
256,192,0,128,0,1:0:0:0:0:
256,192,0,128,0,1:0:0:0:0:
256,192,0,128,0,1:0:0:0:0:
256,192,0,128,0,1:0:0:0:0:
256,192,0,128,0,1:0:0:0:0:
256,192,0,128,0,1:0:0:0:0:
256,192,0,128,0,1:0:0:0:0:
256,192,0,128,0,1:0:0:0:0:
256,192,0,128,0,1:0:0:0:0:
256,192,0,128,0,1:0:0:0:0:
256,192,0,128,0,1:0:0:0:0:
256,192,0,128,0,1:0:0:0:0:
256,192,0,128,0,1:0:0:0:0:
256,192,0,128,0,1:0:0:0:0:
256,192,0,128,0,1:0:0:0:0:
256,192,0,128,0,1:0:0:0:0:
256,192,0,128,0,1:0:0:0:0:
256,192,0,128,0,1:0:0:0:0:
256,192,0,128,0,1:0:0:0:0:
256,192,0,128,0,1:0:0:0:0:
256,192,0,128,0,1:0:0:0:0:
256,192,0,128,0,1:0:0:0:0:
256,192,0,128,0,1:0:0:0:0:
256,192,0,128,0,1:0:0:0:0:
256,192,0,128,0,1:0:0:0:0:
256,192,0,128,0,1:0:0:0:0:
256,192,0,128,0,1:0:0:0:0:
256,192,0,128,0,1:0:0:0:0:
256,192,0,128,0,1:0:0:0:0:
256,192,0,128,0,1:0:0:0:0:
256,192,0,128,0,1:0:0:0:0:
256,192,0,128,0,1:0:0:0:0:
256,192,0,128,0,1:0:0:0:0:
256,192,0,128,0,1:0:0:0:0:
256,192,0,128,0,1:0:0:0:0:
256,192,0,128,0,1:0:0:0:0:
256,192,0,128,0,1:0:0:0:0:
256,192,0,128,0,1:0:0:0:0:
256,192,0,128,0,1:0:0:0:0:
256,192,0,128,0,1:0:0:0:0:
256,192,0,128,0,1:0:0:0:0:
256,192,0,128,0,1:0:0:0:0:
256,192,0,128,0,1:0:0:0:0:
256,192,0,128,0,1:0:0:0:0:
256,192,0,128,0,1:0:0:0:0:
256,192,0,128,0,1:0:0:0:0:
256,192,0,128,0,1:0:0:0:0:
256,192,0,128,0,1:0:0:0:0:
256,192,0,128,0,1:0:0:0:0:
256,192,0,128,0,1:0:0:0:0:
256,192,0,128,0,1:0:0:0:0:
256,192,0,128,0,1:0:0:0:0:
256,192,0,128,0,1:0:0:0:0:
256,192,0,128,0,1:0:0:0:0:
256,192,0,128,0,1:0:0:0:0:
256,192,0,128,0,1:0:0:0:0:
256,192,0,128,0,1:0:0:0:0:
256,192,0,128,0,1:0:0:0:0:
256,192,0,128,0,1:0:0:0:0:
256,192,0,128,0,1:0:0:0:0:
256,192,0,128,0,1:0:0:0:0:
256,192,0,128,0,1:0:0:0:0:
256,192,0,128,0,1:0:0:0:0:
256,192,0,128,0,1:0:0:0:0:
256,192,0,128,0,1:0:0:0:0:
256,192,0,128,0,1:0:0:0:0:
256,192,0,128,0,1:0:0:0:0:
256,192,0,128,0,1:0:0:0:0:
256,192,0,128,0,1:0:0:0:0:
256,192,0,128,0,1:0:0:0:0:
256,192,0,128,0,1:0:0:0:0:
256,192,0,128,0,1:0:0:0:0:
256,192,0,128,0,1:0:0:0:0:
256,192,0,128,0,1:0:0:0:0:
256,192,0,128,0,1:0:0:0:0:
256,192,0,128,0,1:0:0:0:0:
256,192,0,128,0,1:0:0:0:0:
256,192,0,128,0,1:0:0:0:0:
256,192,0,128,0,1:0:0:0:0:
256,192,0,128,0,1:0:0:0:0:
256,192,0,128,0,1:0:0:0:0:
256,192,0,128,0,1:0:0:0:0:
256,192,0,128,0,1:0:0:0:0:
256,192,0,128,0,1:0:0:0:0:
256,192,0,128,0,1:0:0:0:0:
256,192,0,128,0,1:0:0:0:0:
256,192,0,128,0,1:0:0:0:0:
256,192,0,128,0,1:0:0:0:0:
256,192,0,128,0,1:0:0:0:0:
256,192,0,128,0,1:0:0:0:0:
256,192,0,128,0,1:0:0:0:0:
256,192,0,128,0,1:0:0:0:0:
256,192,0,128,0,1:0:0:0:0:
256,192,0,128,0,1:0:0:0:0:
256,192,0,128,0,1:0:0:0:0:
256,192,0,128,0,1:0:0:0:0:
256,192,0,128,0,1:0:0:0:0:
256,192,0,128,0,1:0:0:0:0:
256,192,0,128,0,1:0:0:0:0:
256,192,0,128,0,1:0:0:0:0:
256,192,0,128,0,1:0:0:0:0:
256,192,0,128,0,1:0:0:0:0:
256,192,0,128,0,1:0:0:0:0:
256,192,0,128,0,1:0:0:0:0:
256,192,0,128,0,1:0:0:0:0:
256,192,0,128,0,1:0:0:0:0:
256,192,0,128,0,1:0:0:0:0:
256,192,0,128,0,1:0:0:0:0:
256,192,0,128,0,1:0:0:0:0:
256,192,0,128,0,1:0:0:0:0:
256,192,0,128,0,1:0:0:0:0:
256,192,0,128,0,1:0:0:0:0:
256,192,0,128,0,1:0:0:0:0:
256,192,0,128,0,1:0:0:0:0:
256,192,0,128,0,1:0:0:0:0:
256,192,0,128,0,1:0:0:0:0:
256,192,0,128,0,1:0:0:0:0:
256,192,0,128,0,1:0:0:0:0:
256,192,0,128,0,1:0:0:0:0:
256,192,0,128,0,1:0:0:0:0:
256,192,0,128,0,1:0:0:0:0:
256,192,0,128,0,1:0:0:0:0:
256,192,0,128,0,1:0:0:0:0:
256,192,0,128,0,1:0:0:0:0:
256,192,0,128,0,1:0:0:0:0:
256,192,0,128,0,1:0:0:0:0:
256,192,0,128,0,1:0:0:0:0:
256,192,0,128,0,1:0:0:0:0:
256,192,0,128,0,1:0:0:0:0:
256,192,0,128,0,1:0:0:0:0:
256,192,0,128,0,1:0:0:0:0:
256,192,0,128,0,1:0:0:0:0:
256,192,0,128,0,1:0:0:0:0:
256,192,0,128,0,1:0:0:0:0:
256,192,0,128,0,1:0:0:0:0:
256,192,0,128,0,1:0:0:0:0:
256,192,0,128,0,1:0:0:0:0:
256,192,0,128,0,1:0:0:0:0:
256,192,0,128,0,1:0:0:0:0:
256,192,0,128,0,1:0:0:0:0:
256,192,0,128,0,1:0:0:0:0:
256,192,0,128,0,1:0:0:0:0:
256,192,0,128,0,1:0:0:0:0:
256,192,0,128,0,1:0:0:0:0:
256,192,0,128,0,1:0:0:0:0:
256,192,0,128,0,1:0:0:0:0:
256,192,0,128,0,1:0:0:0:0:
256,192,0,128,0,1:0:0:0:0:
256,192,0,128,0,1:0:0:0:0:
256,192,0,128,0,1:0:0:0:0:
256,192,0,128,0,1:0:0:0:0:
256,192,0,128,0,1:0:0:0:0:
256,192,0,128,0,1:0:0:0:0:
256,192,0,128,0,1:0:0:0:0:
256,192,0,128,0,1:0:0:0:0:
256,192,0,128,0,1:0:0:0:0:
256,192,0,128,0,1:0:0:0:0:
256,192,0,128,0,1:0:0:0:0:
256,192,0,128,0,1:0:0:0:0:
256,192,0,128,0,1:0:0:0:0:
256,192,0,128,0,1:0:0:0:0:
256,192,0,128,0,1:0:0:0:0:
256,192,0,128,0,1:0:0:0:0:
256,192,0,128,0,1:0:0:0:0:
256,192,0,128,0,1:0:0:0:0:
256,192,0,128,0,1:0:0:0:0:
256,192,0,128,0,1:0:0:0:0:
256,192,0,128,0,1:0:0:0:0:
256,192,0,128,0,1:0:0:0:0:
256,192,0,128,0,1:0:0:0:0:
256,192,0,128,0,1:0:0:0:0:
256,192,0,128,0,1:0:0:0:0:
256,192,0,128,0,1:0:0:0:0:
256,192,0,128,0,1:0:0:0:0:
256,192,0,128,0,1:0:0:0:0:
256,192,0,128,0,1:0:0:0:0:
256,192,0,128,0,1:0:0:0:0:
256,192,0,128,0,1:0:0:0:0:
256,192,0,128,0,1:0:0:0:0:
256,192,0,128,0,1:0:0:0:0:
256,192,0,128,0,1:0:0:0:0:
256,192,0,128,0,1:0:0:0:0:
256,192,0,128,0,1:0:0:0:0:
256,192,0,128,0,1:0:0:0:0:
256,192,0,128,0,1:0:0:0:0:
256,192,0,128,0,1:0:0:0:0:
256,192,0,128,0,1:0:0:0:0:
256,192,0,128,0,1:0:0:0:0:
256,192,0,128,0,1:0:0:0:0:
256,192,0,128,0,1:0:0:0:0:
256,192,0,128,0,1:0:0:0:0:
256,192,0,128,0,1:0:0:0:0:
256,192,0,128,0,1:0:0:0:0:
256,192,0,128,0,1:0:0:0:0:
256,192,0,128,0,1:0:0:0:0:
256,192,0,128,0,1:0:0:0:0:
256,192,0,128,0,1:0:0:0:0:
256,192,0,128,0,1:0:0:0:0:
256,192,0,128,0,1:0:0:0:0:
256,192,0,128,0,1:0:0:0:0:
256,192,0,128,0,1:0:0:0:0:
256,192,0,128,0,1:0:0:0:0:
256,192,0,128,0,1:0:0:0:0:
256,192,0,128,0,1:0:0:0:0:
256,192,0,128,0,1:0:0:0:0:
256,192,0,128,0,1:0:0:0:0:
256,192,0,128,0,1:0:0:0:0:
256,192,0,128,0,1:0:0:0:0:
256,192,0,128,0,1:0:0:0:0:
256,192,0,128,0,1:0:0:0:0:
256,192,0,128,0,1:0:0:0:0:
256,192,0,128,0,1:0:0:0:0:
256,192,0,128,0,1:0:0:0:0:
256,192,0,128,0,1:0:0:0:0:
256,192,0,128,0,1:0:0:0:0:
256,192,0,128,0,1:0:0:0:0:
256,192,0,128,0,1:0:0:0:0:
256,192,0,128,0,1:0:0:0:0:
256,192,0,128,0,1:0:0:0:0:
256,192,0,128,0,1:0:0:0:0:
256,192,0,128,0,1:0:0:0:0:
256,192,0,128,0,1:0:0:0:0:
256,192,0,128,0,1:0:0:0:0:
256,192,0,128,0,1:0:0:0:0:
256,192,0,128,0,1:0:0:0:0:
256,192,0,128,0,1:0:0:0:0:
256,192,0,128,0,1:0:0:0:0:
256,192,0,128,0,1:0:0:0:0:
256,192,0,128,0,1:0:0:0:0:
256,192,0,128,0,1:0:0:0:0:
256,192,0,128,0,1:0:0:0:0:
256,192,0,128,0,1:0:0:0:0:
256,192,0,128,0,1:0:0:0:0:
256,192,0,128,0,1:0:0:0:0:
256,192,0,128,0,1:0:0:0:0:
256,192,0,128,0,1:0:0:0:0:
256,192,0,128,0,1:0:0:0:0:
256,192,0,128,0,1:0:0:0:0:
256,192,0,128,0,1:0:0:0:0:
256,192,0,128,0,1:0:0:0:0:
256,192,0,128,0,1:0:0:0:0:
256,192,0,128,0,1:0:0:0:0:
256,192,0,128,0,1:0:0:0:0:
256,192,0,128,0,1:0:0:0:0:
256,192,0,128,0,1:0:0:0:0:
256,192,0,128,0,1:0:0:0:0:
256,192,0,128,0,1:0:0:0:0:
256,192,0,128,0,1:0:0:0:0:
256,192,0,128,0,1:0:0:0:0:
256,192,0,128,0,1:0:0:0:0:
256,192,0,128,0,1:0:0:0:0:
256,192,0,128,0,1:0:0:0:0:
256,192,0,128,0,1:0:0:0:0:
256,192,0,128,0,1:0:0:0:0:
256,192,0,128,0,1:0:0:0:0:
256,192,0,128,0,1:0:0:0:0:
256,192,0,128,0,1:0:0:0:0:
256,192,0,128,0,1:0:0:0:0:
256,192,0,128,0,1:0:0:0:0:
256,192,0,128,0,1:0:0:0:0:
256,192,0,128,0,1:0:0:0:0:
256,192,0,128,0,1:0:0:0:0:
256,192,0,128,0,1:0:0:0:0:
256,192,0,128,0,1:0:0:0:0:
256,192,0,128,0,1:0:0:0:0:
256,192,0,128,0,1:0:0:0:0:
256,192,0,128,0,1:0:0:0:0:
256,192,0,128,0,1:0:0:0:0:
256,192,0,128,0,1:0:0:0:0:
256,192,0,128,0,1:0:0:0:0:
256,192,0,128,0,1:0:0:0:0:
256,192,0,128,0,1:0:0:0:0:
256,192,0,128,0,1:0:0:0:0:
256,192,0,128,0,1:0:0:0:0:
256,192,0,128,0,1:0:0:0:0:
256,192,0,128,0,1:0:0:0:0:
256,192,0,128,0,1:0:0:0:0:
256,192,0,128,0,1:0:0:0:0:
256,192,0,128,0,1:0:0:0:0:
256,192,0,128,0,1:0:0:0:0:
256,192,0,128,0,1:0:0:0:0:
256,192,0,128,0,1:0:0:0:0:
256,192,0,128,0,1:0:0:0:0:
256,192,0,128,0,1:0:0:0:0:
256,192,0,128,0,1:0:0:0:0:
256,192,0,128,0,1:0:0:0:0:
256,192,0,128,0,1:0:0:0:0:
256,192,0,128,0,1:0:0:0:0:
256,192,0,128,0,1:0:0:0:0:
256,192,0,128,0,1:0:0:0:0:
256,192,0,128,0,1:0:0:0:0:
256,192,0,128,0,1:0:0:0:0:
256,192,0,128,0,1:0:0:0:0:
256,192,0,128,0,1:0:0:0:0:
256,192,0,128,0,1:0:0:0:0:
256,192,0,128,0,1:0:0:0:0:
256,192,0,128,0,1:0:0:0:0:
256,192,0,128,0,1:0:0:0:0:
256,192,0,128,0,1:0:0:0:0:
256,192,0,128,0,1:0:0:0:0:
256,192,0,128,0,1:0:0:0:0:
256,192,0,128,0,1:0:0:0:0:
256,192,0,128,0,1:0:0:0:0:
256,192,0,128,0,1:0:0:0:0:
256,192,0,128,0,1:0:0:0:0:
256,192,0,128,0,1:0:0:0:0:
256,192,0,128,0,1:0:0:0:0:
256,192,0,128,0,1:0:0:0:0:
256,192,0,128,0,1:0:0:0:0:
256,192,0,128,0,1:0:0:0:0:
256,192,0,128,0,1:0:0:0:0:
256,192,0,128,0,1:0:0:0:0:
256,192,0,128,0,1:0:0:0:0:
256,192,0,128,0,1:0:0:0:0:
256,192,0,128,0,1:0:0:0:0:
256,192,0,128,0,1:0:0:0:0:
256,192,0,128,0,1:0:0:0:0:
256,192,0,128,0,1:0:0:0:0:
256,192,0,128,0,1:0:0:0:0:
256,192,0,128,0,1:0:0:0:0:
256,192,0,128,0,1:0:0:0:0:
256,192,0,128,0,1:0:0:0:0:
256,192,0,128,0,1:0:0:0:0:
256,192,0,128,0,1:0:0:0:0:
256,192,0,128,0,1:0:0:0:0:
256,192,0,128,0,1:0:0:0:0:
256,192,0,128,0,1:0:0:0:0:
256,192,0,128,0,1:0:0:0:0:
256,192,0,128,0,1:0:0:0:0:
256,192,0,128,0,1:0:0:0:0:
256,192,0,128,0,1:0:0:0:0:
256,192,0,128,0,1:0:0:0:0:
256,192,0,128,0,1:0:0:0:0:
256,192,0,128,0,1:0:0:0:0:
256,192,0,128,0,1:0:0:0:0:
256,192,0,128,0,1:0:0:0:0:
256,192,0,128,0,1:0:0:0:0:
256,192,0,128,0,1:0:0:0:0:
256,192,0,128,0,1:0:0:0:0:
256,192,0,128,0,1:0:0:0:0:
256,192,0,128,0,1:0:0:0:0:
256,192,0,128,0,1:0:0:0:0:
256,192,0,128,0,1:0:0:0:0:
256,192,0,128,0,1:0:0:0:0:
256,192,0,128,0,1:0:0:0:0:
256,192,0,128,0,1:0:0:0:0:
256,192,0,128,0,1:0:0:0:0:
256,192,0,128,0,1:0:0:0:0:
256,192,0,128,0,1:0:0:0:0:
256,192,0,128,0,1:0:0:0:0:
256,192,0,128,0,1:0:0:0:0:
256,192,0,128,0,1:0:0:0:0:
256,192,0,128,0,1:0:0:0:0:
256,192,0,128,0,1:0:0:0:0:
256,192,0,128,0,1:0:0:0:0:
256,192,0,128,0,1:0:0:0:0:
256,192,0,128,0,1:0:0:0:0:
256,192,0,128,0,1:0:0:0:0:
256,192,0,128,0,1:0:0:0:0:
256,192,0,128,0,1:0:0:0:0:
256,192,0,128,0,1:0:0:0:0:
256,192,0,128,0,1:0:0:0:0:
256,192,0,128,0,1:0:0:0:0:
256,192,0,128,0,1:0:0:0:0:
256,192,0,128,0,1:0:0:0:0:
256,192,0,128,0,1:0:0:0:0:
256,192,0,128,0,1:0:0:0:0:
256,192,0,128,0,1:0:0:0:0:
256,192,0,128,0,1:0:0:0:0:
256,192,0,128,0,1:0:0:0:0:
256,192,0,128,0,1:0:0:0:0:
256,192,0,128,0,1:0:0:0:0:
256,192,0,128,0,1:0:0:0:0:
256,192,0,128,0,1:0:0:0:0:
256,192,0,128,0,1:0:0:0:0:
256,192,0,128,0,1:0:0:0:0:
256,192,0,128,0,1:0:0:0:0:
256,192,0,128,0,1:0:0:0:0:
256,192,0,128,0,1:0:0:0:0:
256,192,0,128,0,1:0:0:0:0:
256,192,0,128,0,1:0:0:0:0:
256,192,0,128,0,1:0:0:0:0:
256,192,7564,5,0,0:0:0:0:
