osu file format v14

[General]
AudioFilename: audio.mp3
AudioLeadIn: 0
PreviewTime: 83065
Countdown: 0
SampleSet: Soft
StackLeniency: 0.4
Mode: 0
LetterboxInBreaks: 0
WidescreenStoryboard: 1

[Editor]
Bookmarks: 41335,60794,61443,72551,73119,99389,101551
DistanceSpacing: 0.3
BeatDivisor: 4
GridSize: 32
TimelineZoom: 2.2

[Metadata]
Title:POSSESSION
TitleUnicode:POSSESSION
Artist:TAG underground
ArtistUnicode:TAG underground
Creator:pewdekz
Version:STANDARD
Source:beatmania IIDX 23 copula
Tags:ddr reflec beat 悠久のリフレシア bms jubeat festo psychic flash Yasuhiro Taguchi 田口康裕 instrumental electronic konami dancedancerevolutionx2 doubletap dance revolution
BeatmapID:3464292
BeatmapSetID:1691083

[Difficulty]
HPDrainRate:3
CircleSize:3.6
OverallDifficulty:6.2
ApproachRate:7.7
SliderMultiplier:1.2
SliderTickRate:0.5

[Events]
//Background and Video events
0,0,"BIG_RES.png",0,0
//Break Periods
2,52881,57051
//Storyboard Layer 0 (Background)
//Storyboard Layer 1 (Fail)
//Storyboard Layer 2 (Pass)
//Storyboard Layer 3 (Foreground)
//Storyboard Layer 4 (Overlay)
//Storyboard Sound Samples

[TimingPoints]
790,324.324324324324,4,2,1,65,1,0
790,-100,4,2,1,70,0,0
42303,-100,4,2,1,70,0,1
52681,-100,4,2,1,70,0,0
63060,-95.2380952380952,4,2,1,70,0,0
73438,-90.9090909090909,4,2,1,72,0,1
81222,-90.9090909090909,4,2,1,72,0,0
83817,-90.9090909090909,4,2,1,65,0,1
104087,-100,4,2,1,65,0,1
104573,-100,4,2,1,65,0,0

[Colours]
Combo1 : 2,183,66
Combo2 : 155,55,255
Combo3 : 0,128,192
Combo4 : 64,0,128
Combo5 : 0,0,160
Combo6 : 255,0,0

[HitObjects]
48,345,790,6,0,L|38:261,1,60,14|0,0:2|0:2,0:0:0:0:
89,213,1114,2,0,P|128:254|204:268,1,120,2|8,1:2|0:2,0:0:0:0:
244,332,1600,2,0,P|299:320|369:352,1,120,2|0,0:2|0:2,0:0:0:0:
432,301,2087,1,10,0:2:0:0:
432,301,2249,2,0,L|441:217,1,60,0|0,0:2|1:2,0:0:0:0:
487,173,2573,1,2,0:2:0:0:
449,66,2898,1,2,0:2:0:0:
341,25,3222,2,0,B|290:32|290:32|282:39|282:39|220:48,1,120,2|0,0:2|0:2,0:0:0:0:
140,85,3708,2,0,L|117:21,2,60,2|0|8,1:2|0:0|0:2,0:0:0:0:
118,202,4195,2,0,P|156:174|239:171,1,120,0|0,0:2|0:2,0:0:0:0:
284,228,4681,2,0,L|269:358,1,120,10|0,0:2|1:2,0:0:0:0:
360,384,5168,2,0,L|375:254,1,120,2|2,0:2|0:2,0:0:0:0:
428,200,5654,1,2,1:2:0:0:
409,112,5817,1,2,0:2:0:0:
336,67,5979,6,0,P|311:85|263:94,1,60,8|0,0:0|0:2,0:0:0:0:
204,66,6303,2,0,P|143:62|85:91,1,120,2|8,1:2|0:2,0:0:0:0:
31,146,6789,2,0,L|46:273,1,120,2|0,0:2|0:2,0:0:0:0:
64,350,7276,1,10,0:2:0:0:
152,355,7438,2,0,P|165:325|164:286,1,60,0|0,0:2|1:2,0:0:0:0:
219,220,7762,1,2,0:2:0:0:
189,109,8087,1,2,0:2:0:0:
283,42,8411,2,0,P|346:54|384:119,1,120,2|0,0:2|0:2,0:0:0:0:
448,154,8898,1,2,1:2:0:0:
448,154,9060,2,0,L|430:223,1,60,0|8,0:0|0:0,0:0:0:0:
462,298,9384,2,0,B|378:308|378:308|353:335,1,120,0|0,0:2|0:2,0:0:0:0:
256,346,9871,2,0,P|282:304|282:232,1,120,10|0,0:2|1:2,0:0:0:0:
190,211,10357,2,0,P|164:253|164:325,1,120,2|2,0:2|0:2,0:0:0:0:
74,357,10844,1,2,1:2:0:0:
9,300,11006,1,2,0:2:0:0:
10,179,11168,6,0,B|65:187|65:187|132:158,1,120,12|2,0:2|1:2,0:0:0:0:
190,112,11654,1,0,0:2:0:0:
267,162,11817,1,8,0:2:0:0:
267,162,11979,2,0,L|282:35,1,120,2|0,0:2|0:2,0:0:0:0:
383,26,12465,2,0,L|367:152,1,120,10|0,0:2|1:2,0:0:0:0:
407,221,12952,1,2,0:2:0:0:
340,311,13276,1,2,0:2:0:0:
231,273,13600,2,0,P|185:304|114:295,1,120,2|0,0:2|0:2,0:0:0:0:
60,225,14087,2,0,P|32:226|-6:244,2,60,2|0|8,1:2|0:0|0:2,0:0:0:0:
87,136,14573,2,0,B|145:146|145:146|147:154|147:154|218:167,1,120,0|0,0:2|0:2,0:0:0:0:
267,217,15060,2,0,L|242:351,1,120,10|0,0:2|1:2,0:0:0:0:
318,379,15546,2,0,P|362:348|433:356,1,120,2|2,0:2|0:2,0:0:0:0:
486,288,16033,1,2,1:2:0:0:
461,206,16195,1,2,0:2:0:0:
486,123,16357,6,0,L|475:57,1,60,8|0,0:2|0:2,0:0:0:0:
399,18,16681,2,0,B|347:24|347:24|339:33|339:33|272:40,1,120,2|8,1:2|0:2,0:0:0:0:
227,107,17168,2,0,B|175:100|175:100|167:92|167:92|100:85,1,120,2|0,0:2|0:2,0:0:0:0:
41,137,17654,1,10,0:2:0:0:
41,137,17817,2,0,L|48:198,1,60,0|0,0:2|1:2,0:0:0:0:
16,312,18141,1,2,0:2:0:0:
124,365,18465,1,2,0:2:0:0:
238,299,18789,2,0,B|287:333|287:333|367:320,1,120,2|0,0:2|0:2,0:0:0:0:
406,256,19276,38,0,L|388:121,1,120,2|8,1:2|0:2,0:0:0:0:
293,102,19762,2,0,L|310:236,1,120,2|0,0:2|0:2,0:0:0:0:
252,297,20249,1,10,0:2:0:0:
180,251,20411,2,0,L|186:194,2,30,8|8|0,0:2|0:2|1:0,0:0:0:0:
105,298,20735,2,0,L|111:354,2,30,10|8|8,0:2|0:2|0:2,0:0:0:0:
46,235,21060,1,2,0:2:0:0:
46,235,21141,1,8,0:2:0:0:
46,235,21222,2,0,L|50:194,3,30,8|0|8|8,1:2|0:2|0:2|0:2,0:0:0:0:
38,172,21546,1,14,0:2:0:0:
256,192,21708,12,12,24141,0:2:0:0:
256,192,24627,37,12,0:2:0:0:
256,192,26087,1,12,0:2:0:0:
256,192,26411,1,12,0:2:0:0:
349,157,26735,38,0,L|354:111,2,30,14|0|10,1:2|1:2|1:2,0:0:0:0:
432,212,27060,2,0,L|423:289,1,60,2|8,1:2|0:2,0:0:0:0:
447,361,27384,1,2,1:2:0:0:
447,361,27546,2,0,B|395:353|395:353|382:358|382:358|316:349,1,120,10|2,0:2|1:2,0:0:0:0:
329,350,28195,5,2,0:2:0:0:
242,380,28357,2,0,P|240:347|213:305,1,60,2|8,1:2|0:2,0:0:0:0:
212,295,28600,1,0,0:0:0:0:
212,295,28681,2,0,L|227:223,1,60,2|2,0:2|0:2,0:0:0:0:
148,185,29006,2,0,L|133:257,1,60,2|14,1:2|0:2,0:0:0:0:
234,146,29330,6,0,P|234:99|279:45,1,120,14|2,0:2|1:2,0:0:0:0:
184,0,29817,2,0,P|167:43|106:78,1,120,12|2,0:2|0:2,0:0:0:0:
28,40,30303,1,12,1:2:0:0:
0,254,30627,1,0,1:2:0:0:
0,254,30789,2,0,B|51:248|51:248|56:236|56:236|114:228,1,120,12|2,0:2|0:2,0:0:0:0:
139,209,31195,1,2,0:2:0:0:
152,175,31276,2,0,L|141:89,1,60,14|2,0:2|1:2,0:0:0:0:
206,53,31600,1,14,0:2:0:0:
206,53,31762,1,2,0:2:0:0:
287,134,31925,6,0,L|293:83,2,30,14|2|2,0:2|0:2|0:2,0:0:0:0:
354,192,32249,2,0,L|366:265,1,60,2|0,1:2|0:2,0:0:0:0:
458,277,32573,1,10,0:2:0:0:
458,277,32735,2,0,L|446:204,1,60,2|0,0:2|1:2,0:0:0:0:
495,146,33060,2,0,P|443:93|387:88,1,120,2|2,0:2|0:2,0:0:0:0:
334,38,33546,2,0,P|307:46|258:40,1,60,2|0,1:2|0:2,0:0:0:0:
241,31,33789,1,0,0:2:0:0:
207,13,33871,2,0,P|180:5|131:11,1,60,10|2,0:2|0:2,0:0:0:0:
74,52,34195,2,0,L|86:125,1,60,2|2,1:2|0:2,0:0:0:0:
155,186,34519,38,0,L|163:133,2,30,10|2|2,0:2|0:2|0:2,0:0:0:0:
147,270,34844,2,0,P|179:265|216:241,1,60,2|0,1:2|0:2,0:0:0:0:
272,200,35168,1,10,0:2:0:0:
327,263,35330,2,0,L|318:334,1,60,2|0,0:2|1:2,0:0:0:0:
406,365,35654,2,0,L|422:236,1,120,2|2,0:2|0:2,0:0:0:0:
430,161,36141,1,2,1:2:0:0:
384,89,36303,1,0,0:2:0:0:
384,89,36384,1,0,0:2:0:0:
384,89,36465,2,0,P|348:96|320:117,1,60,10|2,0:2|0:2,0:0:0:0:
281,185,36789,1,2,1:2:0:0:
310,262,36952,1,2,0:2:0:0:
217,291,37114,6,0,L|224:241,2,30,10|2|2,0:2|0:2|0:2,0:0:0:0:
173,361,37438,2,0,L|87:371,1,60,2|0,1:2|0:2,0:0:0:0:
45,314,37762,1,10,0:2:0:0:
45,314,37925,2,0,P|66:288|75:246,1,60,2|0,0:2|1:2,0:0:0:0:
140,207,38249,2,0,B|131:152|131:152|125:145|125:145|116:85,1,120,2|2,0:2|0:2,0:0:0:0:
163,21,38735,2,0,P|188:41|230:50,1,60,2|0,1:2|0:2,0:0:0:0:
251,47,38979,1,0,0:2:0:0:
287,30,39060,2,0,P|318:27|358:44,1,60,10|2,0:2|0:2,0:0:0:0:
395,104,39384,2,0,L|384:189,1,60,2|2,1:2|0:2,0:0:0:0:
300,233,39708,6,0,L|308:181,2,30,10|2|2,0:2|0:2|0:2,0:0:0:0:
358,306,40033,2,0,L|438:287,1,60,2|0,1:2|0:2,0:0:0:0:
470,220,40357,1,10,0:2:0:0:
447,130,40519,2,0,P|421:112|376:101,1,60,2|0,0:2|1:2,0:0:0:0:
337,36,40844,2,0,B|310:67|310:67|232:76,1,120,2|2,0:2|0:2,0:0:0:0:
153,33,41330,1,2,1:2:0:0:
97,127,41492,1,2,0:2:0:0:
97,127,41573,1,2,0:2:0:0:
97,127,41654,6,0,L|173:117,1,60,10|10,0:2|0:2,0:0:0:0:
232,185,41979,1,10,0:2:0:0:
208,274,42141,1,10,0:2:0:0:
264,354,42303,6,0,L|373:334,2,80,6|2|2,3:2|3:2|3:2,0:0:0:0:
136,367,42952,2,0,L|26:353,2,80,2|2|2,3:2|3:2|3:2,0:0:0:0:
109,258,43600,5,2,3:2:0:0:
39,178,43817,2,0,L|57:90,1,80,2|2,3:2|3:2,0:0:0:0:
140,48,44249,1,2,3:2:0:0:
208,134,44465,2,0,L|190:234,1,80,2|2,3:2|3:2,0:0:0:0:
332,294,44898,70,0,P|322:260|327:205,2,80,2|2|2,3:2|3:2|3:2,0:0:0:0:
454,203,45546,2,0,P|464:241|462:281,2,80,2|2|2,3:2|3:2|3:2,0:0:0:0:
371,125,46195,1,2,3:2:0:0:
358,21,46411,2,0,P|390:19|440:46,1,80,2|2,3:2|3:2,0:0:0:0:
269,93,46844,1,2,3:2:0:0:
263,122,47060,1,2,3:2:0:0:
257,148,47276,1,2,3:2:0:0:
173,232,47492,6,0,L|81:243,2,80,2|2|2,3:2|3:2|3:2,0:0:0:0:
213,350,48141,2,0,L|304:361,2,80,2|2|2,3:2|3:2|3:2,0:0:0:0:
25,367,48789,69,2,3:2:0:0:
25,367,49006,2,0,P|8:334|10:284,1,80,2|2,3:2|3:2,0:0:0:0:
30,189,49438,1,2,3:2:0:0:
133,139,49654,2,0,P|164:158|214:161,1,80,2|2,3:2|3:2,0:0:0:0:
302,33,50087,6,0,L|315:140,2,80,2|2|2,3:2|3:2|3:2,0:0:0:0:
423,179,50735,2,0,L|436:71,2,80,2|2|2,3:2|3:2|3:2,0:0:0:0:
304,222,51384,1,2,3:2:0:0:
299,257,51600,1,2,3:2:0:0:
294,290,51817,1,2,3:2:0:0:
374,366,52033,22,0,P|410:357|434:331,1,60,10|8,3:2|0:2,0:0:0:0:
476,273,52357,2,0,L|473:224,3,30,8|8|8|8,0:2|0:2|0:2|0:2,0:0:0:0:
489,208,52681,1,14,0:2:0:0:
41,338,57871,6,0,L|50:264,1,60,10|10,0:2|0:2,0:0:0:0:
111,220,58195,1,10,1:2:0:0:
182,263,58357,1,10,1:2:0:0:
251,210,58519,1,10,1:2:0:0:
251,210,58681,2,0,L|234:84,1,120,10|10,0:2|0:2,0:0:0:0:
320,46,59168,2,0,L|330:113,2,60,10|10|10,0:2|0:2|1:2,0:0:0:0:
398,1,59654,2,0,P|469:30|475:94,1,120,10|10,0:2|0:2,0:0:0:0:
491,153,60141,1,10,1:2:0:0:
419,202,60303,1,10,1:2:0:0:
331,190,60465,6,0,L|325:239,3,30,10|8|10|8,0:2|0:2|0:2|0:2,0:0:0:0:
302,248,60790,2,0,L|308:297,3,30,10|8|10|8,1:2|0:2|1:2|1:2,0:0:0:0:
325,307,61114,2,0,L|319:356,3,30,10|8|10|8,1:2|1:2|0:2|0:2,0:0:0:0:
346,365,61438,2,0,L|427:349,1,60,10|10,1:2|1:2,0:0:0:0:
451,275,61763,1,14,0:2:0:0:
68,348,63060,37,14,0:2:0:0:
66,336,63141,1,2,0:2:0:0:
64,322,63222,1,2,0:2:0:0:
7,254,63384,2,0,L|27:176,1,62.9999980773926,2|0,1:2|0:2,0:0:0:0:
91,133,63708,1,10,0:2:0:0:
172,202,63871,2,0,L|184:140,1,62.9999980773926,2|0,0:2|1:2,0:0:0:0:
269,184,64195,2,0,L|243:318,1,125.999996154785,2|2,0:2|0:2,0:0:0:0:
312,372,64681,1,2,1:2:0:0:
312,372,65006,6,0,L|389:359,1,62.9999980773926,10|2,0:2|0:2,0:0:0:0:
400,270,65330,2,0,L|323:283,1,62.9999980773926,2|2,1:2|0:2,0:0:0:0:
469,348,65654,6,0,L|480:302,2,31.4999990386963,10|2|2,0:2|0:2|0:2,0:0:0:0:
498,235,65979,2,0,P|497:198|479:160,1,62.9999980773926,2|0,1:2|0:2,0:0:0:0:
412,113,66303,1,10,0:2:0:0:
412,113,66465,2,0,L|326:134,1,62.9999980773926,2|0,0:2|1:2,0:0:0:0:
268,67,66789,2,0,B|256:119|256:119|261:128|261:128|248:189,1,125.999996154785,2|2,0:2|0:2,0:0:0:0:
294,272,67276,1,2,1:2:0:0:
294,272,67600,5,10,0:2:0:0:
219,334,67762,1,2,0:2:0:0:
127,304,67925,2,0,P|111:278|109:224,1,62.9999980773926,2|2,1:2|0:2,0:0:0:0:
18,217,68249,37,14,0:2:0:0:
20,205,68330,1,2,0:2:0:0:
22,191,68411,1,2,0:2:0:0:
71,117,68573,2,0,P|105:113|151:87,1,62.9999980773926,2|0,1:2|0:2,0:0:0:0:
201,33,68898,1,10,0:2:0:0:
301,15,69060,2,0,P|332:27|361:60,1,62.9999980773926,2|0,0:2|1:2,0:0:0:0:
400,125,69384,2,0,P|360:183|365:253,1,125.999996154785,2|2,0:2|0:2,0:0:0:0:
406,321,69871,1,2,1:2:0:0:
406,321,70195,6,0,P|438:313|466:280,1,62.9999980773926,10|2,0:2|0:2,0:0:0:0:
413,209,70519,2,0,P|381:217|353:250,1,62.9999980773926,2|2,1:2|0:2,0:0:0:0:
504,207,70844,6,0,L|509:162,2,31.4999990386963,10|2|2,0:2|0:2|0:2,0:0:0:0:
448,115,71168,2,0,P|416:107|388:74,1,62.9999980773926,2|0,1:2|0:2,0:0:0:0:
323,31,71492,1,10,0:2:0:0:
323,31,71654,2,0,L|249:49,1,62.9999980773926,2|0,0:2|1:2,0:0:0:0:
184,88,71979,2,0,B|127:79|127:79|119:71|119:71|54:59,1,125.999996154785,2|2,0:2|0:2,0:0:0:0:
10,132,72465,2,0,P|25:161|27:203,1,62.9999980773926,2|0,1:2|0:2,0:0:0:0:
24,225,72708,1,0,0:2:0:0:
15,252,72789,5,10,0:2:0:0:
86,314,72952,1,2,0:2:0:0:
168,258,73114,2,0,P|154:237|152:181,1,62.9999980773926,2|2,1:2|0:2,0:0:0:0:
220,141,73438,37,14,0:2:0:0:
239,159,73519,1,2,0:2:0:0:
269,165,73600,1,2,0:2:0:0:
347,110,73762,2,0,L|367:191,1,66.0000020141602,2|0,1:2|0:2,0:0:0:0:
375,208,74006,1,2,0:2:0:0:
383,239,74087,2,0,P|388:284|380:310,1,66.0000020141602,10|2,0:2|0:2,0:0:0:0:
317,358,74411,1,0,1:2:0:0:
236,310,74573,2,0,P|197:295|110:319,1,132.00000402832,2|2,0:2|0:2,0:0:0:0:
28,279,75060,1,2,1:2:0:0:
28,279,75384,5,10,0:2:0:0:
41,193,75546,1,2,0:2:0:0:
129,161,75708,2,0,P|156:187|200:196,1,66.0000020141602,2|2,1:2|0:2,0:0:0:0:
249,117,76033,6,0,L|258:163,2,33.0000010070801,10|2|2,0:2|0:2|0:2,0:0:0:0:
306,42,76357,2,0,P|335:74|375:90,1,66.0000020141602,2|0,1:2|0:2,0:0:0:0:
381,96,76600,1,2,0:2:0:0:
413,93,76681,1,10,0:2:0:0:
477,159,76844,2,0,L|454:251,1,66.0000020141602,2|0,0:2|1:2,0:0:0:0:
357,244,77168,2,0,L|390:109,1,132.00000402832,2|2,0:2|0:2,0:0:0:0:
351,37,77654,1,2,1:2:0:0:
269,9,77817,1,0,0:2:0:0:
269,9,77898,1,0,0:2:0:0:
269,9,77979,5,10,0:2:0:0:
208,72,78141,1,2,0:2:0:0:
118,56,78303,2,0,L|136:141,1,66.0000020141602,2|2,1:2|0:2,0:0:0:0:
201,197,78627,38,0,L|206:164,2,33.0000010070801,14|2|2,0:2|0:2|0:2,0:0:0:0:
210,287,78952,2,0,P|241:268|284:269,1,66.0000020141602,2|0,1:2|0:2,0:0:0:0:
304,272,79195,1,2,0:2:0:0:
339,279,79276,2,0,P|375:279|411:255,1,66.0000020141602,10|2,0:2|0:2,0:0:0:0:
473,207,79600,1,0,1:2:0:0:
483,112,79762,2,0,P|435:61|354:51,1,132.00000402832,2|2,0:2|0:2,0:0:0:0:
297,13,80249,1,2,1:2:0:0:
297,13,80573,6,0,L|279:82,1,66.0000020141602,10|2,0:2|0:2,0:0:0:0:
213,141,80898,1,2,1:2:0:0:
240,229,81060,1,2,0:2:0:0:
201,310,81222,6,0,B|150:298|150:298|127:310|127:310|69:298,1,132.00000402832,10|8,0:2|1:2,0:0:0:0:
40,221,81708,1,10,0:2:0:0:
66,137,81871,1,10,0:2:0:0:
66,137,82033,2,0,L|138:125,1,66.0000020141602,10|8,0:2|1:2,0:0:0:0:
143,30,82357,2,0,L|71:42,1,66.0000020141602,10|8,0:2|0:2,0:0:0:0:
216,90,82681,1,10,0:2:0:0:
283,30,82844,2,0,P|324:31|373:50,1,66.0000020141602,10|10,1:2|0:2,0:0:0:0:
377,51,83087,1,8,0:2:0:0:
398,78,83168,5,10,0:2:0:0:
375,170,83330,1,10,0:2:0:0:
472,210,83492,2,0,L|460:135,1,66.0000020141602,10|10,1:2|0:2,0:0:0:0:
292,249,83817,6,0,L|382:272,2,88.000002685547,6|2|2,3:2|3:2|3:2,0:0:0:0:
192,174,84465,2,0,L|102:197,2,88.000002685547,2|2|2,3:2|3:2|3:2,0:0:0:0:
269,34,85114,5,2,3:2:0:0:
269,34,85330,2,0,P|302:68|358:84,1,88.000002685547,2|2,3:2|3:2,0:0:0:0:
445,48,85762,1,2,3:2:0:0:
490,144,85979,2,0,L|473:239,1,88.000002685547,2|2,3:2|3:2,0:0:0:0:
301,345,86411,70,0,P|336:317|397:311,2,88.000002685547,2|2|2,3:2|3:2|3:2,0:0:0:0:
247,238,87060,2,0,P|212:266|151:272,2,88.000002685547,2|2|2,3:2|3:2|3:2,0:0:0:0:
255,67,87708,5,2,3:2:0:0:
143,95,87925,2,0,L|120:183,1,88.000002685547,2|2,3:2|3:2,0:0:0:0:
33,259,88357,1,2,3:2:0:0:
24,229,88573,1,2,3:2:0:0:
16,199,88789,1,2,3:2:0:0:
215,208,89006,70,0,L|238:118,2,88.000002685547,2|2|2,3:2|3:2|3:2,0:0:0:0:
122,271,89654,2,0,L|145:361,2,88.000002685547,2|2|2,3:2|3:2|3:2,0:0:0:0:
300,347,90303,5,2,3:2:0:0:
376,228,90519,2,0,P|331:227|288:257,1,88.000002685547,2|2,3:2|3:2,0:0:0:0:
224,172,90952,1,2,3:2:0:0:
266,77,91168,2,0,P|311:78|354:48,1,88.000002685547,2|2,3:2|3:2,0:0:0:0:
88,43,91600,70,0,L|66:128,2,88.000002685547,2|2|2,3:2|3:2|3:2,0:0:0:0:
204,212,92249,2,0,L|182:126,2,88.000002685547,2|2|2,3:2|3:2|3:2,0:0:0:0:
42,287,92898,1,2,3:2:0:0:
42,287,93114,2,0,L|156:307,1,88.000002685547,2|2,3:2|3:2,0:0:0:0:
232,246,93546,5,2,3:2:0:0:
225,280,93762,1,2,3:2:0:0:
240,311,93979,1,2,3:2:0:0:
405,344,94195,70,0,L|420:281,1,44.0000013427735,6|0,3:2|0:2,0:0:0:0:
386,276,94411,2,0,L|370:213,1,44.0000013427735,2|0,3:2|3:2,0:0:0:0:
400,204,94627,1,2,3:2:0:0:
354,95,94844,1,2,3:2:0:0:
346,124,95060,1,2,3:2:0:0:
337,154,95276,1,2,3:2:0:0:
213,31,95492,6,0,L|228:93,1,44.0000013427735,2|0,3:2|0:2,0:0:0:0:
252,99,95708,2,0,L|241:142,1,44.0000013427735,2|0,3:2|3:2,0:0:0:0:
214,169,95925,1,2,3:2:0:0:
121,296,96141,1,2,3:2:0:0:
129,267,96357,1,2,3:2:0:0:
137,238,96573,1,2,3:2:0:0:
202,349,96789,70,0,L|292:330,2,88.000002685547,2|2|2,3:2|3:2|3:2,0:0:0:0:
137,238,97438,2,0,L|47:219,1,88.000002685547,2|2,3:2|3:2,0:0:0:0:
30,107,97871,1,2,3:2:0:0:
161,67,98087,5,2,3:2:0:0:
154,98,98303,1,2,3:2:0:0:
147,128,98519,1,2,3:2:0:0:
208,217,98735,2,0,P|226:205|259:197,1,44.0000013427735,2|0,3:2|0:0,0:0:0:0:
278,178,98952,2,0,P|296:189|317:215,1,44.0000013427735,2|0,3:2|0:0,0:0:0:0:
322,243,99168,1,2,3:2:0:0:
453,209,99384,70,0,L|439:153,1,44.0000013427735,2|0,3:2|0:2,0:0:0:0:
463,133,99600,2,0,L|407:122,1,44.0000013427735,2|0,3:2|3:2,0:0:0:0:
401,91,99817,1,2,3:2:0:0:
305,172,100033,1,2,3:2:0:0:
297,141,100249,1,2,3:2:0:0:
290,113,100465,1,2,3:2:0:0:
442,244,100681,6,0,L|424:312,1,44.0000013427735,2|0,3:2|0:2,0:0:0:0:
416,320,100898,2,0,L|346:333,1,44.0000013427735,2|0,3:2|3:2,0:0:0:0:
344,306,101114,1,2,3:2:0:0:
222,347,101330,1,2,3:2:0:0:
243,327,101546,1,2,3:2:0:0:
248,296,101762,1,2,3:2:0:0:
80,180,101979,70,0,P|85:206|104:233,1,44.0000013427735,2|0,3:2|0:2,0:0:0:0:
92,260,102195,2,0,P|116:249|149:249,1,44.0000013427735,2|0,3:2|3:2,0:0:0:0:
170,257,102411,1,2,3:2:0:0:
292,227,102627,1,2,3:2:0:0:
298,191,102844,1,2,3:2:0:0:
303,153,103060,1,2,3:2:0:0:
433,138,103276,5,2,3:2:0:0:
481,207,103492,1,2,3:2:0:0:
463,291,103708,1,2,3:2:0:0:
358,352,103925,22,0,L|284:334,1,66.0000020141602,10|8,3:2|0:2,0:0:0:0:
215,372,104249,2,0,L|201:315,3,30,8|8|8|8,0:2|0:2|0:2|0:2,0:0:0:0:
213,309,104573,1,12,0:2:0:0:
