osu file format v14

[General]
AudioFilename: audio.mp3
AudioLeadIn: 0
PreviewTime: 83065
Countdown: 0
SampleSet: Soft
StackLeniency: 0.7
Mode: 0
LetterboxInBreaks: 0
WidescreenStoryboard: 1

[Editor]
Bookmarks: 11497,41335,60794,61443,72551,73119,99389,101551
DistanceSpacing: 0.3
BeatDivisor: 12
GridSize: 32
TimelineZoom: 5.299997

[Metadata]
Title:POSSESSION
TitleUnicode:POSSESSION
Artist:TAG underground
ArtistUnicode:TAG underground
Creator:pewdekz
Version:EXPERT
Source:beatmania IIDX 23 copula
Tags:ddr reflec beat 悠久のリフレシア bms jubeat festo psychic flash Yasuhiro Taguchi 田口康裕 instrumental electronic konami dancedancerevolutionx2 doubletap dance revolution
BeatmapID:3466140
BeatmapSetID:1691083

[Difficulty]
HPDrainRate:5
CircleSize:4.4
OverallDifficulty:8.2
ApproachRate:9
SliderMultiplier:1.5
SliderTickRate:1

[Events]
//Background and Video events
0,0,"BIG_RES.png",0,0
//Break Periods
//Storyboard Layer 0 (Background)
//Storyboard Layer 1 (Fail)
//Storyboard Layer 2 (Pass)
//Storyboard Layer 3 (Foreground)
//Storyboard Layer 4 (Overlay)
//Storyboard Sound Samples

[TimingPoints]
790,324.324324324324,4,2,1,65,1,0
790,-100,4,2,1,65,0,0
42303,-86.9565217391304,4,2,1,70,0,1
52033,-100,4,2,1,65,0,1
52195,-100,4,2,1,65,0,1
52681,-100,4,2,1,65,0,0
63059,-95.2380952380952,4,2,1,70,0,0
73438,-90.9090909090909,4,2,1,72,0,1
81222,-90.9090909090909,4,2,1,70,0,0
83817,-90.9090909090909,4,2,1,70,0,1
103925,-90.9090909090909,4,2,1,70,0,1
104573,-90.9090909090909,4,2,1,65,0,0

[Colours]
Combo1 : 2,183,66
Combo2 : 155,55,255
Combo3 : 0,128,192
Combo4 : 64,0,128
Combo5 : 0,0,160
Combo6 : 255,0,0

[HitObjects]
84,343,790,5,14,0:2:0:0:
84,343,810,70,0,L|76:273,1,65.625,0|0,0:2|0:2,0:0:0:0:
182,211,1114,6,0,L|191:298,1,75,2|0,1:2|0:2,0:0:0:0:
65,174,1438,1,8,0:2:0:0:
182,211,1600,2,0,L|191:298,1,75,2|0,0:2|1:2,0:0:0:0:
65,174,1925,1,0,0:2:0:0:
274,216,2087,2,0,L|292:372,1,150,10|0,0:2|1:2,0:0:0:0:
450,263,2573,2,0,L|362:253,1,75,2|8,0:2|0:2,0:0:0:0:
254,113,2898,2,0,L|341:122,1,75,2|0,0:2|1:2,0:0:0:0:
404,67,3222,1,2,0:2:0:0:
274,216,3384,2,0,L|186:206,1,75,8|0,0:2|0:2,0:0:0:0:
68,29,3708,6,0,P|78:79|169:126,1,150,2|8,1:2|0:2,0:0:0:0:
362,37,4195,1,0,0:2:0:0:
362,37,4357,2,0,L|370:111,1,75,0|0,1:2|0:2,0:0:0:0:
191,282,4681,2,0,L|199:207,1,75,10|0,0:2|0:2,0:0:0:0:
265,350,5005,1,0,1:2:0:0:
191,282,5168,2,0,L|199:207,1,75,2|8,0:2|0:2,0:0:0:0:
402,189,5492,5,2,0:2:0:0:
292,259,5654,1,2,1:2:0:0:
197,91,5816,2,0,B|215:117|215:117|296:131,1,112.5,2|0,0:2|0:2,0:0:0:0:
311,107,6141,1,0,0:2:0:0:
72,86,6303,6,0,L|82:173,1,75,2|0,1:2|0:2,0:0:0:0:
136,11,6627,1,8,0:2:0:0:
72,86,6789,2,0,L|82:173,1,75,2|0,0:2|1:2,0:0:0:0:
136,11,7114,1,0,0:2:0:0:
0,168,7276,2,0,L|22:323,1,150,10|0,0:2|1:2,0:0:0:0:
227,226,7762,2,0,L|152:216,1,75,2|8,0:2|0:2,0:0:0:0:
80,375,8087,2,0,L|154:384,1,75,2|0,0:2|1:2,0:0:0:0:
242,322,8411,1,2,0:2:0:0:
217,121,8573,2,0,L|142:111,1,75,8|0,0:2|0:2,0:0:0:0:
434,158,8898,38,0,P|418:82|328:65,1,150,2|8,1:2|0:0,0:0:0:0:
215,37,9384,1,0,0:2:0:0:
215,37,9546,2,0,L|224:111,1,75,0|0,1:2|0:2,0:0:0:0:
384,290,9870,2,0,L|374:215,1,75,10|0,0:2|0:2,0:0:0:0:
295,355,10195,1,0,1:2:0:0:
384,290,10357,2,0,L|374:215,1,75,2|8,0:2|0:2,0:0:0:0:
308,106,10681,5,2,0:2:0:0:
374,215,10843,1,2,1:2:0:0:
234,352,11005,1,2,0:2:0:0:
234,352,11168,6,0,L|159:342,1,75,12|0,0:2|0:2,0:0:0:0:
95,181,11492,2,0,L|170:191,1,75,2|0,1:2|0:2,0:0:0:0:
34,256,11816,1,8,0:2:0:0:
55,93,11978,2,0,L|130:103,1,75,2|0,0:2|1:2,0:0:0:0:
34,256,12303,1,0,0:2:0:0:
266,127,12465,2,0,L|245:292,1,150,10|0,0:2|1:2,0:0:0:0:
310,363,12951,2,0,L|385:353,1,75,2|8,0:2|0:2,0:0:0:0:
416,184,13276,2,0,L|341:194,1,75,2|0,0:2|1:2,0:0:0:0:
266,127,13600,1,2,0:2:0:0:
214,281,13762,2,0,L|289:272,1,75,8|0,0:2|0:2,0:0:0:0:
112,356,14086,6,0,B|119:300|119:300|98:281|98:281|108:201,1,150,2|8,1:2|0:2,0:0:0:0:
15,146,14573,1,0,0:2:0:0:
15,146,14735,2,0,P|48:108|83:101,1,75,0|0,1:2|0:2,0:0:0:0:
237,58,15059,2,0,L|228:133,1,75,10|0,0:2|0:2,0:0:0:0:
149,15,15384,1,0,1:2:0:0:
339,101,15546,2,0,L|330:176,1,75,2|8,0:2|0:2,0:0:0:0:
239,232,15870,37,2,0:2:0:0:
339,101,16032,1,2,1:2:0:0:
441,280,16195,2,0,B|416:264|416:264|321:277,1,112.5,2|0,0:2|0:0,0:0:0:0:
319,260,16519,1,0,0:2:0:0:
133,349,16681,6,0,L|145:270,1,75,2|0,1:2|0:2,0:0:0:0:
203,202,17005,1,8,0:2:0:0:
37,370,17168,2,0,L|49:291,1,75,2|0,0:2|1:2,0:0:0:0:
203,202,17492,1,0,0:2:0:0:
79,68,17654,2,0,B|101:99|101:99|83:219,1,150,10|0,0:2|1:2,0:0:0:0:
305,314,18141,2,0,L|293:235,1,75,2|8,0:2|0:2,0:0:0:0:
191,127,18465,2,0,L|203:206,1,75,2|0,0:2|1:2,0:0:0:0:
392,261,18789,1,2,0:2:0:0:
195,365,18951,2,0,L|183:286,1,75,8|0,0:2|0:2,0:0:0:0:
310,88,19276,6,0,P|312:146|402:149,1,150,2|8,1:2|0:2,0:0:0:0:
221,17,19762,2,0,L|202:165,1,150,2|0,0:2|0:2,0:0:0:0:
23,225,20249,1,10,0:2:0:0:
100,128,20411,2,0,L|92:190,2,37.5,8|8|0,0:2|0:2|1:0,0:0:0:0:
148,283,20735,5,10,0:2:0:0:
148,283,20816,1,8,0:2:0:0:
148,283,20897,2,0,L|156:223,1,37.5,8|8,0:2|0:2,0:0:0:0:
213,355,21059,1,2,0:2:0:0:
213,355,21141,1,8,0:2:0:0:
213,355,21222,2,0,L|218:303,1,37.5,8|0,1:2|0:2,0:0:0:0:
302,297,21384,2,0,L|297:341,1,37.5,8|8,0:2|0:2,0:0:0:0:
242,227,21546,1,14,0:2:0:0:
256,192,21708,12,12,24141,0:2:0:0:
256,192,24627,37,12,0:2:0:0:
256,192,26086,1,12,0:2:0:0:
256,192,26411,1,12,0:2:0:0:
116,83,26735,5,14,1:2:0:0:
116,83,26816,1,0,1:2:0:0:
116,83,26897,1,10,1:2:0:0:
74,158,27059,2,0,L|87:251,1,75,2|8,1:2|0:2,0:0:0:0:
89,259,27303,1,0,0:2:0:0:
93,288,27384,1,2,1:2:0:0:
276,342,27546,6,0,L|263:249,1,75,10|0,0:2|0:2,0:0:0:0:
420,214,27870,2,0,L|407:307,1,75,2|8,1:2|0:2,0:0:0:0:
302,180,28195,1,2,0:2:0:0:
328,76,28357,1,2,1:2:0:0:
183,130,28519,1,8,0:2:0:0:
183,130,28600,1,0,0:0:0:0:
183,130,28681,2,0,L|170:223,1,75,2|2,0:2|0:2,0:0:0:0:
30,253,29005,2,0,L|43:160,1,75,2|14,1:2|0:2,0:0:0:0:
71,32,29330,5,14,0:2:0:0:
71,32,29411,1,0,0:2:0:0:
71,32,29492,1,2,0:2:0:0:
71,32,29573,1,0,0:2:0:0:
71,32,29654,2,0,L|78:92,1,37.5,2|0,1:2|0:2,0:0:0:0:
150,119,29816,2,0,L|142:179,1,37.5,12|0,0:2|0:2,0:0:0:0:
36,198,29978,38,0,L|44:138,3,37.5,2|0|2|0,0:2|0:2|0:2|0:2,0:0:0:0:
21,299,30303,1,12,1:2:0:0:
33,291,30384,1,0,0:2:0:0:
46,285,30465,1,2,0:2:0:0:
60,283,30546,1,0,0:2:0:0:
74,284,30627,2,0,P|96:290|113:305,1,37.5,0|0,1:2|1:2,0:0:0:0:
57,369,30789,1,12,0:2:0:0:
181,245,30951,2,0,L|168:153,1,75,2|2,1:2|0:2,0:0:0:0:
165,145,31195,1,2,0:2:0:0:
161,116,31276,5,14,0:2:0:0:
263,157,31438,1,2,1:2:0:0:
96,50,31600,1,14,0:2:0:0:
306,22,31762,1,2,0:2:0:0:
405,100,31924,5,14,0:2:0:0:
405,100,32005,1,2,0:2:0:0:
405,100,32086,1,2,0:2:0:0:
459,220,32249,2,0,L|374:208,1,75,2|0,1:2|0:2,0:0:0:0:
320,262,32492,1,0,0:2:0:0:
324,286,32573,1,10,0:2:0:0:
498,137,32735,2,0,L|509:52,1,75,2|0,0:2|1:2,0:0:0:0:
312,187,33059,2,0,L|300:271,1,75,2|8,0:2|0:2,0:0:0:0:
129,374,33384,5,2,0:2:0:0:
193,288,33546,1,2,1:2:0:0:
182,184,33708,1,0,0:2:0:0:
182,184,33789,1,0,0:2:0:0:
182,184,33870,2,0,L|105:174,1,75,10|2,0:2|0:2,0:0:0:0:
39,59,34195,2,0,L|115:68,1,75,2|2,1:2|0:2,0:0:0:0:
280,86,34519,37,10,0:2:0:0:
276,67,34600,1,2,0:2:0:0:
272,48,34681,1,2,0:2:0:0:
405,106,34843,2,0,L|396:182,1,75,2|0,1:2|0:2,0:0:0:0:
338,252,35086,1,0,0:2:0:0:
338,252,35168,1,10,0:2:0:0:
179,132,35330,2,0,L|188:56,1,75,2|0,0:2|1:2,0:0:0:0:
338,252,35654,2,0,L|329:328,1,75,2|8,0:2|0:2,0:0:0:0:
144,247,35978,5,2,0:2:0:0:
261,190,36141,1,2,1:2:0:0:
138,57,36303,2,0,L|131:109,1,37.5,0|0,0:2|0:2,0:0:0:0:
28,195,36465,1,10,0:2:0:0:
28,195,36627,1,2,0:2:0:0:
67,333,36789,1,2,1:2:0:0:
67,333,36951,1,2,0:2:0:0:
268,364,37114,5,10,0:2:0:0:
268,364,37195,1,2,0:2:0:0:
268,364,37276,1,2,0:2:0:0:
390,272,37438,2,0,L|314:263,1,75,2|0,1:2|0:2,0:0:0:0:
261,201,37681,1,0,0:2:0:0:
256,179,37762,1,10,0:2:0:0:
460,359,37924,2,0,L|469:283,1,75,2|0,0:2|1:2,0:0:0:0:
286,96,38249,2,0,L|277:172,1,75,2|8,0:2|0:2,0:0:0:0:
421,163,38573,5,2,0:2:0:0:
397,43,38735,1,2,1:2:0:0:
279,6,38897,1,0,0:2:0:0:
279,6,38978,1,0,0:2:0:0:
279,6,39059,2,0,L|203:15,1,75,10|2,0:2|0:2,0:0:0:0:
140,166,39384,2,0,L|216:157,1,75,2|2,1:2|0:2,0:0:0:0:
65,56,39708,37,10,0:2:0:0:
61,75,39789,1,2,0:2:0:0:
57,94,39870,1,2,0:2:0:0:
135,261,40032,2,0,L|126:185,1,75,2|0,1:2|0:2,0:0:0:0:
174,117,40276,1,0,0:2:0:0:
174,117,40357,1,10,0:2:0:0:
15,238,40519,2,0,L|24:313,1,75,2|0,0:2|1:2,0:0:0:0:
216,329,40843,2,0,L|290:337,1,75,2|8,0:2|0:2,0:0:0:0:
465,214,41168,5,2,0:2:0:0:
333,258,41330,1,2,1:2:0:0:
431,353,41492,2,0,L|438:301,1,37.5,2|2,0:2|0:2,0:0:0:0:
384,165,41654,1,10,0:2:0:0:
384,165,41816,1,10,0:2:0:0:
252,195,41978,1,10,0:2:0:0:
273,78,42140,1,10,0:2:0:0:
139,15,42303,37,6,3:2:0:0:
139,15,42317,5,0,0:2:0:0:
169,112,42519,69,2,3:2:0:0:
169,112,42532,5,0,0:2:0:0:
133,209,42735,69,2,3:2:0:0:
133,209,42749,5,0,0:2:0:0:
145,20,42952,69,2,3:2:0:0:
145,20,42965,5,0,0:2:0:0:
176,117,43167,69,2,3:2:0:0:
176,117,43181,5,0,0:0:0:0:
141,214,43384,69,2,3:2:0:0:
141,214,43397,5,0,0:2:0:0:
8,352,43600,69,2,3:2:0:0:
8,352,43614,5,0,0:2:0:0:
62,264,43817,69,2,3:2:0:0:
62,264,43830,5,0,0:2:0:0:
159,228,44033,69,2,3:2:0:0:
159,228,44046,5,0,0:2:0:0:
3,347,44249,69,2,3:2:0:0:
3,347,44262,5,0,0:2:0:0:
55,259,44465,69,2,3:2:0:0:
55,259,44478,5,0,0:2:0:0:
275,260,44681,69,2,3:2:0:0:
275,260,44694,5,0,0:2:0:0:
149,16,44898,69,2,3:2:0:0:
149,16,44911,5,0,0:2:0:0:
118,113,45114,69,2,3:2:0:0:
118,113,45127,5,0,0:2:0:0:
153,210,45330,69,2,3:2:0:0:
153,210,45343,5,0,0:2:0:0:
136,21,45546,69,2,3:2:0:0:
136,21,45560,5,0,0:2:0:0:
106,118,45762,69,2,3:2:0:0:
106,118,45775,5,0,0:2:0:0:
142,215,45979,69,2,3:2:0:0:
142,215,45993,5,0,0:2:0:0:
302,176,46195,69,2,3:2:0:0:
302,176,46208,5,0,0:2:0:0:
220,114,46411,69,2,3:2:0:0:
220,114,46424,5,0,0:2:0:0:
118,113,46627,69,2,3:2:0:0:
118,113,46640,5,0,0:2:0:0:
302,189,46844,69,2,3:2:0:0:
302,189,46857,5,0,0:2:0:0:
246,17,47060,69,2,3:2:0:0:
246,17,47073,5,0,0:2:0:0:
182,226,47276,69,2,3:2:0:0:
182,226,47289,5,0,0:2:0:0:
435,361,47492,69,2,3:2:0:0:
435,361,47506,5,0,0:2:0:0:
405,263,47708,69,2,3:2:0:0:
405,263,47721,5,0,0:2:0:0:
440,167,47925,69,2,3:2:0:0:
440,167,47938,5,0,0:2:0:0:
422,361,48141,69,2,3:2:0:0:
422,361,48154,5,0,0:2:0:0:
391,264,48357,69,2,3:2:0:0:
391,264,48370,5,0,0:2:0:0:
426,167,48573,69,2,3:2:0:0:
426,167,48586,5,0,0:2:0:0:
271,48,48789,69,2,3:2:0:0:
271,48,48803,5,0,0:2:0:0:
367,78,49006,69,2,3:2:0:0:
367,78,49019,5,0,0:2:0:0:
427,162,49222,69,2,3:2:0:0:
427,162,49235,5,0,0:2:0:0:
277,37,49438,69,2,3:2:0:0:
277,37,49452,5,0,0:2:0:0:
373,67,49654,69,2,3:2:0:0:
373,67,49667,5,0,0:2:0:0:
327,206,49871,69,2,3:2:0:0:
327,206,49884,5,0,0:2:0:0:
431,366,50087,69,2,3:2:0:0:
431,366,50100,5,0,0:2:0:0:
462,267,50303,69,2,3:2:0:0:
462,267,50316,5,0,0:2:0:0:
427,171,50519,69,2,3:2:0:0:
427,171,50532,5,0,0:2:0:0:
442,366,50735,69,2,3:2:0:0:
442,366,50749,5,0,0:2:0:0:
472,268,50952,69,2,3:2:0:0:
472,268,50965,5,0,0:2:0:0:
438,172,51168,69,2,3:2:0:0:
438,172,51182,5,0,0:2:0:0:
256,130,51384,69,2,3:2:0:0:
256,130,51398,5,0,0:2:0:0:
299,303,51600,69,2,3:2:0:0:
299,303,51613,5,0,0:2:0:0:
440,167,51817,69,2,3:2:0:0:
440,167,51831,5,0,0:2:0:0:
164,105,52033,69,0,0:0:0:0:
164,105,52046,6,0,L|172:175,1,68.75,10|8,3:2|0:2,0:0:0:0:
69,293,52357,5,8,0:2:0:0:
69,293,52438,1,8,0:2:0:0:
69,293,52519,1,8,0:2:0:0:
69,293,52600,1,8,0:2:0:0:
69,293,52681,6,0,L|79:205,1,75,14|2,0:2|0:2,0:0:0:0:
37,128,53006,1,2,1:2:0:0:
129,47,53168,1,2,1:2:0:0:
132,63,53249,1,0,1:2:0:0:
136,82,53330,1,2,1:2:0:0:
140,100,53411,1,0,1:2:0:0:
144,118,53492,1,10,0:2:0:0:
262,55,53654,5,2,1:2:0:0:
262,55,53817,2,0,L|336:63,1,75,2|10,0:0|0:2,0:0:0:0:
430,121,54141,1,2,0:2:0:0:
335,171,54303,1,2,1:2:0:0:
336,63,54465,1,10,0:2:0:0:
417,225,54627,2,0,L|408:299,1,75,2|2,0:2|0:0,0:0:0:0:
252,347,54952,2,0,L|245:297,3,37.5,2|0|10|8,1:2|0:0|0:2|0:2,0:0:0:0:
267,289,55276,6,0,L|276:203,1,75,10|2,0:2|0:2,0:0:0:0:
205,147,55600,1,2,1:2:0:0:
82,218,55763,1,10,1:2:0:0:
98,235,55844,1,0,1:2:0:0:
119,245,55925,1,2,1:2:0:0:
142,248,56006,1,0,1:2:0:0:
164,243,56087,1,10,0:2:0:0:
14,162,56249,37,2,1:2:0:0:
14,162,56411,2,0,L|31:64,1,75,2|2,0:0|0:2,0:0:0:0:
109,15,56736,1,10,0:2:0:0:
137,134,56898,1,2,1:2:0:0:
109,15,57060,1,10,0:2:0:0:
255,95,57222,2,0,L|246:170,2,75,2|2|2,0:2|0:0|1:2,0:0:0:0:
379,24,57709,1,10,1:2:0:0:
379,24,57790,1,8,1:2:0:0:
379,24,57871,6,0,L|480:9,1,75,10|10,0:2|0:2,0:0:0:0:
498,102,58195,1,10,1:2:0:0:
383,179,58357,1,10,1:2:0:0:
385,163,58438,1,0,1:2:0:0:
387,147,58519,1,10,1:2:0:0:
389,132,58600,1,0,1:0:0:0:
392,117,58681,1,10,0:2:0:0:
469,234,58844,5,10,1:2:0:0:
469,234,59006,2,0,L|454:335,1,75,10|10,0:2|0:2,0:0:0:0:
373,371,59330,1,10,0:2:0:0:
283,216,59492,2,0,L|298:115,1,75,10|10,1:2|0:2,0:0:0:0:
221,63,59817,1,10,0:2:0:0:
294,141,59979,1,10,0:2:0:0:
338,31,60141,1,10,1:2:0:0:
112,86,60303,1,10,1:2:0:0:
112,86,60384,1,8,0:0:0:0:
112,86,60465,6,0,L|105:141,3,37.5,10|8|10|8,0:2|0:2|0:2|0:2,0:0:0:0:
91,145,60790,2,0,L|97:200,3,37.5,10|8|10|8,1:2|0:2|1:2|1:2,0:0:0:0:
84,210,61114,1,10,1:2:0:0:
98,238,61195,1,8,1:2:0:0:
123,259,61276,1,10,0:2:0:0:
153,270,61357,1,8,0:2:0:0:
185,268,61438,1,10,1:2:0:0:
213,252,61519,1,8,0:2:0:0:
245,249,61600,1,10,1:2:0:0:
276,257,61681,1,8,1:2:0:0:
301,277,61762,1,14,0:2:0:0:
256,192,61844,12,0,62898,0:2:0:0:
46,44,63060,37,14,0:2:0:0:
49,59,63141,1,2,0:2:0:0:
52,74,63222,1,2,0:2:0:0:
165,166,63384,2,0,L|143:251,1,78.7499975967408,2|0,1:2|0:2,0:0:0:0:
125,321,63627,1,0,0:2:0:0:
125,321,63709,1,10,0:2:0:0:
21,115,63871,2,0,L|106:93,1,78.7499975967408,2|0,0:2|1:2,0:0:0:0:
299,284,64195,2,0,L|213:305,1,78.7499975967408,2|8,0:2|0:2,0:0:0:0:
165,166,64519,5,2,0:2:0:0:
204,52,64681,1,2,1:2:0:0:
342,40,64844,1,0,0:2:0:0:
342,40,64925,1,0,0:2:0:0:
342,40,65006,2,0,L|428:61,1,78.7499975967408,10|2,0:2|0:2,0:0:0:0:
451,216,65330,2,0,L|365:195,1,78.7499975967408,2|2,1:2|0:2,0:0:0:0:
199,345,65654,5,10,0:2:0:0:
202,330,65735,1,2,0:2:0:0:
205,315,65816,1,2,0:2:0:0:
278,184,65979,2,0,L|299:270,1,78.7499975967408,2|0,1:2|0:2,0:0:0:0:
327,358,66222,1,0,0:2:0:0:
327,358,66304,1,10,0:2:0:0:
459,213,66465,2,0,L|438:127,1,78.7499975967408,2|0,0:2|1:2,0:0:0:0:
176,148,66790,2,0,L|197:234,1,78.7499975967408,2|8,0:2|0:2,0:0:0:0:
309,88,67114,5,2,0:2:0:0:
206,21,67276,1,2,1:2:0:0:
103,96,67438,1,0,0:2:0:0:
103,96,67519,1,0,0:2:0:0:
103,96,67600,1,10,0:2:0:0:
27,36,67763,1,2,0:2:0:0:
20,226,67925,2,0,L|106:205,1,78.7499975967408,2|2,1:2|0:2,0:0:0:0:
237,109,68249,37,14,0:2:0:0:
234,124,68330,1,2,0:2:0:0:
231,139,68411,1,2,0:2:0:0:
206,317,68573,2,0,L|185:231,1,78.7499975967408,2|0,1:2|0:2,0:0:0:0:
96,207,68817,1,0,0:2:0:0:
92,234,68898,1,10,0:2:0:0:
331,148,69060,2,0,L|352:234,1,78.7499975967408,2|0,0:2|1:2,0:0:0:0:
150,93,69384,2,0,L|226:74,1,78.7499975967408,2|8,0:2|0:2,0:0:0:0:
316,44,69709,5,2,0:2:0:0:
256,177,69871,1,2,1:2:0:0:
314,301,70033,1,0,0:2:0:0:
314,301,70114,1,0,0:2:0:0:
314,301,70195,2,0,L|390:282,1,78.7499975967408,10|2,0:2|0:2,0:0:0:0:
406,97,70519,2,0,L|329:115,1,78.7499975967408,2|2,1:2|0:2,0:0:0:0:
198,294,70844,5,10,0:2:0:0:
202,280,70925,1,2,0:2:0:0:
205,265,71006,1,2,0:2:0:0:
27,190,71168,2,0,L|45:267,1,78.7499975967408,2|0,1:2|0:2,0:0:0:0:
79,364,71411,1,0,0:2:0:0:
79,364,71492,1,10,0:2:0:0:
233,274,71654,2,0,L|251:198,1,78.7499975967408,2|0,0:2|1:2,0:0:0:0:
107,48,71979,2,0,L|88:123,1,78.7499975967408,2|8,0:2|0:2,0:0:0:0:
124,272,72303,5,2,0:2:0:0:
264,367,72465,1,2,1:2:0:0:
361,302,72627,1,0,0:2:0:0:
361,302,72709,1,0,0:2:0:0:
361,302,72790,37,10,0:2:0:0:
319,161,72952,1,2,0:2:0:0:
463,76,73114,5,2,1:2:0:0:
427,207,73276,1,2,0:2:0:0:
220,257,73438,5,14,0:2:0:0:
212,228,73519,1,2,0:2:0:0:
205,202,73600,1,2,0:2:0:0:
152,312,73763,1,2,1:2:0:0:
277,154,73925,5,0,0:2:0:0:
284,180,74006,1,2,0:2:0:0:
292,209,74087,1,10,0:2:0:0:
110,148,74249,2,0,B|119:112|119:112|117:106|117:106|130:64,1,82.5000025177003,2|0,0:2|1:2,0:0:0:0:
411,78,74573,2,0,B|401:113|401:113|404:120|404:120|391:162,1,82.5000025177003,2|8,0:2|0:2,0:0:0:0:
212,313,74898,37,2,0:2:0:0:
179,174,75060,1,2,1:2:0:0:
321,125,75222,2,0,L|307:180,1,41.2500012588501,0|0,0:2|0:2,0:0:0:0:
312,275,75384,5,10,0:2:0:0:
104,222,75546,1,2,0:2:0:0:
87,50,75709,2,0,L|68:131,1,82.5000025177003,2|2,1:2|0:2,0:0:0:0:
0,242,76033,5,10,0:2:0:0:
21,225,76114,1,2,0:2:0:0:
47,226,76195,1,2,0:2:0:0:
15,350,76357,1,2,1:2:0:0:
122,173,76519,2,0,L|107:115,1,41.2500012588501,0|2,0:2|0:2,0:0:0:0:
87,50,76681,1,10,0:2:0:0:
225,192,76844,2,0,B|215:227|215:227|218:234|218:234|205:276,1,82.5000025177003,2|0,0:2|1:2,0:0:0:0:
394,182,77168,2,0,B|403:146|403:146|401:140|401:140|414:98,1,82.5000025177003,2|8,0:2|0:2,0:0:0:0:
184,102,77492,5,2,0:2:0:0:
317,238,77654,1,2,1:2:0:0:
380,25,77817,2,0,L|329:37,1,41.2500012588501,0|0,0:2|0:2,0:0:0:0:
258,33,77979,37,10,0:2:0:0:
227,192,78141,1,2,0:2:0:0:
35,128,78303,5,2,1:2:0:0:
184,102,78465,1,2,0:2:0:0:
127,273,78627,5,14,0:2:0:0:
135,244,78708,1,2,0:2:0:0:
142,218,78789,1,2,0:2:0:0:
197,332,78952,1,2,1:2:0:0:
51,210,79114,5,0,0:2:0:0:
43,239,79195,1,2,0:2:0:0:
36,265,79276,1,10,0:2:0:0:
265,204,79438,2,0,B|256:168|256:168|258:162|258:162|245:120,1,82.5000025177003,2|0,0:2|1:2,0:0:0:0:
428,33,79763,2,0,B|437:69|437:69|435:75|435:75|448:117,1,82.5000025177003,2|8,0:2|0:2,0:0:0:0:
314,279,80087,37,2,0:2:0:0:
349,90,80249,1,2,1:2:0:0:
491,239,80411,2,0,L|441:251,1,41.2500012588501,0|0,0:2|0:2,0:0:0:0:
236,225,80573,5,10,0:2:0:0:
388,184,80736,1,2,0:2:0:0:
272,367,80898,2,0,L|184:346,1,82.5000025177003,2|2,1:2|0:2,0:0:0:0:
39,190,81222,5,10,0:2:0:0:
62,178,81303,1,2,0:2:0:0:
86,168,81384,1,10,0:2:0:0:
4,287,81546,1,8,1:2:0:0:
32,86,81709,1,10,0:2:0:0:
32,86,81790,1,2,0:2:0:0:
32,86,81871,1,10,0:2:0:0:
149,29,82033,6,0,B|186:37|186:37|194:36|194:36|238:49,1,82.5000025177003,10|8,0:2|1:2,0:0:0:0:
301,229,82357,2,0,B|264:238|264:238|256:236|256:236|212:249,1,82.5000025177003,10|8,0:2|0:2,0:0:0:0:
347,74,82681,1,10,0:2:0:0:
339,103,82762,1,8,0:2:0:0:
332,129,82843,1,10,1:2:0:0:
130,231,83006,2,0,L|142:180,1,41.2500012588501,10|8,0:2|0:2,0:0:0:0:
35,112,83168,37,10,0:2:0:0:
35,112,83249,1,8,0:2:0:0:
35,112,83330,2,0,L|24:168,1,41.2500012588501,10|8,0:2|0:2,0:0:0:0:
44,275,83492,1,10,1:2:0:0:
44,275,83573,1,8,0:2:0:0:
44,275,83654,2,0,L|55:219,1,41.2500012588501,10|8,0:2|0:2,0:0:0:0:
178,351,83817,53,6,3:2:0:0:
178,351,83830,5,0,0:2:0:0:
271,286,84033,69,2,3:2:0:0:
271,286,84046,5,0,0:2:0:0:
390,317,84249,69,2,3:2:0:0:
390,317,84262,5,0,0:2:0:0:
173,340,84465,69,2,3:2:0:0:
173,340,84479,5,0,0:2:0:0:
266,275,84681,69,2,3:2:0:0:
266,275,84694,5,0,0:2:0:0:
385,306,84898,69,2,3:2:0:0:
385,306,84911,5,0,0:2:0:0:
338,73,85114,69,2,3:2:0:0:
338,73,85127,5,0,0:2:0:0:
260,159,85330,69,2,3:2:0:0:
260,159,85343,5,0,0:0:0:0:
266,275,85546,69,2,3:2:0:0:
266,275,85560,5,0,0:2:0:0:
327,72,85762,69,2,3:2:0:0:
327,72,85776,5,0,0:2:0:0:
249,158,85979,69,2,3:2:0:0:
249,158,85992,5,0,0:2:0:0:
359,353,86195,69,2,3:2:0:0:
359,353,86208,5,0,0:2:0:0:
99,335,86411,69,2,3:2:0:0:
99,335,86425,5,0,0:2:0:0:
214,347,86627,69,2,3:2:0:0:
214,347,86640,5,0,0:2:0:0:
305,274,86844,69,2,3:2:0:0:
305,274,86857,5,0,0:2:0:0:
102,347,87060,69,2,3:2:0:0:
102,347,87073,5,0,0:2:0:0:
217,359,87276,69,2,3:2:0:0:
217,359,87289,5,0,0:2:0:0:
308,286,87492,69,2,3:2:0:0:
308,286,87506,5,0,0:2:0:0:
154,141,87708,69,2,3:2:0:0:
154,141,87722,5,0,0:2:0:0:
142,256,87925,69,2,3:2:0:0:
142,256,87938,5,0,0:2:0:0:
214,347,88141,69,2,3:2:0:0:
214,347,88154,5,0,0:2:0:0:
144,132,88357,69,2,3:2:0:0:
144,132,88371,5,0,0:2:0:0:
52,324,88573,69,2,3:2:0:0:
52,324,88586,5,0,0:2:0:0:
250,215,88789,69,2,3:2:0:0:
250,215,88803,5,0,0:2:0:0:
42,42,89006,69,2,3:2:0:0:
42,42,89019,5,0,0:2:0:0:
120,128,89222,69,2,3:2:0:0:
120,128,89235,5,0,0:2:0:0:
114,244,89438,69,2,3:2:0:0:
114,244,89452,5,0,0:2:0:0:
55,41,89654,69,2,3:2:0:0:
55,41,89668,5,0,0:2:0:0:
133,127,89871,69,2,3:2:0:0:
133,127,89884,5,0,0:2:0:0:
127,243,90087,69,2,3:2:0:0:
127,243,90100,5,0,0:2:0:0:
325,326,90303,69,2,3:2:0:0:
325,326,90317,5,0,0:2:0:0:
243,242,90519,69,2,3:2:0:0:
243,242,90532,5,0,0:2:0:0:
127,243,90735,69,2,3:2:0:0:
127,243,90749,5,0,0:2:0:0:
328,317,90952,69,2,3:2:0:0:
328,317,90965,5,0,0:2:0:0:
246,233,91168,69,2,3:2:0:0:
246,233,91181,5,0,0:2:0:0:
53,327,91384,69,2,3:2:0:0:
53,327,91398,5,0,0:2:0:0:
193,37,91600,69,2,3:2:0:0:
193,37,91614,5,0,0:2:0:0:
115,123,91817,69,2,3:2:0:0:
115,123,91830,5,0,0:2:0:0:
121,239,92033,69,2,3:2:0:0:
121,239,92046,5,0,0:2:0:0:
173,34,92249,69,2,3:2:0:0:
173,34,92262,5,0,0:2:0:0:
99,123,92465,69,2,3:2:0:0:
99,123,92478,5,0,0:2:0:0:
111,239,92681,69,2,3:2:0:0:
111,239,92695,5,0,0:2:0:0:
313,187,92898,69,2,3:2:0:0:
313,187,92911,5,0,0:2:0:0:
221,114,93114,69,2,3:2:0:0:
221,114,93127,5,0,0:2:0:0:
106,131,93330,69,2,3:2:0:0:
106,131,93344,5,0,0:2:0:0:
314,176,93546,69,2,3:2:0:0:
314,176,93560,5,0,0:2:0:0:
147,44,93762,69,2,3:2:0:0:
147,44,93775,5,0,0:2:0:0:
96,238,93979,69,2,3:2:0:0:
96,238,93992,5,0,0:2:0:0:
187,360,94195,69,6,3:2:0:0:
187,360,94208,6,0,L|239:360,1,48.1250014686585,0|0,0:2|0:2,0:0:0:0:
325,267,94411,69,2,3:2:0:0:
325,267,94424,6,0,L|272:267,1,48.1250014686585,0|0,0:2|3:2,0:0:0:0:
186,191,94627,69,2,3:2:0:0:
186,191,94641,6,0,L|186:241,1,48.1250014686585,0|0,0:2|3:2,0:0:0:0:
414,328,94844,69,2,3:2:0:0:
414,328,94857,5,0,0:2:0:0:
448,206,95060,69,2,3:2:0:0:
448,206,95073,5,0,0:2:0:0:
318,170,95276,69,2,3:2:0:0:
318,170,95289,5,0,0:2:0:0:
147,57,95492,69,2,3:2:0:0:
147,57,95506,6,0,L|147:105,1,48.1250014686585,0|0,0:2|0:2,0:0:0:0:
56,189,95708,69,2,3:2:0:0:
56,189,95721,6,0,L|56:141,1,48.1250014686585,0|0,0:2|3:2,0:0:0:0:
0,45,95925,69,2,3:2:0:0:
0,45,95938,6,0,L|48:45,1,48.1250014686585,0|0,0:2|3:2,0:0:0:0:
181,316,96141,69,2,3:2:0:0:
181,316,96154,5,0,0:2:0:0:
147,194,96357,69,2,3:2:0:0:
147,194,96370,5,0,0:2:0:0:
270,150,96573,69,2,3:2:0:0:
270,150,96587,5,0,0:2:0:0:
412,219,96789,69,2,3:2:0:0:
412,219,96803,6,0,L|460:219,1,48.1250014686585,0|0,0:2|0:2,0:0:0:0:
495,123,97006,69,2,3:2:0:0:
495,123,97019,6,0,L|447:123,1,48.1250014686585,0|0,0:2|3:2,0:0:0:0:
355,71,97222,69,2,3:2:0:0:
355,71,97235,6,0,L|355:119,1,48.1250014686585,0|0,0:2|3:2,0:0:0:0:
438,344,97438,69,2,3:2:0:0:
438,344,97452,5,0,0:2:0:0:
412,219,97654,69,2,3:2:0:0:
412,219,97667,5,0,0:2:0:0:
279,246,97871,69,2,3:2:0:0:
279,246,97884,5,0,0:2:0:0:
53,337,98087,69,2,3:2:0:0:
53,337,98100,6,0,L|53:289,1,48.1250014686585,0|0,0:2|0:2,0:0:0:0:
138,199,98303,69,2,3:2:0:0:
138,199,98316,6,0,L|138:247,1,48.1250014686585,0|0,0:2|3:2,0:0:0:0:
190,377,98519,69,2,3:2:0:0:
190,377,98533,6,0,L|190:329,1,48.1250014686585,0|0,0:2|3:2,0:0:0:0:
1,170,98735,69,2,3:2:0:0:
1,170,98749,5,0,0:2:0:0:
86,57,98952,69,2,3:2:0:0:
86,57,98965,5,0,0:2:0:0:
222,107,99168,69,2,3:2:0:0:
222,107,99181,5,0,0:2:0:0:
489,107,99384,69,2,3:2:0:0:
489,107,99398,6,0,L|489:155,1,48.1250014686585,0|0,0:2|0:2,0:0:0:0:
315,36,99600,69,2,3:2:0:0:
315,36,99613,6,0,L|315:84,1,48.1250014686585,0|0,0:2|3:2,0:0:0:0:
389,188,99817,69,2,3:2:0:0:
389,188,99830,6,0,L|389:140,1,48.1250014686585,0|0,0:2|3:2,0:0:0:0:
412,9,100033,69,2,3:2:0:0:
412,9,100046,6,0,L|460:9,1,48.1250014686585,0|0,0:2|0:2,0:0:0:0:
512,232,100249,69,2,3:2:0:0:
512,232,100262,6,0,L|464:232,1,48.1250014686585,0|0,0:2|0:2,0:0:0:0:
390,328,100465,69,2,3:2:0:0:
390,328,100479,5,0,0:2:0:0:
170,230,100681,69,2,3:2:0:0:
170,230,100695,6,0,L|170:278,1,48.1250014686585,0|0,0:2|0:2,0:0:0:0:
263,336,100898,69,2,3:2:0:0:
263,336,100911,6,0,L|263:288,1,48.1250014686585,0|0,0:2|3:2,0:0:0:0:
65,350,101114,69,2,3:2:0:0:
65,350,101127,6,0,L|113:350,1,48.1250014686585,0|0,0:2|3:2,0:0:0:0:
76,238,101330,69,2,3:2:0:0:
76,238,101344,6,0,L|28:238,1,48.1250014686585,0|0,0:2|0:2,0:0:0:0:
245,142,101546,69,2,3:2:0:0:
245,142,101559,6,0,L|245:190,1,48.1250014686585,0|0,0:2|0:2,0:0:0:0:
111,126,101762,69,2,3:2:0:0:
111,126,101776,5,0,0:2:0:0:
260,25,101979,69,2,3:2:0:0:
260,25,101992,6,0,L|308:25,1,48.1250014686585,0|0,0:2|0:2,0:0:0:0:
390,114,102195,69,2,3:2:0:0:
390,114,102208,6,0,L|342:114,1,48.1250014686585,0|0,0:2|3:2,0:0:0:0:
238,188,102411,69,2,3:2:0:0:
238,188,102425,6,0,L|238:140,1,48.1250014686585,0|0,0:2|3:2,0:0:0:0:
112,46,102628,69,2,3:2:0:0:
112,46,102641,6,0,L|160:46,1,48.1250014686585,0|0,0:2|0:2,0:0:0:0:
337,199,102845,69,2,3:2:0:0:
337,199,102857,6,0,L|337:247,1,48.1250014686585,0|0,0:2|0:2,0:0:0:0:
286,323,103060,69,2,3:2:0:0:
286,323,103073,5,0,0:2:0:0:
454,139,103276,69,2,3:2:0:0:
454,139,103289,5,0,0:2:0:0:
323,59,103492,69,2,3:2:0:0:
323,59,103505,5,0,0:2:0:0:
215,154,103708,69,2,3:2:0:0:
215,154,103722,5,0,0:2:0:0:
416,336,103925,69,0,0:0:0:0:
416,336,103938,6,0,L|416:259,1,75.6250023078919,10|8,3:2|0:2,0:0:0:0:
313,178,104249,5,8,0:2:0:0:
313,203,104330,1,8,0:2:0:0:
313,227,104411,1,8,0:2:0:0:
313,251,104492,1,8,0:2:0:0:
313,273,104573,1,12,0:2:0:0:
