osu file format v14

[General]
AudioFilename: audio.mp3
AudioLeadIn: 0
PreviewTime: 83065
Countdown: 0
SampleSet: Soft
StackLeniency: 0.8
Mode: 0
LetterboxInBreaks: 0
WidescreenStoryboard: 1

[Editor]
Bookmarks: 11497,12957,41335,48140,60794,61443,72551,73119,99389,101551
DistanceSpacing: 0.3
BeatDivisor: 1
GridSize: 32
TimelineZoom: 5.200003

[Metadata]
Title:POSSESSION
TitleUnicode:POSSESSION
Artist:TAG underground
ArtistUnicode:TAG underground
Creator:pewdekz
Version:DIFFICULT
Source:beatmania IIDX 23 copula
Tags:ddr reflec beat 悠久のリフレシア bms jubeat festo psychic flash Yasuhiro Taguchi 田口康裕 instrumental electronic konami dancedancerevolutionx2 doubletap dance revolution
BeatmapID:3715836
BeatmapSetID:1691083

[Difficulty]
HPDrainRate:4
CircleSize:4
OverallDifficulty:7.2
ApproachRate:8.6
SliderMultiplier:1.35
SliderTickRate:0.5

[Events]
//Background and Video events
0,0,"BIG_RES.png",0,0
//Break Periods
2,52881,56071
//Storyboard Layer 0 (Background)
//Storyboard Layer 1 (Fail)
//Storyboard Layer 2 (Pass)
//Storyboard Layer 3 (Foreground)
//Storyboard Layer 4 (Overlay)
//Storyboard Sound Samples

[TimingPoints]
790,324.324324324324,4,2,1,65,1,0
790,-100,4,2,1,65,0,0
42303,-111.111111111111,4,2,1,65,0,1
43600,-111.111111111111,4,2,1,85,0,1
44898,-111.111111111111,4,2,1,65,0,1
46195,-111.111111111111,4,2,1,85,0,1
47492,-111.111111111111,4,2,1,65,0,1
48789,-111.111111111111,4,2,1,85,0,1
50087,-111.111111111111,4,2,1,65,0,1
51384,-111.111111111111,4,2,1,85,0,1
52033,-100,4,2,1,85,0,1
52681,-100,4,2,1,65,0,0
63060,-97.0873786407767,4,2,1,70,0,0
73438,-93.4579439252336,4,2,1,72,0,1
81222,-90.9090909090909,4,2,1,72,0,0
83817,-104.166666666667,4,2,1,65,0,1
85114,-104.166666666667,4,2,1,85,0,1
86412,-104.166666666667,4,2,1,65,0,1
87709,-104.166666666667,4,2,1,85,0,1
89006,-104.166666666667,4,2,1,65,0,1
90303,-104.166666666667,4,2,1,85,0,1
91601,-104.166666666667,4,2,1,65,0,1
92898,-104.166666666667,4,2,1,85,0,1
93546,-104.166666666667,4,2,1,85,0,1
94195,-90.9090909090909,4,2,1,72,0,1
104573,-90.9090909090909,4,2,1,65,0,0

[Colours]
Combo1 : 2,183,66
Combo2 : 155,55,255
Combo3 : 0,128,192
Combo4 : 64,0,128
Combo5 : 0,0,160
Combo6 : 255,0,0

[HitObjects]
467,345,790,5,14,0:2:0:0:
467,345,810,70,0,L|457:281,1,59.0625,0|0,0:2|0:2,0:0:0:0:
333,274,1114,6,0,L|342:355,1,67.5,2|0,1:2|0:2,0:0:0:0:
403,202,1438,1,8,0:2:0:0:
340,136,1600,2,0,B|282:142|282:142|267:127|267:127|207:135,1,135,2|0,0:2|0:2,0:0:0:0:
121,92,2087,2,0,L|112:173,1,67.5,10|0,0:2|0:2,0:0:0:0:
12,213,2411,1,0,1:2:0:0:
12,213,2573,2,0,L|21:132,1,67.5,2|8,0:2|0:2,0:0:0:0:
156,303,2898,2,0,L|165:222,1,67.5,2|0,0:2|1:2,0:0:0:0:
40,343,3222,2,0,B|58:311|58:311|178:301,1,135,2|0,0:2|0:2,0:0:0:0:
325,361,3708,5,2,1:2:0:0:
399,294,3871,1,0,0:0:0:0:
399,294,4033,2,0,L|390:213,1,67.5,8|0,0:2|0:2,0:0:0:0:
307,187,4357,1,0,1:2:0:0:
245,256,4519,1,0,0:2:0:0:
458,150,4681,6,0,B|437:115|437:115|323:100,1,135,10|0,0:2|1:2,0:0:0:0:
289,28,5168,2,0,B|195:40|195:40|174:74,1,135,2|2,0:2|0:2,0:0:0:0:
63,75,5654,1,2,1:2:0:0:
83,171,5817,1,2,0:2:0:0:
18,265,5979,6,0,L|102:275,1,67.5,8|0,0:0|0:2,0:0:0:0:
133,375,6303,2,0,L|217:367,1,67.5,2|0,1:2|0:2,0:0:0:0:
268,288,6627,1,8,0:2:0:0:
228,193,6789,2,0,B|161:206|161:206|98:165,1,135,2|0,0:2|0:2,0:0:0:0:
73,72,7276,1,10,0:2:0:0:
151,7,7438,1,0,0:2:0:0:
266,56,7600,1,0,1:2:0:0:
266,56,7762,2,0,L|350:45,1,67.5,2|8,0:2|0:2,0:0:0:0:
404,196,8087,2,0,L|319:206,1,67.5,2|0,0:2|1:2,0:0:0:0:
446,104,8411,2,0,L|420:261,1,135,2|0,0:2|0:2,0:0:0:0:
249,323,8898,37,2,1:2:0:0:
188,241,9060,1,0,0:0:0:0:
188,241,9222,2,0,L|198:156,1,67.5,8|0,0:0|0:2,0:0:0:0:
93,135,9546,1,0,1:2:0:0:
34,209,9708,1,0,0:2:0:0:
11,334,9871,6,0,B|63:339|63:339|81:322|81:322|145:330,1,135,10|0,0:2|1:2,0:0:0:0:
223,384,10357,2,0,P|234:331|324:289,1,135,2|2,0:2|0:2,0:0:0:0:
387,237,10844,1,2,1:2:0:0:
350,140,11006,1,2,0:2:0:0:
199,206,11168,5,12,0:2:0:0:
146,126,11330,1,0,0:2:0:0:
146,126,11492,2,0,L|163:42,1,67.5,2|0,1:2|0:2,0:0:0:0:
304,19,11817,1,8,0:2:0:0:
353,96,11979,2,0,L|326:232,1,135,2|0,0:2|0:2,0:0:0:0:
424,287,12465,2,0,L|413:202,1,67.5,10|0,0:2|0:2,0:0:0:0:
203,141,12789,1,0,1:2:0:0:
203,141,12952,2,0,L|213:225,1,67.5,2|8,0:2|0:2,0:0:0:0:
342,274,13276,2,0,L|352:358,1,67.5,2|0,0:2|1:2,0:0:0:0:
111,322,13600,2,0,B|133:287|133:287|117:182,1,135,2|0,0:2|0:2,0:0:0:0:
63,67,14087,5,2,1:2:0:0:
163,34,14249,1,0,0:0:0:0:
163,34,14411,2,0,L|153:118,1,67.5,8|0,0:2|0:2,0:0:0:0:
237,166,14735,1,0,1:2:0:0:
324,115,14898,1,0,0:2:0:0:
149,218,15060,38,0,B|160:275|160:275|169:282|169:282|179:350,1,135,10|0,0:2|1:2,0:0:0:0:
285,379,15546,2,0,P|325:334|403:335,1,135,2|2,0:2|0:2,0:0:0:0:
485,383,16033,1,2,1:2:0:0:
397,332,16195,1,2,0:2:0:0:
397,332,16357,6,0,L|406:259,1,67.5,8|0,0:2|0:2,0:0:0:0:
275,202,16681,2,0,L|266:275,1,67.5,2|0,1:2|0:2,0:0:0:0:
378,152,17006,1,8,0:2:0:0:
307,74,17168,2,0,B|255:105|255:105|175:97,1,135,2|0,0:2|0:2,0:0:0:0:
20,58,17654,1,10,0:2:0:0:
20,58,17816,2,0,L|29:131,1,67.5,0|0,0:2|1:2,0:0:0:0:
172,164,18141,2,0,L|180:97,1,67.5,2|8,0:2|0:2,0:0:0:0:
32,235,18465,2,0,L|105:244,1,67.5,2|0,0:2|1:2,0:0:0:0:
163,329,18789,2,0,B|220:323|220:323|229:302|229:302|291:296,1,135,2|0,0:2|0:2,0:0:0:0:
193,78,19276,6,0,P|157:110|163:191,1,135,2|8,1:2|0:2,0:0:0:0:
373,230,19762,2,0,B|344:202|344:202|241:212,1,135,2|0,0:2|0:2,0:0:0:0:
190,135,20249,1,10,0:2:0:0:
244,48,20411,1,8,0:2:0:0:
244,48,20492,1,8,0:2:0:0:
244,48,20573,1,0,1:0:0:0:
357,66,20735,1,10,0:2:0:0:
357,66,20817,1,8,0:2:0:0:
357,66,20898,6,0,L|362:112,3,33.75,8|8|2|8,0:2|0:2|0:2|0:2,0:0:0:0:
371,35,21222,1,8,1:2:0:0:
476,35,21384,1,8,0:2:0:0:
473,51,21465,1,8,0:2:0:0:
470,67,21546,1,14,0:2:0:0:
256,192,21708,12,12,24141,0:2:0:0:
256,192,24627,37,12,0:2:0:0:
256,192,26087,1,12,0:2:0:0:
256,192,26411,1,12,0:2:0:0:
410,89,26735,5,14,1:2:0:0:
407,105,26817,1,0,1:2:0:0:
405,122,26898,1,10,1:2:0:0:
354,206,27060,2,0,L|363:279,1,67.5,2|8,1:2|0:2,0:0:0:0:
365,289,27303,1,0,0:2:0:0:
367,305,27384,1,2,1:2:0:0:
277,373,27546,2,0,L|210:364,1,67.5,10|0,0:2|0:2,0:0:0:0:
138,248,27871,2,0,L|286:268,1,135,2|2,1:2|0:2,0:0:0:0:
327,156,28357,2,0,P|302:131|288:82,1,67.5,2|8,1:2|0:2,0:0:0:0:
287,84,28600,1,0,0:0:0:0:
289,67,28681,1,2,0:2:0:0:
196,7,28844,1,2,0:2:0:0:
134,84,29006,2,0,L|142:150,1,67.5,2|14,1:2|0:2,0:0:0:0:
21,246,29330,5,14,0:2:0:0:
21,246,29411,1,0,0:2:0:0:
21,246,29492,2,0,L|75:252,3,33.75,2|0|2|0,0:2|0:2|1:2|0:2,0:0:0:0:
76,280,29817,2,0,L|149:270,1,67.5,12|2,0:2|0:2,0:0:0:0:
152,256,30060,1,0,0:2:0:0:
159,240,30141,1,2,0:2:0:0:
271,274,30303,1,12,1:2:0:0:
271,274,30465,2,0,L|281:347,1,67.5,2|0,0:2|1:2,0:0:0:0:
391,381,30789,1,12,0:2:0:0:
465,306,30952,1,2,1:2:0:0:
376,196,31114,1,2,0:2:0:0:
376,196,31195,1,2,0:2:0:0:
376,196,31276,6,0,L|359:286,1,67.5,14|2,0:2|1:2,0:0:0:0:
296,112,31600,1,14,0:2:0:0:
418,78,31762,1,2,0:2:0:0:
275,201,31925,38,0,L|220:190,2,33.75,14|2|2,0:2|0:2|0:2,0:0:0:0:
166,138,32249,2,0,L|99:150,1,67.5,2|0,1:2|0:2,0:0:0:0:
73,154,32492,1,0,0:2:0:0:
45,159,32573,1,10,0:2:0:0:
145,300,32735,2,0,L|157:233,1,67.5,2|0,0:2|1:2,0:0:0:0:
36,112,33060,2,0,L|23:178,1,67.5,2|8,0:2|0:2,0:0:0:0:
154,122,33384,1,2,0:2:0:0:
136,17,33546,1,2,1:2:0:0:
268,4,33708,1,0,0:2:0:0:
268,4,33789,1,0,0:2:0:0:
268,4,33871,6,0,L|346:13,1,67.5,10|2,0:2|0:2,0:0:0:0:
401,81,34195,1,2,1:2:0:0:
372,177,34357,1,2,0:2:0:0:
405,286,34519,5,10,0:2:0:0:
405,286,34600,1,2,0:2:0:0:
405,286,34681,1,2,0:2:0:0:
290,366,34844,2,0,L|281:288,1,67.5,2|0,1:2|0:2,0:0:0:0:
279,270,35087,1,0,0:2:0:0:
276,242,35168,1,10,0:2:0:0:
120,256,35330,2,0,L|129:334,1,67.5,2|0,0:2|1:2,0:0:0:0:
292,220,35654,2,0,L|283:142,1,67.5,2|8,0:2|0:2,0:0:0:0:
199,48,35979,1,2,0:2:0:0:
117,97,36141,2,0,L|126:175,1,67.5,2|0,1:2|0:2,0:0:0:0:
128,194,36384,1,0,0:2:0:0:
131,222,36465,5,10,0:2:0:0:
220,298,36627,1,2,0:2:0:0:
320,247,36789,1,2,1:2:0:0:
427,294,36951,1,2,0:2:0:0:
504,209,37114,38,0,L|499:162,2,33.75,10|2|2,0:2|0:2|0:2,0:0:0:0:
370,99,37438,2,0,L|361:177,1,67.5,2|0,1:2|0:2,0:0:0:0:
357,196,37681,1,0,0:2:0:0:
354,224,37762,1,10,0:2:0:0:
222,252,37925,2,0,L|231:174,1,67.5,2|0,0:2|1:2,0:0:0:0:
436,259,38249,2,0,L|427:337,1,67.5,2|8,0:2|0:2,0:0:0:0:
315,376,38573,1,2,0:2:0:0:
232,316,38735,1,2,1:2:0:0:
125,349,38898,1,0,0:2:0:0:
125,349,38979,1,0,0:2:0:0:
125,349,39060,6,0,L|116:271,1,67.5,10|2,0:2|0:2,0:0:0:0:
52,199,39384,1,2,1:2:0:0:
70,101,39546,1,2,0:2:0:0:
179,72,39708,5,10,0:2:0:0:
179,72,39789,1,2,0:2:0:0:
179,72,39871,1,2,0:2:0:0:
273,144,40033,2,0,L|265:211,1,67.5,2|0,1:2|0:2,0:0:0:0:
262,238,40276,1,0,0:2:0:0:
259,266,40357,1,10,0:2:0:0:
392,349,40519,2,0,L|400:282,1,67.5,2|0,0:2|1:2,0:0:0:0:
167,193,40844,2,0,L|159:260,1,67.5,2|8,0:2|0:2,0:0:0:0:
319,154,41168,1,2,0:2:0:0:
271,59,41330,2,0,L|204:67,1,67.5,2|2,1:2|0:2,0:0:0:0:
173,56,41573,1,2,0:2:0:0:
178,35,41654,5,10,0:2:0:0:
50,64,41817,1,10,0:2:0:0:
112,206,41979,2,0,L|120:136,1,67.5,10|10,0:2|0:2,0:0:0:0:
70,320,42303,5,6,3:2:0:0:
70,320,42316,5,0,0:2:0:0:
152,308,42519,69,2,3:2:0:0:
152,308,42532,5,0,0:2:0:0:
229,294,42735,69,2,3:2:0:0:
229,294,42748,5,0,0:2:0:0:
280,214,42952,69,2,3:2:0:0:
280,214,42965,5,0,0:2:0:0:
362,226,43168,69,2,3:2:0:0:
362,226,43181,5,0,0:0:0:0:
439,240,43384,69,2,3:2:0:0:
439,240,43397,5,0,0:2:0:0:
379,329,43600,21,2,3:2:0:0:
360,242,43816,1,2,3:2:0:0:
402,164,44032,1,2,3:2:0:0:
390,338,44249,5,2,3:2:0:0:
348,239,44465,1,2,3:2:0:0:
398,149,44681,1,2,3:2:0:0:
238,63,44898,21,2,3:2:0:0:
238,63,44911,5,0,0:2:0:0:
250,145,45114,69,2,3:2:0:0:
250,145,45127,5,0,0:2:0:0:
264,222,45330,69,2,3:2:0:0:
264,222,45343,5,0,0:2:0:0:
162,198,45547,69,2,3:2:0:0:
162,198,45560,5,0,0:2:0:0:
150,116,45763,69,2,3:2:0:0:
150,116,45776,5,0,0:2:0:0:
136,39,45979,69,2,3:2:0:0:
136,39,45992,5,0,0:2:0:0:
47,151,46195,5,2,3:2:0:0:
132,114,46411,1,2,3:2:0:0:
205,172,46627,1,2,3:2:0:0:
37,144,46844,37,2,3:2:0:0:
214,84,47060,1,2,3:2:0:0:
221,258,47276,1,2,3:2:0:0:
301,326,47492,5,2,3:2:0:0:
301,326,47505,5,0,0:2:0:0:
374,284,47708,69,2,3:2:0:0:
374,284,47721,5,0,0:2:0:0:
458,309,47925,69,2,3:2:0:0:
458,309,47937,5,0,0:2:0:0:
512,172,48141,69,2,3:2:0:0:
512,172,48154,5,0,0:2:0:0:
439,214,48357,69,2,3:2:0:0:
439,214,48370,5,0,0:2:0:0:
355,189,48573,69,2,3:2:0:0:
355,189,48586,5,0,0:2:0:0:
343,34,48789,21,2,3:2:0:0:
383,119,49005,1,2,3:2:0:0:
343,199,49221,1,2,3:2:0:0:
354,34,49438,5,2,3:2:0:0:
394,119,49654,1,2,3:2:0:0:
352,205,49870,1,2,3:2:0:0:
325,306,50087,21,2,3:2:0:0:
325,306,50100,5,0,0:2:0:0:
256,252,50303,69,2,3:2:0:0:
256,252,50316,5,0,0:2:0:0:
171,275,50519,69,2,3:2:0:0:
171,275,50532,5,0,0:2:0:0:
87,152,50735,69,2,3:2:0:0:
87,152,50748,5,0,0:2:0:0:
170,180,50951,69,2,3:2:0:0:
170,180,50964,5,0,0:2:0:0:
242,129,51167,69,2,3:2:0:0:
242,129,51180,5,0,0:2:0:0:
32,64,51384,5,2,3:2:0:0:
93,240,51600,1,2,3:2:0:0:
242,129,51817,1,2,3:2:0:0:
154,25,52033,38,0,L|161:93,1,67.5,10|8,3:2|0:2,0:0:0:0:
340,149,52357,2,0,L|347:93,3,33.75,8|8|8|8,0:2|0:2|0:2|0:2,0:0:0:0:
324,91,52681,1,14,0:2:0:0:
105,319,57871,53,10,0:2:0:0:
76,222,58033,1,10,0:2:0:0:
148,148,58195,2,0,L|231:158,1,67.5,10|10,1:2|1:2,0:0:0:0:
238,159,58438,1,0,1:2:0:0:
261,162,58519,1,10,1:2:0:0:
380,111,58681,1,10,0:2:0:0:
380,111,58844,2,0,L|390:194,1,67.5,10|10,1:2|0:2,0:0:0:0:
334,275,59168,1,10,0:2:0:0:
240,225,59330,2,0,L|230:142,2,67.5,10|10|10,0:2|1:2|0:2,0:0:0:0:
179,328,59817,1,10,0:2:0:0:
79,329,59979,1,10,0:2:0:0:
39,236,60141,2,0,L|49:157,1,67.5,10|10,1:2|1:2,0:0:0:0:
126,62,60465,6,0,L|167:67,3,33.75,10|8|10|8,0:2|0:2|0:2|0:2,0:0:0:0:
186,86,60790,2,0,L|227:80,3,33.75,10|8|10|8,1:2|0:2|1:2|1:2,0:0:0:0:
247,65,61114,2,0,L|288:70,3,33.75,10|8|10|8,1:2|1:2|0:2|0:2,0:0:0:0:
299,88,61438,1,10,1:2:0:0:
303,111,61519,1,8,0:2:0:0:
306,133,61600,1,10,1:2:0:0:
309,156,61681,1,8,1:2:0:0:
312,178,61762,1,14,0:2:0:0:
392,355,63061,5,14,0:2:0:0:
386,332,63141,1,2,0:2:0:0:
381,309,63222,1,2,0:2:0:0:
253,286,63384,2,0,L|275:200,1,69.524999416523,2|0,1:2|0:2,0:0:0:0:
279,193,63627,1,0,0:2:0:0:
285,169,63709,1,10,0:2:0:0:
412,145,63871,2,0,L|390:231,1,69.524999416523,2|0,0:2|1:2,0:0:0:0:
181,207,64195,2,0,L|198:139,1,69.524999416523,2|8,0:2|0:2,0:0:0:0:
407,245,64519,1,2,0:2:0:0:
414,349,64681,1,2,1:2:0:0:
311,384,64844,1,0,0:2:0:0:
311,384,64925,1,0,0:2:0:0:
311,384,65006,38,0,L|228:368,1,69.524999416523,10|2,0:2|0:2,0:0:0:0:
167,253,65330,2,0,L|250:269,1,69.524999416523,2|2,1:2|0:2,0:0:0:0:
68,129,65654,5,10,0:2:0:0:
74,152,65735,1,2,0:2:0:0:
79,175,65816,1,2,0:2:0:0:
241,158,65979,2,0,L|225:75,1,69.524999416523,2|0,1:2|0:2,0:0:0:0:
222,65,66222,1,0,0:2:0:0:
216,41,66304,1,10,0:2:0:0:
95,141,66465,2,0,L|111:224,1,69.524999416523,2|0,0:2|1:2,0:0:0:0:
336,247,66790,2,0,L|320:164,1,69.524999416523,2|8,0:2|0:2,0:0:0:0:
335,60,67114,1,2,0:2:0:0:
438,30,67276,1,2,1:2:0:0:
507,119,67438,1,0,0:2:0:0:
507,119,67519,1,0,0:2:0:0:
507,119,67600,5,10,0:2:0:0:
478,204,67763,1,2,0:2:0:0:
348,246,67925,2,0,L|371:155,1,69.524999416523,2|2,1:2|0:2,0:0:0:0:
247,70,68249,5,14,0:2:0:0:
254,93,68330,1,2,0:2:0:0:
260,116,68411,1,2,0:2:0:0:
134,188,68573,2,0,L|111:97,1,69.524999416523,2|0,1:2|0:2,0:0:0:0:
111,97,68817,1,0,0:2:0:0:
105,73,68899,1,10,0:2:0:0:
258,203,69060,2,0,L|235:294,1,69.524999416523,2|0,0:2|1:2,0:0:0:0:
23,294,69384,2,0,L|46:203,1,69.524999416523,2|8,0:2|0:2,0:0:0:0:
118,167,69709,1,2,0:2:0:0:
188,246,69871,1,2,1:2:0:0:
294,216,70033,1,0,0:2:0:0:
294,216,70114,1,0,0:2:0:0:
294,216,70195,38,0,L|311:145,1,69.524999416523,10|2,0:2|0:2,0:0:0:0:
459,229,70519,2,0,L|442:300,1,69.524999416523,2|2,1:2|0:2,0:0:0:0:
394,108,70844,5,10,0:2:0:0:
388,85,70925,1,2,0:2:0:0:
383,62,71006,1,2,0:2:0:0:
230,46,71168,2,0,L|247:117,1,69.524999416523,2|0,1:2|0:2,0:0:0:0:
255,140,71411,1,0,0:2:0:0:
261,164,71493,1,10,0:2:0:0:
170,253,71654,2,0,L|153:182,1,69.524999416523,2|0,0:2|1:2,0:0:0:0:
34,142,71979,2,0,L|51:213,1,69.524999416523,2|8,0:2|0:2,0:0:0:0:
50,324,72303,1,2,0:2:0:0:
147,374,72465,1,2,1:2:0:0:
252,330,72627,1,0,0:2:0:0:
252,330,72709,1,0,0:2:0:0:
252,330,72790,5,10,0:2:0:0:
218,226,72952,1,2,0:2:0:0:
371,176,73114,5,2,1:2:0:0:
346,274,73276,1,2,0:2:0:0:
267,155,73438,37,14,0:2:0:0:
275,126,73519,1,2,0:2:0:0:
284,98,73600,1,2,0:2:0:0:
365,57,73762,1,2,1:2:0:0:
203,46,73925,2,0,L|193:80,2,36.112498897934,0|2|10,0:2|0:2|0:2,0:0:0:0:
60,27,74249,2,0,L|76:98,1,72.224997795868,2|0,0:2|1:2,0:0:0:0:
249,195,74573,2,0,L|267:125,1,72.224997795868,2|8,0:2|0:2,0:0:0:0:
99,194,74898,1,2,0:2:0:0:
71,293,75060,1,2,1:2:0:0:
149,370,75222,1,0,0:2:0:0:
149,370,75303,1,0,0:2:0:0:
149,370,75384,6,0,L|236:348,1,72.224997795868,10|2,0:2|0:2,0:0:0:0:
264,263,75709,1,2,1:2:0:0:
235,166,75871,1,2,0:2:0:0:
356,101,76033,5,10,0:2:0:0:
348,132,76114,1,2,0:2:0:0:
340,162,76195,1,2,0:2:0:0:
279,61,76357,1,2,1:2:0:0:
436,160,76519,1,0,0:2:0:0:
436,160,76600,1,2,0:2:0:0:
436,160,76681,1,10,0:2:0:0:
475,262,76844,2,0,L|453:350,1,72.224997795868,2|0,0:2|1:2,0:0:0:0:
312,217,77168,2,0,L|333:130,1,72.224997795868,2|8,0:2|0:2,0:0:0:0:
252,24,77492,1,2,0:2:0:0:
170,88,77654,1,2,1:2:0:0:
74,49,77817,1,0,0:2:0:0:
74,49,77898,1,0,0:2:0:0:
74,49,77979,5,10,0:2:0:0:
44,157,78141,1,2,0:2:0:0:
158,230,78303,37,2,1:2:0:0:
141,120,78465,1,2,0:2:0:0:
269,129,78627,5,14,0:2:0:0:
261,159,78708,1,2,0:2:0:0:
255,190,78789,1,2,0:2:0:0:
357,112,78952,1,2,1:2:0:0:
400,183,79114,2,0,L|389:227,2,36.112498897934,0|2|10,0:2|0:2|0:2,0:0:0:0:
452,329,79438,2,0,L|351:354,1,72.224997795868,2|0,0:2|1:2,0:0:0:0:
234,218,79763,2,0,L|334:192,1,72.224997795868,2|8,0:2|0:2,0:0:0:0:
253,375,80087,1,2,0:2:0:0:
173,312,80249,1,2,1:2:0:0:
72,339,80411,1,0,0:2:0:0:
72,339,80492,1,0,0:2:0:0:
72,339,80573,6,0,L|91:261,1,72.224997795868,10|2,0:2|0:2,0:0:0:0:
59,167,80898,1,2,1:2:0:0:
124,86,81060,1,2,0:2:0:0:
259,178,81222,5,10,0:2:0:0:
252,146,81303,1,2,0:2:0:0:
245,116,81384,1,10,0:2:0:0:
395,67,81546,2,0,L|373:163,1,74.2500022659302,8|10,1:2|0:2,0:0:0:0:
371,168,81790,1,2,0:2:0:0:
364,196,81871,1,10,0:2:0:0:
199,229,82033,2,0,L|221:133,1,74.2500022659302,10|8,0:2|1:2,0:0:0:0:
89,68,82357,2,0,L|67:164,1,74.2500022659302,10|8,0:2|0:2,0:0:0:0:
39,266,82681,1,10,0:2:0:0:
117,336,82844,1,10,1:2:0:0:
225,286,83006,1,10,0:2:0:0:
219,260,83087,1,8,0:2:0:0:
213,234,83168,37,10,0:2:0:0:
238,119,83330,1,10,0:2:0:0:
122,87,83492,2,0,L|140:162,1,74.2500022659302,10|10,1:2|0:2,0:0:0:0:
332,250,83817,53,6,3:2:0:0:
332,250,83830,5,0,0:2:0:0:
344,167,84033,69,2,3:2:0:0:
344,167,84046,5,0,0:2:0:0:
358,84,84249,69,2,3:2:0:0:
358,84,84262,5,0,0:2:0:0:
464,73,84465,69,2,3:2:0:0:
464,73,84478,5,0,0:2:0:0:
452,156,84681,69,2,3:2:0:0:
452,156,84694,5,0,0:2:0:0:
438,239,84897,69,2,3:2:0:0:
438,239,84910,5,0,0:2:0:0:
260,176,85114,21,2,3:2:0:0:
340,127,85330,1,2,3:2:0:0:
437,150,85546,1,2,3:2:0:0:
252,164,85762,5,2,3:2:0:0:
337,113,85979,1,2,3:2:0:0:
441,136,86195,1,2,3:2:0:0:
454,256,86411,21,2,3:2:0:0:
454,256,86425,5,0,0:2:0:0:
364,249,86627,69,2,3:2:0:0:
364,249,86641,5,0,0:2:0:0:
298,297,86844,69,2,3:2:0:0:
298,297,86858,5,0,0:2:0:0:
211,228,87060,69,2,3:2:0:0:
211,228,87074,5,0,0:2:0:0:
126,233,87276,69,2,3:2:0:0:
126,233,87290,5,0,0:2:0:0:
62,179,87492,69,2,3:2:0:0:
62,179,87507,5,0,0:2:0:0:
134,56,87708,5,2,3:2:0:0:
160,149,87925,1,2,3:2:0:0:
117,232,88141,1,2,3:2:0:0:
134,56,88357,37,2,3:2:0:0:
210,216,88574,1,2,3:2:0:0:
60,295,88790,1,2,3:2:0:0:
288,370,89006,5,2,3:2:0:0:
288,370,89019,5,0,0:2:0:0:
299,288,89222,69,2,3:2:0:0:
299,288,89235,5,0,0:2:0:0:
308,208,89438,69,2,3:2:0:0:
308,208,89451,5,0,0:2:0:0:
201,230,89654,69,2,3:2:0:0:
201,230,89667,5,0,0:2:0:0:
190,148,89870,69,2,3:2:0:0:
190,148,89883,5,0,0:2:0:0:
181,68,90086,69,2,3:2:0:0:
181,68,90099,5,0,0:2:0:0:
382,92,90303,37,2,3:2:0:0:
386,187,90519,1,2,3:2:0:0:
318,250,90735,1,2,3:2:0:0:
389,98,90952,69,2,3:2:0:0:
393,193,91168,1,2,3:2:0:0:
325,256,91384,1,2,3:2:0:0:
203,218,91600,37,2,3:2:0:0:
203,218,91613,5,0,0:2:0:0:
117,206,91816,69,2,3:2:0:0:
117,206,91829,5,0,0:2:0:0:
45,248,92032,69,2,3:2:0:0:
45,248,92045,5,0,0:2:0:0:
9,115,92249,69,2,3:2:0:0:
9,115,92262,5,0,0:2:0:0:
95,118,92465,69,2,3:2:0:0:
95,118,92478,5,0,0:2:0:0:
163,71,92681,69,2,3:2:0:0:
163,71,92694,5,0,0:2:0:0:
267,179,92898,5,2,3:2:0:0:
161,198,93114,1,2,3:2:0:0:
95,118,93330,1,2,3:2:0:0:
247,280,93546,37,2,3:2:0:0:
65,214,93762,1,2,3:2:0:0:
132,27,93979,1,2,3:2:0:0:
345,72,94195,5,6,3:2:0:0:
345,72,94208,5,0,0:2:0:0:
391,144,94411,69,2,3:2:0:0:
391,144,94424,5,0,0:2:0:0:
378,232,94627,69,2,3:2:0:0:
378,232,94640,5,0,0:2:0:0:
348,64,94844,69,2,3:2:0:0:
348,64,94857,5,0,0:2:0:0:
403,143,95060,69,2,3:2:0:0:
403,143,95073,5,0,0:2:0:0:
386,241,95276,69,2,3:2:0:0:
386,241,95289,5,0,0:2:0:0:
323,312,95492,69,2,3:2:0:0:
323,312,95505,5,0,0:2:0:0:
240,299,95708,69,2,3:2:0:0:
240,299,95721,5,0,0:2:0:0:
160,282,95924,69,2,3:2:0:0:
160,282,95937,5,0,0:2:0:0:
227,382,96141,69,2,3:2:0:0:
227,382,96154,5,0,0:2:0:0:
240,299,96357,69,2,3:2:0:0:
240,299,96370,5,0,0:2:0:0:
257,219,96573,69,2,3:2:0:0:
257,219,96586,5,0,0:2:0:0:
207,124,96789,69,2,3:2:0:0:
207,124,96802,5,0,0:2:0:0:
126,155,97005,69,2,3:2:0:0:
126,155,97018,5,0,0:2:0:0:
49,118,97221,69,2,3:2:0:0:
49,118,97234,5,0,0:2:0:0:
206,139,97438,69,2,3:2:0:0:
206,139,97451,5,0,0:2:0:0:
125,170,97654,69,2,3:2:0:0:
125,170,97667,5,0,0:2:0:0:
48,133,97870,69,2,3:2:0:0:
48,133,97883,5,0,0:2:0:0:
24,334,98087,69,2,3:2:0:0:
24,334,98100,5,0,0:2:0:0:
99,283,98303,69,2,3:2:0:0:
99,283,98316,5,0,0:2:0:0:
184,295,98519,69,2,3:2:0:0:
184,295,98532,5,0,0:2:0:0:
22,346,98735,69,2,3:2:0:0:
22,346,98748,5,0,0:2:0:0:
170,195,98952,69,2,3:2:0:0:
170,195,98965,5,0,0:2:0:0:
236,384,99168,69,2,3:2:0:0:
236,384,99181,5,0,0:2:0:0:
77,275,99384,69,2,3:2:0:0:
77,275,99397,5,0,0:2:0:0:
90,192,99600,69,2,3:2:0:0:
90,192,99613,5,0,0:2:0:0:
107,112,99816,69,2,3:2:0:0:
107,112,99829,5,0,0:2:0:0:
6,210,100033,69,2,3:2:0:0:
6,210,100046,5,0,0:2:0:0:
90,192,100249,69,2,3:2:0:0:
90,192,100262,5,0,0:2:0:0:
170,175,100465,69,2,3:2:0:0:
170,175,100478,5,0,0:2:0:0:
296,206,100681,69,2,3:2:0:0:
296,206,100694,5,0,0:2:0:0:
352,138,100897,69,2,3:2:0:0:
352,138,100910,5,0,0:2:0:0:
339,45,101113,69,2,3:2:0:0:
339,45,101126,5,0,0:2:0:0:
300,218,101330,69,2,3:2:0:0:
300,218,101343,5,0,0:2:0:0:
363,141,101546,69,2,3:2:0:0:
363,141,101559,5,0,0:2:0:0:
347,39,101762,69,2,3:2:0:0:
347,39,101775,5,0,0:2:0:0:
140,44,101979,69,2,3:2:0:0:
140,44,101992,5,0,0:2:0:0:
157,127,102195,69,2,3:2:0:0:
157,127,102208,5,0,0:2:0:0:
179,214,102411,69,2,3:2:0:0:
179,214,102424,5,0,0:2:0:0:
240,108,102627,69,2,3:2:0:0:
240,108,102640,5,0,0:2:0:0:
157,127,102843,69,2,3:2:0:0:
157,127,102856,5,0,0:2:0:0:
75,150,103059,69,2,3:2:0:0:
75,150,103072,5,0,0:2:0:0:
33,332,103276,69,2,3:2:0:0:
33,332,103289,5,0,0:2:0:0:
121,258,103492,69,2,3:2:0:0:
121,258,103505,5,0,0:2:0:0:
209,331,103708,69,2,3:2:0:0:
209,331,103721,5,0,0:2:0:0:
300,254,103925,22,0,L|300:180,1,74.2500022659302,10|8,3:2|0:2,0:0:0:0:
373,119,104249,1,8,0:2:0:0:
373,119,104330,1,8,0:2:0:0:
373,119,104411,1,8,0:2:0:0:
373,119,104492,1,8,0:2:0:0:
373,119,104573,1,12,0:2:0:0:
