osu file format v14

[General]
AudioFilename: audio.mp3
AudioLeadIn: 0
PreviewTime: 83065
Countdown: 0
SampleSet: Soft
StackLeniency: 0.7
Mode: 0
LetterboxInBreaks: 0
WidescreenStoryboard: 0

[Editor]
Bookmarks: 72551,99389,101551
DistanceSpacing: 0.7
BeatDivisor: 4
GridSize: 32
TimelineZoom: 4.999998

[Metadata]
Title:POSSESSION
TitleUnicode:POSSESSION
Artist:TAG underground
ArtistUnicode:TAG underground
Creator:pewdekz
Version:CHALLENGE
Source:beatmania IIDX 23 copula
Tags:ddr reflec beat 悠久のリフレシア bms jubeat festo psychic flash Yasuhiro Taguchi 田口康裕 instrumental electronic konami dancedancerevolutionx2 doubletap dance revolution
BeatmapID:3455732
BeatmapSetID:1691083

[Difficulty]
HPDrainRate:6
CircleSize:5
OverallDifficulty:9.2
ApproachRate:9.4
SliderMultiplier:1.8
SliderTickRate:1

[Events]
//Background and Video events
0,0,"BIG_RES.png",0,0
//Break Periods
//Storyboard Layer 0 (Background)
//Storyboard Layer 1 (Fail)
//Storyboard Layer 2 (Pass)
//Storyboard Layer 3 (Foreground)
//Storyboard Layer 4 (Overlay)
//Storyboard Sound Samples

[TimingPoints]
790,324.324324324324,4,2,1,65,1,0
790,-100,4,2,1,65,0,0
42303,-86.9565217391304,4,2,1,70,0,1
52195,-86.9565217391304,4,2,1,65,0,1
52681,-100,4,2,1,65,0,0
63060,-90.9090909090909,4,2,1,70,0,0
73438,-86.9565217391304,4,2,1,72,0,1
81222,-86.9565217391304,4,2,1,72,0,0
83817,-86.9565217391304,4,2,1,75,0,1
104087,-86.9565217391304,4,2,1,65,0,1
104573,-86.9565217391304,4,2,1,65,0,0

[Colours]
Combo1 : 4,181,66
Combo2 : 155,55,255
Combo3 : 0,128,192
Combo4 : 64,0,128
Combo5 : 0,0,160
Combo6 : 255,0,0

[HitObjects]
56,59,790,5,14,0:2:0:0:
56,59,810,70,0,L|44:137,1,78.75,0|0,0:2|0:2,0:0:0:0:
184,214,1114,6,0,L|195:116,1,90,2|0,1:2|0:2,0:0:0:0:
56,59,1438,1,8,0:2:0:0:
184,214,1600,2,0,L|195:116,1,90,2|0,0:2|1:2,0:0:0:0:
56,59,1925,1,0,0:2:0:0:
303,77,2087,6,0,L|291:175,1,90,10|0,0:2|0:2,0:0:0:0:
91,236,2411,1,0,1:2:0:0:
303,77,2573,2,0,L|291:175,1,90,2|8,0:2|0:2,0:0:0:0:
419,244,2897,2,0,L|430:145,1,90,2|0,0:2|1:2,0:0:0:0:
91,236,3222,1,2,0:2:0:0:
176,297,3384,2,0,L|187:198,1,90,8|0,0:2|0:2,0:0:0:0:
22,106,3708,6,0,B|82:95|82:95|99:47|99:47|177:31,1,180,2|8,1:2|0:2,0:0:0:0:
185,207,4195,1,0,0:2:0:0:
185,207,4357,2,0,L|166:104,1,90,0|0,1:2|0:2,0:0:0:0:
388,5,4681,6,0,L|377:94,1,90,10|0,0:2|0:2,0:0:0:0:
165,33,5006,1,0,1:2:0:0:
388,5,5168,2,0,L|377:94,1,90,2|8,0:2|0:2,0:0:0:0:
260,254,5492,1,2,0:2:0:0:
233,100,5654,1,2,1:2:0:0:
472,73,5817,2,0,L|452:230,1,135,2|0,0:2|0:2,0:0:0:0:
452,230,6141,1,0,0:2:0:0:
177,249,6303,38,0,L|189:151,1,90,2|0,1:2|0:2,0:0:0:0:
358,360,6627,1,8,0:2:0:0:
177,249,6789,2,0,L|188:151,1,90,2|0,0:2|1:2,0:0:0:0:
358,360,7114,1,0,0:2:0:0:
287,123,7276,6,0,L|275:221,1,90,10|0,0:2|0:2,0:0:0:0:
119,359,7600,1,0,1:2:0:0:
287,123,7762,2,0,L|275:221,1,90,2|8,0:2|0:2,0:0:0:0:
60,261,8087,2,0,L|70:171,1,90,2|0,0:2|1:2,0:0:0:0:
119,359,8411,1,2,0:2:0:0:
352,250,8573,2,0,L|341:339,1,90,8|0,0:2|0:2,0:0:0:0:
473,280,8898,6,0,L|439:95,1,180,2|8,1:2|0:0,0:0:0:0:
417,2,9384,1,0,0:2:0:0:
277,131,9546,2,0,L|372:158,1,90,0|0,1:2|0:2,0:0:0:0:
131,37,9871,6,0,L|120:126,1,90,10|0,0:2|0:2,0:0:0:0:
327,24,10196,1,0,1:2:0:0:
131,37,10358,2,0,L|120:126,1,90,2|8,0:2|0:2,0:0:0:0:
268,217,10682,1,2,0:2:0:0:
228,87,10844,1,2,1:2:0:0:
45,239,11006,1,2,0:2:0:0:
45,239,11168,38,0,L|147:252,1,90,12|0,0:2|0:2,0:0:0:0:
324,144,11492,2,0,L|222:131,1,90,2|0,1:2|0:2,0:0:0:0:
148,341,11817,1,8,0:2:0:0:
324,144,11979,2,0,L|337:42,1,90,2|0,0:2|1:2,0:0:0:0:
148,341,12303,1,0,0:2:0:0:
452,262,12465,6,0,L|350:249,1,90,10|0,0:2|0:2,0:0:0:0:
220,102,12789,1,0,1:2:0:0:
452,262,12952,2,0,L|439:364,1,90,2|8,0:2|0:2,0:0:0:0:
117,350,13276,2,0,L|128:260,1,90,2|0,0:2|1:2,0:0:0:0:
362,250,13600,1,2,0:2:0:0:
220,102,13762,2,0,L|208:191,1,90,8|0,0:2|0:2,0:0:0:0:
180,18,14087,6,0,B|120:29|120:29|103:77|103:77|25:93,1,180,2|8,1:2|0:2,0:0:0:0:
8,12,14573,1,0,0:2:0:0:
187,108,14735,2,0,L|175:197,1,90,0|0,1:2|0:2,0:0:0:0:
31,349,15060,2,0,L|42:259,1,90,10|0,0:2|0:2,0:0:0:0:
218,282,15384,1,0,1:2:0:0:
31,349,15546,2,0,L|121:360,1,90,2|8,0:2|0:2,0:0:0:0:
287,107,15871,5,2,0:2:0:0:
130,170,16033,1,2,1:2:0:0:
259,359,16195,1,2,0:2:0:0:
259,359,16357,38,0,L|348:347,1,90,8|0,0:2|0:2,0:0:0:0:
383,144,16681,2,0,L|294:156,1,90,2|0,1:2|0:2,0:0:0:0:
259,359,17006,1,8,0:2:0:0:
383,144,17168,2,0,L|371:55,1,90,2|0,0:2|1:2,0:0:0:0:
394,277,17492,1,0,0:2:0:0:
185,185,17654,6,0,L|197:96,1,90,10|0,0:2|0:2,0:0:0:0:
394,277,17979,1,0,1:2:0:0:
185,185,18141,2,0,L|274:197,1,90,2|8,0:2|0:2,0:0:0:0:
483,88,18465,2,0,L|471:177,1,90,2|0,0:2|1:2,0:0:0:0:
273,38,18789,1,2,0:2:0:0:
169,287,18952,2,0,L|258:275,1,90,8|0,0:2|0:2,0:0:0:0:
56,358,19276,6,0,B|66:294|66:294|25:263|25:263|38:189,1,180,2|8,1:2|0:2,3:0:0:0:
207,120,19762,2,0,B|218:204|218:204|106:220,1,180,2|0,0:2|0:2,3:0:0:0:
63,79,20249,1,10,0:2:0:0:
63,79,20411,2,0,L|68:119,4,22.5,8|8|8|8|0,0:2|0:2|0:2|0:2|1:0,0:0:0:0:
321,101,20735,2,0,L|328:56,1,45,10|8,0:2|0:2,0:0:0:0:
190,69,20898,5,8,0:2:0:0:
206,110,20979,1,8,0:2:0:0:
244,133,21060,1,2,0:2:0:0:
288,129,21141,1,8,0:2:0:0:
321,101,21222,1,8,1:2:0:0:
365,101,21303,1,0,0:2:0:0:
399,129,21384,1,8,0:2:0:0:
411,171,21465,1,8,0:2:0:0:
394,211,21546,1,14,0:2:0:0:
256,192,21627,12,12,24141,0:2:0:0:
256,192,24627,37,12,0:2:0:0:
256,192,26087,1,12,0:2:0:0:
256,192,26411,1,12,0:2:0:0:
65,42,26735,5,14,1:2:0:0:
69,75,26816,1,0,1:2:0:0:
73,108,26897,1,10,1:2:0:0:
181,39,27060,1,2,1:2:0:0:
23,231,27222,2,8,L|31:165,1,45,8|0,0:2|0:2,0:0:0:0:
141,174,27384,2,8,L|128:265,1,90,2|10,1:2|0:2,0:0:0:0:
28,186,27708,1,0,0:2:0:0:
155,354,27870,1,2,1:2:0:0:
155,354,27951,1,0,1:2:0:0:
155,354,28032,5,8,0:2:0:0:
295,160,28195,1,2,0:2:0:0:
333,245,28357,2,0,L|227:232,1,90,2|8,1:2|0:2,0:0:0:0:
326,342,28681,1,2,0:2:0:0:
326,342,28843,1,2,0:2:0:0:
205,139,29005,1,2,1:2:0:0:
205,139,29168,1,14,0:2:0:0:
444,43,29330,5,14,0:2:0:0:
455,79,29411,1,0,0:2:0:0:
444,115,29492,1,2,0:2:0:0:
414,139,29573,1,0,0:2:0:0:
376,139,29654,1,2,1:2:0:0:
339,127,29735,1,0,0:2:0:0:
303,138,29817,2,0,L|293:57,1,45,12|0,0:2|0:2,3:0:0:0:
118,38,29979,37,2,0:2:0:0:
118,38,30060,1,0,0:2:0:0:
118,38,30141,2,0,L|127:118,1,45,2|0,0:2|0:2,0:0:0:0:
183,197,30303,2,0,L|188:152,1,45,12|0,1:2|0:2,0:0:0:0:
257,302,30465,5,2,0:2:0:0:
257,302,30546,1,0,0:2:0:0:
257,302,30627,2,0,L|176:311,1,45,0|0,1:2|1:2,0:0:0:0:
47,164,30789,2,0,L|127:173,1,45,12|0,0:2|0:2,0:0:0:0:
342,82,30951,1,2,1:2:0:0:
336,120,31032,1,0,0:2:0:0:
330,158,31114,1,2,0:2:0:0:
325,196,31195,1,2,0:2:0:0:
319,233,31276,5,14,0:2:0:0:
215,67,31438,1,2,1:2:0:0:
424,26,31600,1,14,0:2:0:0:
392,282,31762,1,2,0:2:0:0:
236,342,31925,5,14,0:2:0:0:
231,319,32006,1,2,0:2:0:0:
226,294,32087,1,2,0:2:0:0:
84,364,32249,2,0,L|110:259,1,90,2|0,1:2|0:2,0:0:0:0:
53,177,32492,1,0,0:2:0:0:
55,203,32573,1,10,0:2:0:0:
351,205,32735,2,0,L|324:309,1,90,2|0,0:2|1:2,0:0:0:0:
25,211,33060,2,0,L|51:106,1,90,2|8,0:2|0:2,0:0:0:0:
185,47,33384,37,2,0:2:0:0:
215,214,33546,1,2,1:2:0:0:
22,37,33708,2,0,L|73:24,1,45,0|0,0:2|0:2,3:0:0:0:
261,116,33871,1,10,0:2:0:0:
261,116,34033,1,2,0:2:0:0:
229,305,34195,1,2,1:2:0:0:
229,305,34357,1,2,0:2:0:0:
454,230,34519,5,10,0:2:0:0:
459,207,34600,1,2,0:2:0:0:
464,182,34681,1,2,0:2:0:0:
284,95,34844,2,0,L|305:182,1,90,2|0,1:2|0:2,0:0:0:0:
372,258,35087,1,0,0:2:0:0:
376,233,35168,1,10,0:2:0:0:
489,98,35330,2,0,L|468:11,1,90,2|0,0:2|1:2,0:0:0:0:
170,61,35654,2,0,L|191:148,1,90,2|8,0:2|0:2,0:0:0:0:
240,281,35979,5,2,0:2:0:0:
268,105,36141,1,2,1:2:0:0:
79,63,36303,1,0,0:2:0:0:
79,63,36384,1,0,0:2:0:0:
79,63,36465,5,10,0:2:0:0:
11,305,36627,1,2,0:2:0:0:
73,236,36789,1,2,1:2:0:0:
174,249,36952,1,2,0:2:0:0:
390,173,37114,37,10,0:2:0:0:
357,175,37195,1,2,0:2:0:0:
325,159,37276,1,2,0:2:0:0:
448,36,37438,2,0,L|474:142,1,90,2|0,1:2|0:2,3:0:0:0:
454,240,37681,1,0,0:2:0:0:
456,214,37762,1,10,0:2:0:0:
283,332,37925,2,0,L|256:225,1,90,2|0,0:2|1:2,3:0:0:0:
340,20,38249,2,0,L|366:126,1,90,2|8,0:2|0:2,3:0:0:0:
404,260,38573,5,2,0:2:0:0:
231,167,38735,1,2,1:2:0:0:
152,312,38898,2,0,P|161:301|195:286,1,45,0|0,0:2|0:2,3:0:0:0:
336,356,39060,1,10,0:2:0:0:
336,356,39222,1,2,0:2:0:0:
292,123,39384,1,2,1:2:0:0:
292,123,39546,1,2,0:2:0:0:
71,59,39708,5,10,0:2:0:0:
33,68,39790,1,2,0:2:0:0:
9,99,39871,1,2,0:2:0:0:
60,270,40033,2,0,L|86:165,1,90,2|0,1:2|0:2,0:0:0:0:
166,78,40276,1,0,0:2:0:0:
170,100,40357,1,10,0:2:0:0:
269,85,40519,2,0,L|164:59,1,90,2|0,0:2|1:2,0:0:0:0:
193,262,40844,2,0,L|298:288,1,90,2|8,0:2|0:2,0:0:0:0:
386,96,41168,5,2,0:2:0:0:
190,117,41330,1,2,1:2:0:0:
316,17,41492,2,0,L|301:73,1,45,2|2,0:2|0:2,0:0:0:0:
232,295,41654,37,10,0:2:0:0:
190,117,41817,1,10,0:2:0:0:
339,181,41979,5,10,0:2:0:0:
296,367,42142,1,10,0:2:0:0:
92,344,42303,37,6,3:2:0:0:
92,344,42316,5,0,0:2:0:0:
78,232,42519,69,2,3:2:0:0:
78,232,42532,5,0,0:2:0:0:
166,155,42735,69,2,3:2:0:0:
166,155,42748,5,0,0:2:0:0:
87,354,42952,69,2,3:2:0:0:
87,354,42965,5,0,0:2:0:0:
71,227,43168,69,2,3:2:0:0:
71,227,43181,5,0,0:0:0:0:
163,145,43384,69,2,3:2:0:0:
163,145,43397,5,0,0:2:0:0:
373,221,43600,69,2,3:2:0:0:
373,221,43613,5,0,0:2:0:0:
245,236,43817,69,2,3:2:0:0:
245,236,43830,5,0,0:2:0:0:
163,145,44033,69,2,3:2:0:0:
163,145,44046,5,0,0:2:0:0:
382,230,44249,69,2,3:2:0:0:
382,230,44262,5,0,0:2:0:0:
247,248,44465,69,2,3:2:0:0:
247,248,44478,5,0,0:2:0:0:
188,33,44681,69,2,3:2:0:0:
188,33,44694,5,0,0:2:0:0:
66,351,44898,69,2,3:2:0:0:
66,351,44911,5,0,0:2:0:0:
101,242,45114,69,2,3:2:0:0:
101,242,45127,5,0,0:2:0:0:
27,155,45330,69,2,3:2:0:0:
27,155,45343,5,0,0:2:0:0:
79,358,45546,69,2,3:2:0:0:
79,358,45559,5,0,0:2:0:0:
114,242,45762,69,2,3:2:0:0:
114,242,45775,5,0,0:2:0:0:
36,150,45979,69,2,3:2:0:0:
36,150,45992,5,0,0:2:0:0:
200,22,46195,69,2,3:2:0:0:
200,22,46208,5,0,0:2:0:0:
156,130,46411,69,2,3:2:0:0:
156,130,46424,5,0,0:2:0:0:
36,150,46627,69,2,3:2:0:0:
36,150,46640,5,0,0:2:0:0:
207,11,46844,69,2,3:2:0:0:
207,11,46857,5,0,0:2:0:0:
117,242,47060,69,2,3:2:0:0:
117,242,47073,5,0,0:2:0:0:
73,43,47276,69,2,3:2:0:0:
73,43,47289,5,0,0:2:0:0:
433,354,47492,69,2,3:2:0:0:
433,354,47505,5,0,0:2:0:0:
400,244,47708,69,2,3:2:0:0:
400,244,47721,5,0,0:2:0:0:
470,146,47925,69,2,3:2:0:0:
470,146,47938,5,0,0:2:0:0:
422,351,48141,69,2,3:2:0:0:
422,351,48154,5,0,0:2:0:0:
390,241,48357,69,2,3:2:0:0:
390,241,48370,5,0,0:2:0:0:
459,143,48573,69,2,3:2:0:0:
459,143,48586,5,0,0:2:0:0:
233,110,48789,69,2,3:2:0:0:
233,110,48802,5,0,0:2:0:0:
352,83,49006,69,2,3:2:0:0:
352,83,49019,5,0,0:2:0:0:
459,148,49222,69,2,3:2:0:0:
459,148,49235,5,0,0:2:0:0:
230,97,49438,69,2,3:2:0:0:
230,97,49451,5,0,0:2:0:0:
354,72,49654,69,2,3:2:0:0:
354,72,49667,5,0,0:2:0:0:
177,212,49871,69,2,3:2:0:0:
177,212,49884,5,0,0:2:0:0:
410,370,50087,69,2,3:2:0:0:
410,370,50100,5,0,0:2:0:0:
419,246,50303,69,2,3:2:0:0:
419,246,50316,5,0,0:2:0:0:
334,153,50519,69,2,3:2:0:0:
334,153,50532,5,0,0:2:0:0:
421,367,50735,69,2,3:2:0:0:
421,367,50748,5,0,0:2:0:0:
429,246,50952,69,2,3:2:0:0:
429,246,50965,5,0,0:2:0:0:
343,149,51168,69,2,3:2:0:0:
343,149,51181,5,0,0:2:0:0:
468,62,51384,69,2,3:2:0:0:
468,62,51397,5,0,0:2:0:0:
432,257,51600,69,2,3:2:0:0:
432,257,51613,5,0,0:2:0:0:
240,218,51817,69,2,3:2:0:0:
240,218,51830,5,0,0:2:0:0:
268,50,52033,69,10,3:2:0:0:
268,50,52046,5,0,0:2:0:0:
253,312,52194,5,8,0:2:0:0:
127,312,52357,1,8,0:2:0:0:
123,287,52438,1,8,0:2:0:0:
120,262,52519,1,8,0:2:0:0:
117,238,52600,1,8,0:2:0:0:
114,213,52681,5,14,0:2:0:0:
193,369,52844,1,2,0:2:0:0:
67,141,53006,1,2,1:2:0:0:
263,106,53168,1,2,1:2:0:0:
230,113,53249,1,0,1:2:0:0:
198,109,53330,1,2,1:2:0:0:
169,93,53411,1,0,1:2:0:0:
148,67,53492,1,10,0:2:0:0:
290,41,53654,2,0,L|278:134,1,90,2|2,1:2|0:0,0:0:0:0:
158,271,53979,5,10,0:2:0:0:
356,178,54141,1,2,0:2:0:0:
158,271,54303,1,2,1:2:0:0:
356,178,54465,1,10,0:2:0:0:
404,342,54627,2,0,L|414:252,1,90,2|2,0:2|0:0,0:0:0:0:
80,232,54952,2,0,L|74:276,1,45,2|0,1:2|0:0,0:0:0:0:
11,195,55114,1,10,0:2:0:0:
15,173,55195,1,8,0:2:0:0:
20,151,55276,5,10,0:2:0:0:
173,100,55438,1,2,0:2:0:0:
74,277,55600,1,2,1:2:0:0:
66,22,55762,1,10,1:2:0:0:
66,22,55844,1,0,1:2:0:0:
66,22,55925,2,0,L|72:66,1,45,2|0,1:2|1:2,0:0:0:0:
273,98,56087,1,10,0:2:0:0:
273,98,56249,2,0,L|260:211,1,90,2|2,1:2|0:0,0:0:0:0:
395,348,56573,37,2,0:2:0:0:
197,255,56735,1,10,0:2:0:0:
395,348,56897,1,2,1:2:0:0:
197,255,57059,1,10,0:2:0:0:
398,67,57222,2,0,L|385:180,1,90,2|2,0:2|0:0,0:0:0:0:
160,334,57546,1,2,1:2:0:0:
131,315,57627,1,0,1:2:0:0:
113,287,57708,1,10,1:2:0:0:
106,256,57789,1,8,1:2:0:0:
113,223,57870,5,10,0:2:0:0:
77,372,58033,1,10,0:2:0:0:
131,141,58195,1,10,1:2:0:0:
387,307,58357,5,10,1:2:0:0:
383,274,58438,1,0,1:2:0:0:
379,240,58519,1,10,1:2:0:0:
316,341,58681,1,10,0:2:0:0:
453,204,58844,1,10,1:2:0:0:
290,138,59006,1,10,0:2:0:0:
446,355,59168,5,10,0:2:0:0:
396,103,59330,1,10,0:2:0:0:
265,257,59492,1,10,1:2:0:0:
453,204,59654,1,10,0:2:0:0:
126,124,59817,37,10,0:2:0:0:
99,318,59979,1,10,0:2:0:0:
128,107,60141,1,10,1:2:0:0:
265,257,60303,2,0,L|195:265,1,45,10|8,1:2|0:0,0:0:0:0:
29,166,60465,5,10,0:2:0:0:
51,130,60546,1,8,0:2:0:0:
86,109,60627,1,10,0:2:0:0:
128,107,60708,1,8,0:2:0:0:
164,127,60789,1,10,1:2:0:0:
202,143,60870,1,8,0:2:0:0:
243,140,60951,1,10,1:2:0:0:
278,118,61032,1,8,1:2:0:0:
255,78,61114,5,10,1:2:0:0:
222,104,61195,1,8,1:2:0:0:
202,143,61276,1,10,0:2:0:0:
200,187,61357,1,8,0:2:0:0:
211,229,61438,1,10,1:2:0:0:
223,269,61519,1,8,0:2:0:0:
217,313,61600,1,10,1:2:0:0:
199,354,61681,1,8,1:2:0:0:
199,354,61763,1,14,0:2:0:0:
256,192,61844,12,0,62898,0:2:0:0:
300,98,63061,5,14,0:2:0:0:
268,126,63141,1,2,0:2:0:0:
254,165,63222,1,2,0:2:0:0:
265,28,63384,1,2,1:2:0:0:
352,222,63546,2,0,P|348:200|318:167,1,49.5000015106202,0|0,0:2|0:2,0:0:0:0:
265,28,63708,1,10,0:2:0:0:
442,217,63871,2,0,L|417:314,1,99.0000030212403,2|0,0:2|1:2,0:0:0:0:
166,198,64195,2,0,L|190:100,1,99.0000030212403,2|8,0:2|0:2,0:0:0:0:
443,63,64519,37,2,0:2:0:0:
269,345,64681,2,0,L|244:247,1,99.0000030212403,2|0,1:2|0:2,0:0:0:0:
244,249,64925,1,0,0:2:0:0:
244,249,65006,5,10,0:2:0:0:
69,59,65168,1,2,0:2:0:0:
171,34,65330,1,2,1:2:0:0:
221,120,65492,1,2,0:2:0:0:
75,351,65654,5,10,0:2:0:0:
107,322,65735,1,2,0:2:0:0:
121,283,65816,1,2,0:2:0:0:
79,192,65979,1,2,1:2:0:0:
191,357,66141,2,0,L|253:340,1,49.5000015106202,0|0,0:2|0:2,0:0:0:0:
79,192,66303,1,10,0:2:0:0:
266,131,66465,2,0,L|241:228,1,99.0000030212403,2|0,0:2|1:2,0:0:0:0:
31,266,66789,2,0,L|54:169,1,99.0000030212403,2|8,0:2|0:2,0:0:0:0:
238,344,67114,5,2,0:2:0:0:
129,65,67276,1,2,1:2:0:0:
213,14,67438,1,0,0:2:0:0:
213,14,67519,1,0,0:2:0:0:
213,14,67600,37,10,0:2:0:0:
193,214,67762,1,2,0:2:0:0:
44,84,67925,1,2,1:2:0:0:
284,30,68087,1,2,0:2:0:0:
423,283,68249,5,14,0:2:0:0:
431,244,68330,1,2,0:2:0:0:
439,205,68411,1,2,0:2:0:0:
352,319,68573,1,2,1:2:0:0:
344,144,68735,2,0,L|409:127,1,49.5000015106202,0|0,0:2|0:2,0:0:0:0:
352,319,68898,1,10,0:2:0:0:
474,54,69060,2,0,L|370:25,1,99.0000030212403,2|0,0:2|1:2,0:0:0:0:
233,207,69384,2,0,L|337:236,1,99.0000030212403,2|8,0:2|0:2,0:0:0:0:
237,76,69708,5,2,0:2:0:0:
166,340,69871,2,0,L|137:236,1,99.0000030212403,2|0,1:2|0:2,0:0:0:0:
139,244,70114,1,0,0:2:0:0:
139,244,70195,5,10,0:2:0:0:
16,149,70357,1,2,0:2:0:0:
42,58,70519,1,2,1:2:0:0:
132,30,70681,1,2,0:2:0:0:
360,138,70844,37,10,0:2:0:0:
321,130,70925,1,2,0:2:0:0:
282,122,71006,1,2,0:2:0:0:
373,41,71168,1,2,1:2:0:0:
340,266,71330,2,0,P|336:244|306:211,1,49.5000015106202,0|0,0:2|0:2,0:0:0:0:
373,41,71492,1,10,0:2:0:0:
171,98,71654,2,0,L|200:202,1,99.0000030212403,2|0,0:2|1:2,0:0:0:0:
461,284,71979,2,0,L|432:180,1,99.0000030212403,2|8,0:2|0:2,0:0:0:0:
254,46,72303,5,2,0:2:0:0:
216,300,72465,1,2,1:2:0:0:
338,155,72627,2,0,L|262:170,1,49.5000015106202,0|0,0:2|0:2,0:0:0:0:
111,111,72790,5,10,0:2:0:0:
291,265,72952,1,2,0:2:0:0:
160,33,73114,1,2,1:2:0:0:
118,300,73276,1,2,0:2:0:0:
440,111,73438,5,14,0:2:0:0:
415,63,73519,1,2,0:2:0:0:
366,57,73600,1,2,0:2:0:0:
387,245,73762,1,2,1:2:0:0:
370,48,73925,37,0,0:2:0:0:
419,54,74006,1,2,0:2:0:0:
444,102,74087,1,10,0:2:0:0:
87,204,74249,2,0,B|99:159|99:159|97:154|97:154|113:101,1,103.500001974106,2|0,0:2|1:2,0:0:0:0:
435,195,74573,2,0,B|422:239|422:239|425:245|425:245|409:298,1,103.500001974106,2|8,0:2|0:2,0:0:0:0:
131,281,74898,5,2,0:2:0:0:
370,158,75060,1,2,1:2:0:0:
307,357,75222,2,0,L|291:281,1,51.7500009870529,0|0,0:2|0:2,0:0:0:0:
182,72,75384,5,10,0:2:0:0:
253,131,75546,1,2,0:2:0:0:
61,161,75708,5,2,1:2:0:0:
92,45,75871,1,2,0:2:0:0:
201,363,76033,37,10,0:2:0:0:
189,310,76114,1,2,0:2:0:0:
178,258,76195,1,2,0:2:0:0:
362,287,76357,1,2,1:2:0:0:
163,260,76519,5,0,0:2:0:0:
174,312,76600,1,2,0:2:0:0:
186,365,76681,1,10,0:2:0:0:
354,107,76844,2,0,B|305:92|305:92|299:94|299:94|255:82,1,103.500001974106,2|0,0:2|1:2,0:0:0:0:
63,323,77168,2,0,B|111:337|111:337|117:335|117:335|161:347,1,103.500001974106,2|8,0:2|0:2,0:0:0:0:
167,92,77492,5,2,0:2:0:0:
243,313,77654,1,2,1:2:0:0:
314,243,77817,1,0,0:2:0:0:
314,243,77898,1,0,0:2:0:0:
314,243,77979,5,10,0:2:0:0:
104,174,78141,1,2,0:2:0:0:
308,62,78303,1,2,1:2:0:0:
240,328,78465,1,2,0:2:0:0:
104,23,78627,37,14,0:2:0:0:
56,48,78708,1,2,0:2:0:0:
50,97,78789,1,2,0:2:0:0:
233,35,78952,1,2,1:2:0:0:
41,93,79114,5,0,0:2:0:0:
47,44,79195,1,2,0:2:0:0:
95,19,79276,1,10,0:2:0:0:
370,136,79438,2,0,B|357:180|357:180|360:186|360:186|344:239,1,103.500001974106,2|0,0:2|1:2,0:0:0:0:
58,264,79763,2,0,B|70:219|70:219|68:214|68:214|84:161,1,103.500001974106,2|8,0:2|0:2,0:0:0:0:
193,57,80087,5,2,0:2:0:0:
284,322,80249,1,2,1:2:0:0:
135,349,80411,2,0,L|150:284,1,51.7500009870529,0|0,0:2|0:2,0:0:0:0:
375,91,80573,5,10,0:2:0:0:
348,214,80736,1,2,0:2:0:0:
152,161,80898,37,2,1:2:0:0:
283,138,81060,1,2,0:2:0:0:
77,62,81222,5,10,0:2:0:0:
66,112,81303,1,2,0:2:0:0:
55,162,81384,1,10,0:2:0:0:
236,70,81546,1,8,1:2:0:0:
173,346,81709,5,10,0:2:0:0:
162,296,81790,1,2,0:2:0:0:
151,246,81871,1,10,0:2:0:0:
314,299,82033,1,10,0:2:0:0:
66,202,82195,2,0,L|81:137,1,51.7500009870529,8|0,1:2|0:2,0:0:0:0:
231,76,82357,5,10,0:2:0:0:
71,300,82519,1,8,0:2:0:0:
392,265,82681,37,10,0:2:0:0:
369,220,82763,1,8,0:2:0:0:
323,215,82844,1,10,1:2:0:0:
86,41,83006,5,10,0:2:0:0:
86,41,83087,1,8,0:2:0:0:
86,41,83168,2,0,P|101:66|128:82,1,51.7500009870529,10|8,0:2|0:2,0:0:0:0:
369,62,83330,6,0,L|355:116,1,51.7500009870529,10|8,0:2|0:2,0:0:0:0:
151,205,83492,6,0,P|132:184|104:177,1,51.7500009870529,10|8,1:2|0:2,0:0:0:0:
405,292,83654,38,0,L|391:346,1,51.7500009870529,10|8,0:2|0:2,0:0:0:0:
255,358,83817,53,6,3:2:0:0:
255,358,83829,5,0,0:2:0:0:
285,222,84033,69,2,3:2:0:0:
285,222,84046,5,0,0:2:0:0:
223,95,84249,69,2,3:2:0:0:
223,95,84262,5,0,0:2:0:0:
257,367,84465,69,2,3:2:0:0:
257,367,84479,5,0,0:2:0:0:
290,218,84682,69,2,3:2:0:0:
290,218,84695,5,0,0:2:0:0:
228,91,84898,69,2,3:2:0:0:
228,91,84911,5,0,0:2:0:0:
14,248,85114,69,2,3:2:0:0:
14,248,85127,5,0,0:2:0:0:
162,280,85330,69,2,3:2:0:0:
162,280,85343,5,0,0:0:0:0:
290,218,85546,69,2,3:2:0:0:
290,218,85560,5,0,0:2:0:0:
15,257,85762,69,2,3:2:0:0:
15,257,85776,5,0,0:2:0:0:
163,289,85979,69,2,3:2:0:0:
163,289,85992,5,0,0:2:0:0:
304,71,86195,69,2,3:2:0:0:
304,71,86208,5,0,0:2:0:0:
33,48,86411,69,2,3:2:0:0:
33,48,86425,5,0,0:2:0:0:
117,158,86627,69,2,3:2:0:0:
117,158,86641,5,0,0:2:0:0:
115,299,86844,69,2,3:2:0:0:
115,299,86857,5,0,0:2:0:0:
32,38,87060,69,2,3:2:0:0:
32,38,87073,5,0,0:2:0:0:
128,158,87276,69,2,3:2:0:0:
128,158,87289,5,0,0:2:0:0:
121,301,87492,69,2,3:2:0:0:
121,301,87506,5,0,0:2:0:0:
376,43,87708,69,2,3:2:0:0:
376,43,87722,5,0,0:2:0:0:
265,146,87925,69,2,3:2:0:0:
265,146,87938,5,0,0:2:0:0:
123,160,88141,69,2,3:2:0:0:
123,160,88154,5,0,0:2:0:0:
379,51,88357,69,2,3:2:0:0:
379,51,88371,5,0,0:2:0:0:
301,277,88573,69,2,3:2:0:0:
301,277,88587,5,0,0:2:0:0:
179,55,88789,69,2,3:2:0:0:
179,55,88803,5,0,0:2:0:0:
440,205,89006,69,2,3:2:0:0:
440,205,89019,5,0,0:2:0:0:
287,183,89222,69,2,3:2:0:0:
287,183,89235,5,0,0:2:0:0:
168,262,89438,69,2,3:2:0:0:
168,262,89452,5,0,0:2:0:0:
444,190,89654,69,2,3:2:0:0:
444,190,89668,5,0,0:2:0:0:
285,172,89871,69,2,3:2:0:0:
285,172,89884,5,0,0:2:0:0:
162,255,90087,69,2,3:2:0:0:
162,255,90100,5,0,0:2:0:0:
391,341,90303,69,2,3:2:0:0:
391,341,90317,5,0,0:2:0:0:
451,198,90519,69,2,3:2:0:0:
451,198,90533,5,0,0:2:0:0:
400,64,90735,69,2,3:2:0:0:
400,64,90749,5,0,0:2:0:0:
399,348,90952,69,2,3:2:0:0:
399,348,90965,5,0,0:2:0:0:
461,204,91168,69,2,3:2:0:0:
461,204,91181,5,0,0:2:0:0:
263,31,91384,69,2,3:2:0:0:
263,31,91398,5,0,0:2:0:0:
91,79,91600,69,2,3:2:0:0:
91,79,91614,5,0,0:2:0:0:
198,195,91816,69,2,3:2:0:0:
198,195,91830,5,0,0:2:0:0:
358,183,92033,69,2,3:2:0:0:
358,183,92046,5,0,0:2:0:0:
82,84,92249,69,2,3:2:0:0:
82,84,92262,5,0,0:2:0:0:
192,205,92465,69,2,3:2:0:0:
192,205,92479,5,0,0:2:0:0:
362,194,92681,69,2,3:2:0:0:
362,194,92695,5,0,0:2:0:0:
207,40,92898,69,2,3:2:0:0:
207,40,92911,5,0,0:2:0:0:
189,203,93114,69,2,3:2:0:0:
189,203,93127,5,0,0:2:0:0:
74,296,93330,69,2,3:2:0:0:
74,296,93344,5,0,0:2:0:0:
211,34,93547,69,2,3:2:0:0:
211,34,93560,5,0,0:2:0:0:
282,312,93762,69,2,3:2:0:0:
282,312,93776,5,0,0:2:0:0:
49,160,93979,69,2,3:2:0:0:
49,160,93992,5,0,0:2:0:0:
412,55,94196,69,6,3:2:0:0:
412,55,94208,6,0,L|412:120,1,60.3750011515618,0|0,0:2|0:2,0:0:0:0:
142,86,94412,69,2,3:2:0:0:
142,86,94425,6,0,L|142:153,1,60.3750011515618,0|0,0:2|3:2,0:0:0:0:
463,207,94628,69,2,3:2:0:0:
463,207,94641,6,0,L|463:275,1,60.3750011515618,0|0,0:2|3:2,0:0:0:0:
48,163,94845,69,2,3:2:0:0:
48,163,94857,5,0,0:2:0:0:
82,325,95061,69,2,3:2:0:0:
82,325,95073,5,0,0:2:0:0:
244,291,95277,69,2,3:2:0:0:
244,291,95289,5,0,0:2:0:0:
322,76,95492,69,2,3:2:0:0:
322,76,95506,6,0,L|256:76,1,60.3750011515618,0|0,0:2|0:2,0:0:0:0:
324,335,95708,69,2,3:2:0:0:
324,335,95722,6,0,L|386:335,1,60.3750011515618,0|0,0:2|3:2,0:0:0:0:
127,144,95925,69,2,3:2:0:0:
127,144,95938,6,0,L|127:206,1,60.3750011515618,0|0,0:2|3:2,0:0:0:0:
465,289,96141,69,2,3:2:0:0:
465,289,96154,5,0,0:2:0:0:
423,92,96357,69,2,3:2:0:0:
423,92,96371,5,0,0:2:0:0:
226,133,96573,69,2,3:2:0:0:
226,133,96587,5,0,0:2:0:0:
474,217,96789,69,2,3:2:0:0:
474,217,96803,6,0,L|474:155,1,60.3750011515618,0|0,0:2|0:2,0:0:0:0:
98,275,97006,69,2,3:2:0:0:
98,275,97019,6,0,L|98:207,1,60.3750011515618,0|0,0:2|3:2,0:0:0:0:
312,72,97222,69,2,3:2:0:0:
312,72,97235,6,0,L|312:132,1,60.3750011515618,0|0,0:2|3:2,0:0:0:0:
145,357,97438,69,2,3:2:0:0:
145,357,97452,5,0,0:2:0:0:
193,199,97654,69,2,3:2:0:0:
193,199,97668,5,0,0:2:0:0:
352,247,97871,69,2,3:2:0:0:
352,247,97884,5,0,0:2:0:0:
98,51,98087,69,2,3:2:0:0:
98,51,98100,6,0,L|98:113,1,60.3750011515618,0|0,0:2|0:2,0:0:0:0:
392,367,98303,69,2,3:2:0:0:
392,367,98316,6,0,L|392:300,1,60.3750011515618,0|0,0:2|3:2,0:0:0:0:
106,250,98519,69,2,3:2:0:0:
106,250,98533,6,0,L|39:250,1,60.3750011515618,0|0,0:2|3:2,0:0:0:0:
321,21,98735,69,2,3:2:0:0:
321,21,98749,5,0,0:2:0:0:
243,224,98952,69,2,3:2:0:0:
243,224,98965,5,0,0:2:0:0:
450,180,99168,69,2,3:2:0:0:
450,180,99181,5,0,0:2:0:0:
131,61,99384,69,2,3:2:0:0:
131,61,99398,6,0,L|131:123,1,60.3750011515618,0|0,0:2|0:2,0:0:0:0:
32,248,99600,69,2,3:2:0:0:
32,248,99614,6,0,L|96:248,1,60.3750011515618,0|0,0:2|3:2,0:0:0:0:
244,373,99816,69,2,3:2:0:0:
244,373,99830,6,0,L|243:311,1,60.3750011515618,0|0,0:2|3:2,0:0:0:0:
383,176,100033,69,2,3:2:0:0:
383,176,100046,6,0,L|320:176,1,60.3750011515618,0|0,0:2|0:2,0:0:0:0:
140,379,100249,69,2,3:2:0:0:
140,379,100262,6,0,L|140:314,1,60.3750011515618,0|0,0:2|0:2,0:0:0:0:
208,132,100465,69,2,3:2:0:0:
208,132,100479,5,0,0:2:0:0:
356,270,100681,69,2,3:2:0:0:
356,270,100695,6,0,L|417:271,1,60.3750011515618,0|0,0:2|0:2,0:0:0:0:
478,97,100898,69,2,3:2:0:0:
478,97,100911,6,0,L|411:97,1,60.3750011515618,0|0,0:2|3:2,0:0:0:0:
298,29,101114,69,2,3:2:0:0:
298,29,101127,6,0,L|298:91,1,60.3750011515618,0|0,0:2|3:2,0:0:0:0:
229,307,101330,69,2,3:2:0:0:
229,307,101344,6,0,L|230:242,1,60.3750011515618,0|0,0:2|0:2,0:0:0:0:
135,103,101546,69,2,3:2:0:0:
135,103,101560,6,0,L|196:103,1,60.3750011515618,0|0,0:2|0:2,0:0:0:0:
321,211,101762,69,2,3:2:0:0:
321,211,101776,5,0,0:2:0:0:
18,170,101979,69,2,3:2:0:0:
18,170,101992,6,0,L|18:106,1,60.3750011515618,0|0,0:2|0:2,0:0:0:0:
102,19,102195,69,2,3:2:0:0:
102,19,102208,6,0,L|167:19,1,60.3750011515618,0|0,0:2|3:2,0:0:0:0:
251,188,102411,69,2,3:2:0:0:
251,188,102425,6,0,L|186:188,1,60.3750011515618,0|0,0:2|3:2,0:0:0:0:
83,292,102627,69,2,3:2:0:0:
83,292,102641,6,0,L|83:224,1,60.3750011515618,0|0,0:2|0:2,0:0:0:0:
347,87,102844,69,2,3:2:0:0:
347,87,102857,6,0,L|347:149,1,60.3750011515618,0|0,0:2|0:2,0:0:0:0:
189,336,103060,69,2,3:2:0:0:
189,336,103073,5,0,0:2:0:0:
257,42,103276,69,2,3:2:0:0:
257,42,103289,5,0,0:2:0:0:
408,289,103492,69,2,3:2:0:0:
408,289,103506,5,0,0:2:0:0:
127,172,103708,69,2,3:2:0:0:
127,172,103722,5,0,0:2:0:0:
422,131,103925,69,10,3:2:0:0:
422,131,103938,5,0,0:2:0:0:
256,344,104087,6,0,L|256:231,1,103.500001974106,8|8,0:2|0:2,0:0:0:0:
256,215,104330,1,8,0:2:0:0:
256,186,104411,1,8,0:2:0:0:
256,155,104492,1,8,0:2:0:0:
256,128,104573,1,12,0:2:0:0:
