osu file format v14

[General]
AudioFilename: TAG underground - POSSESSION.mp3
AudioLeadIn: 0
PreviewTime: 31375
Countdown: 0
SampleSet: None
StackLeniency: 0.7
Mode: 0
LetterboxInBreaks: 0
WidescreenStoryboard: 1

[Editor]
Bookmarks: 10618,16942,20348,20996,31375,41104,41753,41969,42185,42402,42618,42834,43050,43267,43483,43699,43915,44131,44348,44564,44780,44996,45212,45429,45645,45861,46077,46294,46510,46726,46942,47158,47375,47591,47807,48023,48239,48456,48672,48888,49104,49321,49537,49753,49969,50185,50402,50618,50834,51050,51267,51483,51645,57321,67050,67212,67375,67537,72239,72402,72564,72726,72888,74834,74996,75158,75321,77429,77591,77753,77915,80023,80185,80348,80510,83267,83483,83699,83915,84131,84348,84564,84780,84996,85212,85429,85645,85861,86077,86294,86510,86726,86942,87158,87375,87591,87807,88023,88239,88456,88672,88888,89104,89321,89537,89753,89969,90185,90402,90618,90834,91050,91267,91483,91699,91915,92131,92348,92564,92780,92996,93212,93429,93645,93861,94077,94294,94510,94726,94942,95158,95375,95591,95807,96023,96239,96456,96672,96888,97104,97321,97537,97753,97969,98185,98402,98618,98834,99050,99267,99483,99699,99915,100131,100348,100564,100780,100996,101212,101429,101645,101861,102077,102294,102510,102726,102942,103158,103375
DistanceSpacing: 1.4
BeatDivisor: 3
GridSize: 8
TimelineZoom: 4.099998

[Metadata]
Title:POSSESSION
TitleUnicode:POSSESSION
Artist:TAG underground
ArtistUnicode:TAG underground
Creator:i2m_zhou
Version:Hyper
Source:Dance Dance Revolution X2
Tags:DDR benami DDR bemani
BeatmapID:1778275
BeatmapSetID:133379

[Difficulty]
HPDrainRate:5
CircleSize:4
OverallDifficulty:6
ApproachRate:8
SliderMultiplier:1.6
SliderTickRate:2

[Events]
//Background and Video events
0,0,"BG.jpg",0,0
//Break Periods
2,21196,30625
2,51683,56571
//Storyboard Layer 0 (Background)
//Storyboard Layer 1 (Fail)
//Storyboard Layer 2 (Pass)
//Storyboard Layer 3 (Foreground)
//Storyboard Sound Samples

[TimingPoints]
240,324.324324324324,4,1,1,55,1,0
10618,-100,4,1,1,60,0,0
20348,-100,4,1,1,65,0,0
20429,-100,4,1,1,65,0,0
20996,-100,4,1,1,65,0,0
21321,-100,4,1,1,65,0,0
31375,-100,4,1,1,75,0,1
51807,-100,4,1,1,75,0,1
52131,-100,4,1,1,65,0,0
59915,-100,4,1,1,60,0,0
60564,-100,4,1,1,60,0,0
61212,-50,4,1,1,60,0,0
61294,-100,4,1,1,60,0,0
61699,-100,4,1,1,60,0,0
62510,-100,4,1,1,80,0,1
72888,-100,4,1,1,85,0,1
82618,-100,4,1,1,70,0,0
83267,-100,4,1,1,70,0,0
93645,-71.4285714285714,4,1,1,85,0,1
103375,-71.4285714285714,4,1,1,70,0,0
103942,-71.4285714285714,4,1,1,80,0,0
104023,-71.4285714285714,4,1,1,90,0,0

[Colours]
Combo1 : 251,45,45
Combo2 : 255,117,255
Combo3 : 0,217,217

[HitObjects]
126,96,240,5,8,0:0:0:0:
232,113,402,1,0,0:0:0:0:
173,188,564,2,0,P|152:227|145:292,1,80
223,316,888,1,8,0:0:0:0:
223,316,1050,1,0,0:0:0:0:
269,217,1212,6,0,P|301:186|334:135,1,80
349,65,1537,1,8,0:0:0:0:
349,65,1699,1,0,0:0:0:0:
350,66,1861,2,0,P|389:91|424:146,1,80
398,211,2185,6,0,P|425:241|448:287,2,80,8|0|0,0:0|0:0|0:0,0:0:0:0:
338,286,2672,1,0,0:0:0:0:
421,333,2834,1,8,0:0:0:0:
398,211,2996,1,0,0:0:0:0:
305,184,3158,2,8,P|278:108|198:54,1,160
217,60,3645,1,0,0:0:0:0:
121,66,3807,2,0,L|56:38,2,40
60,140,4131,6,0,L|79:228,1,80,8|0,0:0|0:0,0:0:0:0:
173,316,4456,2,0,L|151:223,1,80
181,145,4780,1,8,0:0:0:0:
181,145,4861,1,0,0:0:0:0:
181,145,4942,1,0,0:0:0:0:
250,210,5104,2,0,P|280:181|309:112,1,80,0|0,0:0|0:0,0:0:0:0:
341,61,5429,5,8,0:0:0:0:
436,62,5591,1,0,0:0:0:0:
341,61,5753,2,0,L|345:178,1,80
417,291,6077,2,0,L|417:200,1,80,8|0,0:0|0:0,0:0:0:0:
384,187,6402,1,0,0:0:0:0:
290,160,6564,1,0,0:0:0:0:
209,107,6726,6,0,P|126:115|54:189,1,160,8|0,0:0|0:0,0:0:0:0:
176,192,7212,2,0,L|146:243,2,40,0|0|8,0:0|0:0|0:0,0:0:0:0:
272,208,7537,2,0,L|293:164,2,40
288,288,7861,1,0,0:0:0:0:
200,320,8023,1,8,0:0:0:0:
128,256,8185,1,0,0:0:0:0:
222,210,8348,6,0,P|141:176|120:95,1,160,0|8,0:0|0:0,0:0:0:0:
211,119,8834,1,0,0:0:0:0:
208,24,8996,2,0,P|280:64|304:160,1,160,0|8,0:0|0:0,0:0:0:0:
208,138,9483,6,0,L|154:139,2,40
168,235,9807,2,0,L|121:255,2,40,0|0|8,0:0|0:0|0:0,0:0:0:0:
279,225,10131,1,0,0:0:0:0:
388,249,10294,1,0,0:0:0:0:
433,351,10456,1,0,0:0:0:0:
279,350,10618,5,8,0:0:0:0:
279,350,10699,1,0,0:0:0:0:
279,350,10780,2,0,L|247:249,1,80
266,116,11104,2,0,L|293:208,1,80,0|8,0:0|0:0,0:0:0:0:
176,186,11429,1,0,0:0:0:0:
167,74,11591,2,0,L|73:94,1,80
61,210,11915,6,0,P|104:281|207:323,1,160,8|0,0:0|0:0,0:0:0:0:
180,205,12402,1,0,0:0:0:0:
276,262,12564,1,8,0:0:0:0:
270,150,12726,1,0,0:0:0:0:
180,205,12888,2,0,L|165:138,2,40,8|0|0,0:0|0:0|0:0,0:0:0:0:
161,74,13212,6,0,L|276:80,1,80,8|0,0:0|0:0,0:0:0:0:
321,156,13537,2,0,L|434:175,1,80
395,281,13861,2,0,L|492:331,1,80,8|0,0:0|0:0,0:0:0:0:
320,360,14185,2,0,L|230:297,1,80
234,203,14510,5,8,0:0:0:0:
165,291,14672,1,0,0:0:0:0:
63,338,14834,2,0,P|56:283|70:235,1,80
136,120,15158,2,0,P|142:163|132:228,1,80,8|0,0:0|0:0,0:0:0:0:
136,120,15483,1,0,0:0:0:0:
63,338,15645,1,0,0:0:0:0:
165,291,15807,6,0,P|209:221|232:125,1,160,8|0,0:0|0:0,0:0:0:0:
136,120,16294,1,0,0:0:0:0:
136,120,16456,2,0,P|178:195|263:265,1,160,8|0,0:0|0:0,0:0:0:0:
247,134,16942,1,0,0:0:0:0:
247,134,17104,6,0,P|298:94|411:88,1,160,8|0,0:0|0:0,0:0:0:0:
415,192,17591,1,0,0:0:0:0:
415,192,17753,1,8,0:0:0:0:
442,300,17915,1,0,0:0:0:0:
442,300,18077,1,0,0:0:0:0:
335,334,18239,1,0,0:0:0:0:
335,334,18402,6,0,B|279:317|279:317|218:211,1,160,8|0,0:0|0:0,0:0:0:0:
225,109,18888,1,0,0:0:0:0:
228,229,19050,2,0,B|196:284|196:284|110:340,1,160,8|0,0:0|0:0,0:0:0:0:
90,226,19537,1,0,0:0:0:0:
93,114,19699,6,0,L|94:39,2,40,8|0|0,0:0|0:0|0:0,0:0:0:0:
198,76,20023,2,0,L|216:24,2,40
310,66,20348,1,8,0:0:0:0:
409,117,20510,1,0,0:0:0:0:
432,224,20672,1,0,0:0:0:0:
352,304,20834,1,0,0:0:0:0:
352,304,20915,1,0,0:0:0:0:
352,304,20996,1,12,0:0:0:0:
117,128,31375,5,8,0:0:0:0:
117,128,31456,1,0,0:0:0:0:
117,128,31537,2,0,L|199:64,1,80
303,96,31861,1,0,0:0:0:0:
303,96,32023,2,0,L|239:161,1,80,8|0,0:0|0:0,0:0:0:0:
171,240,32348,1,0,0:0:0:0:
171,240,32429,1,0,0:0:0:0:
171,240,32510,6,0,P|199:269|227:325,2,80,0|8|0,0:0|0:0|0:0,0:0:0:0:
117,128,32996,1,0,0:0:0:0:
119,127,33158,1,0,0:0:0:0:
215,55,33321,1,8,0:0:0:0:
313,123,33483,1,0,0:0:0:0:
283,239,33645,1,0,0:0:0:0:
171,240,33807,1,0,0:0:0:0:
313,123,33969,5,8,0:0:0:0:
313,123,34050,1,0,0:0:0:0:
313,123,34131,2,0,P|354:139|412:183,1,80
389,278,34456,1,0,0:0:0:0:
275,316,34618,2,0,L|320:337,2,40,8|0|0,0:0|0:0|0:0,0:0:0:0:
196,225,34942,1,0,0:0:0:0:
196,225,35104,2,0,L|131:194,2,40,0|0|8,0:0|0:0|0:0,0:0:0:0:
196,104,35429,5,0,0:0:0:0:
196,104,35591,2,0,L|240:53,2,40
76,104,35915,2,0,P|79:184|159:255,1,160,8|0,0:0|0:0,0:0:0:0:
289,63,36564,5,8,0:0:0:0:
289,63,36645,1,0,0:0:0:0:
289,63,36726,2,0,L|389:81,1,80
443,185,37050,2,0,L|355:169,1,80,0|8,0:0|0:0,0:0:0:0:
289,63,37375,1,0,0:0:0:0:
324,276,37537,2,0,L|290:184,1,80
205,135,37861,5,8,0:0:0:0:
205,135,38023,2,0,L|108:97,1,80
62,205,38348,1,0,0:0:0:0:
62,205,38429,1,0,0:0:0:0:
62,205,38510,1,8,0:0:0:0:
126,306,38672,1,0,0:0:0:0:
236,259,38834,1,0,0:0:0:0:
176,154,38996,1,0,0:0:0:0:
236,259,39158,5,8,0:0:0:0:
236,259,39239,2,0,P|298:285|374:297,1,120
348,174,39645,1,0,0:0:0:0:
348,174,39807,2,0,P|329:108|259:40,1,160,8|0,0:0|0:0,0:0:0:0:
386,43,40294,1,0,0:0:0:0:
274,86,40456,6,0,L|209:86,2,40,8|0|0,0:0|0:0|0:0,0:0:0:0:
172,150,40780,2,0,L|99:151,2,40
118,257,41104,2,0,L|203:319,1,80,8|0,0:0|0:0,0:0:0:0:
302,288,41429,2,0,L|263:203,1,80
376,162,41753,6,0,L|284:137,1,53.3333333333333,8|0,0:0|0:0,0:0:0:0:
275,85,41969,2,0,L|183:92,1,53.3333333333333,8|0,0:0|0:0,0:0:0:0:
149,55,42185,2,0,L|100:97,1,53.3333333333333,8|0,0:0|0:0,0:0:0:0:
32,116,42402,6,0,L|60:200,1,53.3333333333333,8|0,0:0|0:0,0:0:0:0:
125,188,42618,2,0,L|154:255,1,53.3333333333333,8|0,0:0|0:0,0:0:0:0:
223,255,42834,2,0,L|264:342,1,53.3333333333333,8|0,0:0|0:0,0:0:0:0:
167,317,43050,6,0,L|95:330,1,53.3333333333333,8|0,0:0|0:0,0:0:0:0:
95,248,43267,2,0,L|23:267,1,53.3333333333333,8|0,0:0|0:0,0:0:0:0:
157,168,43483,2,0,L|76:180,1,53.3333333333333,8|0,0:0|0:0,0:0:0:0:
119,76,43699,5,8,0:0:0:0:
267,59,43915,1,0,0:0:0:0:
232,204,44131,1,0,0:0:0:0:
205,121,44348,5,8,0:0:0:0:
128,248,44564,1,0,0:0:0:0:
274,277,44780,1,0,0:0:0:0:
232,204,44996,5,8,0:0:0:0:
267,59,45212,1,0,0:0:0:0:
382,154,45429,1,0,0:0:0:0:
393,302,45645,6,0,L|256:335,1,106.666666666667,8|0,0:0|0:0,0:0:0:0:
151,269,46077,2,0,L|302:234,1,106.666666666667
254,244,46510,1,0,0:0:0:0:
71,207,46726,1,8,0:0:0:0:
118,136,46942,5,8,0:0:0:0:
162,63,47158,1,0,0:0:0:0:
213,131,47375,1,0,0:0:0:0:
283,83,47591,5,8,0:0:0:0:
349,29,47807,1,0,0:0:0:0:
403,94,48023,5,8,0:0:0:0:
385,177,48239,1,0,0:0:0:0:
365,260,48456,1,0,0:0:0:0:
288,297,48672,6,0,L|238:342,2,53.3333333333333
250,220,49104,1,0,0:0:0:0:
365,260,49321,1,0,0:0:0:0:
209,343,49537,5,8,0:0:0:0:
130,309,49753,1,0,0:0:0:0:
51,276,49969,1,0,0:0:0:0:
111,216,50185,5,8,0:0:0:0:
80,135,50402,1,0,0:0:0:0:
120,60,50618,1,0,0:0:0:0:
80,135,50834,5,8,0:0:0:0:
207,57,51050,1,0,0:0:0:0:
299,174,51267,1,0,0:0:0:0:
173,254,51483,1,12,0:0:0:0:
110,67,57321,5,8,0:0:0:0:
205,69,57483,1,0,0:0:0:0:
300,70,57645,1,0,0:0:0:0:
395,72,57807,1,0,0:0:0:0:
354,158,57969,5,8,0:0:0:0:
258,160,58131,1,0,0:0:0:0:
161,163,58294,1,0,0:0:0:0:
65,166,58456,1,0,0:0:0:0:
103,253,58618,6,0,L|74:315,2,40,8|0|0,0:0|0:0|0:0,0:0:0:0:
198,257,58942,2,0,L|224:207,2,40
271,318,59267,2,0,L|252:363,2,40,8|0|0,0:0|0:0|0:0,0:0:0:0:
366,306,59591,2,0,L|386:251,2,40
297,238,59915,5,8,0:0:0:0:
297,238,59996,1,0,0:0:0:0:
297,238,60077,1,0,0:0:0:0:
256,151,60239,2,0,P|215:159|150:142,1,80
150,60,60564,2,0,P|92:118|64:223,1,160,8|0,0:0|0:0,0:0:0:0:
134,257,61050,1,0,0:0:0:0:
311,329,61212,6,0,P|371:275|363:182,1,160,8|4,0:0|0:0,0:0:0:0:
357,104,61537,1,0,0:0:0:0:
357,104,61699,2,0,L|402:56,3,40,0|0|8|0,0:0|0:0|0:0|0:0,0:0:0:0:
426,97,62023,2,0,L|445:135,3,40
397,147,62348,6,0,P|386:189|359:232,1,80,0|8,0:0|0:0,0:0:0:0:
381,331,62672,1,0,0:0:0:0:
284,274,62834,1,0,0:0:0:0:
191,336,62996,1,0,0:0:0:0:
97,274,63158,2,0,L|96:158,1,80,8|0,0:0|0:0,0:0:0:0:
56,88,63483,2,0,P|122:62|231:102,1,160,0|8,0:0|0:0,0:0:0:0:
176,189,63969,6,0,L|116:189,2,40
236,283,64294,2,0,P|274:264|320:227,1,80,0|8,0:0|0:0,0:0:0:0:
341,136,64618,1,0,0:0:0:0:
341,136,64780,2,0,P|297:149|240:190,1,80
176,100,65104,5,8,0:0:0:0:
176,100,65185,1,0,0:0:0:0:
176,100,65267,2,0,P|154:139|146:209,1,80
66,251,65591,1,0,0:0:0:0:
66,251,65753,2,0,P|108:264|179:258,1,80,8|0,0:0|0:0,0:0:0:0:
234,201,66077,1,0,0:0:0:0:
234,201,66158,1,0,0:0:0:0:
234,201,66239,1,0,0:0:0:0:
326,136,66402,6,0,L|363:79,2,40,8|0|0,0:0|0:0|0:0,0:0:0:0:
426,184,66726,1,0,0:0:0:0:
385,288,66888,2,0,L|339:363,1,80,0|8,0:0|0:0,0:0:0:0:
276,266,67212,2,0,L|328:176,1,80
267,98,67537,1,0,0:0:0:0:
267,98,67699,6,0,L|155:98,2,80,8|0|0,0:0|0:0|0:0,0:0:0:0:
206,192,68185,1,0,0:0:0:0:
155,91,68348,2,0,P|131:125|70:166,1,80,8|0,0:0|0:0,0:0:0:0:
155,248,68672,2,0,P|116:269|57:273,1,80
176,333,68996,5,8,0:0:0:0:
176,333,69158,2,0,P|215:308|285:297,1,80
347,348,69483,1,0,0:0:0:0:
347,348,69564,1,0,0:0:0:0:
347,348,69645,2,0,B|386:325|386:325|415:261,1,80,8|0,0:0|0:0,0:0:0:0:
377,183,69969,2,0,B|356:148|356:148|292:117,1,80
213,98,70294,5,8,0:0:0:0:
213,98,70375,1,0,0:0:0:0:
213,98,70456,2,0,L|98:97,1,80
134,209,70780,2,0,L|39:208,1,80,0|8,0:0|0:0,0:0:0:0:
213,98,71104,1,0,0:0:0:0:
264,198,71267,2,0,L|291:297,1,80
213,98,71591,1,8,0:0:0:0:
324,110,71753,2,0,L|295:23,2,80
374,232,72239,5,8,0:0:0:0:
321,348,72402,1,0,0:0:0:0:
407,258,72564,1,0,0:0:0:0:
290,330,72726,1,0,0:0:0:0:
178,324,72888,5,8,0:0:0:0:
178,324,72969,1,0,0:0:0:0:
178,324,73050,2,0,L|96:243,1,80
94,158,73375,1,0,0:0:0:0:
111,55,73537,2,0,P|200:48|283:63,1,160,8|0,0:0|0:0,0:0:0:0:
312,162,74023,1,0,0:0:0:0:
312,162,74185,2,0,P|232:168|144:158,1,160,8|0,0:0|0:0,0:0:0:0:
345,274,74834,5,8,0:0:0:0:
243,195,74996,1,0,0:0:0:0:
187,310,75158,1,0,0:0:0:0:
98,216,75321,1,0,0:0:0:0:
158,103,75483,5,8,0:0:0:0:
158,103,75564,1,0,0:0:0:0:
158,103,75645,2,0,P|184:71|202:28,1,80
324,64,75969,2,0,P|294:98|278:129,1,80,0|8,0:0|0:0,0:0:0:0:
395,181,76294,1,0,0:0:0:0:
395,181,76456,2,0,L|365:291,2,80,0|0|8,0:0|0:0|0:0,0:0:0:0:
275,225,76942,1,0,0:0:0:0:
275,225,77104,2,0,L|320:322,1,80
395,181,77429,5,8,0:0:0:0:
292,104,77591,1,0,0:0:0:0:
164,105,77753,1,0,0:0:0:0:
76,197,77915,1,0,0:0:0:0:
165,288,78077,6,0,L|326:334,1,160,8|0,0:0|0:0,0:0:0:0:
414,246,78564,1,0,0:0:0:0:
414,246,78726,2,0,L|246:189,1,160,8|0,0:0|0:0,0:0:0:0:
164,105,79212,1,0,0:0:0:0:
164,105,79375,6,0,L|94:82,2,40,8|0|0,0:0|0:0|0:0,0:0:0:0:
98,214,79699,1,0,0:0:0:0:
203,286,79861,1,0,0:0:0:0:
203,286,79942,1,0,0:0:0:0:
203,286,80023,2,0,L|144:363,2,80,8|0|0,0:0|0:0|0:0,0:0:0:0:
204,286,80510,1,0,0:0:0:0:
280,183,80672,5,8,0:0:0:0:
280,183,80753,1,0,0:0:0:0:
280,183,80834,2,0,P|297:135|328:90,1,80
415,65,81158,1,0,0:0:0:0:
415,65,81239,1,0,0:0:0:0:
415,65,81321,2,0,P|415:110|404:182,1,80,8|0,0:0|0:0,0:0:0:0:
433,254,81645,2,0,P|373:317|280:335,1,160,0|8,0:0|0:0,0:0:0:0:
243,242,82131,1,0,0:0:0:0:
243,242,82294,2,0,L|339:243,1,80
287,136,82618,5,8,0:0:0:0:
151,88,82780,1,0,0:0:0:0:
308,208,82942,1,0,0:0:0:0:
138,17,83104,1,0,0:0:0:0:
56,136,83267,5,8,0:0:0:0:
78,218,83483,1,0,0:0:0:0:
101,299,83699,1,0,0:0:0:0:
101,299,83915,5,8,0:0:0:0:
155,233,84131,1,0,0:0:0:0:
196,158,84348,1,0,0:0:0:0:
196,158,84564,5,8,0:0:0:0:
234,234,84780,1,0,0:0:0:0:
273,309,84996,1,0,0:0:0:0:
273,309,85212,5,8,0:0:0:0:
313,233,85429,1,0,0:0:0:0:
353,158,85645,1,0,0:0:0:0:
353,158,85861,5,8,0:0:0:0:
353,72,86077,1,0,0:0:0:0:
267,67,86294,1,0,0:0:0:0:
263,152,86510,5,8,0:0:0:0:
177,150,86726,1,0,0:0:0:0:
182,64,86942,1,0,0:0:0:0:
177,149,87158,6,8,L|105:191,1,53.3333333333333,8|0,0:0|0:0,0:0:0:0:
76,210,87375,1,0,0:0:0:0:
76,210,87591,1,0,0:0:0:0:
179,284,87807,5,8,0:0:0:0:
301,319,88023,1,0,0:0:0:0:
270,194,88239,1,0,0:0:0:0:
296,68,88456,5,8,0:0:0:0:
372,141,88672,1,0,0:0:0:0:
443,219,88888,1,0,0:0:0:0:
340,249,89104,5,8,0:0:0:0:
261,176,89321,1,0,0:0:0:0:
182,103,89537,1,0,0:0:0:0:
75,106,89753,5,8,0:0:0:0:
75,106,89969,1,0,0:0:0:0:
75,106,90185,1,0,0:0:0:0:
101,209,90402,5,8,0:0:0:0:
101,209,90618,1,0,0:0:0:0:
101,209,90834,1,0,0:0:0:0:
178,279,91050,6,0,L|293:301,1,106.666666666667,8|0,0:0|0:0,0:0:0:0:
335,194,91483,1,0,0:0:0:0:
335,194,91699,2,0,L|206:172,1,106.666666666667,8|0,0:0|0:0,0:0:0:0:
204,72,92131,1,0,0:0:0:0:
204,72,92348,6,0,L|328:97,1,106.666666666667,8|0,0:0|0:0,0:0:0:0:
412,115,92780,1,0,0:0:0:0:
204,72,92996,5,8,0:0:0:0:
221,177,93212,1,0,0:0:0:0:
118,146,93429,1,0,0:0:0:0:
105,251,93645,6,0,L|300:315,1,149.333328776042,8|0,0:0|0:0,0:0:0:0:
366,192,94077,1,0,0:0:0:0:
366,192,94294,2,0,L|201:136,1,149.333328776042,8|0,0:0|0:0,0:0:0:0:
224,144,94726,1,0,0:0:0:0:
363,89,94942,5,8,0:0:0:0:
440,216,95158,1,0,0:0:0:0:
292,240,95375,1,0,0:0:0:0:
224,144,95591,5,8,0:0:0:0:
97,221,95807,1,0,0:0:0:0:
221,303,96023,1,0,0:0:0:0:
365,296,96239,5,8,0:0:0:0:
364,176,96456,1,0,0:0:0:0:
361,56,96672,1,0,0:0:0:0:
227,80,96888,5,8,0:0:0:0:
229,199,97104,1,0,0:0:0:0:
226,318,97321,1,0,0:0:0:0:
125,256,97537,6,0,L|56:153,2,74.6666643880209,8|0|0,0:0|0:0|0:0,0:0:0:0:
162,142,97969,1,0,0:0:0:0:
244,228,98185,2,0,L|286:297,2,74.6666643880209,8|0|0,0:0|0:0|0:0,0:0:0:0:
277,112,98618,1,0,0:0:0:0:
396,114,98834,6,0,P|337:261|173:337,1,298.666657552084,8|0,0:0|0:0,0:0:0:0:
118,267,99483,1,8,0:0:0:0:
118,267,99699,1,0,0:0:0:0:
118,268,99915,2,0,P|154:205|242:172,1,149.333328776042,0|0,0:0|0:0,0:0:0:0:
192,81,100348,2,0,P|120:72|24:88,2,149.333328776042
192,82,100996,1,0,0:0:0:0:
192,82,101212,1,0,0:0:0:0:
309,59,101429,5,8,0:0:0:0:
364,164,101645,1,0,0:0:0:0:
425,266,101861,1,0,0:0:0:0:
364,163,102077,5,8,0:0:0:0:
268,235,102294,1,0,0:0:0:0:
174,308,102510,1,0,0:0:0:0:
268,235,102726,5,8,0:0:0:0:
268,235,102942,1,0,0:0:0:0:
268,235,103158,1,0,0:0:0:0:
268,235,103374,5,2,0:0:0:0:
256,199,103455,1,2,0:0:0:0:
238,177,103536,1,2,0:0:0:0:
219,156,103617,1,2,0:0:0:0:
196,139,103698,1,6,0:0:0:0:
169,130,103779,1,6,0:0:0:0:
141,126,103860,1,6,0:0:0:0:
113,130,103942,1,6,0:0:0:0:
86,138,104023,1,6,0:0:0:0:
