osu file format v14

[General]
AudioFilename: TAG underground - POSSESSION.mp3
AudioLeadIn: 2000
PreviewTime: 30240
Countdown: 0
SampleSet: Normal
StackLeniency: 0.7
Mode: 0
LetterboxInBreaks: 0
WidescreenStoryboard: 0

[Editor]
Bookmarks: 216,20972,31351,41729,52107,62486,72864,83243,93621
DistanceSpacing: 1.1
BeatDivisor: 4
GridSize: 4
TimelineZoom: 1

[Metadata]
Title:POSSESSION
TitleUnicode:POSSESSION
Artist:TAG underground
ArtistUnicode:TAG underground
Creator:bmin11
Version:Expert
Source:Dance Dance Revolution X2
Tags:electronic instrumental video game DDR bemani beatmania iidx copula 23 reflec beat 悠久のリフレシア bms jubeat festo psychic flash Yasuhiro Taguchi 田口康裕 konami dancedancerevolutionx2 dance revolution
BeatmapID:185839
BeatmapSetID:62705

[Difficulty]
HPDrainRate:5
CircleSize:4
OverallDifficulty:7
ApproachRate:8
SliderMultiplier:1.4
SliderTickRate:1

[Events]
//Background and Video events
0,0,"wallhaven-733z1v.jpg",0,0
//Break Periods
//Storyboard Layer 0 (Background)
//Storyboard Layer 1 (Fail)
//Storyboard Layer 2 (Pass)
//Storyboard Layer 3 (Foreground)
//Storyboard Layer 4 (Overlay)
//Storyboard Sound Samples

[TimingPoints]
241,324.324324324324,4,1,1,60,1,0
10619,-100,4,1,1,80,0,0
10781,-100,4,1,1,60,0,0
26186,-100,4,1,3,60,0,0
31376,-100,4,1,1,60,0,1
33808,-100,4,1,1,40,0,1
33889,-100,4,1,1,60,0,1
36403,-100,4,1,1,80,0,1
36484,-100,4,1,1,60,0,1
38997,-100,4,1,1,40,0,1
39078,-100,4,1,1,60,0,1
41592,-100,4,1,1,80,0,1
41754,-100,4,1,1,80,0,0
51808,-100,4,1,1,60,0,0
52132,-100,4,1,1,70,0,0
52213,-100,4,1,1,60,0,0
62511,-100,4,1,1,60,0,1
64943,-100,4,1,1,40,0,1
65024,-100,4,1,1,60,0,1
67538,-100,4,1,1,80,0,1
67619,-100,4,1,1,60,0,1
70132,-100,4,1,1,40,0,1
70213,-100,4,1,1,60,0,1
72888,-100,4,1,1,60,0,0
72889,-100,4,1,1,70,0,1
75322,-100,4,1,1,50,0,1
75403,-100,4,1,1,70,0,1
77916,-100,4,1,1,90,0,1
77997,-100,4,1,1,70,0,1
80511,-100,4,1,1,50,0,1
80592,-100,4,1,1,70,0,1
83268,-100,4,1,0,80,0,0
93646,-100,4,1,0,100,0,1
104024,-100,4,1,0,80,0,0

[Colours]
Combo1 : 212,212,212
Combo2 : 128,0,255
Combo3 : 212,212,212
Combo4 : 179,102,255

[HitObjects]
232,180,241,5,4,0:0:0:0:
156,168,403,1,0,0:0:0:0:
104,224,565,2,0,B|124:300|224:308,1,140,2|0,0:0|0:0,0:0:0:0:
280,280,1051,2,0,B|335:224|292:134,1,140,2|0,0:0|0:0,0:0:0:0:
240,100,1538,2,0,B|164:79|107:161,1,140,2|0,0:0|0:0,0:0:0:0:
104,224,2024,5,2,0:0:0:0:
264,352,2349,1,2,0:0:0:0:
448,268,2673,1,2,0:0:0:0:
264,352,2997,1,0,0:0:0:0:
276,275,3159,6,0,B|296:115,2,140,10|0|8,0:0|0:0|0:0,0:0:0:0:
124,232,4132,2,0,B|104:68,1,140,2|8,0:0|0:0,0:0:0:0:
100,16,4619,1,2,0:0:0:0:
280,56,4943,1,2,0:0:0:0:
352,76,5105,1,8,0:0:0:0:
428,96,5268,1,2,0:0:0:0:
432,312,5592,5,0,0:0:0:0:
356,327,5754,2,0,B|279:308|269:208,1,140,2|0,0:0|0:0,0:0:0:0:
296,153,6240,2,0,B|350:96|441:137,1,140,2|0,0:0|0:0,0:0:0:0:
477,189,6727,2,0,B|498:264|417:322,1,140,2|0,0:0|0:0,0:0:0:0:
356,328,7213,5,2,0:0:0:0:
148,312,7538,1,2,0:0:0:0:
92,112,7862,1,2,0:0:0:0:
148,312,8186,1,0,0:0:0:0:
72,292,8349,6,0,B|8:244|12:168,2,140,10|0|8,0:0|0:0|0:0,0:0:0:0:
200,192,9322,2,0,B|348:192,1,140,2|8,0:0|0:0,0:0:0:0:
416,192,9808,1,2,0:0:0:0:
292,56,10132,1,2,0:0:0:0:
216,56,10295,1,8,0:0:0:0:
140,56,10457,1,2,0:0:0:0:
64,56,10619,6,0,B|36:132,1,70,4|0,0:0|0:0,0:0:0:0:
69,268,10943,2,0,B|116:136,1,140,2|0,0:0|0:0,0:0:0:0:
189,159,11430,2,0,B|144:292,1,140,2|0,0:0|0:0,0:0:0:0:
217,316,11916,2,0,B|264:184,1,140,2|0,0:0|0:0,0:0:0:0:
340,204,12403,5,2,0:0:0:0:
440,36,12727,1,2,0:0:0:0:
340,204,13051,1,2,0:0:0:0:
504,172,13376,1,0,0:0:0:0:
432,140,13538,6,0,B|296:76,2,140,10|0|8,0:0|0:0|0:0,0:0:0:0:
292,232,14511,2,0,B|136:260,1,140,2|8,0:0|0:0,0:0:0:0:
80,276,14997,1,2,0:0:0:0:
16,132,15322,1,2,0:0:0:0:
92,120,15484,1,8,0:0:0:0:
168,108,15646,1,2,0:0:0:0:
436,36,15970,5,0,0:0:0:0:
360,48,16132,2,0,B|212:68,1,140,2|0,0:0|0:0,0:0:0:0:
204,144,16619,2,0,B|352:124,1,140,2|0,0:0|0:0,0:0:0:0:
328,200,17105,2,0,B|180:220,1,140,2|0,0:0|0:0,0:0:0:0:
112,232,17592,1,2,0:0:0:0:
20,112,17916,1,2,0:0:0:0:
152,32,18241,6,2,B|300:32,1,140
376,108,18727,2,0,B|228:108,1,140,2|0,0:0|0:0,0:0:0:0:
120,184,19213,2,0,B|268:184,1,140,2|0,0:0|0:0,0:0:0:0:
416,256,19700,2,0,B|268:256,1,140,2|0,0:0|0:0,0:0:0:0:
80,328,20186,2,0,B|228:328,1,140,2|0,0:0|0:0,0:0:0:0:
436,372,20673,1,2,0:0:0:0:
436,372,20997,1,6,0:0:0:0:
256,192,21078,12,0,23592,0:0:0:0:
256,192,24078,5,0,0:0:0:0:
260,196,25538,1,0,0:0:0:0:
260,196,25862,1,0,0:0:0:0:
400,308,26186,5,0,0:0:0:0:
448,248,26349,1,0,0:0:0:0:
412,180,26511,2,0,B|388:100,1,70,8|0,0:0|0:0,0:0:0:0:
428,44,26835,1,0,0:0:0:0:
352,44,26997,2,8,B|276:52|220:112,2,140,8|8|0,0:0|0:0|0:0,0:0:0:0:
428,44,27808,1,8,0:0:0:0:
332,248,28132,1,0,0:0:0:0:
260,224,28295,1,8,0:0:0:0:
188,248,28457,1,8,0:0:0:0:
152,316,28619,1,0,0:0:0:0:
76,332,28781,6,0,B|16:280|28:176,1,140,4|8,0:2|0:0,0:0:0:0:
36,128,29268,2,0,B|184:76,1,140,4|0,0:2|0:0,0:0:0:0:
240,56,29754,1,12,0:2:0:0:
300,108,29916,2,0,B|148:164,1,140,0|4,0:0|0:2,0:0:0:0:
164,232,30403,1,8,0:0:0:0:
224,280,30565,1,0,0:0:0:0:
300,288,30727,6,2,B|392:244,1,70,2|0,0:0|0:0,0:0:0:0:
508,248,31051,2,2,B|416:292,1,70,2|2,0:0|0:0,0:0:0:0:
392,180,31376,6,0,B|484:136,1,70,4|2,0:0|0:0,0:0:0:0:
488,80,31700,2,0,B|436:28|348:44,1,140,10|2,0:0|0:0,0:0:0:0:
288,68,32186,1,2,0:0:0:0:
236,128,32349,2,0,B|236:220,1,70,8|2,0:0|0:0,0:0:0:0:
144,320,32673,6,0,B|144:228,1,70,0|2,0:0|0:0,0:0:0:0:
100,188,32997,1,10,0:0:0:0:
256,324,33322,1,2,0:0:0:0:
332,340,33484,1,0,0:0:0:0:
400,304,33646,1,10,0:0:0:0:
412,228,33808,1,2,0:0:0:0:
388,48,33970,6,0,B|292:76,1,70,0|2,0:0|0:0,0:0:0:0:
244,56,34295,2,0,B|176:24|76:52,1,140,10|2,0:0|0:0,0:0:0:0:
48,92,34781,1,2,0:0:0:0:
36,168,34943,2,0,B|108:224,1,70,8|2,0:0|0:0,0:0:0:0:
276,232,35268,6,0,B|204:176,1,70,0|2,0:0|0:0,0:0:0:0:
160,140,35592,1,10,0:0:0:0:
92,288,35916,1,2,0:0:0:0:
152,336,36078,1,0,0:0:0:0:
228,340,36240,1,10,0:0:0:0:
284,288,36403,1,2,0:0:0:0:
348,136,36565,6,0,B|420:200,1,70,0|2,0:0|0:0,0:0:0:0:
468,220,36889,2,0,B|512:156|496:68,1,140,10|2,0:0|0:0,0:0:0:0:
444,32,37376,1,2,0:0:0:0:
368,36,37538,2,0,B|268:40,1,70,8|2,0:0|0:0,0:0:0:0:
136,116,37862,6,0,B|236:112,1,70,0|2,0:0|0:0,0:0:0:0:
284,112,38186,1,10,0:0:0:0:
64,60,38511,1,2,0:0:0:0:
24,128,38673,1,0,0:0:0:0:
44,204,38835,1,10,0:0:0:0:
116,232,38997,1,2,0:0:0:0:
320,184,39159,6,0,B|284:268,1,70,0|2,0:0|0:0,0:0:0:0:
248,312,39484,2,0,B|164:340|88:288,1,140,10|2,0:0|0:0,0:0:0:0:
64,244,39970,1,2,0:0:0:0:
100,176,40132,2,0,B|136:104,1,70,8|2,0:0|0:0,0:0:0:0:
288,24,40457,6,0,B|252:96,1,70,0|2,0:0|0:0,0:0:0:0:
224,156,40781,1,10,0:0:0:0:
268,220,40943,1,0,0:0:0:0:
344,228,41105,6,0,B|436:208,1,70,2|2,0:0|0:0,0:0:0:0:
168,228,41430,2,0,B|76:208,1,70,2|2,0:0|0:0,0:0:0:0:
44,100,41754,6,0,L|152:124,1,93.3333333333333
208,48,42186,1,0,0:0:0:0:
244,144,42403,2,0,L|352:164,1,93.3333333333333
408,232,42835,1,0,0:0:0:0:
308,264,43051,2,0,L|200:244,1,93.3333333333333
124,292,43484,1,0,0:0:0:0:
136,192,43700,1,0,0:0:0:0:
36,108,43916,1,0,0:0:0:0:
160,68,44132,1,0,0:0:0:0:
256,156,44349,5,0,0:0:0:0:
356,132,44565,1,0,0:0:0:0:
456,104,44781,1,0,0:0:0:0:
432,204,44997,1,0,0:0:0:0:
332,228,45213,1,0,0:0:0:0:
356,132,45429,1,0,0:0:0:0:
284,56,45646,1,0,0:0:0:0:
184,80,45862,1,0,0:0:0:0:
256,156,46078,1,0,0:0:0:0:
156,180,46295,1,0,0:0:0:0:
28,208,46511,1,0,0:0:0:0:
120,300,46727,1,0,0:0:0:0:
244,280,46943,6,0,L|356:260,1,93.3333333333333
376,168,47376,1,0,0:0:0:0:
272,180,47592,2,0,L|160:200,1,93.3333333333333
108,124,48025,1,0,0:0:0:0:
208,100,48240,2,0,L|320:80,1,93.3333333333333
356,0,48673,1,0,0:0:0:0:
404,92,48889,1,0,0:0:0:0:
320,192,49105,1,0,0:0:0:0:
448,216,49322,1,0,0:0:0:0:
364,320,49538,5,0,0:0:0:0:
264,304,49754,1,0,0:0:0:0:
164,284,49970,1,0,0:0:0:0:
232,204,50186,1,0,0:0:0:0:
332,224,50403,1,0,0:0:0:0:
264,304,50619,1,0,0:0:0:0:
164,284,50835,1,0,0:0:0:0:
300,132,51051,1,0,0:0:0:0:
104,32,51268,1,0,0:0:0:0:
108,196,51484,5,0,0:0:0:0:
200,164,51646,1,0,0:0:0:0:
196,68,51808,2,0,B|248:48,4,35,8|0|0|0|4,0:0|0:0|0:0|0:0|0:0,0:0:0:0:
104,32,52295,5,0,0:0:0:0:
16,60,52457,2,0,B|-4:128|4:224,1,140,2|0,0:2|0:0,0:0:0:0:
68,260,52943,2,0,B|216:296,1,140,2|0,0:2|0:0,0:0:0:0:
307,293,53430,2,0,B|444:260,1,140,2|0,0:2|0:0,0:0:0:0:
509,198,53916,2,0,B|516:128|496:60,1,140,2|0,0:2|0:0,0:0:0:0:
428,20,54403,1,2,0:2:0:0:
352,36,54565,1,0,0:0:0:0:
316,104,54727,1,0,0:0:0:0:
240,116,54889,1,0,0:0:0:0:
173,70,55051,6,0,B|104:116|121:215,1,140,2|0,0:2|0:0,0:0:0:0:
134,274,55538,2,0,B|180:343|279:326,1,140,2|0,0:2|0:0,0:0:0:0:
338,313,56024,2,0,B|407:267|390:168,1,140,2|0,0:2|0:0,0:0:0:0:
377,109,56511,2,0,B|331:40|232:57,1,140,2|0,0:2|0:0,0:0:0:0:
208,116,56997,1,2,0:2:0:0:
132,128,57159,1,0,0:0:0:0:
76,72,57322,5,0,0:0:0:0:
76,72,57484,1,0,0:0:0:0:
28,132,57646,1,8,0:0:0:0:
28,132,57808,1,0,0:0:0:0:
24,208,57970,1,0,0:0:0:0:
24,208,58132,1,0,0:0:0:0:
68,272,58295,1,8,0:0:0:0:
68,272,58457,1,0,0:0:0:0:
176,320,58619,5,0,0:0:0:0:
176,320,58781,1,0,0:0:0:0:
284,268,58943,1,8,0:0:0:0:
284,268,59105,1,0,0:0:0:0:
296,148,59268,1,0,0:0:0:0:
296,148,59430,1,0,0:0:0:0:
388,76,59592,1,8,0:0:0:0:
388,76,59754,1,0,0:0:0:0:
500,128,59916,6,0,B|520:188,3,35
504,200,60240,2,0,L|488:252,3,35,8|0|0|0,0:0|0:0|0:0|0:0,0:0:0:0:
500,272,60565,2,0,B|520:332,3,35,0|0|0|0,0:0|0:0|0:0|0:0,0:0:0:0:
504,344,60889,2,0,L|488:396,4,35,8|0|0|0|0,0:0|0:0|0:0|0:0|0:0,0:0:0:0:
380,248,61700,5,2,0:0:0:0:
380,248,61781,1,0,0:0:0:0:
380,248,61862,1,2,0:0:0:0:
256,296,62105,1,2,0:0:0:0:
140,248,62349,1,2,0:0:0:0:
48,140,62511,6,0,B|136:160,1,70,4|2,0:0|0:0,0:0:0:0:
184,120,62835,2,0,B|240:84|324:96,1,140,10|2,0:0|0:0,0:0:0:0:
384,140,63322,1,2,0:0:0:0:
412,68,63484,2,0,B|436:-8,1,70,8|2,0:0|0:0,0:0:0:0:
484,152,63808,6,0,B|460:228,1,70,0|2,0:0|0:0,0:0:0:0:
436,292,64132,1,10,0:0:0:0:
196,324,64457,1,2,0:0:0:0:
148,264,64619,1,0,0:0:0:0:
156,188,64781,1,10,0:0:0:0:
220,148,64943,1,2,0:0:0:0:
384,128,65105,6,0,B|360:216,1,70,0|2,0:0|0:0,0:0:0:0:
328,264,65430,2,0,B|268:300|164:292,1,140,10|2,0:0|0:0,0:0:0:0:
124,260,65916,1,2,0:0:0:0:
96,188,66078,2,0,B|68:104,1,70,8|2,0:0|0:0,0:0:0:0:
148,12,66403,6,0,B|176:96,1,70,0|2,0:0|0:0,0:0:0:0:
196,148,66727,1,10,0:0:0:0:
384,200,67051,1,2,0:0:0:0:
424,132,67213,1,0,0:0:0:0:
400,60,67376,1,10,0:0:0:0:
324,44,67538,1,2,0:0:0:0:
192,136,67700,6,0,B|160:48,1,70,0|2,0:0|0:0,0:0:0:0:
116,12,68024,2,0,B|40:24|0:100,1,140,10|2,0:0|0:0,0:0:0:0:
12,168,68511,1,2,0:0:0:0:
56,232,68673,2,0,B|72:320,1,70,8|2,0:0|0:0,0:0:0:0:
152,196,68997,6,0,B|136:108,1,70,0|2,0:0|0:0,0:0:0:0:
128,52,69322,1,10,0:0:0:0:
276,12,69646,1,2,0:0:0:0:
348,32,69808,1,0,0:0:0:0:
372,104,69970,1,10,0:0:0:0:
332,168,70132,1,2,0:0:0:0:
356,280,70295,6,0,B|436:328,1,70,0|2,0:0|0:0,0:0:0:0:
492,320,70619,2,0,B|516:248|472:164,1,140,10|2,0:0|0:0,0:0:0:0:
428,128,71105,1,2,0:0:0:0:
352,124,71268,2,0,B|256:124,1,70,8|2,0:0|0:0,0:0:0:0:
104,192,71592,6,0,B|200:192,1,70,0|2,0:0|0:0,0:0:0:0:
204,124,71916,1,10,0:0:0:0:
124,124,72078,1,0,0:0:0:0:
48,120,72240,6,0,L|68:48,1,70,2|2,0:0|0:0,0:0:0:0:
48,264,72565,2,0,B|68:336,1,70,2|2,0:0|0:0,0:0:0:0:
220,304,72889,6,0,B|164:324,2,35,4|0|2,0:0|0:0|0:0,0:0:0:0:
300,276,73213,1,10,0:0:0:0:
368,328,73376,2,0,B|413:366,2,35,0|0|2,0:0|0:0|0:0,0:0:0:0:
300,276,73700,1,2,0:0:0:0:
316,192,73862,2,0,B|326:133,2,35,8|0|2,0:0|0:0|0:0,0:0:0:0:
184,72,74186,6,0,B|225:30,2,35,0|0|2,0:0|0:0|0:0,0:0:0:0:
123,132,74511,1,10,0:0:0:0:
39,114,74673,2,0,B|-17:99,2,35,0|0|2,0:0|0:0|0:0,0:0:0:0:
123,132,74997,1,0,0:0:0:0:
144,215,75159,2,0,B|162:282,1,70,10|2,0:0|0:0,0:0:0:0:
256,136,75484,6,0,B|218:89,2,35,0|0|2,0:0|0:0|0:0,0:0:0:0:
308,201,75808,1,10,0:0:0:0:
281,281,75970,2,0,B|259:336,2,35,0|0|2,0:0|0:0|0:0,0:0:0:0:
308,201,76295,1,2,0:0:0:0:
393,189,76457,2,0,B|451:180,2,35,8|0|2,0:0|0:0|0:0,0:0:0:0:
224,216,76781,6,0,B|260:263,2,35,0|0|2,0:0|0:0|0:0,0:0:0:0:
171,147,77105,1,10,0:0:0:0:
200,66,77268,2,0,B|222:11,2,35,0|0|2,0:0|0:0|0:0,0:0:0:0:
171,147,77592,1,0,0:0:0:0:
88,160,77754,1,10,0:0:0:0:
4,172,77916,1,2,0:0:0:0:
112,300,78078,6,0,B|79:349,2,35,4|0|2,0:0|0:0|0:0,0:0:0:0:
154,231,78403,1,10,0:0:0:0:
238,230,78565,2,0,B|297:233,2,35,0|0|2,0:0|0:0|0:0,0:0:0:0:
154,231,78889,1,2,0:0:0:0:
118,153,79051,2,0,B|91:99,2,35,8|0|2,0:0|0:0|0:0,0:0:0:0:
260,136,79376,6,0,B|204:115,2,35,0|0|2,0:0|0:0|0:0,0:0:0:0:
340,165,79700,1,10,0:0:0:0:
358,249,79862,2,0,B|367:307,2,35,0|0|2,0:0|0:0|0:0,0:0:0:0:
340,165,80186,1,0,0:0:0:0:
406,112,80349,2,0,B|460:67,1,70,10|2,0:0|0:0,0:0:0:0:
296,68,80673,6,0,B|354:55,2,35,0|0|2,0:0|0:0|0:0,0:0:0:0:
216,86,80997,1,10,0:0:0:0:
156,27,81159,2,0,B|116:-17,2,35,0|0|2,0:0|0:0|0:0,0:0:0:0:
216,86,81484,1,2,0:0:0:0:
186,166,81646,2,0,B|167:222,2,35,8|0|2,0:0|0:0|0:0,0:0:0:0:
172,296,81970,6,0,B|114:310,2,35,0|0|2,0:0|0:0|0:0,0:0:0:0:
256,275,82295,1,10,0:0:0:0:
316,332,82457,2,0,B|359:378,2,35,0|0|2,0:0|0:0|0:0,0:0:0:0:
276,192,82781,5,2,0:0:0:0:
172,296,82943,1,2,0:0:0:0:
316,332,83105,1,2,0:0:0:0:
472,340,83268,5,0,0:0:0:0:
508,244,83484,1,0,0:0:0:0:
432,176,83700,1,0,0:0:0:0:
348,236,83916,1,0,0:0:0:0:
376,336,84132,1,0,0:0:0:0:
284,380,84349,1,0,0:0:0:0:
208,312,84565,1,0,0:0:0:0:
252,220,84781,1,0,0:0:0:0:
100,144,84997,1,0,0:0:0:0:
268,120,85213,1,0,0:0:0:0:
144,232,85430,1,0,0:0:0:0:
176,68,85646,1,0,0:0:0:0:
56,48,85862,5,0,0:0:0:0:
28,148,86078,1,0,0:0:0:0:
128,132,86295,1,0,0:0:0:0:
160,36,86511,1,0,0:0:0:0:
260,24,86727,1,0,0:0:0:0:
224,120,86943,1,0,0:0:0:0:
324,104,87159,1,0,0:0:0:0:
424,84,87376,1,0,0:0:0:0:
396,184,87592,1,0,0:0:0:0:
356,8,87808,1,0,0:0:0:0:
224,120,88024,1,0,0:0:0:0:
396,184,88240,1,0,0:0:0:0:
472,44,88457,5,0,0:0:0:0:
508,140,88673,1,0,0:0:0:0:
432,208,88889,1,0,0:0:0:0:
348,148,89105,1,0,0:0:0:0:
376,48,89321,1,0,0:0:0:0:
284,4,89538,1,0,0:0:0:0:
208,72,89754,1,0,0:0:0:0:
252,164,89970,1,0,0:0:0:0:
100,240,90186,1,0,0:0:0:0:
268,264,90402,1,0,0:0:0:0:
144,152,90619,1,0,0:0:0:0:
176,316,90835,1,0,0:0:0:0:
56,336,91051,5,0,0:0:0:0:
28,236,91267,1,0,0:0:0:0:
128,252,91484,1,0,0:0:0:0:
160,348,91700,1,0,0:0:0:0:
260,360,91916,1,0,0:0:0:0:
224,264,92132,1,0,0:0:0:0:
324,280,92348,1,0,0:0:0:0:
424,300,92565,1,0,0:0:0:0:
396,200,92781,1,0,0:0:0:0:
356,376,92997,1,0,0:0:0:0:
224,264,93213,1,0,0:0:0:0:
396,200,93429,1,0,0:0:0:0:
256,144,93646,5,4,0:0:0:0:
204,232,93862,1,0,0:0:0:0:
308,232,94078,1,0,0:0:0:0:
152,144,94295,1,0,0:0:0:0:
256,320,94511,1,0,0:0:0:0:
360,144,94727,1,0,0:0:0:0:
152,144,94943,1,0,0:0:0:0:
256,320,95159,1,0,0:0:0:0:
360,144,95376,1,0,0:0:0:0:
256,144,95592,1,0,0:0:0:0:
204,232,95808,1,0,0:0:0:0:
308,232,96024,1,0,0:0:0:0:
360,144,96240,5,0,0:0:0:0:
152,144,96456,1,0,0:0:0:0:
256,320,96672,1,0,0:0:0:0:
256,144,96889,1,0,0:0:0:0:
204,232,97105,1,0,0:0:0:0:
308,232,97321,1,0,0:0:0:0:
256,144,97537,1,0,0:0:0:0:
204,232,97753,1,0,0:0:0:0:
308,232,97970,1,0,0:0:0:0:
152,144,98186,1,0,0:0:0:0:
256,320,98403,1,0,0:0:0:0:
360,144,98619,1,0,0:0:0:0:
480,76,98835,5,0,0:0:0:0:
480,192,99051,1,0,0:0:0:0:
480,308,99268,1,0,0:0:0:0:
388,308,99484,1,0,0:0:0:0:
388,192,99700,1,0,0:0:0:0:
388,76,99916,1,0,0:0:0:0:
300,76,100132,5,0,0:0:0:0:
212,192,100349,1,0,0:0:0:0:
300,308,100565,1,0,0:0:0:0:
212,308,100781,1,0,0:0:0:0:
300,192,100997,1,0,0:0:0:0:
212,76,101213,1,0,0:0:0:0:
124,76,101430,5,0,0:0:0:0:
124,192,101646,1,0,0:0:0:0:
124,308,101862,1,0,0:0:0:0:
32,308,102078,1,0,0:0:0:0:
32,192,102295,1,0,0:0:0:0:
32,76,102511,1,0,0:0:0:0:
124,192,102727,5,0,0:0:0:0:
256,192,102943,1,0,0:0:0:0:
388,192,103159,1,0,0:0:0:0:
256,112,103376,5,0,0:0:0:0:
256,192,103538,1,0,0:0:0:0:
256,272,103700,1,0,0:0:0:0:
256,284,103781,1,0,0:0:0:0:
256,296,103862,1,0,0:0:0:0:
256,308,103943,1,0,0:0:0:0:
256,320,104024,1,4,0:0:0:0:
