osu file format v14

[General]
AudioFilename: audio.mp3
AudioLeadIn: 0
PreviewTime: 89978
Countdown: 0
SampleSet: Normal
StackLeniency: 0.2
Mode: 0
LetterboxInBreaks: 0
WidescreenStoryboard: 0

[Editor]
DistanceSpacing: 1.2
BeatDivisor: 4
GridSize: 4
TimelineZoom: 2.2

[Metadata]
Title:STERLING SILVER
TitleUnicode:STERLING SILVER
Artist:TAG
ArtistUnicode:TAG
Creator:Dark and Hard
Version:Dark and HARD
Source:Jubeat
Tags:STERLING SILVER TAG jubeat
BeatmapID:1243252
BeatmapSetID:587124

[Difficulty]
HPDrainRate:6
CircleSize:4
OverallDifficulty:7
ApproachRate:9.3
SliderMultiplier:1.4
SliderTickRate:1

[Events]
//Background and Video events
0,0,"BBG.jpg",0,0
//Break Periods
//Storyboard Layer 0 (Background)
//Storyboard Layer 1 (Fail)
//Storyboard Layer 2 (Pass)
//Storyboard Layer 3 (Foreground)
//Storyboard Sound Samples

[TimingPoints]
1350,342.857142857143,4,1,0,70,1,0
12321,-76.9230769230769,4,2,0,70,0,0
13692,-83.3333333333333,4,1,0,70,0,1
23978,-83.3333333333333,4,1,0,70,0,0
46607,-100,4,1,0,70,0,0
58778,-100,4,1,0,5,0,0
58950,-100,4,1,0,20,0,0
59121,-100,4,1,0,20,0,0
59292,-100,4,1,0,30,0,0
59464,-100,4,1,0,40,0,0
59635,-100,4,1,0,50,0,0
59807,-100,4,1,0,60,0,0
59978,-100,4,1,0,70,0,0
63064,-76.9230769230769,4,1,0,70,0,0
89121,-66.6666666666667,4,1,0,70,0,0
89978,-66.6666666666667,4,1,0,70,0,1
112435,-66.6666666666667,4,1,0,70,0,0

[HitObjects]
168,312,1350,5,0,0:0:0:0:
188,136,1521,1,0,0:0:0:0:
280,284,1692,1,0,0:0:0:0:
112,216,1864,1,0,0:0:0:0:
288,184,2035,1,0,0:0:0:0:
108,40,2207,5,0,0:0:0:0:
100,76,2292,2,0,B|92:112|92:112|104:156,1,70
112,216,2550,2,0,L|100:272,1,35
132,384,2721,5,0,0:0:0:0:
112,216,2892,1,0,0:0:0:0:
20,356,3063,1,0,0:0:0:0:
188,288,3235,1,0,0:0:0:0:
12,256,3406,1,0,0:0:0:0:
192,112,3578,5,0,0:0:0:0:
200,148,3663,2,0,B|208:184|208:184|196:228,1,70
188,288,3921,2,0,L|200:344,1,35
272,380,4092,5,0,0:0:0:0:
188,288,4264,1,0,0:0:0:0:
356,264,4435,1,0,0:0:0:0:
276,144,4607,1,0,0:0:0:0:
272,380,4778,1,0,0:0:0:0:
424,200,4950,5,0,0:0:0:0:
424,164,5035,2,0,B|424:116|424:116|412:80,1,70
344,56,5292,2,0,L|344:124,1,35
272,152,5464,2,0,L|272:72,1,70
348,212,5807,5,0,0:0:0:0:
348,248,5892,2,0,L|348:332,1,70
268,356,6150,2,0,L|268:316,4,35
432,288,6664,1,0,0:0:0:0:
144,316,6835,6,0,L|64:320,1,70
248,224,7178,1,0,0:0:0:0:
284,220,7264,1,0,0:0:0:0:
320,220,7350,1,0,0:0:0:0:
356,224,7435,1,0,0:0:0:0:
388,232,7521,1,0,0:0:0:0:
144,316,7692,5,0,0:0:0:0:
128,284,7778,2,0,B|116:240|116:240|120:200,1,70
132,184,8035,1,0,0:0:0:0:
376,96,8207,6,0,L|445:92,1,70
272,188,8550,1,0,0:0:0:0:
236,192,8636,1,0,0:0:0:0:
200,192,8722,1,0,0:0:0:0:
164,188,8807,1,0,0:0:0:0:
132,180,8893,1,0,0:0:0:0:
376,96,9064,5,0,0:0:0:0:
392,128,9150,2,0,B|404:172|404:172|401:196,1,70
388,228,9407,1,0,0:0:0:0:
256,52,9578,5,0,0:0:0:0:
132,180,9750,6,0,L|76:188,1,35
296,188,9921,1,0,0:0:0:0:
120,204,10092,6,0,L|64:196,1,35
296,188,10263,1,0,0:0:0:0:
96,160,10435,6,0,L|36:168,1,35
296,188,10607,1,0,0:0:0:0:
64,204,10778,6,0,L|16:196,1,35
296,188,10950,1,0,0:0:0:0:
96,160,11121,5,0,0:0:0:0:
64,204,11207,2,0,B|60:240|60:240|68:280,1,70
128,328,11464,2,0,L|96:340,2,35
200,284,11721,1,0,0:0:0:0:
220,232,11807,2,0,B|224:196|224:196|208:140,1,70
68,272,12150,5,0,0:0:0:0:
400,360,12321,2,0,B|440:264|396:80|396:80|284:368|284:368|264:240,1,682.499968757631
260,200,13692,5,0,0:0:0:0:
112,284,13864,1,0,0:0:0:0:
100,244,13950,2,0,P|96:188|100:156,1,83.9999974365235
120,124,14207,1,0,0:0:0:0:
260,200,14378,5,0,0:0:0:0:
268,160,14464,2,0,P|264:92|256:64,1,83.9999974365235
200,24,14721,2,0,L|152:36,3,41.9999987182618
254,76,15064,6,0,L|244:160,1,83.9999974365235
388,200,15321,2,0,L|374:117,1,83.9999974365235
360,48,15578,1,0,0:0:0:0:
284,264,15750,5,0,0:0:0:0:
252,236,15835,2,0,B|204:224|204:224|156:240,1,83.9999974365235
112,292,16092,1,0,0:0:0:0:
112,292,16178,1,0,0:0:0:0:
112,292,16264,1,0,0:0:0:0:
232,384,16435,6,0,L|220:292,1,83.9999974365235
384,208,16692,2,0,L|372:300,1,83.9999974365235
224,184,16950,1,0,0:0:0:0:
404,56,17121,5,0,0:0:0:0:
372,292,17292,1,0,0:0:0:0:
284,96,17464,1,0,0:0:0:0:
496,252,17635,1,0,0:0:0:0:
227,364,17807,2,0,P|227:292|211:244,1,83.9999974365235
72,384,18064,2,0,P|68:316|84:276,1,83.9999974365235
124,132,18321,1,0,0:0:0:0:
225,281,18492,1,0,0:0:0:0:
24,232,18664,5,0,0:0:0:0:
20,208,18750,1,0,0:0:0:0:
16,184,18835,1,0,0:0:0:0:
12,160,18921,1,0,0:0:0:0:
8,136,19007,1,0,0:0:0:0:
76,32,19178,1,0,0:0:0:0:
180,104,19350,2,0,L|180:156,1,41.9999987182618
164,256,19521,1,0,0:0:0:0:
152,232,19607,1,0,0:0:0:0:
140,208,19692,1,0,0:0:0:0:
332,84,19864,5,0,0:0:0:0:
352,120,19950,2,0,B|364:156|364:156|352:208,1,83.9999974365235
284,264,20207,2,0,L|288:312,3,41.9999987182618
280,180,20550,5,0,0:0:0:0:
352,200,20635,1,0,0:0:0:0:
408,152,20721,1,0,0:0:0:0:
412,80,20807,1,0,0:0:0:0:
356,32,20892,2,0,B|312:16|312:16|240:24,1,83.9999974365235
144,184,21235,5,0,0:0:0:0:
136,144,21321,2,0,P|128:88|136:52,1,83.9999974365235
152,24,21578,1,0,0:0:0:0:
256,120,21750,1,0,0:0:0:0:
408,80,21921,6,0,P|416:152|408:180,1,83.9999974365235
264,288,22178,2,0,P|256:216|264:188,1,83.9999974365235
264,164,22435,1,0,0:0:0:0:
420,332,22607,5,0,0:0:0:0:
264,288,22778,1,0,0:0:0:0:
413,162,22950,1,0,0:0:0:0:
257,118,23121,1,0,0:0:0:0:
420,332,23292,1,0,0:0:0:0:
413,162,23464,1,0,0:0:0:0:
412,120,23550,2,0,P|412:64|400:32,1,83.9999974365235
328,20,23807,2,0,L|276:56,1,41.9999987182618
144,184,23978,5,0,0:0:0:0:
200,164,24064,1,0,0:0:0:0:
256,184,24150,1,0,0:0:0:0:
272,240,24235,1,0,0:0:0:0:
248,292,24321,1,0,0:0:0:0:
280,340,24407,1,0,0:0:0:0:
340,344,24492,1,0,0:0:0:0:
368,292,24578,1,0,0:0:0:0:
352,236,24664,5,0,0:0:0:0:
144,184,24835,1,0,0:0:0:0:
108,296,25007,5,0,0:0:0:0:
340,136,25178,1,0,0:0:0:0:
380,344,25350,5,0,0:0:0:0:
248,260,25521,1,0,0:0:0:0:
248,260,25607,1,0,0:0:0:0:
248,260,25692,1,0,0:0:0:0:
380,344,25864,2,0,P|376:280|392:168,1,167.999994873047
464,72,26378,1,0,0:0:0:0:
464,72,26550,1,0,0:0:0:0:
202,235,26721,5,0,0:0:0:0:
346,267,26892,2,0,L|442:291,2,83.9999974365235
202,235,27407,5,0,0:0:0:0:
392,176,27578,1,0,0:0:0:0:
428,288,27750,5,0,0:0:0:0:
196,128,27921,1,0,0:0:0:0:
156,336,28093,5,0,0:0:0:0:
288,252,28264,1,0,0:0:0:0:
288,252,28350,1,0,0:0:0:0:
288,252,28435,1,0,0:0:0:0:
156,336,28607,2,0,P|160:272|144:160,1,167.999994873047
72,64,29121,1,0,0:0:0:0:
72,64,29293,1,0,0:0:0:0:
288,136,29464,5,0,0:0:0:0:
148,168,29635,1,0,0:0:0:0:
244,264,29807,1,0,0:0:0:0:
396,52,29978,5,0,0:0:0:0:
396,52,30064,1,0,0:0:0:0:
396,52,30150,2,0,B|392:100|392:100|404:160,1,83.9999974365235
432,240,30492,2,0,B|439:275|439:275|435:323,1,83.9999974365235
280,200,30835,1,0,0:0:0:0:
496,180,31007,1,0,0:0:0:0:
496,180,31092,1,0,0:0:0:0:
496,180,31178,1,0,0:0:0:0:
280,328,31350,6,0,L|188:320,1,83.9999974365235
280,200,31692,2,0,L|188:208,1,83.9999974365235
96,336,32035,2,0,P|80:264|88:216,1,83.9999974365235
76,144,32378,2,0,P|84:84|108:36,1,83.9999974365235
256,192,32721,5,0,0:0:0:0:
256,192,32807,1,0,0:0:0:0:
256,192,32892,1,0,0:0:0:0:
416,56,33064,1,0,0:0:0:0:
256,192,33235,5,0,0:0:0:0:
464,120,33407,1,0,0:0:0:0:
256,192,33578,5,0,0:0:0:0:
472,200,33750,2,0,L|464:292,2,83.9999974365235
496,24,34264,1,0,0:0:0:0:
288,112,34435,5,0,0:0:0:0:
224,104,34521,1,0,0:0:0:0:
168,80,34607,1,0,0:0:0:0:
320,220,34778,5,0,0:0:0:0:
384,220,34864,1,0,0:0:0:0:
444,240,34950,1,0,0:0:0:0:
160,296,35121,5,0,0:0:0:0:
167,112,35292,5,0,0:0:0:0:
168,100,35378,2,0,L|168:64,6,20.9999993591309
164,300,35807,5,0,0:0:0:0:
254,168,35978,1,0,0:0:0:0:
40,208,36150,1,0,0:0:0:0:
80,64,36321,2,0,P|140:60|164:128,1,125.999996154785
172,184,36664,2,0,L|260:168,1,83.9999974365235
252,288,37007,2,0,L|164:304,1,83.9999974365235
256,168,37350,1,0,0:0:0:0:
252,288,37521,1,0,0:0:0:0:
172,184,37692,1,0,0:0:0:0:
168,304,37864,1,0,0:0:0:0:
256,168,38035,1,0,0:0:0:0:
400,336,38207,5,0,0:0:0:0:
400,336,38292,1,0,0:0:0:0:
400,336,38378,2,0,P|408:256|408:216,1,83.9999974365235
392,52,38721,2,0,P|384:132|384:172,1,83.9999974365235
408,248,39064,5,0,0:0:0:0:
472,128,39235,1,0,0:0:0:0:
496,248,39407,1,0,0:0:0:0:
384,136,39578,2,0,P|312:120|256:128,1,125.999996154785
216,192,39921,2,0,L|216:280,2,83.9999974365235
216,24,40435,1,0,0:0:0:0:
32,216,40607,5,0,0:0:0:0:
32,216,40692,1,0,0:0:0:0:
32,216,40778,2,0,P|96:204|136:216,1,83.9999974365235
297,267,41121,2,0,P|233:279|193:267,1,83.9999974365235
112,208,41464,5,0,0:0:0:0:
296,160,41635,1,0,0:0:0:0:
112,208,41807,5,0,0:0:0:0:
328,232,41978,1,0,0:0:0:0:
112,208,42150,5,0,0:0:0:0:
316,304,42321,2,0,B|360:312|360:312|432:300,1,83.9999974365235
112,208,42664,5,0,0:0:0:0:
316,304,42835,1,0,0:0:0:0:
44,352,43007,5,0,0:0:0:0:
44,352,43092,1,0,0:0:0:0:
44,352,43178,1,0,0:0:0:0:
40,208,43350,2,0,P|40:136|40:88,2,83.9999974365235
44,352,43864,5,0,0:0:0:0:
40,208,44035,1,0,0:0:0:0:
128,364,44207,5,0,0:0:0:0:
112,168,44378,1,0,0:0:0:0:
212,376,44550,6,0,L|200:296,1,41.9999987182618
192,156,44721,2,0,L|184:100,1,41.9999987182618
320,264,44892,6,0,L|308:184,1,41.9999987182618
300,44,45063,2,0,L|292:-12,1,41.9999987182618
420,124,45235,5,0,0:0:0:0:
192,156,45407,1,0,0:0:0:0:
136,148,45492,1,0,0:0:0:0:
76,156,45578,2,0,P|20:172|-8:192,1,83.9999974365235
76,376,45835,2,0,P|84:316|76:276,1,83.9999974365235
64,236,46092,1,0,0:0:0:0:
200,316,46264,5,0,0:0:0:0:
256,300,46350,1,0,0:0:0:0:
312,292,46435,1,0,0:0:0:0:
368,280,46521,1,0,0:0:0:0:
424,272,46607,6,0,L|496:256,1,70
348,364,46950,1,0,0:0:0:0:
348,364,47121,1,0,0:0:0:0:
408,188,47292,6,0,L|476:136,1,70
348,364,47635,1,0,0:0:0:0:
348,364,47807,1,0,0:0:0:0:
384,104,47978,6,0,L|400:12,1,70
348,364,48321,1,0,0:0:0:0:
348,364,48492,1,0,0:0:0:0:
252,252,48664,6,0,P|196:252|172:272,1,70
128,344,49007,2,0,P|72:344|48:328,1,70
104,116,49350,5,0,0:0:0:0:
252,252,49521,1,0,0:0:0:0:
112,264,49692,1,0,0:0:0:0:
248,104,49864,1,0,0:0:0:0:
252,252,50035,5,0,0:0:0:0:
284,312,50207,1,0,0:0:0:0:
348,340,50378,1,0,0:0:0:0:
416,328,50550,1,0,0:0:0:0:
484,172,50721,5,0,0:0:0:0:
452,112,50893,1,0,0:0:0:0:
388,84,51064,1,0,0:0:0:0:
320,96,51236,1,0,0:0:0:0:
280,308,51407,5,0,0:0:0:0:
388,84,51578,1,0,0:0:0:0:
416,328,51750,1,0,0:0:0:0:
264,136,51921,1,0,0:0:0:0:
148,104,52092,6,0,L|76:120,1,70
224,12,52435,1,0,0:0:0:0:
224,12,52606,1,0,0:0:0:0:
164,188,52777,6,0,L|96:240,1,70
224,12,53120,1,0,0:0:0:0:
224,12,53292,1,0,0:0:0:0:
188,272,53463,6,0,L|172:364,1,70
224,12,53806,1,0,0:0:0:0:
224,12,53977,1,0,0:0:0:0:
320,124,54149,6,0,P|376:124|400:104,1,70
444,32,54492,2,0,P|500:32|524:48,1,70
468,260,54835,5,0,0:0:0:0:
320,124,55006,1,0,0:0:0:0:
460,112,55177,1,0,0:0:0:0:
324,272,55349,1,0,0:0:0:0:
320,124,55520,5,0,0:0:0:0:
288,64,55692,1,0,0:0:0:0:
224,36,55863,1,0,0:0:0:0:
156,48,56035,1,0,0:0:0:0:
88,204,56206,5,0,0:0:0:0:
120,264,56378,1,0,0:0:0:0:
184,292,56549,1,0,0:0:0:0:
252,280,56721,1,0,0:0:0:0:
292,68,56892,5,0,0:0:0:0:
184,292,57063,1,0,0:0:0:0:
156,48,57235,1,0,0:0:0:0:
308,240,57406,1,0,0:0:0:0:
76,160,57578,1,0,0:0:0:0:
256,192,57664,12,0,58778,0:0:0:0:
256,52,58950,5,0,0:0:0:0:
260,60,59121,1,0,0:0:0:0:
260,68,59292,1,0,0:0:0:0:
256,76,59464,1,0,0:0:0:0:
256,84,59635,1,0,0:0:0:0:
260,92,59807,1,0,0:0:0:0:
264,96,59978,1,0,0:0:0:0:
268,104,60150,1,0,0:0:0:0:
268,112,60321,1,0,0:0:0:0:
268,112,60664,5,0,0:0:0:0:
268,112,61007,5,0,0:0:0:0:
268,112,61350,5,0,0:0:0:0:
268,112,61692,5,0,0:0:0:0:
276,168,61778,1,0,0:0:0:0:
300,220,61864,1,0,0:0:0:0:
340,260,61950,1,0,0:0:0:0:
392,284,62035,1,0,0:0:0:0:
416,232,62121,1,0,0:0:0:0:
420,176,62207,1,0,0:0:0:0:
412,120,62292,1,0,0:0:0:0:
392,68,62378,1,0,0:0:0:0:
120,112,63064,5,0,0:0:0:0:
108,156,63150,1,0,0:0:0:0:
112,200,63235,1,0,0:0:0:0:
120,244,63321,1,0,0:0:0:0:
148,280,63407,1,0,0:0:0:0:
325,146,63578,2,0,P|393:122|437:118,2,90.9999958343508
240,336,64092,1,0,0:0:0:0:
192,176,64264,1,0,0:0:0:0:
360,244,64435,6,0,P|416:248|464:340,1,136.499993751526
472,380,64778,1,0,0:0:0:0:
472,380,64950,1,0,0:0:0:0:
476,172,65121,2,0,L|480:72,1,90.9999958343508
328,148,65464,5,0,0:0:0:0:
268,116,65550,1,0,0:0:0:0:
200,112,65635,1,0,0:0:0:0:
132,124,65721,1,0,0:0:0:0:
80,168,65807,2,0,L|28:224,2,45.4999979171754
100,340,66150,5,0,0:0:0:0:
152,296,66235,1,0,0:0:0:0:
204,252,66321,1,0,0:0:0:0:
52,80,66492,6,0,L|0:136,2,45.4999979171754
152,296,66835,5,0,0:0:0:0:
204,252,66920,1,0,0:0:0:0:
256,208,67006,1,0,0:0:0:0:
428,52,67178,6,0,L|428:120,1,45.4999979171754
428,192,67350,1,0,0:0:0:0:
428,256,67435,1,0,0:0:0:0:
432,320,67521,1,0,0:0:0:0:
256,208,67692,1,0,0:0:0:0:
100,340,67864,2,0,L|100:236,2,90.9999958343508
256,208,68378,1,0,0:0:0:0:
284,148,68464,1,0,0:0:0:0:
276,80,68550,1,0,0:0:0:0:
60,144,68807,6,0,L|8:144,1,45.4999979171754
60,144,69064,1,0,0:0:0:0:
100,340,69235,1,0,0:0:0:0:
172,284,69407,1,0,0:0:0:0:
260,264,69578,1,0,0:0:0:0:
352,272,69750,1,0,0:0:0:0:
432,320,69921,1,0,0:0:0:0:
432,320,70435,6,0,L|436:264,2,45.4999979171754
260,264,70778,1,0,0:0:0:0:
260,204,70864,1,0,0:0:0:0:
276,148,70950,1,0,0:0:0:0:
312,104,71035,1,0,0:0:0:0:
364,72,71121,1,0,0:0:0:0:
424,72,71207,1,0,0:0:0:0:
476,96,71292,1,0,0:0:0:0:
476,96,71635,5,0,0:0:0:0:
276,148,71892,1,0,0:0:0:0:
224,120,71978,2,0,B|172:92|172:92|96:100,1,90.9999958343508
120,276,72321,2,0,P|132:224|108:168,1,90.9999958343508
28,32,72664,5,0,0:0:0:0:
40,116,73007,1,0,0:0:0:0:
40,116,73264,5,0,0:0:0:0:
40,116,73350,2,0,L|52:188,1,45.4999979171754
148,40,73521,2,0,L|152:104,1,45.4999979171754
228,252,73692,6,0,L|225:206,1,45.4999979171754
336,180,73864,2,0,L|332:128,1,45.4999979171754
324,8,74035,5,0,0:0:0:0:
352,16,74121,1,0,0:0:0:0:
376,32,74207,1,0,0:0:0:0:
392,52,74292,1,0,0:0:0:0:
404,76,74378,1,0,0:0:0:0:
408,104,74464,1,0,0:0:0:0:
408,132,74550,1,0,0:0:0:0:
404,160,74635,1,0,0:0:0:0:
400,188,74721,1,0,0:0:0:0:
404,216,74807,1,0,0:0:0:0:
412,240,74892,1,0,0:0:0:0:
432,260,74978,1,0,0:0:0:0:
456,268,75064,1,0,0:0:0:0:
480,260,75150,1,0,0:0:0:0:
496,236,75235,1,0,0:0:0:0:
500,208,75321,1,0,0:0:0:0:
460,68,75407,6,0,L|460:16,3,45.4999979171754
356,140,75750,2,0,L|356:192,3,45.4999979171754
260,56,76092,1,0,0:0:0:0:
216,56,76178,1,0,0:0:0:0:
180,84,76264,1,0,0:0:0:0:
164,128,76350,1,0,0:0:0:0:
172,172,76435,1,0,0:0:0:0:
204,212,76521,1,0,0:0:0:0:
248,224,76607,1,0,0:0:0:0:
288,204,76692,1,0,0:0:0:0:
412,108,76778,6,0,L|480:116,3,45.4999979171754
512,228,77121,2,0,L|444:220,3,45.4999979171754
252,96,77464,6,0,L|320:104,3,45.4999979171754
352,216,77807,2,0,L|284:208,3,45.4999979171754
172,192,78150,6,0,L|172:240,3,45.4999979171754
392,236,78492,2,0,L|352:216,3,45.4999979171754
312,260,78835,1,0,0:0:0:0:
260,280,78921,1,0,0:0:0:0:
204,288,79007,1,0,0:0:0:0:
152,272,79092,1,0,0:0:0:0:
112,236,79178,1,0,0:0:0:0:
88,188,79264,1,0,0:0:0:0:
92,132,79350,1,0,0:0:0:0:
124,88,79435,1,0,0:0:0:0:
288,52,79521,6,0,L|356:40,2,45.4999979171754
124,88,79778,1,0,0:0:0:0:
124,88,79864,1,0,0:0:0:0:
260,196,80035,1,0,0:0:0:0:
64,348,80207,5,0,0:0:0:0:
48,296,80292,1,0,0:0:0:0:
44,240,80378,1,0,0:0:0:0:
52,184,80464,1,0,0:0:0:0:
76,136,80550,1,0,0:0:0:0:
256,280,80721,5,0,0:0:0:0:
124,88,80892,6,0,L|56:76,2,45.4999979171754
288,124,81149,1,0,0:0:0:0:
288,124,81235,1,0,0:0:0:0:
152,232,81406,5,0,0:0:0:0:
348,384,81578,5,0,0:0:0:0:
364,332,81663,1,0,0:0:0:0:
368,276,81749,1,0,0:0:0:0:
360,220,81835,1,0,0:0:0:0:
336,172,81921,1,0,0:0:0:0:
156,316,82092,5,0,0:0:0:0:
60,80,82264,5,0,0:0:0:0:
112,68,82350,1,0,0:0:0:0:
164,56,82435,1,0,0:0:0:0:
216,44,82521,1,0,0:0:0:0:
268,32,82607,1,0,0:0:0:0:
204,224,82778,5,0,0:0:0:0:
60,80,82950,2,0,P|56:148|68:200,2,90.9999958343508
92,328,83635,5,0,0:0:0:0:
144,340,83721,1,0,0:0:0:0:
196,352,83806,1,0,0:0:0:0:
248,364,83892,1,0,0:0:0:0:
300,376,83978,1,0,0:0:0:0:
236,184,84149,5,0,0:0:0:0:
92,328,84321,2,0,P|88:260|100:208,2,90.9999958343508
128,64,85007,5,0,0:0:0:0:
180,52,85092,1,0,0:0:0:0:
236,52,85178,1,0,0:0:0:0:
292,60,85264,1,0,0:0:0:0:
340,88,85350,1,0,0:0:0:0:
128,64,85692,5,0,0:0:0:0:
188,80,85778,1,0,0:0:0:0:
240,120,85864,1,0,0:0:0:0:
268,176,85950,1,0,0:0:0:0:
272,240,86035,1,0,0:0:0:0:
128,64,86378,5,0,0:0:0:0:
152,132,86464,1,0,0:0:0:0:
148,204,86550,1,0,0:0:0:0:
116,268,86635,1,0,0:0:0:0:
60,316,86721,2,0,L|0:336,3,45.4999979171754
272,332,87064,2,0,L|336:340,3,45.4999979171754
168,332,87407,1,0,0:0:0:0:
256,192,87750,12,0,88950,0:0:0:0:
340,152,89121,6,0,B|372:136|372:136|420:140,3,52.5000020027161
432,284,89464,2,0,P|432:228|420:204,3,52.5000020027161
348,344,89807,1,0,0:0:0:0:
108,260,89978,5,0,0:0:0:0:
272,88,90150,1,0,0:0:0:0:
272,152,90235,1,0,0:0:0:0:
272,216,90321,1,0,0:0:0:0:
272,280,90407,1,0,0:0:0:0:
272,344,90492,1,0,0:0:0:0:
108,124,90664,5,0,0:0:0:0:
412,192,90835,1,0,0:0:0:0:
176,368,91007,1,0,0:0:0:0:
176,304,91093,1,0,0:0:0:0:
176,240,91178,2,0,L|176:128,1,105.000004005432
416,332,91521,1,0,0:0:0:0:
176,384,91692,5,0,0:0:0:0:
176,320,91778,1,0,0:0:0:0:
176,256,91863,2,0,L|176:144,1,105.000004005432
328,72,92121,2,0,L|328:192,1,105.000004005432
184,20,92378,1,0,0:0:0:0:
0,256,92550,6,0,P|60:244|208:256,1,210.000008010865
408,368,93064,1,0,0:0:0:0:
208,368,93235,5,0,0:0:0:0:
440,180,93407,2,0,P|444:84|424:36,1,105.000004005432
320,328,93750,1,0,0:0:0:0:
312,268,93835,1,0,0:0:0:0:
312,204,93921,1,0,0:0:0:0:
108,376,94092,2,0,P|112:280|92:232,1,105.000004005432
32,64,94435,5,0,0:0:0:0:
96,68,94521,1,0,0:0:0:0:
160,72,94607,2,0,L|288:84,1,105.000004005432
416,213,94864,2,0,L|288:201,1,105.000004005432
496,104,95121,1,0,0:0:0:0:
236,384,95292,2,0,P|236:300|240:260,1,105.000004005432
368,56,95635,5,0,0:0:0:0:
308,76,95721,1,0,0:0:0:0:
244,72,95807,1,0,0:0:0:0:
184,52,95892,1,0,0:0:0:0:
136,12,95978,1,0,0:0:0:0:
104,260,96150,1,0,0:0:0:0:
128,88,96321,5,0,0:0:0:0:
272,340,96492,1,0,0:0:0:0:
332,316,96578,1,0,0:0:0:0:
392,292,96664,2,0,L|504:248,1,105.000004005432
104,260,97007,5,0,0:0:0:0:
392,292,97178,1,0,0:0:0:0:
396,228,97264,1,0,0:0:0:0:
400,164,97350,2,0,L|408:52,1,105.000004005432
224,0,97607,2,0,L|232:112,1,105.000004005432
456,0,97864,1,0,0:0:0:0:
392,292,98035,6,0,P|320:256|176:260,1,210.000008010865
28,356,98550,1,0,0:0:0:0:
260,356,98721,1,0,0:0:0:0:
36,204,98892,2,0,P|28:136|40:84,1,105.000004005432
156,332,99235,5,0,0:0:0:0:
164,268,99321,1,0,0:0:0:0:
160,204,99407,1,0,0:0:0:0:
332,344,99578,2,0,L|480:308,1,105.000004005432
380,72,99921,5,0,0:0:0:0:
316,84,100007,1,0,0:0:0:0:
256,96,100092,1,0,0:0:0:0:
104,320,100264,5,0,0:0:0:0:
96,256,100350,1,0,0:0:0:0:
104,196,100435,1,0,0:0:0:0:
412,316,100607,5,0,0:0:0:0:
352,324,100692,1,0,0:0:0:0:
288,332,100778,2,0,L|185:354,1,105.000004005432
0,216,101121,2,0,L|102:193,1,105.000004005432
256,32,101464,5,0,0:0:0:0:
324,76,101550,1,0,0:0:0:0:
364,144,101635,1,0,0:0:0:0:
380,220,101721,1,0,0:0:0:0:
360,296,101807,1,0,0:0:0:0:
192,376,101978,5,0,0:0:0:0:
192,312,102064,1,0,0:0:0:0:
192,248,102150,2,0,L|192:132,1,105.000004005432
424,340,102492,5,0,0:0:0:0:
192,312,102664,1,0,0:0:0:0:
192,248,102750,1,0,0:0:0:0:
192,184,102836,2,0,L|192:68,1,105.000004005432
192,0,103092,1,0,0:0:0:0:
492,196,103350,1,0,0:0:0:0:
264,384,103521,6,0,P|248:292|276:160,1,210.000008010865
408,32,104035,1,0,0:0:0:0:
408,264,104207,1,0,0:0:0:0:
252,32,104378,2,0,L|132:44,1,105.000004005432
80,296,104721,5,0,0:0:0:0:
128,256,104807,1,0,0:0:0:0:
184,232,104892,2,0,L|296:216,2,105.000004005432
360,12,105407,5,0,0:0:0:0:
392,64,105492,1,0,0:0:0:0:
408,124,105578,2,0,P|416:220|400:288,2,157.500006008148
224,352,106264,2,0,P|216:264|232:212,1,105.000004005432
296,24,106607,5,0,0:0:0:0:
224,28,106692,1,0,0:0:0:0:
152,48,106778,1,0,0:0:0:0:
96,96,106864,1,0,0:0:0:0:
72,164,106950,1,0,0:0:0:0:
88,356,107121,6,0,P|92:260|80:228,1,105.000004005432
36,32,107464,1,0,0:0:0:0:
100,28,107550,1,0,0:0:0:0:
164,32,107635,2,0,P|264:32|288:40,1,105.000004005432
484,164,107978,5,0,0:0:0:0:
256,348,108150,1,0,0:0:0:0:
248,284,108235,1,0,0:0:0:0:
252,220,108321,1,0,0:0:0:0:
484,356,108492,1,0,0:0:0:0:
116,280,108664,1,0,0:0:0:0:
384,40,108835,1,0,0:0:0:0:
376,296,109007,6,0,P|308:212|184:168,1,210.000008010865
20,240,109521,1,0,0:0:0:0:
256,376,109692,5,0,0:0:0:0:
300,56,109864,1,0,0:0:0:0:
96,196,110035,1,0,0:0:0:0:
460,244,110207,5,0,0:0:0:0:
460,244,110292,1,0,0:0:0:0:
460,244,110378,1,0,0:0:0:0:
152,80,110550,1,0,0:0:0:0:
256,320,110722,1,0,0:0:0:0:
392,20,110892,5,0,0:0:0:0:
392,20,110978,1,0,0:0:0:0:
392,20,111064,1,0,0:0:0:0:
56,208,111235,6,0,L|8:208,2,35.0000013351441
64,208,111407,1,0,0:0:0:0:
396,360,111578,6,0,L|432:360,2,35.0000013351441
388,364,111750,2,0,B|416:272|416:272|392:184,1,157.500006008148
352,172,112092,1,0,0:0:0:0:
292,152,112178,1,0,0:0:0:0:
228,148,112264,1,0,0:0:0:0:
168,164,112350,1,0,0:0:0:0:
112,196,112435,1,0,0:0:0:0:
260,364,112692,5,0,0:0:0:0:
444,48,112950,5,0,0:0:0:0:
68,48,113207,5,0,0:0:0:0:
256,280,113464,5,0,0:0:0:0:
484,256,113635,1,0,0:0:0:0:
388,356,113807,1,0,0:0:0:0:
372,316,113892,1,0,0:0:0:0:
364,276,113978,1,0,0:0:0:0:
368,236,114064,1,0,0:0:0:0:
380,196,114150,1,0,0:0:0:0:
500,0,114321,5,0,0:0:0:0:
