osu file format v14

[General]
AudioFilename: audio.mp3
AudioLeadIn: 0
PreviewTime: 52216
Countdown: 0
SampleSet: Normal
StackLeniency: 0.7
Mode: 3
LetterboxInBreaks: 0
SpecialStyle: 0
WidescreenStoryboard: 0

[Editor]
DistanceSpacing: 0.5
BeatDivisor: 4
GridSize: 4
TimelineZoom: 1.6

[Metadata]
Title:Romancing Layer
TitleUnicode:Romancing Layer
Artist:TAG
ArtistUnicode:TAG
Creator:Jinjin
Version:Hold On!
Source:jubeat saucer
Tags:
BeatmapID:1877497
BeatmapSetID:898751

[Difficulty]
HPDrainRate:8
CircleSize:7
OverallDifficulty:5
ApproachRate:5
SliderMultiplier:1.4
SliderTickRate:1

[Events]
//Background and Video events
0,0,"universe_4-wallpaper-1366x768.jpg",0,0
//Break Periods
//Storyboard Layer 0 (Background)
//Storyboard Layer 1 (Fail)
//Storyboard Layer 2 (Pass)
//Storyboard Layer 3 (Foreground)
//Storyboard Sound Samples

[TimingPoints]
1016,400,4,1,0,0,1,0

[HitObjects]
36,192,1016,128,0,1816:0:0:0:0:
402,192,1016,128,0,1416:0:0:0:0:
475,192,1016,128,0,1416:0:0:0:0:
182,192,1016,128,0,1216:0:0:0:0:
329,192,1016,128,0,1216:0:0:0:0:
109,192,1216,128,0,1616:0:0:0:0:
256,192,1216,128,0,1816:0:0:0:0:
329,192,1416,128,0,1616:0:0:0:0:
182,192,1416,128,0,1616:0:0:0:0:
475,192,1616,128,0,2216:0:0:0:0:
402,192,1716,128,0,1816:0:0:0:0:
182,192,1816,128,0,2016:0:0:0:0:
109,192,1816,128,0,2216:0:0:0:0:
329,192,1816,128,0,1916:0:0:0:0:
256,192,2016,128,0,2116:0:0:0:0:
329,192,2116,128,0,2216:0:0:0:0:
36,192,2216,128,0,2616:0:0:0:0:
402,192,2216,128,0,2616:0:0:0:0:
182,192,2316,128,0,2616:0:0:0:0:
329,192,2316,128,0,2416:0:0:0:0:
256,192,2416,128,0,2516:0:0:0:0:
329,192,2516,128,0,2616:0:0:0:0:
475,192,2616,128,0,3416:0:0:0:0:
109,192,2616,128,0,3016:0:0:0:0:
256,192,2616,128,0,2816:0:0:0:0:
329,192,2816,128,0,3016:0:0:0:0:
182,192,2916,128,0,3016:0:0:0:0:
36,192,3016,128,0,3216:0:0:0:0:
402,192,3016,128,0,3216:0:0:0:0:
256,192,3016,128,0,3216:0:0:0:0:
109,192,3216,128,0,3316:0:0:0:0:
329,192,3216,128,0,3316:0:0:0:0:
182,192,3316,128,0,3416:0:0:0:0:
402,192,3416,128,0,3516:0:0:0:0:
256,192,3416,128,0,3516:0:0:0:0:
36,192,3416,128,0,3816:0:0:0:0:
256,192,3616,128,0,3716:0:0:0:0:
402,192,3616,128,0,3716:0:0:0:0:
109,192,3616,128,0,3816:0:0:0:0:
182,192,3716,128,0,3816:0:0:0:0:
329,192,3716,128,0,3816:0:0:0:0:
475,192,3816,128,0,4416:0:0:0:0:
256,192,3916,128,0,4016:0:0:0:0:
109,192,3916,128,0,4016:0:0:0:0:
402,192,4016,128,0,4216:0:0:0:0:
109,192,4116,128,0,4216:0:0:0:0:
256,192,4116,128,0,4216:0:0:0:0:
36,192,4216,128,0,4616:0:0:0:0:
182,192,4216,128,0,4416:0:0:0:0:
329,192,4216,128,0,4416:0:0:0:0:
256,192,4416,128,0,4616:0:0:0:0:
109,192,4416,128,0,4616:0:0:0:0:
402,192,4416,128,0,4516:0:0:0:0:
475,192,4516,128,0,4616:0:0:0:0:
329,192,4616,128,0,4816:0:0:0:0:
182,192,4616,128,0,4816:0:0:0:0:
402,192,4616,128,0,5016:0:0:0:0:
109,192,4816,128,0,5016:0:0:0:0:
256,192,4816,128,0,4916:0:0:0:0:
329,192,4916,128,0,5016:0:0:0:0:
475,192,5016,128,0,5616:0:0:0:0:
182,192,5016,128,0,5116:0:0:0:0:
36,192,5016,128,0,5116:0:0:0:0:
109,192,5216,128,0,5416:0:0:0:0:
256,192,5216,128,0,5416:0:0:0:0:
329,192,5316,128,0,5416:0:0:0:0:
182,192,5416,128,0,5516:0:0:0:0:
36,192,5416,128,0,5816:0:0:0:0:
109,192,5516,128,0,5616:0:0:0:0:
256,192,5516,128,0,5616:0:0:0:0:
402,192,5616,128,0,5816:0:0:0:0:
109,192,5716,128,0,5816:0:0:0:0:
256,192,5716,128,0,5816:0:0:0:0:
182,192,5816,128,0,6016:0:0:0:0:
329,192,5816,128,0,6016:0:0:0:0:
475,192,5816,128,0,6416:0:0:0:0:
109,192,6016,128,0,6216:0:0:0:0:
256,192,6016,128,0,6216:0:0:0:0:
36,192,6016,128,0,6616:0:0:0:0:
182,192,6216,128,0,6416:0:0:0:0:
329,192,6216,128,0,6416:0:0:0:0:
402,192,6216,128,0,6416:0:0:0:0:
109,192,6316,128,0,6416:0:0:0:0:
256,192,6416,128,0,6616:0:0:0:0:
402,192,6516,128,0,6616:0:0:0:0:
329,192,6616,128,0,6716:0:0:0:0:
475,192,6616,128,0,6716:0:0:0:0:
182,192,6616,128,0,7016:0:0:0:0:
329,192,6816,128,0,6916:0:0:0:0:
475,192,6816,128,0,6916:0:0:0:0:
109,192,6816,128,0,7016:0:0:0:0:
256,192,6916,128,0,7016:0:0:0:0:
402,192,6916,128,0,7016:0:0:0:0:
36,192,7016,128,0,7816:0:0:0:0:
329,192,7116,128,0,7216:0:0:0:0:
475,192,7116,128,0,7216:0:0:0:0:
109,192,7216,128,0,7616:0:0:0:0:
256,192,7216,128,0,7416:0:0:0:0:
402,192,7316,128,0,7416:0:0:0:0:
475,192,7316,128,0,7416:0:0:0:0:
182,192,7416,128,0,7616:0:0:0:0:
329,192,7416,128,0,7516:0:0:0:0:
256,192,7616,128,0,7716:0:0:0:0:
475,192,7616,128,0,7716:0:0:0:0:
402,192,7616,128,0,8216:0:0:0:0:
182,192,7816,128,0,7916:0:0:0:0:
329,192,7816,128,0,7916:0:0:0:0:
109,192,7816,128,0,8016:0:0:0:0:
36,192,8016,128,0,8316:0:0:0:0:
475,192,8016,128,0,8216:0:0:0:0:
109,192,8216,128,0,8316:0:0:0:0:
256,192,8216,128,0,8316:0:0:0:0:
182,192,8416,128,0,8516:0:0:0:0:
329,192,8416,128,0,8516:0:0:0:0:
475,192,8416,128,0,8816:0:0:0:0:
256,192,8516,128,0,8616:0:0:0:0:
402,192,8516,128,0,8616:0:0:0:0:
109,192,8616,128,0,8716:0:0:0:0:
36,192,8616,128,0,9016:0:0:0:0:
182,192,8716,128,0,8816:0:0:0:0:
329,192,8716,128,0,8816:0:0:0:0:
182,192,8916,128,0,9016:0:0:0:0:
329,192,8916,128,0,9016:0:0:0:0:
256,192,9016,128,0,9116:0:0:0:0:
402,192,9016,128,0,9116:0:0:0:0:
475,192,9016,128,0,9316:0:0:0:0:
109,192,9216,128,0,9316:0:0:0:0:
182,192,9216,128,0,9316:0:0:0:0:
329,192,9216,128,0,9516:0:0:0:0:
256,192,9416,128,0,9516:0:0:0:0:
402,192,9416,128,0,9516:0:0:0:0:
475,192,9416,128,0,9716:0:0:0:0:
36,192,9416,128,0,9616:0:0:0:0:
109,192,9516,128,0,9616:0:0:0:0:
182,192,9616,128,0,9716:0:0:0:0:
329,192,9616,128,0,9716:0:0:0:0:
36,192,9716,128,0,9816:0:0:0:0:
256,192,9716,128,0,9816:0:0:0:0:
402,192,9816,128,0,9916:0:0:0:0:
475,192,9816,128,0,9916:0:0:0:0:
109,192,9816,128,0,10216:0:0:0:0:
402,192,10016,128,0,10116:0:0:0:0:
475,192,10016,128,0,10116:0:0:0:0:
36,192,10016,128,0,10416:0:0:0:0:
329,192,10116,128,0,10216:0:0:0:0:
256,192,10116,128,0,10216:0:0:0:0:
402,192,10216,128,0,10416:0:0:0:0:
182,192,10316,128,0,10416:0:0:0:0:
256,192,10316,128,0,10416:0:0:0:0:
475,192,10416,128,0,10816:0:0:0:0:
109,192,10416,128,0,10616:0:0:0:0:
182,192,10516,128,0,10616:0:0:0:0:
256,192,10516,128,0,10616:0:0:0:0:
329,192,10616,128,0,10716:0:0:0:0:
402,192,10616,128,0,10716:0:0:0:0:
36,192,10616,128,0,11416:0:0:0:0:
109,192,10816,128,0,10916:0:0:0:0:
182,192,10816,128,0,10916:0:0:0:0:
329,192,11016,128,0,11116:0:0:0:0:
402,192,11016,128,0,11116:0:0:0:0:
475,192,11016,128,0,11216:0:0:0:0:
182,192,11116,128,0,11216:0:0:0:0:
256,192,11216,128,0,11316:0:0:0:0:
402,192,11216,128,0,11416:0:0:0:0:
329,192,11316,128,0,11416:0:0:0:0:
109,192,11416,128,0,11516:0:0:0:0:
182,192,11416,128,0,11516:0:0:0:0:
475,192,11416,128,0,12016:0:0:0:0:
329,192,11616,128,0,11716:0:0:0:0:
402,192,11616,128,0,11716:0:0:0:0:
36,192,11616,128,0,12016:0:0:0:0:
182,192,11716,128,0,11816:0:0:0:0:
256,192,11716,128,0,11816:0:0:0:0:
329,192,11816,128,0,12016:0:0:0:0:
109,192,11916,128,0,12016:0:0:0:0:
182,192,11916,128,0,12016:0:0:0:0:
402,192,12016,128,0,12316:0:0:0:0:
109,192,12116,128,0,12216:0:0:0:0:
182,192,12116,128,0,12216:0:0:0:0:
256,192,12216,128,0,12316:0:0:0:0:
329,192,12216,128,0,12316:0:0:0:0:
475,192,12216,128,0,12316:0:0:0:0:
36,192,12216,128,0,12316:0:0:0:0:
109,192,12416,128,0,12516:0:0:0:0:
182,192,12416,128,0,12516:0:0:0:0:
329,192,12616,128,0,12716:0:0:0:0:
402,192,12616,128,0,12716:0:0:0:0:
109,192,12716,128,0,12816:0:0:0:0:
182,192,12816,128,0,12916:0:0:0:0:
256,192,12916,128,0,13016:0:0:0:0:
402,192,13016,128,0,13116:0:0:0:0:
475,192,13016,128,0,13116:0:0:0:0:
36,192,13016,128,0,13316:0:0:0:0:
109,192,13016,128,0,13116:0:0:0:0:
182,192,13116,128,0,13316:0:0:0:0:
329,192,13166,128,0,13266:0:0:0:0:
402,192,13216,128,0,13316:0:0:0:0:
475,192,13216,128,0,13316:0:0:0:0:
256,192,13316,128,0,13416:0:0:0:0:
109,192,13316,128,0,13416:0:0:0:0:
329,192,13416,128,0,13516:0:0:0:0:
475,192,13416,128,0,13616:0:0:0:0:
182,192,13516,128,0,13616:0:0:0:0:
36,192,13516,128,0,13616:0:0:0:0:
256,192,13616,128,0,13816:0:0:0:0:
402,192,13616,128,0,13716:0:0:0:0:
109,192,13716,128,0,13816:0:0:0:0:
329,192,13716,128,0,13816:0:0:0:0:
182,192,13816,1,0,0:0:0:0:
402,192,13816,1,0,0:0:0:0:
475,192,13816,1,0,0:0:0:0:
36,192,13816,1,0,0:0:0:0:
256,192,14016,128,0,14416:0:0:0:0:
109,192,14016,128,0,14116:0:0:0:0:
475,192,14216,128,0,14616:0:0:0:0:
36,192,14216,128,0,14316:0:0:0:0:
182,192,14216,128,0,14316:0:0:0:0:
109,192,14416,128,0,14716:0:0:0:0:
329,192,14416,128,0,14516:0:0:0:0:
402,192,14516,128,0,14816:0:0:0:0:
36,192,14616,128,0,14716:0:0:0:0:
256,192,14616,128,0,14716:0:0:0:0:
182,192,14716,128,0,15216:0:0:0:0:
256,192,14816,128,0,14916:0:0:0:0:
402,192,14916,128,0,15516:0:0:0:0:
256,192,15016,128,0,15516:0:0:0:0:
36,192,15016,128,0,15116:0:0:0:0:
475,192,15016,128,0,15116:0:0:0:0:
36,192,15216,128,0,15616:0:0:0:0:
109,192,15216,128,0,15316:0:0:0:0:
329,192,15416,128,0,15516:0:0:0:0:
475,192,15416,128,0,15516:0:0:0:0:
109,192,15616,128,0,16316:0:0:0:0:
182,192,15616,128,0,15716:0:0:0:0:
329,192,15816,128,0,16116:0:0:0:0:
256,192,15816,128,0,15916:0:0:0:0:
475,192,15816,128,0,15916:0:0:0:0:
182,192,16016,128,0,16316:0:0:0:0:
402,192,16016,128,0,16116:0:0:0:0:
256,192,16116,128,0,16616:0:0:0:0:
475,192,16216,128,0,16316:0:0:0:0:
36,192,16316,128,0,17116:0:0:0:0:
329,192,16416,128,0,16516:0:0:0:0:
475,192,16516,128,0,17916:0:0:0:0:
402,192,16616,128,0,17416:0:0:0:0:
109,192,16616,128,0,16716:0:0:0:0:
329,192,16816,128,0,16916:0:0:0:0:
182,192,16816,128,0,16916:0:0:0:0:
256,192,17016,128,0,17216:0:0:0:0:
329,192,17016,128,0,17216:0:0:0:0:
36,192,17216,128,0,17316:0:0:0:0:
109,192,17216,128,0,17316:0:0:0:0:
256,192,17316,128,0,17416:0:0:0:0:
329,192,17316,128,0,17416:0:0:0:0:
36,192,17516,128,0,17616:0:0:0:0:
109,192,17516,128,0,17616:0:0:0:0:
256,192,17616,128,0,18216:0:0:0:0:
329,192,17616,128,0,17716:0:0:0:0:
109,192,17716,128,0,17816:0:0:0:0:
36,192,17716,128,0,18616:0:0:0:0:
329,192,17816,128,0,17916:0:0:0:0:
402,192,17816,128,0,17916:0:0:0:0:
182,192,18016,128,0,18116:0:0:0:0:
109,192,18016,128,0,18116:0:0:0:0:
329,192,18116,128,0,18616:0:0:0:0:
402,192,18116,128,0,18216:0:0:0:0:
182,192,18316,128,0,18416:0:0:0:0:
109,192,18316,128,0,18416:0:0:0:0:
402,192,18416,128,0,18516:0:0:0:0:
475,192,18416,128,0,18516:0:0:0:0:
109,192,18516,128,0,18916:0:0:0:0:
182,192,18516,128,0,18616:0:0:0:0:
475,192,18616,128,0,19516:0:0:0:0:
402,192,18616,128,0,18716:0:0:0:0:
182,192,18816,128,0,18916:0:0:0:0:
256,192,18816,128,0,18916:0:0:0:0:
329,192,18916,128,0,19016:0:0:0:0:
402,192,18916,128,0,19816:0:0:0:0:
182,192,19116,128,0,19216:0:0:0:0:
109,192,19116,128,0,19216:0:0:0:0:
256,192,19216,128,0,19316:0:0:0:0:
329,192,19216,128,0,19316:0:0:0:0:
36,192,19316,128,0,19416:0:0:0:0:
109,192,19316,128,0,19416:0:0:0:0:
182,192,19416,128,0,19816:0:0:0:0:
256,192,19416,128,0,19516:0:0:0:0:
36,192,19616,128,0,20216:0:0:0:0:
109,192,19616,128,0,19716:0:0:0:0:
329,192,19716,128,0,19816:0:0:0:0:
256,192,19716,128,0,20216:0:0:0:0:
109,192,19916,128,0,20016:0:0:0:0:
182,192,19916,128,0,20016:0:0:0:0:
329,192,20016,128,0,20116:0:0:0:0:
402,192,20016,128,0,20116:0:0:0:0:
109,192,20116,128,0,20216:0:0:0:0:
182,192,20116,128,0,20216:0:0:0:0:
475,192,20216,128,0,20616:0:0:0:0:
329,192,20216,128,0,20316:0:0:0:0:
402,192,20216,128,0,20316:0:0:0:0:
36,192,20416,128,0,21016:0:0:0:0:
182,192,20416,128,0,20516:0:0:0:0:
329,192,20616,128,0,21116:0:0:0:0:
402,192,20616,128,0,20716:0:0:0:0:
256,192,20616,128,0,20716:0:0:0:0:
109,192,20816,128,0,20916:0:0:0:0:
182,192,20916,128,0,21416:0:0:0:0:
475,192,21016,128,0,21416:0:0:0:0:
256,192,21016,128,0,21116:0:0:0:0:
402,192,21016,128,0,21116:0:0:0:0:
109,192,21116,128,0,21416:0:0:0:0:
329,192,21216,128,0,21316:0:0:0:0:
402,192,21316,128,0,21916:0:0:0:0:
256,192,21416,128,0,21916:0:0:0:0:
36,192,21416,128,0,21516:0:0:0:0:
36,192,21616,128,0,22216:0:0:0:0:
182,192,21616,128,0,21716:0:0:0:0:
329,192,21816,128,0,21916:0:0:0:0:
109,192,21816,128,0,21916:0:0:0:0:
182,192,22016,128,0,22416:0:0:0:0:
475,192,22016,128,0,22116:0:0:0:0:
329,192,22216,128,0,22716:0:0:0:0:
256,192,22216,128,0,22316:0:0:0:0:
402,192,22216,128,0,22316:0:0:0:0:
109,192,22416,128,0,22816:0:0:0:0:
475,192,22416,128,0,22516:0:0:0:0:
402,192,22516,128,0,22716:0:0:0:0:
256,192,22616,128,0,22716:0:0:0:0:
182,192,22616,128,0,22716:0:0:0:0:
36,192,22716,128,0,23816:0:0:0:0:
329,192,22816,128,0,22916:0:0:0:0:
475,192,22916,128,0,23516:0:0:0:0:
256,192,23016,128,0,24016:0:0:0:0:
402,192,23016,128,0,23116:0:0:0:0:
109,192,23216,128,0,23316:0:0:0:0:
329,192,23216,128,0,23416:0:0:0:0:
182,192,23416,128,0,23516:0:0:0:0:
402,192,23416,128,0,23516:0:0:0:0:
329,192,23616,128,0,23716:0:0:0:0:
109,192,23616,128,0,23716:0:0:0:0:
182,192,23716,128,0,23816:0:0:0:0:
402,192,23716,128,0,23816:0:0:0:0:
109,192,23916,128,0,24016:0:0:0:0:
329,192,23916,128,0,24016:0:0:0:0:
182,192,24016,128,0,24516:0:0:0:0:
402,192,24016,128,0,24616:0:0:0:0:
36,192,24116,128,0,24216:0:0:0:0:
109,192,24116,128,0,24216:0:0:0:0:
256,192,24216,128,0,24316:0:0:0:0:
475,192,24216,128,0,24316:0:0:0:0:
109,192,24416,128,0,24516:0:0:0:0:
36,192,24416,128,0,24516:0:0:0:0:
475,192,24516,128,0,24616:0:0:0:0:
256,192,24516,128,0,24816:0:0:0:0:
109,192,24716,128,0,25316:0:0:0:0:
329,192,24716,128,0,25316:0:0:0:0:
475,192,24816,128,0,24916:0:0:0:0:
402,192,24816,128,0,24916:0:0:0:0:
402,192,25016,128,0,25116:0:0:0:0:
475,192,25016,128,0,25816:0:0:0:0:
36,192,25216,128,0,25316:0:0:0:0:
182,192,25216,128,0,25316:0:0:0:0:
256,192,25316,128,0,25416:0:0:0:0:
402,192,25316,128,0,25416:0:0:0:0:
36,192,25516,128,0,25616:0:0:0:0:
182,192,25516,128,0,25616:0:0:0:0:
256,192,25616,128,0,25716:0:0:0:0:
402,192,25616,128,0,25816:0:0:0:0:
36,192,25716,128,0,26516:0:0:0:0:
109,192,25716,128,0,25816:0:0:0:0:
329,192,25816,128,0,26116:0:0:0:0:
182,192,25816,128,0,26116:0:0:0:0:
256,192,25816,128,0,25916:0:0:0:0:
256,192,26016,128,0,26116:0:0:0:0:
182,192,26216,128,0,26516:0:0:0:0:
475,192,26216,128,0,26516:0:0:0:0:
402,192,26216,128,0,26316:0:0:0:0:
109,192,26216,128,0,26316:0:0:0:0:
329,192,26216,128,0,26516:0:0:0:0:
109,192,26416,128,0,26516:0:0:0:0:
402,192,26416,128,0,26516:0:0:0:0:
256,192,26516,128,0,26616:0:0:0:0:
36,192,26616,128,0,26716:0:0:0:0:
109,192,26616,128,0,26716:0:0:0:0:
182,192,26616,128,0,26716:0:0:0:0:
329,192,26616,128,0,26716:0:0:0:0:
402,192,26616,128,0,26716:0:0:0:0:
475,192,26616,128,0,26716:0:0:0:0:
36,192,26816,128,0,27516:0:0:0:0:
256,192,26816,128,0,26916:0:0:0:0:
182,192,26916,128,0,27016:0:0:0:0:
256,192,27016,128,0,27216:0:0:0:0:
329,192,27016,128,0,27116:0:0:0:0:
402,192,27016,128,0,27116:0:0:0:0:
475,192,27016,128,0,27116:0:0:0:0:
109,192,27016,128,0,27116:0:0:0:0:
329,192,27216,128,0,27816:0:0:0:0:
182,192,27216,1,0,0:0:0:0:
402,192,27316,128,0,27816:0:0:0:0:
109,192,27316,1,0,0:0:0:0:
182,192,27416,128,0,27516:0:0:0:0:
475,192,27416,128,0,27516:0:0:0:0:
109,192,27516,128,0,28016:0:0:0:0:
475,192,27616,1,0,0:0:0:0:
182,192,27716,128,0,28016:0:0:0:0:
256,192,27716,1,0,0:0:0:0:
475,192,27816,128,0,28716:0:0:0:0:
36,192,27816,128,0,27916:0:0:0:0:
256,192,28016,128,0,28316:0:0:0:0:
402,192,28016,1,0,0:0:0:0:
36,192,28116,1,0,0:0:0:0:
402,192,28216,128,0,28316:0:0:0:0:
36,192,28416,128,0,29116:0:0:0:0:
329,192,28416,1,0,0:0:0:0:
182,192,28516,1,0,0:0:0:0:
402,192,28616,128,0,29116:0:0:0:0:
256,192,28616,128,0,28716:0:0:0:0:
329,192,28616,128,0,28716:0:0:0:0:
182,192,28816,128,0,29416:0:0:0:0:
329,192,28816,1,0,0:0:0:0:
475,192,28916,128,0,29716:0:0:0:0:
109,192,28916,1,0,0:0:0:0:
256,192,29016,128,0,29116:0:0:0:0:
329,192,29016,128,0,29116:0:0:0:0:
109,192,29116,128,0,29416:0:0:0:0:
36,192,29216,1,0,0:0:0:0:
329,192,29316,128,0,29516:0:0:0:0:
256,192,29316,1,0,0:0:0:0:
36,192,29416,128,0,29816:0:0:0:0:
402,192,29416,128,0,29516:0:0:0:0:
256,192,29616,128,0,29716:0:0:0:0:
109,192,29616,128,0,29716:0:0:0:0:
402,192,29616,128,0,29716:0:0:0:0:
402,192,29816,128,0,30416:0:0:0:0:
182,192,29816,128,0,29916:0:0:0:0:
109,192,29916,128,0,30016:0:0:0:0:
329,192,30016,128,0,30216:0:0:0:0:
182,192,30016,128,0,30116:0:0:0:0:
36,192,30016,128,0,30516:0:0:0:0:
475,192,30216,128,0,30616:0:0:0:0:
256,192,30216,128,0,30416:0:0:0:0:
182,192,30316,128,0,30516:0:0:0:0:
109,192,30416,128,0,30616:0:0:0:0:
329,192,30416,128,0,31016:0:0:0:0:
36,192,30616,128,0,31016:0:0:0:0:
256,192,30616,128,0,30716:0:0:0:0:
182,192,30616,128,0,30716:0:0:0:0:
402,192,30616,1,0,0:0:0:0:
109,192,30816,128,0,30916:0:0:0:0:
402,192,30816,128,0,31016:0:0:0:0:
256,192,30916,128,0,31016:0:0:0:0:
182,192,30916,128,0,31216:0:0:0:0:
475,192,31016,128,0,31416:0:0:0:0:
109,192,31116,128,0,31216:0:0:0:0:
36,192,31216,128,0,31316:0:0:0:0:
329,192,31216,128,0,31416:0:0:0:0:
109,192,31316,128,0,31416:0:0:0:0:
36,192,31416,128,0,31816:0:0:0:0:
256,192,31416,128,0,31616:0:0:0:0:
182,192,31616,128,0,32016:0:0:0:0:
329,192,31616,128,0,31716:0:0:0:0:
402,192,31716,128,0,31816:0:0:0:0:
475,192,31716,128,0,32116:0:0:0:0:
109,192,31816,128,0,32216:0:0:0:0:
256,192,31916,128,0,32116:0:0:0:0:
36,192,32016,128,0,32416:0:0:0:0:
329,192,32016,128,0,32216:0:0:0:0:
402,192,32116,128,0,32316:0:0:0:0:
182,192,32216,128,0,32616:0:0:0:0:
475,192,32216,128,0,32316:0:0:0:0:
109,192,32416,128,0,32816:0:0:0:0:
329,192,32416,128,0,32616:0:0:0:0:
402,192,32416,128,0,32516:0:0:0:0:
256,192,32516,128,0,32616:0:0:0:0:
36,192,32616,128,0,33016:0:0:0:0:
329,192,32716,128,0,32816:0:0:0:0:
402,192,32816,128,0,32916:0:0:0:0:
182,192,32816,128,0,33016:0:0:0:0:
475,192,32816,128,0,32916:0:0:0:0:
475,192,33016,128,0,33916:0:0:0:0:
256,192,33016,128,0,33116:0:0:0:0:
329,192,33116,128,0,33216:0:0:0:0:
256,192,33216,128,0,33616:0:0:0:0:
182,192,33216,128,0,33316:0:0:0:0:
109,192,33216,128,0,33316:0:0:0:0:
36,192,33216,128,0,33316:0:0:0:0:
402,192,33216,128,0,33316:0:0:0:0:
182,192,33416,128,0,33816:0:0:0:0:
329,192,33416,1,0,0:0:0:0:
109,192,33516,128,0,33816:0:0:0:0:
402,192,33516,1,0,0:0:0:0:
329,192,33616,128,0,33716:0:0:0:0:
36,192,33616,128,0,33716:0:0:0:0:
402,192,33716,128,0,34216:0:0:0:0:
36,192,33816,1,0,0:0:0:0:
329,192,33916,128,0,34216:0:0:0:0:
256,192,33916,1,0,0:0:0:0:
36,192,34016,128,0,34916:0:0:0:0:
182,192,34016,128,0,34116:0:0:0:0:
256,192,34216,128,0,34616:0:0:0:0:
109,192,34216,1,0,0:0:0:0:
475,192,34316,1,0,0:0:0:0:
109,192,34416,128,0,34516:0:0:0:0:
402,192,34416,128,0,34516:0:0:0:0:
475,192,34616,128,0,35316:0:0:0:0:
182,192,34616,1,0,0:0:0:0:
329,192,34716,1,0,0:0:0:0:
109,192,34816,128,0,35316:0:0:0:0:
256,192,34816,128,0,34916:0:0:0:0:
182,192,34816,128,0,34916:0:0:0:0:
329,192,35016,128,0,35616:0:0:0:0:
182,192,35016,1,0,0:0:0:0:
36,192,35116,128,0,36216:0:0:0:0:
402,192,35116,1,0,0:0:0:0:
256,192,35216,128,0,35316:0:0:0:0:
182,192,35216,128,0,35316:0:0:0:0:
402,192,35316,128,0,35616:0:0:0:0:
475,192,35416,1,0,0:0:0:0:
182,192,35516,128,0,35816:0:0:0:0:
256,192,35516,1,0,0:0:0:0:
475,192,35616,128,0,36216:0:0:0:0:
109,192,35616,128,0,35816:0:0:0:0:
256,192,35816,128,0,36016:0:0:0:0:
402,192,35816,128,0,35916:0:0:0:0:
109,192,36016,128,0,36116:0:0:0:0:
402,192,36016,128,0,36116:0:0:0:0:
402,192,36216,128,0,36816:0:0:0:0:
256,192,36216,128,0,36416:0:0:0:0:
109,192,36216,128,0,36316:0:0:0:0:
329,192,36416,128,0,36616:0:0:0:0:
109,192,36416,128,0,36516:0:0:0:0:
36,192,36416,128,0,37016:0:0:0:0:
182,192,36516,128,0,36616:0:0:0:0:
475,192,36616,128,0,37016:0:0:0:0:
109,192,36716,128,0,36816:0:0:0:0:
329,192,36816,128,0,37416:0:0:0:0:
256,192,36816,128,0,36916:0:0:0:0:
182,192,36916,128,0,37016:0:0:0:0:
402,192,37016,128,0,37216:0:0:0:0:
256,192,37016,128,0,37116:0:0:0:0:
109,192,37016,128,0,37816:0:0:0:0:
475,192,37216,1,0,0:0:0:0:
36,192,37216,128,0,37316:0:0:0:0:
182,192,37316,128,0,37416:0:0:0:0:
256,192,37316,128,0,37416:0:0:0:0:
402,192,37416,128,0,37616:0:0:0:0:
475,192,37416,128,0,37816:0:0:0:0:
36,192,37516,128,0,37616:0:0:0:0:
329,192,37616,128,0,37816:0:0:0:0:
256,192,37616,128,0,37716:0:0:0:0:
182,192,37716,128,0,37816:0:0:0:0:
256,192,37816,128,0,37916:0:0:0:0:
402,192,37816,128,0,37916:0:0:0:0:
36,192,37816,128,0,38216:0:0:0:0:
182,192,38016,128,0,38416:0:0:0:0:
329,192,38016,128,0,38116:0:0:0:0:
475,192,38116,128,0,38216:0:0:0:0:
402,192,38116,128,0,38516:0:0:0:0:
109,192,38216,128,0,39016:0:0:0:0:
329,192,38316,128,0,38416:0:0:0:0:
36,192,38416,128,0,38816:0:0:0:0:
475,192,38416,128,0,38516:0:0:0:0:
256,192,38416,128,0,38516:0:0:0:0:
329,192,38616,128,0,38716:0:0:0:0:
256,192,38616,128,0,39416:0:0:0:0:
402,192,38616,128,0,38716:0:0:0:0:
475,192,38616,1,0,0:0:0:0:
182,192,38816,128,0,39216:0:0:0:0:
329,192,38816,128,0,38916:0:0:0:0:
402,192,38816,128,0,38916:0:0:0:0:
36,192,39016,128,0,39416:0:0:0:0:
475,192,39016,128,0,39416:0:0:0:0:
402,192,39016,128,0,39116:0:0:0:0:
329,192,39016,128,0,39116:0:0:0:0:
109,192,39216,128,0,39416:0:0:0:0:
329,192,39216,128,0,39316:0:0:0:0:
402,192,39216,128,0,39316:0:0:0:0:
182,192,39416,128,0,40216:0:0:0:0:
109,192,39716,1,0,0:0:0:0:
475,192,39816,128,0,41016:0:0:0:0:
329,192,39816,128,0,41016:0:0:0:0:
109,192,40016,1,0,0:0:0:0:
36,192,40316,1,0,0:0:0:0:
109,192,40316,1,0,0:0:0:0:
109,192,40416,1,0,0:0:0:0:
36,192,40416,1,0,0:0:0:0:
36,192,40616,1,0,0:0:0:0:
109,192,40616,1,0,0:0:0:0:
109,192,40816,1,0,0:0:0:0:
36,192,40816,1,0,0:0:0:0:
256,192,40816,1,0,0:0:0:0:
256,192,40916,1,0,0:0:0:0:
256,192,41016,128,0,41816:0:0:0:0:
182,192,41316,128,0,42216:0:0:0:0:
109,192,41616,128,0,42616:0:0:0:0:
402,192,41816,128,0,43016:0:0:0:0:
329,192,42116,128,0,43416:0:0:0:0:
256,192,42416,128,0,43616:0:0:0:0:
36,192,42616,128,0,44216:0:0:0:0:
182,192,42616,1,0,0:0:0:0:
109,192,42916,128,0,44216:0:0:0:0:
475,192,42916,1,0,0:0:0:0:
182,192,43216,1,0,0:0:0:0:
475,192,43216,128,0,44216:0:0:0:0:
329,192,43516,1,0,0:0:0:0:
402,192,43516,1,0,0:0:0:0:
402,192,43616,1,0,0:0:0:0:
329,192,43616,1,0,0:0:0:0:
182,192,43616,128,0,43816:0:0:0:0:
329,192,43816,1,0,0:0:0:0:
402,192,43816,1,0,0:0:0:0:
256,192,43816,128,0,44016:0:0:0:0:
329,192,44016,1,0,0:0:0:0:
402,192,44016,1,0,0:0:0:0:
182,192,44016,128,0,44216:0:0:0:0:
329,192,44216,128,0,44616:0:0:0:0:
402,192,44216,1,0,0:0:0:0:
256,192,44416,128,0,44816:0:0:0:0:
475,192,44416,1,0,0:0:0:0:
182,192,44616,128,0,45016:0:0:0:0:
402,192,44616,1,0,0:0:0:0:
109,192,44816,128,0,45416:0:0:0:0:
475,192,44816,1,0,0:0:0:0:
329,192,45016,128,0,45616:0:0:0:0:
402,192,45016,1,0,0:0:0:0:
256,192,45216,128,0,45816:0:0:0:0:
475,192,45216,1,0,0:0:0:0:
402,192,45416,128,0,46016:0:0:0:0:
182,192,45416,1,0,0:0:0:0:
36,192,45616,128,0,46216:0:0:0:0:
109,192,45616,1,0,0:0:0:0:
475,192,45816,128,0,46616:0:0:0:0:
182,192,45816,1,0,0:0:0:0:
329,192,45816,1,0,0:0:0:0:
182,192,46116,1,0,0:0:0:0:
329,192,46116,1,0,0:0:0:0:
182,192,46416,1,0,0:0:0:0:
329,192,46416,1,0,0:0:0:0:
182,192,46616,128,0,47016:0:0:0:0:
402,192,46716,1,0,0:0:0:0:
475,192,46716,1,0,0:0:0:0:
109,192,46816,128,0,47216:0:0:0:0:
402,192,46816,1,0,0:0:0:0:
475,192,46816,1,0,0:0:0:0:
256,192,47016,128,0,47416:0:0:0:0:
402,192,47016,1,0,0:0:0:0:
475,192,47016,1,0,0:0:0:0:
329,192,47216,128,0,47616:0:0:0:0:
402,192,47216,1,0,0:0:0:0:
475,192,47216,1,0,0:0:0:0:
402,192,47416,128,0,48216:0:0:0:0:
36,192,47416,1,0,0:0:0:0:
182,192,47416,1,0,0:0:0:0:
36,192,47716,1,0,0:0:0:0:
182,192,47716,1,0,0:0:0:0:
109,192,47816,128,0,48616:0:0:0:0:
36,192,48016,1,0,0:0:0:0:
182,192,48016,1,0,0:0:0:0:
256,192,48216,128,0,49016:0:0:0:0:
329,192,48316,1,0,0:0:0:0:
475,192,48316,1,0,0:0:0:0:
329,192,48416,1,0,0:0:0:0:
475,192,48416,1,0,0:0:0:0:
402,192,48616,128,0,49416:0:0:0:0:
182,192,48616,1,0,0:0:0:0:
36,192,48616,1,0,0:0:0:0:
36,192,48816,1,0,0:0:0:0:
182,192,48816,1,0,0:0:0:0:
475,192,49016,128,0,49816:0:0:0:0:
36,192,49016,1,0,0:0:0:0:
182,192,49016,1,0,0:0:0:0:
182,192,49316,128,0,50216:0:0:0:0:
256,192,49316,1,0,0:0:0:0:
329,192,49316,1,0,0:0:0:0:
36,192,49616,128,0,50616:0:0:0:0:
329,192,49616,1,0,0:0:0:0:
402,192,49616,1,0,0:0:0:0:
329,192,49916,1,0,0:0:0:0:
402,192,49916,1,0,0:0:0:0:
402,192,50016,1,0,0:0:0:0:
329,192,50016,1,0,0:0:0:0:
329,192,50216,1,0,0:0:0:0:
402,192,50216,1,0,0:0:0:0:
182,192,50416,128,0,50716:0:0:0:0:
329,192,50416,1,0,0:0:0:0:
402,192,50416,1,0,0:0:0:0:
256,192,50516,128,0,50816:0:0:0:0:
329,192,50616,128,0,51416:0:0:0:0:
475,192,51216,128,0,51316:0:0:0:0:
36,192,51216,128,0,51316:0:0:0:0:
475,192,51416,128,0,52216:0:0:0:0:
36,192,51416,128,0,52216:0:0:0:0:
402,192,52216,128,0,52616:0:0:0:0:
329,192,52216,128,0,52616:0:0:0:0:
182,192,52216,128,0,52416:0:0:0:0:
36,192,52416,128,0,52816:0:0:0:0:
109,192,52416,128,0,52816:0:0:0:0:
475,192,52416,128,0,52616:0:0:0:0:
182,192,52616,128,0,52816:0:0:0:0:
256,192,52716,128,0,52916:0:0:0:0:
329,192,52816,128,0,53016:0:0:0:0:
402,192,52916,128,0,53116:0:0:0:0:
36,192,53016,128,0,53416:0:0:0:0:
475,192,53016,128,0,53416:0:0:0:0:
182,192,53016,128,0,53216:0:0:0:0:
109,192,53216,128,0,53616:0:0:0:0:
402,192,53216,128,0,53616:0:0:0:0:
329,192,53216,128,0,53416:0:0:0:0:
182,192,53416,128,0,53616:0:0:0:0:
256,192,53516,128,0,53716:0:0:0:0:
329,192,53616,128,0,53816:0:0:0:0:
402,192,53716,128,0,53916:0:0:0:0:
36,192,53816,128,0,54216:0:0:0:0:
475,192,53816,128,0,54216:0:0:0:0:
109,192,53816,128,0,53916:0:0:0:0:
182,192,53916,128,0,54016:0:0:0:0:
256,192,54016,128,0,54116:0:0:0:0:
182,192,54116,128,0,54516:0:0:0:0:
329,192,54116,128,0,54516:0:0:0:0:
109,192,54316,128,0,54416:0:0:0:0:
402,192,54316,128,0,54416:0:0:0:0:
36,192,54416,128,0,55016:0:0:0:0:
475,192,54416,128,0,55016:0:0:0:0:
256,192,54416,1,0,0:0:0:0:
329,192,54616,128,0,54716:0:0:0:0:
182,192,54716,128,0,54816:0:0:0:0:
109,192,54816,128,0,55216:0:0:0:0:
402,192,54816,128,0,55216:0:0:0:0:
256,192,54816,128,0,54916:0:0:0:0:
182,192,55016,128,0,55316:0:0:0:0:
329,192,55016,128,0,55316:0:0:0:0:
256,192,55116,128,0,55416:0:0:0:0:
36,192,55216,128,0,55816:0:0:0:0:
475,192,55216,128,0,55816:0:0:0:0:
109,192,55416,128,0,56216:0:0:0:0:
402,192,55416,128,0,55516:0:0:0:0:
329,192,55416,128,0,55616:0:0:0:0:
182,192,55516,128,0,55616:0:0:0:0:
256,192,55616,128,0,55716:0:0:0:0:
402,192,55716,128,0,55816:0:0:0:0:
329,192,55816,128,0,56616:0:0:0:0:
182,192,55816,128,0,56016:0:0:0:0:
256,192,55816,128,0,55916:0:0:0:0:
475,192,55916,128,0,56016:0:0:0:0:
402,192,56016,128,0,56116:0:0:0:0:
256,192,56116,128,0,56216:0:0:0:0:
182,192,56216,128,0,57016:0:0:0:0:
36,192,56216,128,0,56316:0:0:0:0:
475,192,56216,128,0,56416:0:0:0:0:
109,192,56316,128,0,56416:0:0:0:0:
256,192,56416,128,0,56516:0:0:0:0:
36,192,56516,128,0,56616:0:0:0:0:
402,192,56616,128,0,57016:0:0:0:0:
109,192,56616,128,0,56816:0:0:0:0:
475,192,56616,128,0,56716:0:0:0:0:
256,192,56716,128,0,56816:0:0:0:0:
329,192,56816,128,0,56916:0:0:0:0:
36,192,56916,128,0,57016:0:0:0:0:
109,192,57016,128,0,57416:0:0:0:0:
256,192,57016,128,0,57416:0:0:0:0:
475,192,57016,128,0,57216:0:0:0:0:
329,192,57016,128,0,57216:0:0:0:0:
182,192,57216,128,0,57316:0:0:0:0:
36,192,57316,128,0,57416:0:0:0:0:
329,192,57416,128,0,57816:0:0:0:0:
475,192,57416,128,0,57816:0:0:0:0:
182,192,57416,128,0,57616:0:0:0:0:
402,192,57416,128,0,57616:0:0:0:0:
109,192,57616,128,0,57716:0:0:0:0:
36,192,57716,128,0,57816:0:0:0:0:
256,192,57816,128,0,58216:0:0:0:0:
402,192,57816,128,0,58216:0:0:0:0:
182,192,57816,128,0,58016:0:0:0:0:
109,192,57816,128,0,58016:0:0:0:0:
36,192,58016,128,0,58316:0:0:0:0:
475,192,58016,128,0,58316:0:0:0:0:
182,192,58216,128,0,58616:0:0:0:0:
329,192,58216,128,0,58616:0:0:0:0:
109,192,58216,128,0,58316:0:0:0:0:
256,192,58316,128,0,58416:0:0:0:0:
36,192,58416,128,0,58616:0:0:0:0:
475,192,58416,128,0,58616:0:0:0:0:
402,192,58416,128,0,58516:0:0:0:0:
109,192,58516,128,0,58616:0:0:0:0:
256,192,58616,128,0,58916:0:0:0:0:
402,192,58716,128,0,58816:0:0:0:0:
329,192,58716,128,0,58816:0:0:0:0:
109,192,58816,128,0,58916:0:0:0:0:
182,192,58816,128,0,58916:0:0:0:0:
402,192,58916,128,0,59016:0:0:0:0:
329,192,58916,128,0,59016:0:0:0:0:
36,192,59016,128,0,59116:0:0:0:0:
475,192,59016,128,0,59116:0:0:0:0:
109,192,59016,128,0,59116:0:0:0:0:
256,192,59016,128,0,59116:0:0:0:0:
109,192,59216,128,0,59616:0:0:0:0:
329,192,59216,128,0,59416:0:0:0:0:
182,192,59316,128,0,59716:0:0:0:0:
402,192,59316,128,0,59516:0:0:0:0:
256,192,59416,128,0,59816:0:0:0:0:
475,192,59416,128,0,59616:0:0:0:0:
36,192,59616,128,0,60016:0:0:0:0:
329,192,59616,128,0,59816:0:0:0:0:
402,192,59716,128,0,59816:0:0:0:0:
475,192,59816,128,0,60216:0:0:0:0:
109,192,59816,128,0,60016:0:0:0:0:
182,192,59916,128,0,60016:0:0:0:0:
256,192,60016,128,0,60216:0:0:0:0:
329,192,60016,128,0,60216:0:0:0:0:
402,192,60116,128,0,60216:0:0:0:0:
109,192,60216,128,0,60616:0:0:0:0:
36,192,60216,128,0,60316:0:0:0:0:
182,192,60216,128,0,60316:0:0:0:0:
402,192,60416,128,0,60816:0:0:0:0:
329,192,60416,128,0,60516:0:0:0:0:
475,192,60416,128,0,60516:0:0:0:0:
182,192,60616,128,0,61016:0:0:0:0:
36,192,60616,128,0,60716:0:0:0:0:
256,192,60616,128,0,60716:0:0:0:0:
329,192,60816,128,0,61216:0:0:0:0:
36,192,60816,128,0,60916:0:0:0:0:
475,192,60816,128,0,60916:0:0:0:0:
109,192,61016,128,0,61416:0:0:0:0:
256,192,61016,128,0,61116:0:0:0:0:
36,192,61016,128,0,61116:0:0:0:0:
475,192,61016,128,0,61116:0:0:0:0:
402,192,61216,128,0,61616:0:0:0:0:
182,192,61216,128,0,61316:0:0:0:0:
475,192,61216,128,0,61316:0:0:0:0:
36,192,61416,128,0,61716:0:0:0:0:
329,192,61416,128,0,61516:0:0:0:0:
256,192,61416,128,0,61516:0:0:0:0:
475,192,61616,128,0,61716:0:0:0:0:
109,192,61616,128,0,61716:0:0:0:0:
182,192,61616,128,0,61716:0:0:0:0:
329,192,61616,128,0,61716:0:0:0:0:
36,192,61816,128,0,62616:0:0:0:0:
402,192,61816,128,0,62216:0:0:0:0:
329,192,61916,128,0,62016:0:0:0:0:
182,192,61916,128,0,62016:0:0:0:0:
256,192,62016,128,0,62116:0:0:0:0:
475,192,62116,128,0,62516:0:0:0:0:
109,192,62216,128,0,63016:0:0:0:0:
329,192,62216,128,0,62316:0:0:0:0:
182,192,62216,128,0,62316:0:0:0:0:
256,192,62316,128,0,62416:0:0:0:0:
402,192,62416,128,0,62616:0:0:0:0:
329,192,62516,128,0,62616:0:0:0:0:
182,192,62616,128,0,63416:0:0:0:0:
475,192,62616,128,0,63016:0:0:0:0:
256,192,62716,128,0,62816:0:0:0:0:
329,192,62816,128,0,62916:0:0:0:0:
402,192,62916,128,0,63216:0:0:0:0:
256,192,63016,128,0,63316:0:0:0:0:
329,192,63116,128,0,63216:0:0:0:0:
475,192,63216,128,0,63316:0:0:0:0:
402,192,63316,128,0,63416:0:0:0:0:
256,192,63416,128,0,64216:0:0:0:0:
36,192,63416,128,0,63816:0:0:0:0:
109,192,63516,128,0,63616:0:0:0:0:
475,192,63516,128,0,63616:0:0:0:0:
402,192,63616,128,0,63716:0:0:0:0:
182,192,63716,128,0,64016:0:0:0:0:
329,192,63816,128,0,64616:0:0:0:0:
475,192,63816,128,0,63916:0:0:0:0:
109,192,63816,128,0,63916:0:0:0:0:
402,192,63916,128,0,64016:0:0:0:0:
36,192,64016,128,0,64416:0:0:0:0:
402,192,64216,128,0,64916:0:0:0:0:
182,192,64216,128,0,65016:0:0:0:0:
109,192,64216,1,0,0:0:0:0:
475,192,64316,1,0,0:0:0:0:
256,192,64366,1,0,0:0:0:0:
109,192,64416,1,0,0:0:0:0:
256,192,64516,128,0,64616:0:0:0:0:
475,192,64616,128,0,64916:0:0:0:0:
109,192,64616,128,0,64716:0:0:0:0:
36,192,64616,128,0,64716:0:0:0:0:
109,192,64816,128,0,64916:0:0:0:0:
36,192,64816,128,0,64916:0:0:0:0:
329,192,64916,128,0,65016:0:0:0:0:
256,192,64916,128,0,65016:0:0:0:0:
109,192,65016,128,0,65416:0:0:0:0:
36,192,65016,128,0,65416:0:0:0:0:
402,192,65016,128,0,65116:0:0:0:0:
475,192,65016,128,0,65116:0:0:0:0:
256,192,65216,128,0,65416:0:0:0:0:
475,192,65216,128,0,65616:0:0:0:0:
402,192,65216,128,0,65616:0:0:0:0:
182,192,65216,128,0,65416:0:0:0:0:
329,192,65416,128,0,65616:0:0:0:0:
256,192,65516,128,0,65716:0:0:0:0:
182,192,65616,128,0,65816:0:0:0:0:
109,192,65716,128,0,65916:0:0:0:0:
475,192,65816,128,0,66216:0:0:0:0:
36,192,65816,128,0,66216:0:0:0:0:
329,192,65816,128,0,66016:0:0:0:0:
256,192,65816,128,0,65916:0:0:0:0:
402,192,65816,128,0,65916:0:0:0:0:
402,192,66016,128,0,66416:0:0:0:0:
109,192,66016,128,0,66416:0:0:0:0:
182,192,66016,128,0,66216:0:0:0:0:
329,192,66216,128,0,66416:0:0:0:0:
256,192,66316,128,0,66516:0:0:0:0:
182,192,66416,128,0,66616:0:0:0:0:
109,192,66516,128,0,66616:0:0:0:0:
475,192,66616,128,0,67016:0:0:0:0:
36,192,66616,128,0,67016:0:0:0:0:
402,192,66616,128,0,66716:0:0:0:0:
256,192,66616,128,0,66716:0:0:0:0:
329,192,66716,128,0,66816:0:0:0:0:
256,192,66816,128,0,66916:0:0:0:0:
329,192,66916,128,0,67316:0:0:0:0:
182,192,66916,128,0,67316:0:0:0:0:
402,192,67116,128,0,67216:0:0:0:0:
109,192,67116,128,0,67216:0:0:0:0:
475,192,67216,128,0,67816:0:0:0:0:
36,192,67216,128,0,67816:0:0:0:0:
256,192,67216,1,0,0:0:0:0:
182,192,67416,128,0,67516:0:0:0:0:
109,192,67416,128,0,67516:0:0:0:0:
402,192,67416,128,0,67516:0:0:0:0:
329,192,67516,128,0,67616:0:0:0:0:
402,192,67616,128,0,68016:0:0:0:0:
109,192,67616,128,0,68016:0:0:0:0:
256,192,67616,128,0,67716:0:0:0:0:
329,192,67816,128,0,68116:0:0:0:0:
182,192,67816,128,0,68116:0:0:0:0:
256,192,67916,128,0,68216:0:0:0:0:
475,192,68016,128,0,68216:0:0:0:0:
36,192,68016,128,0,68216:0:0:0:0:
402,192,68216,128,0,69016:0:0:0:0:
109,192,68216,128,0,68316:0:0:0:0:
182,192,68216,128,0,68416:0:0:0:0:
329,192,68316,128,0,68416:0:0:0:0:
256,192,68416,128,0,68516:0:0:0:0:
109,192,68516,128,0,68616:0:0:0:0:
182,192,68616,128,0,69416:0:0:0:0:
329,192,68616,128,0,68816:0:0:0:0:
256,192,68616,128,0,68716:0:0:0:0:
36,192,68716,128,0,68816:0:0:0:0:
109,192,68816,128,0,68916:0:0:0:0:
256,192,68916,128,0,69016:0:0:0:0:
329,192,69016,128,0,69816:0:0:0:0:
475,192,69016,128,0,69116:0:0:0:0:
36,192,69016,128,0,69216:0:0:0:0:
109,192,69016,128,0,69116:0:0:0:0:
402,192,69116,128,0,69216:0:0:0:0:
256,192,69216,128,0,69316:0:0:0:0:
475,192,69316,128,0,69416:0:0:0:0:
109,192,69416,128,0,69816:0:0:0:0:
402,192,69416,128,0,69616:0:0:0:0:
36,192,69416,128,0,69516:0:0:0:0:
256,192,69516,128,0,69616:0:0:0:0:
182,192,69616,128,0,69716:0:0:0:0:
475,192,69716,128,0,69816:0:0:0:0:
402,192,69816,128,0,70216:0:0:0:0:
256,192,69816,128,0,70216:0:0:0:0:
36,192,69816,128,0,70016:0:0:0:0:
182,192,69816,128,0,70016:0:0:0:0:
329,192,70016,128,0,70116:0:0:0:0:
475,192,70116,128,0,70216:0:0:0:0:
182,192,70216,128,0,70416:0:0:0:0:
36,192,70216,128,0,70616:0:0:0:0:
329,192,70216,128,0,70416:0:0:0:0:
109,192,70216,128,0,70416:0:0:0:0:
402,192,70416,128,0,70516:0:0:0:0:
475,192,70516,128,0,70616:0:0:0:0:
256,192,70616,128,0,71016:0:0:0:0:
402,192,70616,128,0,71016:0:0:0:0:
182,192,70616,128,0,70816:0:0:0:0:
109,192,70616,128,0,70816:0:0:0:0:
36,192,70816,128,0,71116:0:0:0:0:
475,192,70816,128,0,71116:0:0:0:0:
182,192,71016,128,0,71416:0:0:0:0:
329,192,71016,128,0,71416:0:0:0:0:
109,192,71016,128,0,71116:0:0:0:0:
256,192,71116,128,0,71216:0:0:0:0:
36,192,71216,128,0,71416:0:0:0:0:
475,192,71216,128,0,71416:0:0:0:0:
402,192,71216,128,0,71316:0:0:0:0:
109,192,71316,128,0,71416:0:0:0:0:
256,192,71416,128,0,71916:0:0:0:0:
402,192,71416,128,0,72216:0:0:0:0:
182,192,71516,128,0,71616:0:0:0:0:
109,192,71616,128,0,71716:0:0:0:0:
36,192,71716,128,0,71816:0:0:0:0:
182,192,71816,128,0,71916:0:0:0:0:
329,192,71816,128,0,71916:0:0:0:0:
475,192,71816,128,0,71916:0:0:0:0:
36,192,72016,128,0,72916:0:0:0:0:
182,192,72016,128,0,72416:0:0:0:0:
329,192,72116,128,0,72616:0:0:0:0:
475,192,72216,128,0,72616:0:0:0:0:
109,192,72216,128,0,72416:0:0:0:0:
256,192,72416,128,0,72616:0:0:0:0:
402,192,72416,128,0,72916:0:0:0:0:
109,192,72616,128,0,72816:0:0:0:0:
182,192,72616,128,0,72916:0:0:0:0:
329,192,72816,128,0,72916:0:0:0:0:
475,192,72816,128,0,72916:0:0:0:0:
329,192,73016,128,0,73416:0:0:0:0:
402,192,73016,128,0,73616:0:0:0:0:
475,192,73016,128,0,73116:0:0:0:0:
109,192,73016,128,0,73116:0:0:0:0:
36,192,73016,128,0,73116:0:0:0:0:
182,192,73016,128,0,73116:0:0:0:0:
109,192,73216,128,0,74016:0:0:0:0:
36,192,73216,128,0,73816:0:0:0:0:
182,192,73216,128,0,73316:0:0:0:0:
475,192,73416,128,0,74016:0:0:0:0:
256,192,73416,128,0,73816:0:0:0:0:
182,192,73616,128,0,74216:0:0:0:0:
329,192,73616,128,0,74416:0:0:0:0:
402,192,73816,128,0,73916:0:0:0:0:
256,192,74016,128,0,74516:0:0:0:0:
402,192,74016,128,0,74516:0:0:0:0:
109,192,74216,128,0,74616:0:0:0:0:
36,192,74216,128,0,74416:0:0:0:0:
475,192,74216,128,0,74316:0:0:0:0:
182,192,74416,128,0,74616:0:0:0:0:
475,192,74416,128,0,74516:0:0:0:0:
36,192,74616,128,0,75416:0:0:0:0:
329,192,74616,128,0,74716:0:0:0:0:
402,192,74616,128,0,74716:0:0:0:0:
475,192,74616,128,0,74716:0:0:0:0:
182,192,74716,128,0,74816:0:0:0:0:
109,192,74716,128,0,75016:0:0:0:0:
329,192,74816,128,0,74916:0:0:0:0:
475,192,74816,128,0,74916:0:0:0:0:
256,192,74916,128,0,75116:0:0:0:0:
182,192,74916,128,0,75016:0:0:0:0:
402,192,75016,128,0,75116:0:0:0:0:
475,192,75016,128,0,75116:0:0:0:0:
182,192,75116,128,0,75216:0:0:0:0:
109,192,75116,128,0,75216:0:0:0:0:
256,192,75216,128,0,75316:0:0:0:0:
329,192,75216,128,0,75316:0:0:0:0:
402,192,75316,128,0,75416:0:0:0:0:
475,192,75316,128,0,75516:0:0:0:0:
182,192,75416,128,0,76216:0:0:0:0:
109,192,75416,128,0,75516:0:0:0:0:
256,192,75416,128,0,75516:0:0:0:0:
329,192,75516,128,0,75616:0:0:0:0:
402,192,75516,128,0,75616:0:0:0:0:
256,192,75616,128,0,75716:0:0:0:0:
36,192,75616,128,0,75816:0:0:0:0:
402,192,75716,128,0,75816:0:0:0:0:
475,192,75716,128,0,75916:0:0:0:0:
109,192,75816,128,0,75916:0:0:0:0:
256,192,75816,128,0,75916:0:0:0:0:
329,192,75916,128,0,76016:0:0:0:0:
402,192,75916,128,0,76116:0:0:0:0:
109,192,76016,128,0,76116:0:0:0:0:
36,192,76016,128,0,76116:0:0:0:0:
256,192,76116,128,0,76216:0:0:0:0:
475,192,76116,128,0,76316:0:0:0:0:
329,192,76216,128,0,77016:0:0:0:0:
109,192,76216,128,0,76316:0:0:0:0:
36,192,76216,128,0,76416:0:0:0:0:
256,192,76316,128,0,76416:0:0:0:0:
402,192,76316,128,0,76416:0:0:0:0:
109,192,76416,128,0,76516:0:0:0:0:
182,192,76416,128,0,76616:0:0:0:0:
402,192,76516,128,0,76616:0:0:0:0:
475,192,76516,128,0,76616:0:0:0:0:
36,192,76616,128,0,76816:0:0:0:0:
109,192,76616,128,0,76716:0:0:0:0:
182,192,76716,128,0,76816:0:0:0:0:
256,192,76716,128,0,76816:0:0:0:0:
402,192,76816,128,0,76916:0:0:0:0:
475,192,76816,128,0,76916:0:0:0:0:
182,192,76916,128,0,77016:0:0:0:0:
109,192,76916,128,0,77016:0:0:0:0:
475,192,77016,128,0,77816:0:0:0:0:
402,192,77016,128,0,77216:0:0:0:0:
256,192,77016,128,0,77116:0:0:0:0:
36,192,77116,128,0,77216:0:0:0:0:
109,192,77116,128,0,77216:0:0:0:0:
182,192,77166,128,0,77266:0:0:0:0:
256,192,77216,128,0,77316:0:0:0:0:
329,192,77216,128,0,77316:0:0:0:0:
109,192,77316,128,0,77416:0:0:0:0:
36,192,77316,128,0,77416:0:0:0:0:
256,192,77416,128,0,77516:0:0:0:0:
329,192,77416,128,0,77516:0:0:0:0:
402,192,77416,128,0,77616:0:0:0:0:
36,192,77516,128,0,77716:0:0:0:0:
109,192,77516,128,0,77716:0:0:0:0:
182,192,77616,128,0,77716:0:0:0:0:
256,192,77616,128,0,77716:0:0:0:0:
329,192,77716,128,0,77816:0:0:0:0:
402,192,77716,128,0,77816:0:0:0:0:
36,192,77816,128,0,78216:0:0:0:0:
109,192,77816,128,0,77991:0:0:0:0:
182,192,77816,128,0,77966:0:0:0:0:
256,192,77916,128,0,78041:0:0:0:0:
329,192,77916,128,0,78066:0:0:0:0:
475,192,78016,128,0,78141:0:0:0:0:
402,192,78016,128,0,78166:0:0:0:0:
182,192,78116,128,0,78266:0:0:0:0:
109,192,78116,128,0,78466:0:0:0:0:
256,192,78216,128,0,78341:0:0:0:0:
329,192,78216,128,0,78366:0:0:0:0:
475,192,78316,128,0,78466:0:0:0:0:
402,192,78316,128,0,78441:0:0:0:0:
36,192,78416,128,0,78591:0:0:0:0:
182,192,78416,128,0,78566:0:0:0:0:
256,192,78516,128,0,78916:0:0:0:0:
402,192,78516,128,0,78666:0:0:0:0:
329,192,78616,128,0,78741:0:0:0:0:
475,192,78616,128,0,78766:0:0:0:0:
36,192,78716,128,0,78891:0:0:0:0:
109,192,78716,128,0,78866:0:0:0:0:
182,192,78816,128,0,78941:0:0:0:0:
329,192,78816,128,0,78991:0:0:0:0:
402,192,78916,128,0,79066:0:0:0:0:
475,192,78916,128,0,79091:0:0:0:0:
109,192,79016,128,0,79191:0:0:0:0:
36,192,79016,128,0,79366:0:0:0:0:
182,192,79116,128,0,79266:0:0:0:0:
329,192,79116,128,0,79241:0:0:0:0:
402,192,79216,128,0,79341:0:0:0:0:
475,192,79216,128,0,79316:0:0:0:0:
256,192,79316,128,0,79466:0:0:0:0:
109,192,79316,128,0,79416:0:0:0:0:
475,192,79416,128,0,79716:0:0:0:0:
402,192,79416,128,0,79482:0:0:0:0:
329,192,79416,128,0,79482:0:0:0:0:
36,192,79516,128,0,79582:0:0:0:0:
182,192,79516,128,0,79582:0:0:0:0:
109,192,79516,128,0,79582:0:0:0:0:
256,192,79616,128,0,79841:0:0:0:0:
329,192,79616,128,0,79682:0:0:0:0:
402,192,79616,128,0,79682:0:0:0:0:
36,192,79716,128,0,80041:0:0:0:0:
109,192,79716,128,0,79782:0:0:0:0:
182,192,79716,128,0,79782:0:0:0:0:
329,192,79816,128,0,79882:0:0:0:0:
475,192,79816,128,0,79882:0:0:0:0:
402,192,79816,128,0,79882:0:0:0:0:
256,192,79916,128,0,80141:0:0:0:0:
182,192,79916,128,0,79982:0:0:0:0:
109,192,79916,128,0,79982:0:0:0:0:
475,192,80016,128,0,80341:0:0:0:0:
329,192,80016,128,0,80082:0:0:0:0:
402,192,80016,128,0,80082:0:0:0:0:
36,192,80116,128,0,80182:0:0:0:0:
109,192,80116,128,0,80182:0:0:0:0:
182,192,80116,128,0,80182:0:0:0:0:
402,192,80216,128,0,80282:0:0:0:0:
256,192,80216,128,0,80549:0:0:0:0:
329,192,80216,128,0,80282:0:0:0:0:
182,192,80316,128,0,80382:0:0:0:0:
109,192,80316,128,0,80382:0:0:0:0:
36,192,80416,128,0,80482:0:0:0:0:
475,192,80416,128,0,80482:0:0:0:0:
329,192,80516,128,0,80816:0:0:0:0:
402,192,80516,128,0,80582:0:0:0:0:
182,192,80516,128,0,80582:0:0:0:0:
36,192,80616,128,0,80682:0:0:0:0:
109,192,80616,128,0,80682:0:0:0:0:
475,192,80716,128,0,80782:0:0:0:0:
402,192,80716,128,0,80782:0:0:0:0:
256,192,80716,128,0,80782:0:0:0:0:
182,192,80816,128,0,81016:0:0:0:0:
109,192,80816,128,0,80882:0:0:0:0:
36,192,80916,128,0,80982:0:0:0:0:
329,192,80916,128,0,80982:0:0:0:0:
402,192,80916,128,0,80982:0:0:0:0:
256,192,81016,128,0,81366:0:0:0:0:
109,192,81016,128,0,81116:0:0:0:0:
475,192,81016,128,0,81141:0:0:0:0:
402,192,81116,128,0,81241:0:0:0:0:
182,192,81116,128,0,81241:0:0:0:0:
36,192,81216,128,0,81341:0:0:0:0:
329,192,81216,128,0,81316:0:0:0:0:
182,192,81316,128,0,81466:0:0:0:0:
475,192,81316,128,0,81441:0:0:0:0:
402,192,81416,128,0,81541:0:0:0:0:
109,192,81416,128,0,81516:0:0:0:0:
36,192,81516,128,0,81641:0:0:0:0:
329,192,81516,128,0,81616:0:0:0:0:
182,192,81616,128,0,81766:0:0:0:0:
402,192,81616,128,0,81741:0:0:0:0:
475,192,81616,128,0,81666:0:0:0:0:
329,192,81716,128,0,81866:0:0:0:0:
109,192,81716,128,0,81841:0:0:0:0:
475,192,81716,128,0,81766:0:0:0:0:
256,192,81816,128,0,81941:0:0:0:0:
36,192,81816,128,0,81966:0:0:0:0:
475,192,81816,128,0,82066:0:0:0:0:
109,192,81916,128,0,82066:0:0:0:0:
402,192,81916,128,0,82041:0:0:0:0:
329,192,82016,128,0,82266:0:0:0:0:
182,192,82016,128,0,82141:0:0:0:0:
256,192,82116,128,0,82241:0:0:0:0:
36,192,82116,128,0,82366:0:0:0:0:
182,192,82216,128,0,82316:0:0:0:0:
475,192,82216,128,0,82416:0:0:0:0:
402,192,82316,128,0,82466:0:0:0:0:
109,192,82316,128,0,82441:0:0:0:0:
182,192,82416,128,0,82566:0:0:0:0:
329,192,82416,128,0,82541:0:0:0:0:
36,192,82516,128,0,82641:0:0:0:0:
256,192,82516,128,0,82616:0:0:0:0:
109,192,82616,128,0,82716:0:0:0:0:
402,192,82616,128,0,82741:0:0:0:0:
475,192,82616,128,0,82941:0:0:0:0:
182,192,82716,128,0,82791:0:0:0:0:
256,192,82716,128,0,82816:0:0:0:0:
329,192,82716,128,0,82791:0:0:0:0:
36,192,82816,128,0,83066:0:0:0:0:
109,192,82816,128,0,82916:0:0:0:0:
256,192,82916,128,0,83041:0:0:0:0:
329,192,82916,128,0,83166:0:0:0:0:
402,192,82916,128,0,83041:0:0:0:0:
182,192,83016,128,0,83116:0:0:0:0:
109,192,83016,128,0,83091:0:0:0:0:
402,192,83116,128,0,83241:0:0:0:0:
475,192,83116,128,0,83216:0:0:0:0:
182,192,83216,128,0,83341:0:0:0:0:
36,192,83216,128,0,83316:0:0:0:0:
109,192,83216,128,0,83541:0:0:0:0:
256,192,83316,128,0,83416:0:0:0:0:
329,192,83316,128,0,83441:0:0:0:0:
475,192,83416,128,0,83841:0:0:0:0:
402,192,83416,128,0,83516:0:0:0:0:
36,192,83416,128,0,83541:0:0:0:0:
182,192,83516,128,0,83616:0:0:0:0:
256,192,83516,128,0,83866:0:0:0:0:
329,192,83616,128,0,83716:0:0:0:0:
402,192,83616,128,0,83691:0:0:0:0:
36,192,83716,128,0,83841:0:0:0:0:
109,192,83716,128,0,83816:0:0:0:0:
182,192,83716,128,0,83816:0:0:0:0:
402,192,83816,128,0,83941:0:0:0:0:
329,192,83816,128,0,83916:0:0:0:0:
182,192,83916,128,0,84041:0:0:0:0:
109,192,83916,128,0,84016:0:0:0:0:
256,192,84016,128,0,84091:0:0:0:0:
329,192,84016,128,0,84116:0:0:0:0:
475,192,84016,128,0,84116:0:0:0:0:
36,192,84116,128,0,84191:0:0:0:0:
109,192,84116,128,0,84216:0:0:0:0:
182,192,84216,128,0,84416:0:0:0:0:
256,192,84216,128,0,84316:0:0:0:0:
402,192,84216,128,0,84316:0:0:0:0:
475,192,84216,128,0,84316:0:0:0:0:
36,192,84316,128,0,84616:0:0:0:0:
475,192,84416,128,0,84716:0:0:0:0:
329,192,84416,128,0,84516:0:0:0:0:
109,192,84516,128,0,84816:0:0:0:0:
256,192,84616,128,0,84916:0:0:0:0:
402,192,84616,128,0,84916:0:0:0:0:
329,192,84616,128,0,84716:0:0:0:0:
182,192,84716,128,0,85016:0:0:0:0:
36,192,84816,128,0,85016:0:0:0:0:
475,192,84916,128,0,85016:0:0:0:0:
109,192,85016,128,0,85416:0:0:0:0:
329,192,85016,128,0,85216:0:0:0:0:
256,192,85016,128,0,85116:0:0:0:0:
402,192,85116,128,0,85416:0:0:0:0:
256,192,85216,128,0,85416:0:0:0:0:
36,192,85316,128,0,85616:0:0:0:0:
475,192,85316,128,0,85616:0:0:0:0:
182,192,85416,128,0,85816:0:0:0:0:
329,192,85516,128,0,85716:0:0:0:0:
256,192,85616,128,0,85816:0:0:0:0:
109,192,85716,128,0,85816:0:0:0:0:
402,192,85816,128,0,86016:0:0:0:0:
475,192,85816,128,0,86216:0:0:0:0:
329,192,85816,128,0,85916:0:0:0:0:
36,192,85916,128,0,86216:0:0:0:0:
182,192,86016,128,0,86316:0:0:0:0:
329,192,86116,128,0,86416:0:0:0:0:
109,192,86216,128,0,86516:0:0:0:0:
256,192,86316,128,0,86516:0:0:0:0:
402,192,86316,128,0,86616:0:0:0:0:
36,192,86416,128,0,86616:0:0:0:0:
182,192,86516,128,0,86616:0:0:0:0:
475,192,86516,128,0,86616:0:0:0:0:
329,192,86616,128,0,86816:0:0:0:0:
109,192,86616,128,0,87216:0:0:0:0:
256,192,86716,128,0,87016:0:0:0:0:
402,192,86816,128,0,87116:0:0:0:0:
182,192,86916,128,0,87416:0:0:0:0:
36,192,87016,128,0,87416:0:0:0:0:
475,192,87016,128,0,87116:0:0:0:0:
329,192,87116,128,0,87316:0:0:0:0:
475,192,87216,128,0,87416:0:0:0:0:
256,192,87316,128,0,87416:0:0:0:0:
402,192,87316,128,0,87416:0:0:0:0:
109,192,87416,128,0,87816:0:0:0:0:
329,192,87416,128,0,87616:0:0:0:0:
256,192,87516,128,0,87616:0:0:0:0:
182,192,87616,128,0,87816:0:0:0:0:
36,192,87616,128,0,88016:0:0:0:0:
256,192,87716,128,0,87816:0:0:0:0:
329,192,87816,128,0,88016:0:0:0:0:
402,192,87816,128,0,88216:0:0:0:0:
256,192,87916,128,0,88016:0:0:0:0:
182,192,88016,128,0,88216:0:0:0:0:
475,192,88016,128,0,88116:0:0:0:0:
109,192,88016,128,0,88416:0:0:0:0:
256,192,88116,128,0,88216:0:0:0:0:
36,192,88216,128,0,89716:0:0:0:0:
475,192,88216,128,0,89716:0:0:0:0:
329,192,88216,128,0,88616:0:0:0:0:
182,192,88316,128,0,88416:0:0:0:0:
256,192,88416,128,0,88816:0:0:0:0:
402,192,88416,128,0,88516:0:0:0:0:
109,192,88516,128,0,88616:0:0:0:0:
182,192,88616,128,0,89016:0:0:0:0:
109,192,88716,128,0,88816:0:0:0:0:
402,192,88816,128,0,89216:0:0:0:0:
329,192,88816,128,0,88916:0:0:0:0:
256,192,88916,128,0,89016:0:0:0:0:
109,192,89016,128,0,89416:0:0:0:0:
182,192,89116,128,0,89216:0:0:0:0:
256,192,89216,128,0,89616:0:0:0:0:
329,192,89216,128,0,89316:0:0:0:0:
182,192,89316,128,0,89416:0:0:0:0:
402,192,89416,128,0,89716:0:0:0:0:
329,192,89616,128,0,89716:0:0:0:0:
109,192,89716,128,0,89816:0:0:0:0:
256,192,89716,128,0,89816:0:0:0:0:
475,192,89816,128,0,90216:0:0:0:0:
182,192,89816,128,0,89916:0:0:0:0:
329,192,89816,128,0,89916:0:0:0:0:
182,192,90016,128,0,90116:0:0:0:0:
329,192,90016,128,0,90116:0:0:0:0:
36,192,90116,128,0,90616:0:0:0:0:
109,192,90216,128,0,90316:0:0:0:0:
402,192,90216,128,0,90316:0:0:0:0:
109,192,90416,128,0,90516:0:0:0:0:
402,192,90416,128,0,90516:0:0:0:0:
256,192,90416,128,0,90616:0:0:0:0:
475,192,90616,128,0,92116:0:0:0:0:
109,192,90616,128,0,91216:0:0:0:0:
329,192,90616,128,0,91216:0:0:0:0:
36,192,91216,128,0,91316:0:0:0:0:
256,192,91216,128,0,91316:0:0:0:0:
36,192,91416,128,0,92116:0:0:0:0:
256,192,91416,128,0,92116:0:0:0:0:
109,192,91416,128,0,91816:0:0:0:0:
402,192,91416,128,0,91816:0:0:0:0:
182,192,91416,1,0,0:0:0:0:
329,192,91516,1,0,0:0:0:0:
182,192,91566,1,0,0:0:0:0:
329,192,91616,1,0,0:0:0:0:
182,192,91716,1,0,0:0:0:0:
329,192,91816,1,0,0:0:0:0:
182,192,91916,1,0,0:0:0:0:
402,192,92016,1,0,0:0:0:0:
109,192,92016,1,0,0:0:0:0:
182,192,92116,1,0,0:0:0:0:
329,192,92116,1,0,0:0:0:0:
36,192,92216,128,0,92316:0:0:0:0:
256,192,92216,128,0,92316:0:0:0:0:
475,192,92216,128,0,92316:0:0:0:0:
109,192,92216,128,0,92316:0:0:0:0:
402,192,92216,128,0,92316:0:0:0:0:
