osu file format v14

[General]
AudioFilename: audio.ogg
AudioLeadIn: 0
PreviewTime: 52116
Countdown: 0
SampleSet: Soft
StackLeniency: 0.4
Mode: 0
LetterboxInBreaks: 0
WidescreenStoryboard: 1

[Editor]
Bookmarks: 13816,26616,39416,52216,77816,92216
DistanceSpacing: 1
BeatDivisor: 4
GridSize: 4
TimelineZoom: 2.6

[Metadata]
Title:Romancing Layer
TitleUnicode:Romancing Layer
Artist:TAG
ArtistUnicode:TAG
Creator:Firiiu
Version:Normal
Source:jubeat saucer
Tags:electronic instrumental ddr Original Soundtrack -Gourzaemon- dancedancerevolution 2013 jubeat plus jukebeat ミライダガッキ FutureTomTom Ver.2 bemani konami arcade championship kac yokespai
BeatmapID:4044887
BeatmapSetID:1953240

[Difficulty]
HPDrainRate:3
CircleSize:2.5
OverallDifficulty:4
ApproachRate:5
SliderMultiplier:1.3
SliderTickRate:1

[Events]
//Background and Video events
0,0,"universe_4-wallpaper-1366x768.jpg",0,0
//Break Periods
2,39616,44616
//Storyboard Layer 0 (Background)
//Storyboard Layer 1 (Fail)
//Storyboard Layer 2 (Pass)
//Storyboard Layer 3 (Foreground)
//Storyboard Layer 4 (Overlay)
//Storyboard Sound Samples

[TimingPoints]
1016,400,4,2,1,60,1,0
93816,-100,4,2,1,5,0,0

[Colours]
Combo1 : 0,0,128
Combo2 : 0,0,255
Combo3 : 0,196,196

[HitObjects]
393,86,1016,6,0,L|469:68,2,65,6|2|10,3:0|0:0|0:0,0:0:0:0:
336,119,1616,1,0,0:0:0:0:
276,92,1816,2,0,P|249:76|174:78,1,97.5,2|2,3:0|0:0,0:0:0:0:
126,102,2316,1,2,0:0:0:0:
65,178,2616,6,0,P|62:227|74:249,1,65,2|2,3:0|0:0,0:0:0:0:
93,300,3016,2,0,P|128:284|224:276,1,130,10|2,0:0|3:0,0:0:0:0:
270,313,3616,1,0,0:0:0:0:
336,312,3816,1,8,0:0:0:0:
316,184,4216,6,0,P|315:141|386:90,1,130,2|10,3:0|0:0,0:0:0:0:
441,90,4816,1,0,0:0:0:0:
481,140,5016,2,0,L|492:246,1,97.5,2|2,3:0|0:0,0:0:0:0:
473,299,5516,1,0,0:0:0:0:
378,322,5816,6,0,P|348:298|302:293,1,65,2|2,3:0|0:0,0:0:0:0:
260,311,6216,2,8,P|210:322|140:274,1,130,10|2,0:0|3:0,0:0:0:0:
111,235,6816,1,0,0:0:0:0:
111,235,7016,1,8,0:0:0:0:
233,191,7416,6,0,L|244:119,2,65,2|2|10,3:0|0:0|0:0,0:0:0:0:
221,258,8016,1,0,0:0:0:0:
221,258,8216,2,0,L|329:245,1,97.5,2|2,3:0|0:0,0:0:0:0:
365,290,8716,1,2,0:0:0:0:
440,228,9016,6,0,L|453:156,1,65,2|2,3:0|0:0,0:0:0:0:
463,100,9416,2,0,P|428:74|334:85,1,130,10|2,0:0|3:0,0:0:0:0:
287,102,10016,1,0,0:0:0:0:
287,102,10216,2,0,L|219:95,1,65,8|0,0:0|0:0,0:0:0:0:
158,108,10616,6,0,P|143:169|183:244,1,130,2|10,3:0|0:0,0:0:0:0:
223,263,11216,1,0,0:0:0:0:
223,263,11416,2,0,P|264:262|325:282,1,97.5,2|2,3:0|0:0,0:0:0:0:
366,321,11916,1,2,0:0:0:0:
439,256,12216,5,6,3:0:0:0:
323,23,13016,1,2,3:0:0:0:
245,127,13416,1,0,3:0:0:0:
364,178,13816,6,0,L|378:255,1,65,6|2,3:0|0:0,0:0:0:0:
385,306,14216,2,0,P|338:327|262:281,1,130,2|0,3:0|3:0,0:0:0:0:
230,171,15016,1,2,3:0:0:0:
100,177,15416,6,0,L|85:246,1,65,0|2,3:0|0:0,0:0:0:0:
33,278,15816,2,0,P|39:322|125:351,1,130,2|0,3:0|3:0,0:0:0:0:
172,335,16416,1,0,0:0:0:0:
172,335,16616,1,2,3:0:0:0:
291,284,17016,6,0,P|325:280|394:304,2,97.5,2|2|2,3:0|0:0|0:0,0:0:0:0:
230,259,17816,2,0,L|124:247,1,97.5,2|2,3:0|0:0,0:0:0:0:
74,327,18416,1,2,0:0:0:0:
74,327,18616,6,0,P|35:336|-8:289,2,97.5,2|2|2,3:0|0:0|0:0,0:0:0:0:
125,287,19416,2,0,P|137:218|126:169,1,97.5,2|2,3:0|0:0,0:0:0:0:
181,106,20016,1,2,0:0:0:0:
181,106,20216,6,0,L|247:99,1,65,0|2,3:0|0:0,0:0:0:0:
310,92,20616,2,0,P|331:132|315:215,1,130,2|0,3:0|3:0,0:0:0:0:
255,327,21416,1,2,3:0:0:0:
163,234,21816,6,0,L|172:164,1,65,0|2,3:0|0:0,0:0:0:0:
147,108,22216,2,0,P|100:104|38:153,1,130,2|0,3:0|3:0,0:0:0:0:
21,216,22816,1,0,0:0:0:0:
21,216,23016,1,2,3:0:0:0:
104,315,23416,6,0,P|150:332|222:312,1,97.5,2|2,3:0|0:0,0:0:0:0:
275,265,24016,1,2,0:0:0:0:
275,265,24216,2,0,L|282:162,1,97.5,2|2,3:0|0:0,0:0:0:0:
256,73,24816,1,2,0:0:0:0:
256,73,25016,6,0,P|204:64|148:84,1,97.5,2|2,3:0|0:0,0:0:0:0:
116,164,25616,1,2,0:0:0:0:
116,164,25816,2,0,L|128:295,1,130,2|2,3:0|3:0,0:0:0:0:
184,340,26416,1,0,3:0:0:0:
184,340,26616,6,0,L|250:328,1,65,0|2,3:0|0:0,0:0:0:0:
312,340,27016,2,0,P|325:296|296:216,1,130,10|0,0:0|3:0,0:0:0:0:
260,172,27616,1,0,0:0:0:0:
260,172,27816,2,0,L|251:97,1,65,10|2,0:0|0:0,0:0:0:0:
137,47,28416,5,2,0:0:0:0:
137,47,28616,2,0,P|100:97|108:171,1,130,10|0,0:0|3:0,0:0:0:0:
131,221,29216,1,0,0:0:0:0:
131,221,29416,2,0,P|176:210|201:211,1,65,10|2,0:0|0:0,0:0:0:0:
246,249,29816,6,0,P|295:262|363:215,1,130,2|8,3:0|0:0,0:0:0:0:
374,159,30416,1,2,0:0:0:0:
337,104,30616,2,0,B|300:92|291:64|291:64|279:92|235:107,1,130,2|8,3:0|0:0,0:0:0:0:
132,177,31416,6,0,P|141:240|195:274,1,130,2|8,3:0|0:0,0:0:0:0:
258,273,32016,1,2,0:0:0:0:
293,218,32216,2,0,L|283:102,1,97.5,2|2,3:0|0:0,0:0:0:0:
342,41,32816,1,2,0:0:0:0:
342,41,33016,6,0,P|384:43|413:59,1,65,0|2,3:0|0:0,0:0:0:0:
446,102,33416,2,0,L|459:237,1,130,10|0,0:0|3:0,0:0:0:0:
442,294,34016,1,0,0:0:0:0:
442,294,34216,2,0,P|404:281|360:278,1,65,10|2,0:0|0:0,0:0:0:0:
267,344,34816,5,2,0:0:0:0:
267,344,35016,2,0,L|244:216,1,130,10|0,0:0|3:0,0:0:0:0:
226,153,35616,1,0,0:0:0:0:
226,153,35816,2,0,P|218:132|232:80,1,65,10|2,0:0|0:0,0:0:0:0:
271,44,36216,6,0,P|338:57|375:125,1,130,2|8,3:0|0:0,0:0:0:0:
380,169,36816,1,2,0:0:0:0:
380,169,37016,2,0,L|240:186,1,130,2|8,3:0|0:0,0:0:0:0:
173,289,37816,6,0,P|137:253|132:172,1,130,2|8,3:0|0:0,0:0:0:0:
182,58,38616,2,0,L|117:43,1,65,2|0,3:0|3:0,0:0:0:0:
80,96,39016,2,0,L|11:110,1,65,10|0,0:0|3:0,0:0:0:0:
4,172,39416,5,2,3:0:0:0:
256,192,45816,5,2,3:0:0:0:
256,192,47416,1,2,3:0:0:0:
256,192,49016,1,0,3:0:0:0:
256,192,50616,1,2,0:0:0:0:
256,192,52216,6,0,P|293:170|339:166,1,65,6|2,3:0|0:0,0:0:0:0:
378,173,52616,2,0,P|406:205|382:286,1,130,10|2,0:0|3:0,0:0:0:0:
332,320,53216,1,2,0:0:0:0:
332,320,53416,2,0,P|292:304|256:298,1,65,10|2,0:0|0:0,0:0:0:0:
209,321,53816,6,0,P|163:326|105:276,1,97.5,2|2,3:0|0:0,0:0:0:0:
65,220,54416,1,2,0:0:0:0:
65,220,54616,2,0,P|60:182|66:157,1,65,0|2,3:0|0:0,0:0:0:0:
108,106,55016,2,0,L|176:111,1,65,10|2,0:0|0:0,0:0:0:0:
237,105,55416,6,0,P|280:130|303:206,1,130,2|8,3:0|0:0,0:0:0:0:
293,267,56016,1,2,0:0:0:0:
293,267,56216,2,0,P|236:248|150:248,1,130,2|8,3:0|0:0,0:0:0:0:
94,137,57016,6,0,L|166:128,1,65,2|0,3:0|0:0,0:0:0:0:
197,77,57416,2,0,L|276:87,1,65,10|0,0:0|0:0,0:0:0:0:
321,59,57816,1,2,3:0:0:0:
383,75,58016,2,0,P|402:109|376:196,1,130,2|2,0:0|0:0,0:0:0:0:
330,231,58616,6,0,P|300:272|315:354,1,130,2|8,3:0|0:0,0:0:0:0:
371,367,59216,1,2,0:0:0:0:
430,340,59416,2,0,L|442:196,1,130,2|10,3:0|0:0,0:0:0:0:
370,101,60216,6,0,P|330:101|305:113,1,65,2|2,3:0|0:0,0:0:0:0:
245,131,60616,2,0,P|205:131|180:119,1,65,10|2,0:0|0:0,0:0:0:0:
126,87,61016,2,0,P|91:100|78:195,1,130,0|8,3:0|0:0,0:0:0:0:
119,303,61816,6,0,P|169:288|228:300,1,97.5,2|2,3:0|0:0,0:0:0:0:
304,324,62416,1,2,0:0:0:0:
304,324,62616,2,0,P|365:325|404:300,1,97.5,2|2,3:0|0:0,0:0:0:0:
424,216,63216,1,2,0:0:0:0:
424,216,63416,6,0,P|416:176|368:140,1,97.5,2|2,3:0|0:0,0:0:0:0:
276,160,64016,1,2,0:0:0:0:
276,160,64216,2,0,L|200:168,1,65,2|2,3:0|3:0,0:0:0:0:
152,140,64616,2,0,P|132:100|140:60,1,65,0|0,3:0|3:0,0:0:0:0:
163,37,65016,6,0,L|243:59,1,65,6|2,3:0|0:0,0:0:0:0:
283,84,65416,2,0,P|323:143|307:217,1,130,10|2,0:0|3:0,0:0:0:0:
284,254,66016,1,2,0:0:0:0:
224,279,66216,2,0,P|184:248|170:208,1,65,10|2,0:0|0:0,0:0:0:0:
175,171,66616,6,0,B|152:126|152:126|109:94,2,97.5,2|2|2,3:0|0:0|0:0,0:0:0:0:
304,181,67616,1,2,0:0:0:0:
304,181,67816,2,0,L|311:108,1,65,10|2,0:0|0:0,0:0:0:0:
318,51,68216,6,0,P|280:39|198:91,1,130,2|8,3:0|0:0,0:0:0:0:
181,139,68816,1,2,0:0:0:0:
152,197,69016,2,0,L|135:337,1,130,2|8,3:0|0:0,0:0:0:0:
263,353,69816,6,0,L|338:343,1,65,2|0,3:0|0:0,0:0:0:0:
366,292,70216,2,0,L|457:299,1,65,10|0,0:0|0:0,0:0:0:0:
478,341,70616,1,2,3:0:0:0:
478,341,70816,2,0,P|507:294|496:215,1,130,2|2,0:0|0:0,0:0:0:0:
460,169,71416,6,0,P|413:148|332:160,1,130,2|8,3:0|0:0,0:0:0:0:
273,173,72016,1,2,0:0:0:0:
208,169,72216,2,0,P|165:123|169:95,1,65,2|2,3:0|0:0,0:0:0:0:
162,60,72616,2,0,L|232:47,1,65,10|2,0:0|0:0,0:0:0:0:
287,68,73016,5,2,3:0:0:0:
409,25,73416,1,10,0:0:0:0:
409,25,73616,2,0,P|422:58|416:162,1,130,2|2,0:0|0:0,0:0:0:0:
399,213,74216,2,0,P|367:224|328:219,1,65,10|2,0:0|0:0,0:0:0:0:
272,209,74616,6,0,P|230:199|160:232,1,97.5,2|2,3:0|0:0,0:0:0:0:
92,256,75216,1,2,0:0:0:0:
92,256,75416,2,0,P|72:212|96:140,1,97.5,2|2,3:0|0:0,0:0:0:0:
144,92,76016,1,2,0:0:0:0:
144,92,76216,6,0,P|186:82|248:104,1,97.5,2|2,3:0|0:0,0:0:0:0:
328,136,76816,1,2,0:0:0:0:
328,136,77016,2,0,L|396:128,1,65,2|2,3:0|3:0,0:0:0:0:
456,120,77416,2,0,P|472:152|464:192,1,65,0|0,3:0|3:0,0:0:0:0:
452,244,77816,6,0,L|369:255,1,65,2|2,3:0|0:0,0:0:0:0:
333,286,78216,2,0,L|250:275,1,65,8|2,0:0|0:0,0:0:0:0:
208,304,78616,2,0,P|138:321|75:307,1,130,2|8,3:0|0:0,0:0:0:0:
32,188,79416,6,0,L|101:172,1,65,2|2,3:0|0:0,0:0:0:0:
135,122,79816,2,0,L|213:136,1,65,8|2,0:0|0:0,0:0:0:0:
252,170,80216,2,0,L|394:148,1,130,2|8,3:0|0:0,0:0:0:0:
451,259,81016,6,0,P|419:269|377:261,1,65,2|2,3:0|0:0,0:0:0:0:
330,296,81416,2,0,P|298:285|256:294,1,65,8|2,0:0|0:0,0:0:0:0:
208,316,81816,2,0,P|149:326|101:273,1,130,2|8,3:0|0:0,0:0:0:0:
122,217,82416,1,2,0:0:0:0:
166,169,82616,6,0,P|175:135|168:99,1,65,2|2,3:0|0:0,0:0:0:0:
149,44,83016,2,0,P|115:35|79:42,1,65,8|2,0:0|0:0,0:0:0:0:
27,67,83416,2,0,L|37:214,1,130,2|8,3:0|0:0,0:0:0:0:
128,288,84216,6,0,L|198:273,1,65,2|2,3:0|0:0,0:0:0:0:
252,251,84616,2,0,P|269:206|243:122,1,130,10|0,0:0|3:0,0:0:0:0:
178,20,85416,2,0,L|251:4,1,65,8|0,0:0|0:0,0:0:0:0:
300,34,85816,6,0,L|372:45,1,65,2|2,3:0|0:0,0:0:0:0:
408,91,86216,2,0,P|414:154|365:206,1,130,10|0,0:0|3:0,0:0:0:0:
307,202,86816,1,0,0:0:0:0:
307,202,87016,1,8,0:0:0:0:
195,253,87416,6,0,P|197:312|267:355,1,130,2|8,3:0|0:0,0:0:0:0:
314,349,88016,1,2,0:0:0:0:
314,349,88216,2,0,L|345:69,1,260,2|0,3:0|3:0,0:0:0:0:
112,212,89816,6,0,P|77:184|75:113,2,97.5,2|2|2,3:0|0:0|0:0,0:0:0:0:
176,221,90616,2,0,P|213:214|300:250,1,130,2|0,3:0|0:0,0:0:0:0:
306,311,91216,1,2,0:0:0:0:
246,336,91416,2,0,L|286:64,1,260,2|4,3:0|3:0,0:0:0:0:
256,192,92616,12,0,93816,0:0:0:0:
