osu file format v14

[General]
AudioFilename: audio.mp3
AudioLeadIn: 0
PreviewTime: 31128
Countdown: 1
SampleSet: Soft
StackLeniency: 0.5
Mode: 0
LetterboxInBreaks: 0
WidescreenStoryboard: 0

[Editor]
DistanceSpacing: 1.2
BeatDivisor: 4
GridSize: 4
TimelineZoom: 2.2

[Metadata]
Title:PRANA
TitleUnicode:PRANA
Artist:TAG
ArtistUnicode:TAG
Creator:Rapthorn
Version:O
Source:
Tags:Click in circles to the beat
BeatmapID:1056327
BeatmapSetID:496255

[Difficulty]
HPDrainRate:5
CircleSize:4
OverallDifficulty:8
ApproachRate:9.5
SliderMultiplier:1.60000000596046
SliderTickRate:1

[Events]
//Background and Video events
0,0,"Circle-Wallpaper-01991.jpg",0,0
//Break Periods
//Storyboard Layer 0 (Background)
//Storyboard Layer 1 (Fail)
//Storyboard Layer 2 (Pass)
//Storyboard Layer 3 (Foreground)
//Storyboard Sound Samples

[TimingPoints]
809,319.148936170213,4,2,0,100,1,0
56660,-50,4,2,0,100,0,0
56979,-100,4,2,0,100,0,0
62085,-66.6666666666667,4,2,0,100,0,0
66872,-50,4,2,0,100,0,0
67191,-66.6666666666667,4,2,0,100,0,0
68309,-50,4,2,0,100,0,0
68947,-66.6666666666667,4,2,0,100,0,0
69585,-50,4,2,0,100,0,0
70064,-66.6666666666667,4,2,0,100,0,0
70702,-50,4,2,0,100,0,0
72298,-400,4,2,0,100,0,0
72777,-100,4,2,0,100,0,0
82511,-52.6315789473684,4,1,0,100,0,0
92723,-26.3157895,4,1,0,100,0,0
102936,-62.5000001484375,4,1,0,100,0,0
104053,-62.5000001484375,4,1,0,5,0,0

[Colours]
Combo1 : 219,111,91
Combo2 : 1,201,191
Combo3 : 2,38,104
Combo4 : 64,128,128
Combo5 : 192,192,192
Combo6 : 211,56,29

[HitObjects]
256,192,809,53,0,0:0:0:0:
179,60,1287,69,0,0:0:0:0:
331,59,1766,1,0,0:0:0:0:
256,189,2245,5,0,0:0:0:0:
256,39,2723,1,0,0:0:0:0:
388,115,3043,1,0,0:0:0:0:
256,189,3362,69,0,0:0:0:0:
331,59,3840,1,0,0:0:0:0:
408,190,4319,1,0,0:0:0:0:
256,192,4798,5,0,0:0:0:0:
387,114,5277,1,0,0:0:0:0:
387,267,5596,1,0,0:0:0:0:
256,192,5915,69,0,0:0:0:0:
179,60,6074,1,0,0:0:0:0:
256,192,6234,5,0,0:0:0:0:
256,39,6394,1,0,0:0:0:0:
256,192,6553,69,0,0:0:0:0:
331,59,6713,1,0,0:0:0:0:
256,192,6872,5,0,0:0:0:0:
388,115,7032,1,0,0:0:0:0:
256,192,7191,69,0,0:0:0:0:
407,191,7351,1,0,0:0:0:0:
256,192,7511,5,0,0:0:0:0:
387,267,7670,1,0,0:0:0:0:
331,59,7830,1,0,0:0:0:0:
407,191,7989,1,0,0:0:0:0:
256,39,8149,1,0,0:0:0:0:
388,115,8309,1,0,0:0:0:0:
179,60,8468,69,0,0:0:0:0:
216,44,8548,1,0,0:0:0:0:
256,39,8628,1,0,0:0:0:0:
294,44,8707,1,0,0:0:0:0:
331,59,8787,5,0,0:0:0:0:
363,83,8867,1,0,0:0:0:0:
388,115,8947,1,0,0:0:0:0:
402,152,9027,1,0,0:0:0:0:
407,191,9106,69,0,0:0:0:0:
402,230,9186,1,0,0:0:0:0:
387,267,9266,1,0,0:0:0:0:
363,299,9346,1,0,0:0:0:0:
332,323,9426,5,0,0:0:0:0:
295,338,9505,1,0,0:0:0:0:
255,343,9585,1,0,0:0:0:0:
216,338,9665,1,0,0:0:0:0:
178,322,9745,1,0,0:0:0:0:
124,114,9904,5,0,0:0:0:0:
109,152,9984,1,0,0:0:0:0:
104,191,10064,1,0,0:0:0:0:
180,59,10223,1,0,0:0:0:0:
178,322,10383,6,0,L|145:297,1,40.0000001490115
254,343,10622,2,0,L|213:339,1,40.0000001490115
330,323,10862,2,0,L|292:340,1,40.0000001490115
146,297,11021,70,0,L|221:342,1,80.000000298023
387,115,11340,1,0,0:0:0:0:
387,115,11500,2,0,L|331:59,1,80.000000298023
214,338,11819,2,0,L|296:338,1,80.000000298023
124,114,12138,5,0,0:0:0:0:
109,152,12218,1,0,0:0:0:0:
104,191,12298,1,0,0:0:0:0:
387,267,12457,2,0,L|408:182,1,80.000000298023
294,44,12777,1,0,0:0:0:0:
107,229,12936,70,0,L|147:298,1,80.000000298023
294,44,13255,2,0,L|214:43,1,80.000000298023,0|0,2:0|2:0,2:0:0:0:
363,299,13574,2,0,L|405:225,1,80.000000298023
402,152,13894,5,0,0:0:0:0:
148,82,14053,2,0,L|108:151,1,80.000000298023
254,343,14372,2,0,L|333:323,1,80.000000298023
257,38,14691,69,0,0:0:0:0:
217,44,14771,1,0,0:0:0:0:
180,59,14851,1,0,0:0:0:0:
331,325,15011,1,0,0:0:0:0:
146,299,15170,1,0,0:0:0:0:
387,268,15330,1,0,0:0:0:0:
107,230,15489,6,0,L|147:299,1,80.000000298023
294,45,15809,2,0,L|212:44,1,80.000000298023
363,299,16128,2,0,L|402:227,1,80.000000298023
104,191,16447,69,0,0:0:0:0:
402,153,16606,2,0,L|363:81,1,80.000000298023
363,299,16926,2,0,L|402:227,1,80.000000298023
215,340,17245,5,0,0:0:0:0:
255,345,17325,1,0,0:0:0:0:
294,340,17405,1,0,0:0:0:0:
109,230,17564,1,0,0:0:0:0:
363,299,17723,1,0,0:0:0:0:
109,152,17883,1,0,0:0:0:0:
294,338,18043,70,0,L|376:296,1,80.000000298023
109,152,18362,2,0,L|109:241,1,80.000000298023
364,84,18681,2,0,L|284:40,1,80.000000298023
367,298,19000,1,0,0:0:0:0:
257,37,19160,6,0,L|180:61,1,80.000000298023
255,345,19479,2,0,L|332:321,1,80.000000298023
179,57,19798,2,0,L|124:116,1,80.000000298023
332,326,20117,2,0,L|387:267,1,80.000000298023
125,116,20436,2,0,L|107:194,1,80.000000298023
387,268,20755,69,0,0:0:0:0:
332,61,20915,1,0,0:0:0:0:
125,116,21074,1,0,2:0:0:0:
178,322,21234,6,0,L|272:349,1,80.000000298023
387,268,21553,1,0,0:0:0:0:
104,191,21713,2,0,L|124:268,1,80.000000298023
217,44,22032,2,0,L|148:84,1,80.000000298023
388,115,22351,69,0,0:0:0:0:
364,83,22431,1,0,0:0:0:0:
333,59,22511,1,0,0:0:0:0:
124,268,22670,1,0,0:0:0:0:
387,117,22830,1,0,0:0:0:0:
364,299,22989,1,0,0:0:0:0:
149,83,23149,6,0,L|109:152,1,80.000000298023
403,153,23468,2,0,L|363:84,1,80.000000298023
215,338,23787,2,0,L|295:338,1,80.000000298023
364,83,24106,69,0,0:0:0:0:
125,267,24266,2,0,L|104:190,1,80.000000298023
386,267,24585,2,0,L|407:190,1,80.000000298023
217,339,24904,5,0,0:0:0:0:
256,345,24984,1,0,0:0:0:0:
295,340,25064,1,0,0:0:0:0:
364,81,25223,1,0,0:0:0:0:
364,299,25383,1,0,0:0:0:0:
294,45,25543,1,0,0:0:0:0:
109,151,25702,70,0,L|149:81,1,80.000000298023
294,338,26021,2,0,L|213:339,1,80.000000298023
364,81,26340,2,0,L|404:150,1,80.000000298023
109,151,26660,1,0,0:0:0:0:
386,268,26819,2,0,L|329:326,1,80.000000298023
125,115,27138,2,0,L|182:57,1,80.000000298023
388,269,27457,5,0,0:0:0:0:
364,300,27537,1,0,0:0:0:0:
332,323,27617,1,0,0:0:0:0:
125,115,27777,1,0,0:0:0:0:
408,191,27936,1,0,0:0:0:0:
124,268,28096,1,0,0:0:0:0:
333,59,28255,70,0,L|393:119,1,80.000000298023
102,191,28574,2,0,L|124:109,1,80.000000298023
332,325,28894,2,0,L|250:347,1,80.000000298023
408,191,29213,1,0,0:0:0:0:
256,38,29372,6,0,L|338:60,1,80.000000298023
122,114,29691,2,0,L|183:55,1,80.000000298023
122,268,30011,2,0,L|100:186,1,80.000000298023
255,343,30330,2,0,L|173:321,1,80.000000298023
386,268,30649,2,0,L|326:328,1,80.000000298023
389,115,30968,69,0,0:0:0:0:
407,191,31048,1,0,0:0:0:0:
387,267,31128,1,0,0:0:0:0:
332,323,31207,1,0,0:0:0:0:
255,343,31287,1,0,0:0:0:0:
178,322,31367,1,0,0:0:0:0:
123,265,31447,37,0,0:0:0:0:
108,228,31606,1,0,0:0:0:0:
407,191,31766,69,0,0:0:0:0:
110,150,31926,5,0,0:0:0:0:
125,113,32085,1,0,0:0:0:0:
361,300,32245,69,0,0:0:0:0:
182,59,32404,5,0,0:0:0:0:
219,44,32563,1,0,0:0:0:0:
253,343,32723,69,0,0:0:0:0:
297,45,32883,5,0,0:0:0:0:
334,61,33042,1,0,0:0:0:0:
147,296,33202,69,0,0:0:0:0:
389,117,33362,5,0,0:0:0:0:
404,155,33521,1,0,0:0:0:0:
105,189,33681,69,0,0:0:0:0:
402,233,33840,5,0,0:0:0:0:
386,270,33999,1,0,0:0:0:0:
360,300,34159,1,0,0:0:0:0:
182,59,34319,69,0,0:0:0:0:
293,340,34478,5,0,0:0:0:0:
255,343,34638,1,0,0:0:0:0:
296,46,34798,69,0,0:0:0:0:
177,322,34957,5,0,0:0:0:0:
148,298,35117,1,0,0:0:0:0:
387,117,35277,69,0,0:0:0:0:
107,229,35436,5,0,0:0:0:0:
105,190,35596,1,0,0:0:0:0:
401,232,35756,69,0,0:0:0:0:
125,115,35915,5,0,0:0:0:0:
362,299,36075,69,0,0:0:0:0:
331,324,36235,1,0,0:0:0:0:
294,338,36394,1,0,0:0:0:0:
257,41,36553,5,0,0:0:0:0:
296,46,36713,1,0,0:0:0:0:
179,322,36872,69,0,0:0:0:0:
363,85,37032,5,0,0:0:0:0:
387,117,37192,1,0,0:0:0:0:
109,230,37351,69,0,0:0:0:0:
407,193,37511,5,0,0:0:0:0:
401,232,37671,1,0,0:0:0:0:
125,115,37830,69,0,0:0:0:0:
362,299,37989,5,0,0:0:0:0:
330,323,38149,1,0,0:0:0:0:
217,45,38308,69,0,0:0:0:0:
254,342,38468,5,0,0:0:0:0:
215,337,38628,1,0,0:0:0:0:
332,61,38787,69,0,0:0:0:0:
148,298,38947,5,0,0:0:0:0:
124,266,39107,1,0,0:0:0:0:
402,153,39266,69,0,0:0:0:0:
105,190,39426,5,0,0:0:0:0:
110,151,39586,1,0,0:0:0:0:
386,268,39745,69,0,0:0:0:0:
149,84,39904,5,0,0:0:0:0:
181,60,40064,1,0,0:0:0:0:
294,338,40223,69,0,0:0:0:0:
257,41,40383,5,0,0:0:0:0:
296,46,40543,1,0,0:0:0:0:
179,322,40702,69,0,0:0:0:0:
363,85,40862,5,0,0:0:0:0:
387,117,41022,1,0,0:0:0:0:
109,230,41181,69,0,0:0:0:0:
104,190,41340,1,0,0:0:0:0:
110,151,41500,1,0,0:0:0:0:
386,269,41659,53,0,0:0:0:0:
386,269,41739,1,0,0:0:0:0:
386,269,41818,1,0,0:0:0:0:
330,323,41979,5,0,0:0:0:0:
293,338,42059,1,0,0:0:0:0:
407,193,42218,69,0,0:0:0:0:
402,154,42298,1,0,0:0:0:0:
254,343,42457,5,0,0:0:0:0:
215,337,42537,1,0,0:0:0:0:
387,117,42697,69,0,0:0:0:0:
363,85,42777,2,0,L|325:55,1,40.0000001490115
178,321,43016,5,0,0:0:0:0:
147,297,43096,1,0,0:0:0:0:
295,44,43255,69,0,0:0:0:0:
255,39,43335,1,0,0:0:0:0:
124,265,43494,5,0,0:0:0:0:
109,228,43574,1,0,0:0:0:0:
216,44,43734,69,0,0:0:0:0:
177,60,43814,1,0,0:0:0:0:
104,190,43973,5,0,0:0:0:0:
109,151,44053,1,0,0:0:0:0:
125,114,44133,1,0,0:0:0:0:
149,83,44213,1,0,0:0:0:0:
181,59,44293,1,0,0:0:0:0:
217,44,44373,1,0,0:0:0:0:
180,59,44532,69,0,0:0:0:0:
148,81,44612,1,0,0:0:0:0:
257,39,44771,5,0,0:0:0:0:
296,44,44851,1,0,0:0:0:0:
123,113,45011,69,0,0:0:0:0:
107,148,45091,1,0,0:0:0:0:
333,60,45250,5,0,0:0:0:0:
364,84,45330,1,0,0:0:0:0:
102,189,45489,69,0,0:0:0:0:
106,228,45569,1,0,0:0:0:0:
389,117,45729,5,0,0:0:0:0:
404,153,45809,1,0,0:0:0:0:
122,267,45968,69,0,0:0:0:0:
145,297,46048,1,0,0:0:0:0:
408,193,46207,5,0,0:0:0:0:
403,232,46287,1,0,0:0:0:0:
177,322,46447,69,0,0:0:0:0:
212,337,46527,1,0,0:0:0:0:
254,343,46606,1,0,0:0:0:0:
292,338,46686,1,0,0:0:0:0:
329,324,46766,5,0,0:0:0:0:
361,300,46846,1,0,0:0:0:0:
385,269,46926,1,0,0:0:0:0:
387,269,47085,69,0,0:0:0:0:
363,300,47165,1,0,0:0:0:0:
403,231,47324,5,0,0:0:0:0:
408,192,47404,1,0,0:0:0:0:
330,325,47564,69,0,0:0:0:0:
294,339,47644,1,0,0:0:0:0:
404,155,47803,5,0,0:0:0:0:
389,117,47883,2,0,L|356:76,1,40.0000001490115
253,344,48122,69,0,0:0:0:0:
215,339,48202,1,0,0:0:0:0:
333,59,48362,5,0,0:0:0:0:
296,44,48441,1,0,0:0:0:0:
177,323,48601,69,0,0:0:0:0:
146,299,48681,1,0,0:0:0:0:
257,39,48840,5,0,0:0:0:0:
216,43,48920,1,0,0:0:0:0:
122,266,49080,69,0,0:0:0:0:
108,230,49160,1,0,0:0:0:0:
103,189,49239,1,0,0:0:0:0:
108,151,49319,1,0,0:0:0:0:
125,113,49399,5,0,0:0:0:0:
148,83,49479,2,0,L|186:56,1,40.0000001490115
181,59,49638,69,0,0:0:0:0:
148,83,49718,2,0,L|123:114,1,40.0000001490115
219,43,49878,5,0,0:0:0:0:
256,38,49958,2,0,L|302:46,1,40.0000001490115
108,150,50117,69,0,0:0:0:0:
103,191,50197,2,0,L|107:231,1,40.0000001490115
335,60,50356,5,0,0:0:0:0:
365,83,50436,2,0,L|392:122,1,40.0000001490115
123,267,50596,69,0,0:0:0:0:
147,299,50676,2,0,L|178:324,1,40.0000001490115
404,155,50835,5,0,0:0:0:0:
409,192,50915,2,0,L|401:238,1,40.0000001490115
214,339,51074,69,0,0:0:0:0:
255,344,51154,2,0,L|295:340,1,40.0000001490115
387,271,51314,5,0,0:0:0:0:
364,301,51394,2,0,L|325:327,1,40.0000001490115
255,344,51553,69,0,0:0:0:0:
180,321,51633,1,0,0:0:0:0:
125,266,51713,1,0,0:0:0:0:
106,191,51793,1,0,0:0:0:0:
123,114,51872,70,0,L|171:62,1,40.0000001490115
106,191,52032,2,0,L|132:100,1,80.000000298023
125,266,52271,2,0,L|104:173,1,80.000000298023
180,321,52511,70,0,L|116:254,1,80.000000298023
255,344,52750,2,0,L|167:318,1,80.000000298023
364,301,52989,2,0,L|228:354,1,120.000000447034
403,231,53309,6,0,L|355:309,1,80.000000298023
404,155,53548,2,0,L|404:245,1,80.000000298023
366,85,53787,2,0,L|410:166,1,80.000000298023
298,44,54027,2,0,L|376:92,1,80.000000298023
179,59,54266,2,0,L|324:43,1,120.000000447034
122,114,54585,70,0,L|188:50,1,80.000000298023
106,191,54824,2,0,L|132:102,1,80.000000298023
125,268,55064,2,0,L|103:178,1,80.000000298023
180,321,55303,2,0,L|115:252,1,80.000000298023
294,339,55543,2,0,L|172:319,1,120.000000447034
364,301,55862,6,0,L|288:347,1,80.000000298023
405,233,56102,2,0,L|357:311,1,80.000000298023
387,115,56341,2,0,L|407:246,1,120.000000447034
366,84,56660,70,0,L|396:130,6,40.0000001490115
298,45,56979,6,0,L|202:42,1,80.000000298023
252,344,57298,1,0,0:0:0:0:
252,344,57457,1,0,0:0:0:0:
387,115,57617,70,0,L|324:47,1,80.000000298023
147,299,57936,1,0,0:0:0:0:
147,299,58095,1,0,0:0:0:0:
405,233,58255,6,0,L|402:141,1,80.000000298023
106,190,58574,1,0,0:0:0:0:
106,190,58733,1,0,0:0:0:0:
332,323,58894,70,0,L|401:260,1,80.000000298023
148,83,59213,1,0,0:0:0:0:
148,83,59372,1,0,0:0:0:0:
215,341,59532,6,0,L|307:338,1,80.000000298023
256,38,59851,1,0,0:0:0:0:
256,38,60010,1,0,0:0:0:0:
121,268,60170,70,0,L|188:331,1,80.000000298023
366,90,60489,1,0,0:0:0:0:
366,90,60648,1,0,0:0:0:0:
108,150,60809,70,0,L|110:240,1,80.000000298023
409,192,61128,1,0,0:0:0:0:
409,192,61287,1,0,0:0:0:0:
125,268,61446,69,0,0:0:0:0:
148,300,61526,1,0,0:0:0:0:
180,324,61606,1,0,0:0:0:0:
217,339,61686,1,0,0:0:0:0:
257,344,61766,1,0,0:0:0:0:
389,267,61926,1,0,0:0:0:0:
333,58,62085,6,0,L|401:157,1,120.000005024671
179,325,62564,2,0,L|110:226,1,120.000005024671
333,58,62883,2,0,L|401:157,1,120.000005024671
179,325,63202,69,0,0:0:0:0:
333,58,63362,1,0,0:0:0:0:
333,58,63521,1,0,0:0:0:0:
333,58,63681,1,0,0:0:0:0:
180,324,63840,5,0,0:0:0:0:
148,299,63920,1,0,0:0:0:0:
124,268,64000,1,0,0:0:0:0:
108,231,64080,1,0,0:0:0:0:
104,192,64160,1,0,0:0:0:0:
401,157,64319,69,0,0:0:0:0:
390,269,64638,6,0,L|291:337,1,120.000005024671
123,115,65117,2,0,L|222:46,1,120.000005024671
390,269,65436,2,0,L|291:337,1,120.000005024671
123,115,65755,69,0,0:0:0:0:
390,269,65915,1,0,0:0:0:0:
390,269,65995,1,0,0:0:0:0:
390,269,66074,1,0,0:0:0:0:
123,115,66234,1,0,0:0:0:0:
123,115,66394,1,0,0:0:0:0:
388,267,66553,5,0,0:0:0:0:
363,299,66633,1,0,0:0:0:0:
332,323,66713,1,0,0:0:0:0:
295,339,66793,1,0,0:0:0:0:
257,344,66872,2,0,L|194:337,7,40.0000001490115
179,326,67191,70,0,L|111:227,1,120.000005024671
333,59,67670,2,0,L|402:158,1,120.000005024671
179,326,67989,2,0,L|111:227,1,120.000005024671
333,59,68309,54,0,L|392:117,1,80.000000298023
179,325,68468,2,0,L|120:267,1,80.000000298023
333,59,68947,38,0,L|402:158,1,120.000005024671
179,326,69266,2,0,L|111:227,1,120.000005024671
333,59,69585,38,0,L|398:119,1,80.000000298023
179,325,69744,2,0,L|120:267,1,80.000000298023
333,59,70064,38,0,L|402:158,1,120.000005024671
179,326,70383,2,0,L|111:227,1,120.000005024671
333,59,70702,38,0,L|392:117,1,80.000000298023
179,325,70861,2,0,L|120:267,1,80.000000298023
333,59,71181,6,0,L|392:117,1,80.000000298023
179,325,71500,2,0,L|120:267,1,80.000000298023
333,59,71819,70,0,L|392:117,1,80.000000298023
179,325,72138,2,0,L|120:267,1,80.000000298023
333,59,72298,38,0,L|367:83,1,40.0000001490115
390,115,72777,54,0,L|412:205,1,80.000000298023
122,269,73096,2,0,L|103:191,1,80.000000298023
389,267,73415,69,0,0:0:0:0:
364,299,73495,1,0,0:0:0:0:
332,323,73575,1,0,0:0:0:0:
103,191,73734,1,0,0:0:0:0:
408,192,73894,1,0,0:0:0:0:
122,269,74053,1,0,0:0:0:0:
332,58,74213,6,0,L|393:123,1,80.000000298023
101,192,74532,2,0,L|124:116,1,80.000000298023
333,325,74851,2,0,L|256:344,1,80.000000298023
179,325,75170,1,0,0:0:0:0:
332,58,75330,70,0,L|387:116,1,80.000000298023
389,268,75649,2,0,L|332:323,1,80.000000298023
101,192,75968,5,0,0:0:0:0:
101,192,76048,1,0,0:0:0:0:
101,192,76128,1,0,0:0:0:0:
408,192,76287,1,0,0:0:0:0:
101,192,76447,1,0,0:0:0:0:
408,192,76606,1,0,0:0:0:0:
101,192,76766,70,0,L|124:116,1,80.000000298023
333,325,77085,2,0,L|256:344,1,80.000000298023
332,58,77404,2,0,L|387:116,1,80.000000298023
333,325,77723,1,0,0:0:0:0:
332,58,77883,6,0,L|387:116,1,80.000000298023
148,83,78202,2,0,L|232:37,1,80.000000298023
387,116,78521,69,0,0:0:0:0:
387,116,78601,1,0,0:0:0:0:
387,116,78681,1,0,0:0:0:0:
255,345,78840,1,0,0:0:0:0:
216,49,79000,1,0,0:0:0:0:
147,299,79160,1,0,0:0:0:0:
332,58,79319,6,0,L|387:116,1,80.000000298023
101,193,79638,2,0,L|124:116,1,80.000000298023,0|0,2:0|2:0,2:0:0:0:
334,324,79957,2,0,L|256:343,1,80.000000298023,0|0,2:0|2:0,2:0:0:0:
101,193,80277,1,0,0:0:0:0:
256,40,80436,70,0,L|334:59,1,80.000000298023,0|0,2:0|2:0,2:0:0:0:
179,325,80755,2,0,L|125:268,1,80.000000298023,0|0,2:0|2:0,2:0:0:0:
387,116,81074,2,0,L|410:193,1,80.000000298023,0|0,2:0|2:0,2:0:0:0:
101,193,81394,2,0,L|124:116,1,80.000000298023,0|0,2:0|2:0,2:0:0:0:
387,268,81713,2,0,L|332:326,1,80.000000298023,0|0,2:0|2:0,2:0:0:0:
178,60,82032,5,0,0:0:0:0:
215,45,82112,1,0,0:0:0:0:
255,40,82192,1,0,0:0:0:0:
294,45,82271,1,0,0:0:0:0:
331,60,82351,69,0,0:0:0:0:
387,115,82431,1,0,0:0:0:0:
410,193,82511,38,0,L|328:332,1,151.999996507406
331,60,82750,2,0,L|414:200,1,151.999996507406
178,60,82989,2,0,L|335:59,1,151.999996507406
103,193,83229,2,0,L|180:57,1,151.999996507406
122,268,83468,6,0,L|94:151,1,75.999998253703
177,62,83628,2,0,L|122:115,1,75.999998253703
125,270,83787,6,0,L|257:345,1,151.999996507406
389,267,84027,2,0,L|258:344,1,151.999996507406
122,268,84266,70,0,L|94:151,1,75.999998253703
122,115,84426,6,0,L|271:33,1,151.999996507406
386,116,84665,2,0,L|256:38,1,151.999996507406
407,190,84904,70,0,L|387:117,1,75.999998253703
332,323,85064,2,0,L|408:192,1,151.999996507406
179,60,85303,2,0,L|100:198,1,151.999996507406
332,323,85543,70,0,L|408:192,1,151.999996507406
179,60,85782,2,0,L|100:198,1,151.999996507406
406,191,86021,6,0,L|387:118,1,75.999998253703
105,192,86181,2,0,L|124:265,1,75.999998253703
386,117,86340,6,0,L|249:38,1,151.999996507406
124,268,86580,2,0,L|255:344,1,151.999996507406
256,342,86819,54,0,L|329:323,1,75.999998253703
255,41,86979,2,0,L|116:120,1,151.999996507406
125,117,87218,2,0,L|123:277,1,151.999996507406
126,267,87457,2,0,L|184:332,1,75.999998253703
408,190,87617,6,0,L|331:60,1,151.999996507406
410,193,87856,2,0,L|332:323,1,151.999996507406
177,60,88095,2,0,L|328:59,1,151.999996507406
177,60,88335,2,0,L|103:193,1,151.999996507406
177,322,88574,6,0,L|302:359,1,75.999998253703
180,321,88734,2,0,L|105:248,1,75.999998253703
103,193,88894,54,0,L|177:60,1,151.999996507406
176,60,89133,2,0,L|342:59,1,151.999996507406
335,60,89372,2,0,L|436:167,1,75.999998253703
408,192,89532,54,0,L|334:59,1,151.999996507406
334,59,89771,2,0,L|166:59,1,151.999996507406
179,61,90010,2,0,L|77:168,1,75.999998253703
103,193,90170,54,0,L|177:60,1,151.999996507406
409,193,90410,2,0,L|335:60,1,151.999996507406
107,153,90649,2,0,L|213:44,1,151.999996507406
404,153,90888,2,0,L|298:44,1,151.999996507406
122,116,91128,6,0,L|179:61,1,75.999998253703
385,116,91287,2,0,L|333:61,1,75.999998253703
255,37,91447,21,0,0:0:0:0:
215,42,91527,1,0,0:0:0:0:
177,58,91606,1,0,0:0:0:0:
146,82,91686,1,0,0:0:0:0:
121,115,91766,21,0,0:0:0:0:
106,152,91846,1,0,0:0:0:0:
101,192,91925,1,0,0:0:0:0:
106,232,92005,1,0,0:0:0:0:
122,270,92085,37,0,0:0:0:0:
147,302,92165,1,0,0:0:0:0:
179,326,92244,1,0,0:0:0:0:
216,341,92324,1,0,0:0:0:0:
256,346,92404,69,0,0:0:0:0:
334,325,92484,1,0,0:0:0:0:
390,268,92564,1,0,0:0:0:0:
410,191,92644,1,0,0:0:0:0:
385,116,92723,38,0,L|88:239,1,303.999993014812
106,152,92963,2,0,L|415:191,1,303.999993014812
405,151,93202,2,0,L|85:193,1,303.999993014812
148,84,93441,2,0,L|390:268,1,303.999993014812
335,323,93681,70,0,L|410:191,1,151.999996507406
405,151,93840,2,0,L|296:44,1,151.999996507406
256,40,94000,6,0,L|296:341,1,303.999993014812
215,341,94239,2,0,L|335:57,1,303.999993014812
176,60,94479,70,0,L|101:193,1,151.999996507406
146,301,94638,6,0,L|391:114,1,303.999993014812
402,232,94878,2,0,L|101:191,1,303.999993014812
110,232,95117,70,0,L|154:65,1,151.999996507406
216,42,95277,6,0,L|254:343,1,303.999993014812
402,232,95516,2,0,L|101:191,1,303.999993014812
146,301,95755,2,0,L|388:117,1,303.999993014812
254,40,95995,2,0,L|216:341,1,303.999993014812
362,299,96234,70,0,L|407:133,1,151.999996507406
387,117,96394,2,0,L|238:30,1,151.999996507406
146,82,96553,6,0,L|336:323,1,303.999993014812
146,302,96793,2,0,L|333:54,1,303.999993014812
388,272,97032,70,0,L|226:357,1,151.999996507406
216,341,97191,6,0,L|254:40,1,303.999993014812
405,231,97431,2,0,L|104:193,1,303.999993014812
146,302,97670,70,0,L|296:341,1,151.999996507406
389,268,97830,6,0,L|108:153,1,303.999993014812
254,40,98069,2,0,L|216:341,1,303.999993014812
215,341,98309,2,0,L|333:61,1,303.999993014812
181,59,98548,2,0,L|365:302,1,303.999993014812
293,340,98787,70,0,L|146:302,1,151.999996507406
110,232,98947,2,0,L|148:83,1,151.999996507406
257,40,99106,6,0,L|295:341,1,303.999993014812
121,269,99346,2,0,L|403:150,1,303.999993014812
364,84,99585,70,0,L|404:233,1,151.999996507406
293,339,99745,6,0,L|179:57,1,303.999993014812
333,61,99984,2,0,L|218:342,1,303.999993014812
110,232,100223,70,0,L|256:379,1,151.999996507406
330,324,100383,6,0,L|145:83,1,303.999993014812
389,268,100622,6,0,L|105:153,1,303.999993014812
407,193,100862,2,0,L|103:232,1,303.999993014812
388,117,101101,2,0,L|147:303,1,303.999993014812
144,82,101340,70,0,L|98:285,1,151.999996507406
146,303,101500,2,0,L|93:110,1,151.999996507406
144,82,101660,6,0,L|331:326,1,303.999993014812
215,45,101899,2,0,L|259:353,1,303.999993014812
294,45,102138,2,0,L|179:331,1,303.999993014812
364,84,102378,2,0,L|117:269,1,303.999993014812
403,149,102617,37,0,0:0:0:0:
364,84,102697,1,0,0:0:0:0:
294,45,102777,1,0,0:0:0:0:
215,45,102856,1,0,0:0:0:0:
144,82,102936,6,0,P|216:338|146:80,1,960.000003576276,0|0,2:2|2:0,2:0:0:0:
