osu file format v14

[General]
AudioFilename: audio.mp3
AudioLeadIn: 0
PreviewTime: 29463
Countdown: 0
SampleSet: None
StackLeniency: 0.7
Mode: 3
LetterboxInBreaks: 0
SpecialStyle: 0
WidescreenStoryboard: 1

[Editor]
Bookmarks: 88156,90969,103625,106438
DistanceSpacing: 0.8
BeatDivisor: 4
GridSize: 8
TimelineZoom: 2.4

[Metadata]
Title:Chronos
TitleUnicode:Chronos
Artist:TAG
ArtistUnicode:TAG
Creator:wafflesofdoom13
Version:Easy
Source:DDR
Tags:DDR chronos tag
BeatmapID:1800027
BeatmapSetID:860352

[Difficulty]
HPDrainRate:8
CircleSize:4
OverallDifficulty:7
ApproachRate:5
SliderMultiplier:1.4
SliderTickRate:1

[Events]
//Background and Video events
0,0,"untitled (14).png",0,0
//Break Periods
//Storyboard Layer 0 (Background)
//Storyboard Layer 1 (Fail)
//Storyboard Layer 2 (Pass)
//Storyboard Layer 3 (Foreground)
//Storyboard Sound Samples

[TimingPoints]
1438,468.75,4,1,1,34,1,0
1438,-100,4,1,1,50,0,0
12805,-100,4,1,1,24,0,0
18313,-100,4,1,1,30,0,0
29563,-100,4,1,1,40,0,0
41867,-100,4,1,1,30,0,0
45969,-100,4,1,1,40,0,0
48781,-100,4,1,1,30,0,0
50891,-100,4,1,1,40,0,0
54523,-100,4,1,1,25,0,0
77609,-100,4,1,1,35,0,0
78313,-100,4,1,1,50,0,0
79719,-100,4,1,1,10,0,0
85344,-100,4,1,1,20,0,0
86750,-100,4,1,1,30,0,0
88156,-100,4,1,1,40,0,0
88859,-100,4,1,1,50,0,0
89563,-100,4,1,1,60,0,0
90266,-100,4,1,1,70,0,0
90969,-100,4,1,1,25,0,0
103625,-100,4,1,1,35,0,0
105031,-100,4,1,1,40,0,0
107844,-100,4,1,1,15,0,0
109309,-100,4,1,1,65,0,0

[HitObjects]
64,192,1203,128,2,1438:0:0:0:0:
448,192,1438,1,4,0:0:0:0:
192,192,1789,1,8,0:0:0:0:
448,192,2141,1,0,0:0:0:0:
64,192,2492,1,0,0:0:0:0:
320,192,2844,1,4,0:0:0:0:
192,192,3195,1,4,0:0:0:0:
448,192,3547,128,8,4250:0:0:0:0:
64,192,4250,128,0,4953:0:0:0:0:
448,192,4953,1,4,0:0:0:0:
320,192,5188,1,4,0:0:0:0:
192,192,5422,1,4,0:0:0:0:
64,192,5656,128,0,5891:0:0:0:0:
320,192,5891,1,0,0:0:0:0:
448,192,6008,128,0,6359:0:0:0:0:
64,192,6359,1,4,0:0:0:0:
320,192,6594,1,4,0:0:0:0:
192,192,7063,1,4,0:0:0:0:
448,192,7766,1,4,0:0:0:0:
64,192,8469,1,4,0:0:0:0:
192,192,9172,1,2,0:0:0:0:
448,192,9172,128,0,9875:0:0:0:0:
64,192,9875,1,6,0:0:0:0:
192,192,10109,1,0,0:0:0:0:
448,192,10344,1,4,0:0:0:0:
192,192,10578,1,4,0:0:0:0:
64,192,10813,1,4,0:0:0:0:
192,192,11047,1,4,0:0:0:0:
448,192,11281,128,0,11984:0:0:0:0:
64,192,11984,1,4,0:0:0:0:
320,192,12219,1,6,0:0:0:0:
448,192,12453,1,6,0:0:0:0:
192,192,12688,128,6,14797:0:0:0:0:
448,192,15500,128,0,17844:0:0:0:0:
64,192,17844,1,2,0:0:0:0:
192,192,18078,1,2,0:0:0:0:
448,192,18313,128,2,18781:0:0:0:0:
64,192,19016,1,2,0:0:0:0:
320,192,19250,1,2,0:0:0:0:
192,192,19484,1,8,0:0:0:0:
448,192,19719,1,0,0:0:0:0:
192,192,19953,128,0,20188:0:0:0:0:
64,192,20188,128,0,21125:0:0:0:0:
320,192,21125,1,4,0:0:0:0:
448,192,21359,1,0,0:0:0:0:
64,192,21594,1,0,0:0:0:0:
192,192,21828,128,0,22063:0:0:0:0:
64,192,22063,128,0,22297:0:0:0:0:
448,192,22297,128,8,22531:0:0:0:0:
320,192,22531,1,0,0:0:0:0:
64,192,22766,128,0,23469:0:0:0:0:
448,192,23469,1,8,0:0:0:0:
320,192,23703,1,8,0:0:0:0:
64,192,23938,1,4,0:0:0:0:
448,192,24172,1,0,0:0:0:0:
320,192,24406,1,0,0:0:0:0:
192,192,24641,128,0,24875:0:0:0:0:
64,192,24875,128,0,25109:0:0:0:0:
448,192,25109,1,8,0:0:0:0:
320,192,25344,1,2,0:0:0:0:
192,192,25695,1,8,0:0:0:0:
448,192,26047,1,8,0:0:0:0:
192,192,26398,1,0,0:0:0:0:
320,192,26750,128,4,26984:0:0:0:0:
64,192,26984,128,0,27219:0:0:0:0:
192,192,27219,128,0,27453:0:0:0:0:
448,192,27453,128,8,27688:0:0:0:0:
320,192,27688,128,4,27922:0:0:0:0:
64,192,27922,128,0,28156:0:0:0:0:
448,192,28156,128,0,28391:0:0:0:0:
320,192,28391,128,0,28625:0:0:0:0:
192,192,28625,128,0,28859:0:0:0:0:
64,192,28859,128,2,29563:0:0:0:0:
448,192,29563,1,4,0:0:0:0:
320,192,29797,128,2,30031:0:0:0:0:
64,192,30266,1,8,0:0:0:0:
192,192,30500,128,2,30734:0:0:0:0:
448,192,30969,1,4,0:0:0:0:
320,192,31203,128,2,31438:0:0:0:0:
192,192,31672,128,2,31906:0:0:0:0:
320,192,31906,128,2,32141:0:0:0:0:
192,192,32141,1,4,0:0:0:0:
64,192,32375,128,2,32609:0:0:0:0:
320,192,32844,1,8,0:0:0:0:
448,192,33078,128,2,33313:0:0:0:0:
192,192,33547,1,4,0:0:0:0:
64,192,33781,128,2,34016:0:0:0:0:
448,192,34250,128,4,34484:0:0:0:0:
64,192,34484,128,0,34719:0:0:0:0:
192,192,34719,1,4,0:0:0:0:
320,192,34953,128,2,35188:0:0:0:0:
448,192,35422,1,8,0:0:0:0:
192,192,35656,128,2,35891:0:0:0:0:
64,192,36125,1,4,0:0:0:0:
320,192,36359,128,2,36594:0:0:0:0:
448,192,36828,1,14,0:0:0:0:
64,192,37063,1,14,0:0:0:0:
448,192,37297,1,14,0:0:0:0:
192,192,37531,128,4,38234:0:0:0:0:
320,192,38234,128,4,38469:0:0:0:0:
64,192,38469,128,0,38703:0:0:0:0:
448,192,38703,128,0,38938:0:0:0:0:
320,192,38938,128,4,39875:0:0:0:0:
64,192,40109,1,0,0:0:0:0:
448,192,40344,128,4,41047:0:0:0:0:
64,192,41047,1,0,0:0:0:0:
192,192,41281,1,0,0:0:0:0:
320,192,41516,1,0,0:0:0:0:
448,192,41867,1,6,0:0:0:0:
64,192,41867,1,6,0:0:0:0:
64,192,42102,1,6,0:0:0:0:
448,192,42102,1,6,0:0:0:0:
64,192,42336,1,6,0:0:0:0:
448,192,42336,128,6,42570:0:0:0:0:
320,192,42570,128,6,42805:0:0:0:0:
192,192,42805,128,0,43039:0:0:0:0:
448,192,43156,1,6,0:0:0:0:
320,192,43508,1,0,0:0:0:0:
64,192,43742,1,0,0:0:0:0:
320,192,43859,1,4,0:0:0:0:
448,192,44094,1,4,0:0:0:0:
192,192,44328,1,4,0:0:0:0:
448,192,44563,1,6,0:0:0:0:
320,192,44797,1,0,0:0:0:0:
192,192,45031,1,0,0:0:0:0:
64,192,45266,1,4,0:0:0:0:
448,192,45500,1,4,0:0:0:0:
320,192,45734,1,4,0:0:0:0:
192,192,45969,128,6,46672:0:0:0:0:
320,192,46672,128,6,47375:0:0:0:0:
448,192,47375,128,6,48078:0:0:0:0:
64,192,48078,128,6,48781:0:0:0:0:
448,192,48781,1,6,0:0:0:0:
320,192,49016,1,0,0:0:0:0:
192,192,49250,1,0,0:0:0:0:
64,192,49484,1,6,0:0:0:0:
320,192,49719,1,6,0:0:0:0:
448,192,49953,1,6,0:0:0:0:
320,192,50188,128,0,50305:0:0:0:0:
64,192,50422,128,0,50539:0:0:0:0:
320,192,50656,128,0,50773:0:0:0:0:
192,192,50891,1,6,0:0:0:0:
320,192,51125,1,6,0:0:0:0:
192,192,51359,1,6,0:0:0:0:
448,192,51594,128,6,52297:0:0:0:0:
64,192,52297,128,4,53000:0:0:0:0:
448,192,53000,128,4,53703:0:0:0:0:
320,192,53703,1,6,0:0:0:0:
192,192,53938,1,6,0:0:0:0:
64,192,54172,1,6,0:0:0:0:
448,192,54406,128,6,55578:0:0:0:0:
320,192,55578,1,4,0:0:0:0:
192,192,55813,1,4,0:0:0:0:
64,192,56047,128,4,57219:0:0:0:0:
192,192,57219,1,4,0:0:0:0:
320,192,57453,1,4,0:0:0:0:
448,192,57688,128,4,58859:0:0:0:0:
320,192,58859,1,4,0:0:0:0:
192,192,59094,1,4,0:0:0:0:
64,192,59328,1,4,0:0:0:0:
448,192,59680,1,4,0:0:0:0:
192,192,60031,1,6,0:0:0:0:
320,192,60383,1,6,0:0:0:0:
64,192,60734,128,4,61906:0:0:0:0:
192,192,61906,1,4,0:0:0:0:
320,192,62141,1,4,0:0:0:0:
448,192,62375,128,4,63547:0:0:0:0:
320,192,63547,1,4,0:0:0:0:
192,192,63781,1,4,0:0:0:0:
64,192,64016,128,4,65188:0:0:0:0:
192,192,65188,1,4,0:0:0:0:
448,192,65422,1,4,0:0:0:0:
320,192,65656,1,4,0:0:0:0:
64,192,66008,1,4,0:0:0:0:
192,192,66359,1,4,0:0:0:0:
448,192,66711,1,12,0:0:0:0:
320,192,67063,128,6,67414:0:0:0:0:
192,192,67414,128,6,67766:0:0:0:0:
448,192,67766,128,6,68117:0:0:0:0:
64,192,68117,128,6,68469:0:0:0:0:
192,192,68469,1,4,0:0:0:0:
320,192,68703,1,0,0:0:0:0:
448,192,68938,1,0,0:0:0:0:
64,192,69172,1,0,0:0:0:0:
320,192,69406,1,0,0:0:0:0:
192,192,69641,1,0,0:0:0:0:
64,192,69875,1,0,0:0:0:0:
448,192,70109,1,0,0:0:0:0:
320,192,70344,1,0,0:0:0:0:
192,192,70578,1,8,0:0:0:0:
320,192,70813,1,8,0:0:0:0:
64,192,70813,128,8,71281:0:0:0:0:
448,192,71281,1,4,0:0:0:0:
320,192,71516,1,0,0:0:0:0:
64,192,71750,1,0,0:0:0:0:
192,192,71984,1,4,0:0:0:0:
320,192,72219,1,0,0:0:0:0:
64,192,72453,1,8,0:0:0:0:
448,192,72688,128,0,73391:0:0:0:0:
64,192,73391,128,4,74094:0:0:0:0:
320,192,74094,1,4,0:0:0:0:
64,192,74445,1,8,0:0:0:0:
320,192,74680,1,10,0:0:0:0:
448,192,74797,128,0,75266:0:0:0:0:
192,192,75266,1,8,0:0:0:0:
64,192,75383,1,0,0:0:0:0:
320,192,75500,128,4,75852:0:0:0:0:
448,192,75852,1,8,0:0:0:0:
320,192,76086,1,0,0:0:0:0:
64,192,76203,1,8,0:0:0:0:
192,192,76438,1,0,0:0:0:0:
320,192,76672,1,0,0:0:0:0:
448,192,76906,1,4,0:0:0:0:
64,192,76906,1,4,0:0:0:0:
320,192,77609,1,0,0:0:0:0:
192,192,77609,1,0,0:0:0:0:
192,192,78313,1,0,0:0:0:0:
320,192,78547,1,0,0:0:0:0:
192,192,78781,1,0,0:0:0:0:
320,192,79016,128,0,79719:0:0:0:0:
64,192,79719,1,2,0:0:0:0:
448,192,79953,128,2,80422:0:0:0:0:
64,192,80422,1,2,0:0:0:0:
320,192,80656,1,2,0:0:0:0:
192,192,80891,1,2,0:0:0:0:
448,192,81125,1,2,0:0:0:0:
64,192,81359,128,2,81828:0:0:0:0:
192,192,81828,1,2,0:0:0:0:
448,192,82063,1,2,0:0:0:0:
320,192,82297,1,2,0:0:0:0:
64,192,82531,128,2,83234:0:0:0:0:
192,192,83234,128,2,83938:0:0:0:0:
320,192,83938,128,2,84641:0:0:0:0:
448,192,84641,128,2,85344:0:0:0:0:
64,192,85344,1,6,0:0:0:0:
320,192,86047,1,4,0:0:0:0:
448,192,86047,1,4,0:0:0:0:
64,192,86750,1,4,0:0:0:0:
320,192,86750,1,4,0:0:0:0:
320,192,87453,1,6,0:0:0:0:
448,192,87453,1,6,0:0:0:0:
64,192,88156,128,4,88391:0:0:0:0:
192,192,88391,128,4,88625:0:0:0:0:
320,192,88625,128,4,88859:0:0:0:0:
448,192,88859,128,4,89094:0:0:0:0:
320,192,89094,128,4,89328:0:0:0:0:
192,192,89328,128,4,89563:0:0:0:0:
64,192,89563,128,4,89797:0:0:0:0:
448,192,89797,128,4,90031:0:0:0:0:
192,192,90031,128,4,90266:0:0:0:0:
320,192,90266,128,4,90500:0:0:0:0:
64,192,90500,128,4,90734:0:0:0:0:
448,192,90734,128,4,90969:0:0:0:0:
320,192,90969,128,0,92141:0:0:0:0:
192,192,92141,1,4,0:0:0:0:
64,192,92375,1,4,0:0:0:0:
448,192,92609,128,4,93781:0:0:0:0:
192,192,93781,1,4,0:0:0:0:
320,192,94016,1,4,0:0:0:0:
64,192,94250,128,4,95422:0:0:0:0:
448,192,95422,1,0,0:0:0:0:
320,192,95656,1,0,0:0:0:0:
192,192,95891,1,4,0:0:0:0:
320,192,96242,1,4,0:0:0:0:
64,192,96594,1,4,0:0:0:0:
448,192,96945,1,4,0:0:0:0:
192,192,97297,128,0,98469:0:0:0:0:
448,192,98469,1,0,0:0:0:0:
320,192,98703,1,0,0:0:0:0:
64,192,98938,1,0,0:0:0:0:
448,192,99172,1,8,0:0:0:0:
192,192,99289,1,0,0:0:0:0:
320,192,99406,1,0,0:0:0:0:
64,192,99641,1,0,0:0:0:0:
192,192,99875,1,0,0:0:0:0:
448,192,100109,1,4,0:0:0:0:
320,192,100344,1,4,0:0:0:0:
64,192,100578,1,4,0:0:0:0:
448,192,100813,1,8,0:0:0:0:
192,192,101047,1,0,0:0:0:0:
320,192,101281,1,0,0:0:0:0:
448,192,101516,1,0,0:0:0:0:
64,192,101750,1,4,0:0:0:0:
448,192,101984,1,4,0:0:0:0:
64,192,102219,1,4,0:0:0:0:
448,192,102570,1,0,0:0:0:0:
192,192,102922,1,0,0:0:0:0:
320,192,103273,1,0,0:0:0:0:
64,192,103625,128,2,103977:0:0:0:0:
448,192,103977,128,2,104328:0:0:0:0:
320,192,104328,128,2,104680:0:0:0:0:
64,192,104680,128,2,105031:0:0:0:0:
448,192,105031,128,2,105383:0:0:0:0:
192,192,105383,128,2,105734:0:0:0:0:
320,192,105734,128,2,106086:0:0:0:0:
64,192,106086,128,2,106438:0:0:0:0:
448,192,106438,1,0,0:0:0:0:
320,192,106672,1,0,0:0:0:0:
192,192,106906,1,0,0:0:0:0:
320,192,107141,1,0,0:0:0:0:
448,192,107375,1,0,0:0:0:0:
64,192,107609,1,0,0:0:0:0:
192,192,107727,1,0,0:0:0:0:
320,192,107844,1,0,0:0:0:0:
448,192,107844,128,0,108078:0:0:0:0:
320,192,108078,128,2,108313:0:0:0:0:
192,192,108313,128,2,108547:0:0:0:0:
64,192,108547,128,2,108781:0:0:0:0:
192,192,108781,128,2,109016:0:0:0:0:
320,192,109016,128,2,109250:0:0:0:0:
448,192,109250,1,2,0:0:0:0:
64,192,109367,1,2,0:0:0:0:
192,192,109367,1,2,0:0:0:0:
64,192,109602,1,2,0:0:0:0:
192,192,109602,1,2,0:0:0:0:
64,192,110305,128,6,112063:0:0:0:0:
320,192,110305,128,6,112063:0:0:0:0:
448,192,110305,128,6,112063:0:0:0:0:
