osu file format v14

[General]
AudioFilename: audio.mp3
AudioLeadIn: 0
PreviewTime: 29463
Countdown: 0
SampleSet: Normal
StackLeniency: 0.7
Mode: 3
LetterboxInBreaks: 0
SpecialStyle: 0
WidescreenStoryboard: 0

[Editor]
Bookmarks: 88156,90969,103625,106438
DistanceSpacing: 0.8
BeatDivisor: 8
GridSize: 8
TimelineZoom: 1.3

[Metadata]
Title:Chronos
TitleUnicode:Chronos
Artist:TAG
ArtistUnicode:TAG
Creator:wafflesofdoom13
Version:Chronos
Source:DDR
Tags:DDR
BeatmapID:1800026
BeatmapSetID:860352

[Difficulty]
HPDrainRate:8
CircleSize:4
OverallDifficulty:7
ApproachRate:5
SliderMultiplier:1.4
SliderTickRate:1

[Events]
//Background and Video events
0,0,"untitled (14).png",0,0
//Break Periods
//Storyboard Layer 0 (Background)
//Storyboard Layer 1 (Fail)
//Storyboard Layer 2 (Pass)
//Storyboard Layer 3 (Foreground)
//Storyboard Sound Samples

[TimingPoints]
1438,468.75,4,1,1,34,1,0
1438,-100,4,1,1,50,0,0
12805,-100,4,1,1,24,0,0
18313,-100,4,1,1,30,0,0
29563,-100,4,1,1,40,0,0
41867,-100,4,1,1,30,0,0
45969,-100,4,1,1,40,0,0
48781,-100,4,1,1,30,0,0
50891,-100,4,1,1,40,0,0
54523,-100,4,1,1,25,0,0
77609,-100,4,1,1,35,0,0
78313,-100,4,1,1,50,0,0
79719,-100,4,1,1,10,0,0
85344,-100,4,1,1,20,0,0
86750,-100,4,1,1,30,0,0
88156,-100,4,1,1,40,0,0
88859,-100,4,1,1,50,0,0
89563,-100,4,1,1,60,0,0
90266,-100,4,1,1,70,0,0
90969,-100,4,1,1,25,0,0
103625,-100,4,1,1,35,0,0
105031,-100,4,1,1,40,0,0
107844,-100,4,1,1,15,0,0
109309,-100,4,1,1,65,0,0

[HitObjects]
64,192,1164,5,2,0:0:0:0:
192,192,1242,1,2,0:0:0:0:
320,192,1320,1,2,0:0:0:0:
448,192,1359,1,2,0:0:0:0:
64,192,1398,1,2,0:0:0:0:
192,192,1438,1,0,0:0:0:0:
320,192,1438,1,4,0:0:0:0:
448,192,1672,1,0,0:0:0:0:
64,192,1789,1,8,0:0:0:0:
192,192,1789,1,4,0:0:0:0:
448,192,1906,1,0,0:0:0:0:
320,192,1906,128,0,2023:0:0:0:0:
192,192,2023,1,0,0:0:0:0:
64,192,2141,1,0,0:0:0:0:
448,192,2141,1,0,0:0:0:0:
192,192,2258,1,0,0:0:0:0:
320,192,2375,1,0,0:0:0:0:
448,192,2375,1,0,0:0:0:0:
64,192,2375,1,0,0:0:0:0:
192,192,2492,1,0,0:0:0:0:
64,192,2609,1,0,0:0:0:0:
320,192,2609,1,0,0:0:0:0:
448,192,2727,1,0,0:0:0:0:
192,192,2844,1,4,0:0:0:0:
64,192,2844,128,0,2961:0:0:0:0:
320,192,3078,1,0,0:0:0:0:
64,192,3195,1,4,0:0:0:0:
192,192,3195,1,0,0:0:0:0:
448,192,3195,1,0,0:0:0:0:
320,192,3313,1,0,0:0:0:0:
448,192,3430,1,0,0:0:0:0:
192,192,3547,1,0,0:0:0:0:
64,192,3547,1,8,0:0:0:0:
448,192,3664,1,8,0:0:0:0:
320,192,3664,1,0,0:0:0:0:
192,192,3781,1,0,0:0:0:0:
64,192,3781,1,8,0:0:0:0:
320,192,3898,1,0,0:0:0:0:
448,192,3898,1,8,0:0:0:0:
64,192,4016,1,8,0:0:0:0:
192,192,4016,1,4,0:0:0:0:
320,192,4133,1,0,0:0:0:0:
448,192,4250,1,0,0:0:0:0:
64,192,4250,1,0,0:0:0:0:
320,192,4367,1,0,0:0:0:0:
192,192,4367,1,0,0:0:0:0:
448,192,4484,1,0,0:0:0:0:
64,192,4484,1,0,0:0:0:0:
320,192,4602,1,0,0:0:0:0:
192,192,4719,1,0,0:0:0:0:
64,192,4719,1,0,0:0:0:0:
448,192,4836,1,0,0:0:0:0:
320,192,4836,1,8,0:0:0:0:
192,192,4953,1,0,0:0:0:0:
64,192,4953,1,4,0:0:0:0:
448,192,5188,1,0,0:0:0:0:
64,192,5188,1,4,0:0:0:0:
192,192,5422,1,0,0:0:0:0:
320,192,5422,1,4,0:0:0:0:
64,192,5656,1,0,0:0:0:0:
320,192,5656,1,0,0:0:0:0:
192,192,5773,1,0,0:0:0:0:
320,192,5891,1,0,0:0:0:0:
448,192,5891,1,0,0:0:0:0:
192,192,6008,1,8,0:0:0:0:
64,192,6008,1,0,0:0:0:0:
448,192,6125,1,0,0:0:0:0:
320,192,6125,1,0,0:0:0:0:
192,192,6242,1,0,0:0:0:0:
448,192,6359,1,4,0:0:0:0:
64,192,6359,1,4,0:0:0:0:
320,192,6477,1,0,0:0:0:0:
448,192,6594,128,0,6945:0:0:0:0:
192,192,6594,1,4,0:0:0:0:
64,192,6711,1,8,0:0:0:0:
192,192,6828,1,10,0:0:0:0:
64,192,6945,1,10,0:0:0:0:
192,192,7063,1,4,0:0:0:0:
320,192,7063,1,0,0:0:0:0:
448,192,7063,1,0,0:0:0:0:
192,192,7297,1,0,0:0:0:0:
64,192,7297,1,8,0:0:0:0:
320,192,7414,1,8,0:0:0:0:
448,192,7414,1,0,0:0:0:0:
64,192,7531,1,0,0:0:0:0:
320,192,7648,1,2,0:0:0:0:
448,192,7648,1,0,0:0:0:0:
192,192,7766,1,0,0:0:0:0:
64,192,7766,1,4,0:0:0:0:
320,192,7883,1,0,0:0:0:0:
192,192,8000,1,0,0:0:0:0:
64,192,8117,1,0,0:0:0:0:
320,192,8234,1,0,0:0:0:0:
192,192,8234,1,8,0:0:0:0:
448,192,8352,1,0,0:0:0:0:
192,192,8469,1,0,0:0:0:0:
320,192,8469,1,0,0:0:0:0:
64,192,8469,1,4,0:0:0:0:
448,192,8586,1,0,0:0:0:0:
64,192,8703,1,8,0:0:0:0:
192,192,8703,1,0,0:0:0:0:
320,192,8820,1,0,0:0:0:0:
192,192,8938,1,0,0:0:0:0:
448,192,8938,1,10,0:0:0:0:
64,192,9172,1,2,0:0:0:0:
448,192,9172,1,2,0:0:0:0:
192,192,9250,1,2,0:0:0:0:
320,192,9250,1,2,0:0:0:0:
64,192,9328,1,2,0:0:0:0:
448,192,9328,1,2,0:0:0:0:
192,192,9406,1,2,0:0:0:0:
320,192,9406,1,2,0:0:0:0:
448,192,9484,1,2,0:0:0:0:
320,192,9563,1,2,0:0:0:0:
64,192,9563,1,2,0:0:0:0:
192,192,9641,1,2,0:0:0:0:
448,192,9719,1,2,0:0:0:0:
64,192,9719,1,2,0:0:0:0:
320,192,9797,1,2,0:0:0:0:
64,192,9875,128,6,9992:0:0:0:0:
192,192,9992,128,0,10109:0:0:0:0:
320,192,10109,128,0,10227:0:0:0:0:
448,192,10227,128,0,10344:0:0:0:0:
192,192,10344,128,4,10461:0:0:0:0:
64,192,10461,128,4,10578:0:0:0:0:
320,192,10578,128,0,10813:0:0:0:0:
448,192,10578,1,4,0:0:0:0:
448,192,10813,128,4,11047:0:0:0:0:
192,192,10813,128,4,11047:0:0:0:0:
64,192,11047,128,4,11281:0:0:0:0:
320,192,11047,1,4,0:0:0:0:
192,192,11281,1,0,0:0:0:0:
448,192,11281,1,0,0:0:0:0:
320,192,11398,1,0,0:0:0:0:
192,192,11516,1,0,0:0:0:0:
64,192,11516,1,0,0:0:0:0:
320,192,11633,1,0,0:0:0:0:
448,192,11750,1,4,0:0:0:0:
192,192,11750,1,0,0:0:0:0:
64,192,11750,1,0,0:0:0:0:
320,192,11867,1,0,0:0:0:0:
448,192,11984,1,4,0:0:0:0:
64,192,11984,1,4,0:0:0:0:
192,192,12102,1,0,0:0:0:0:
64,192,12219,1,2,0:0:0:0:
320,192,12219,1,4,0:0:0:0:
448,192,12219,1,0,0:0:0:0:
192,192,12336,1,0,0:0:0:0:
64,192,12453,1,2,0:0:0:0:
320,192,12453,1,4,0:0:0:0:
448,192,12453,1,0,0:0:0:0:
192,192,12570,1,0,0:0:0:0:
64,192,12688,1,2,0:0:0:0:
320,192,12688,1,4,0:0:0:0:
448,192,12688,1,0,0:0:0:0:
192,192,12922,1,0,0:0:0:0:
320,192,13039,1,8,0:0:0:0:
448,192,13156,1,0,0:0:0:0:
192,192,13156,1,0,0:0:0:0:
64,192,13156,1,0,0:0:0:0:
320,192,13273,1,8,0:0:0:0:
192,192,13391,1,0,0:0:0:0:
64,192,13391,1,0,0:0:0:0:
192,192,13625,1,0,0:0:0:0:
320,192,13625,1,0,0:0:0:0:
448,192,13625,1,0,0:0:0:0:
192,192,13859,1,0,0:0:0:0:
448,192,13859,1,0,0:0:0:0:
64,192,13859,1,0,0:0:0:0:
320,192,14094,1,0,0:0:0:0:
64,192,14094,1,0,0:0:0:0:
448,192,14094,1,0,0:0:0:0:
320,192,14328,1,8,0:0:0:0:
64,192,14445,1,0,0:0:0:0:
192,192,14445,1,8,0:0:0:0:
320,192,14563,1,0,0:0:0:0:
448,192,14563,1,8,0:0:0:0:
320,192,14680,1,8,0:0:0:0:
448,192,14797,1,0,0:0:0:0:
192,192,14797,1,0,0:0:0:0:
64,192,14797,1,0,0:0:0:0:
448,192,15031,1,0,0:0:0:0:
320,192,15031,1,0,0:0:0:0:
64,192,15031,1,0,0:0:0:0:
192,192,15266,128,0,15500:0:0:0:0:
320,192,15500,128,0,16438:0:0:0:0:
448,192,15500,1,0,0:0:0:0:
64,192,15500,1,0,0:0:0:0:
64,192,15734,1,0,0:0:0:0:
448,192,15852,1,8,0:0:0:0:
192,192,15852,1,0,0:0:0:0:
64,192,15969,1,0,0:0:0:0:
448,192,16086,1,8,0:0:0:0:
64,192,16203,1,0,0:0:0:0:
192,192,16203,1,0,0:0:0:0:
192,192,16438,1,0,0:0:0:0:
448,192,16438,1,0,0:0:0:0:
192,192,16672,1,0,0:0:0:0:
64,192,16672,1,0,0:0:0:0:
64,192,16906,1,0,0:0:0:0:
448,192,16906,1,0,0:0:0:0:
192,192,16906,128,0,17023:0:0:0:0:
320,192,17023,1,2,0:0:0:0:
448,192,17141,1,2,0:0:0:0:
64,192,17141,1,2,0:0:0:0:
192,192,17258,1,2,0:0:0:0:
320,192,17258,1,2,0:0:0:0:
64,192,17375,1,8,0:0:0:0:
448,192,17375,1,2,0:0:0:0:
64,192,17609,1,2,0:0:0:0:
448,192,17609,1,8,0:0:0:0:
320,192,17688,1,2,0:0:0:0:
192,192,17688,1,2,0:0:0:0:
448,192,17766,1,8,0:0:0:0:
64,192,17766,1,2,0:0:0:0:
192,192,17844,1,2,0:0:0:0:
320,192,17844,1,2,0:0:0:0:
448,192,17922,1,2,0:0:0:0:
320,192,18000,1,2,0:0:0:0:
64,192,18000,1,2,0:0:0:0:
192,192,18078,1,2,0:0:0:0:
448,192,18156,1,2,0:0:0:0:
64,192,18156,1,2,0:0:0:0:
320,192,18234,1,2,0:0:0:0:
192,192,18313,1,0,0:0:0:0:
64,192,18313,1,6,0:0:0:0:
448,192,18430,1,0,0:0:0:0:
64,192,18547,1,0,0:0:0:0:
192,192,18547,1,0,0:0:0:0:
448,192,18664,1,8,0:0:0:0:
320,192,18664,1,0,0:0:0:0:
64,192,18781,1,0,0:0:0:0:
192,192,18898,1,0,0:0:0:0:
448,192,18898,1,8,0:0:0:0:
64,192,19016,1,2,0:0:0:0:
320,192,19016,1,0,0:0:0:0:
320,192,19250,1,0,0:0:0:0:
64,192,19250,1,2,0:0:0:0:
448,192,19250,1,0,0:0:0:0:
64,192,19484,1,8,0:0:0:0:
320,192,19484,1,0,0:0:0:0:
192,192,19602,1,0,0:0:0:0:
64,192,19719,128,0,20070:0:0:0:0:
320,192,19719,1,0,0:0:0:0:
448,192,19719,1,0,0:0:0:0:
192,192,20070,1,0,0:0:0:0:
320,192,20070,128,0,20188:0:0:0:0:
448,192,20188,128,10,20422:0:0:0:0:
64,192,20188,1,0,0:0:0:0:
192,192,20305,1,10,0:0:0:0:
320,192,20422,1,0,0:0:0:0:
64,192,20656,1,8,0:0:0:0:
192,192,20656,1,0,0:0:0:0:
448,192,20773,1,0,0:0:0:0:
64,192,20891,1,8,0:0:0:0:
192,192,20891,1,0,0:0:0:0:
192,192,21125,1,0,0:0:0:0:
64,192,21125,1,4,0:0:0:0:
320,192,21125,1,0,0:0:0:0:
448,192,21242,1,0,0:0:0:0:
320,192,21359,1,0,0:0:0:0:
192,192,21477,1,0,0:0:0:0:
64,192,21477,1,8,0:0:0:0:
320,192,21594,1,0,0:0:0:0:
448,192,21711,1,8,0:0:0:0:
192,192,21711,1,0,0:0:0:0:
64,192,21828,1,0,0:0:0:0:
320,192,21828,1,0,0:0:0:0:
448,192,22063,1,0,0:0:0:0:
320,192,22063,1,0,0:0:0:0:
64,192,22063,1,0,0:0:0:0:
192,192,22297,1,0,0:0:0:0:
320,192,22297,1,8,0:0:0:0:
64,192,22414,1,0,0:0:0:0:
448,192,22531,1,0,0:0:0:0:
192,192,22531,1,0,0:0:0:0:
320,192,22648,1,0,0:0:0:0:
192,192,22707,1,0,0:0:0:0:
64,192,22766,128,0,22883:0:0:0:0:
320,192,22883,1,8,0:0:0:0:
448,192,22883,1,0,0:0:0:0:
192,192,22883,128,0,23234:0:0:0:0:
448,192,23117,1,8,0:0:0:0:
320,192,23117,1,0,0:0:0:0:
64,192,23234,1,0,0:0:0:0:
320,192,23469,1,0,0:0:0:0:
64,192,23469,1,0,0:0:0:0:
448,192,23469,1,8,0:0:0:0:
64,192,23703,1,8,0:0:0:0:
192,192,23703,1,0,0:0:0:0:
320,192,23820,1,0,0:0:0:0:
448,192,23820,1,8,0:0:0:0:
64,192,23938,1,4,0:0:0:0:
192,192,23938,1,0,0:0:0:0:
448,192,23938,1,0,0:0:0:0:
320,192,24055,1,0,0:0:0:0:
448,192,24172,1,0,0:0:0:0:
64,192,24172,1,0,0:0:0:0:
192,192,24289,1,8,0:0:0:0:
320,192,24289,1,0,0:0:0:0:
64,192,24406,1,0,0:0:0:0:
448,192,24523,1,8,0:0:0:0:
320,192,24523,1,0,0:0:0:0:
192,192,24641,1,0,0:0:0:0:
64,192,24641,1,0,0:0:0:0:
320,192,24875,1,0,0:0:0:0:
448,192,24875,1,0,0:0:0:0:
64,192,24875,1,0,0:0:0:0:
192,192,25109,1,8,0:0:0:0:
448,192,25109,1,0,0:0:0:0:
64,192,25227,1,0,0:0:0:0:
448,192,25344,128,2,25461:0:0:0:0:
192,192,25344,1,0,0:0:0:0:
64,192,25578,1,0,0:0:0:0:
192,192,25695,128,8,25813:0:0:0:0:
320,192,25695,1,0,0:0:0:0:
448,192,25813,1,0,0:0:0:0:
64,192,25813,1,0,0:0:0:0:
192,192,25930,1,8,0:0:0:0:
320,192,25930,1,0,0:0:0:0:
64,192,26047,128,0,26164:0:0:0:0:
448,192,26047,1,8,0:0:0:0:
320,192,26281,1,0,0:0:0:0:
448,192,26281,1,8,0:0:0:0:
192,192,26398,128,0,26516:0:0:0:0:
64,192,26398,1,0,0:0:0:0:
320,192,26516,1,0,0:0:0:0:
448,192,26516,1,8,0:0:0:0:
64,192,26750,1,4,0:0:0:0:
320,192,26750,1,0,0:0:0:0:
448,192,26750,1,0,0:0:0:0:
192,192,26867,1,0,0:0:0:0:
64,192,26984,1,0,0:0:0:0:
320,192,26984,1,0,0:0:0:0:
448,192,26984,1,0,0:0:0:0:
192,192,27102,1,8,0:0:0:0:
64,192,27219,1,0,0:0:0:0:
448,192,27219,1,0,0:0:0:0:
320,192,27336,1,0,0:0:0:0:
192,192,27453,1,0,0:0:0:0:
448,192,27453,1,8,0:0:0:0:
320,192,27570,1,0,0:0:0:0:
192,192,27688,1,0,0:0:0:0:
64,192,27688,1,4,0:0:0:0:
448,192,27688,1,0,0:0:0:0:
320,192,27805,1,0,0:0:0:0:
192,192,27922,1,0,0:0:0:0:
64,192,27922,1,0,0:0:0:0:
448,192,28039,1,0,0:0:0:0:
192,192,28156,1,0,0:0:0:0:
64,192,28156,1,0,0:0:0:0:
320,192,28273,1,0,0:0:0:0:
64,192,28391,1,0,0:0:0:0:
448,192,28391,1,0,0:0:0:0:
192,192,28508,1,0,0:0:0:0:
320,192,28625,1,0,0:0:0:0:
448,192,28625,1,0,0:0:0:0:
192,192,28742,1,0,0:0:0:0:
64,192,28859,1,2,0:0:0:0:
192,192,28918,1,2,0:0:0:0:
320,192,28977,1,2,0:0:0:0:
448,192,29035,1,2,0:0:0:0:
64,192,29094,1,2,0:0:0:0:
192,192,29152,1,2,0:0:0:0:
320,192,29211,1,2,0:0:0:0:
448,192,29270,1,2,0:0:0:0:
192,192,29328,128,2,29563:0:0:0:0:
320,192,29445,128,2,29563:0:0:0:0:
448,192,29563,1,0,0:0:0:0:
64,192,29563,1,4,0:0:0:0:
320,192,29797,1,0,0:0:0:0:
448,192,29797,1,2,0:0:0:0:
192,192,29797,128,0,29914:0:0:0:0:
64,192,30031,1,2,0:0:0:0:
448,192,30031,128,0,30148:0:0:0:0:
192,192,30266,1,8,0:0:0:0:
64,192,30266,1,0,0:0:0:0:
320,192,30266,1,0,0:0:0:0:
448,192,30266,1,0,0:0:0:0:
64,192,30500,1,2,0:0:0:0:
320,192,30500,1,0,0:0:0:0:
192,192,30500,128,0,30617:0:0:0:0:
448,192,30734,1,2,0:0:0:0:
64,192,30734,128,0,30852:0:0:0:0:
64,192,30969,1,4,0:0:0:0:
320,192,30969,1,0,0:0:0:0:
448,192,30969,1,0,0:0:0:0:
448,192,31203,1,0,0:0:0:0:
320,192,31203,1,2,0:0:0:0:
192,192,31203,128,0,31320:0:0:0:0:
192,192,31438,1,2,0:0:0:0:
64,192,31438,128,0,31555:0:0:0:0:
320,192,31672,1,0,0:0:0:0:
448,192,31672,1,2,0:0:0:0:
64,192,31789,1,2,0:0:0:0:
192,192,31789,1,0,0:0:0:0:
320,192,31906,1,0,0:0:0:0:
448,192,31906,1,2,0:0:0:0:
192,192,32023,1,0,0:0:0:0:
64,192,32023,1,2,0:0:0:0:
448,192,32141,1,0,0:0:0:0:
64,192,32141,1,4,0:0:0:0:
320,192,32141,1,0,0:0:0:0:
192,192,32375,1,0,0:0:0:0:
320,192,32375,128,0,32492:0:0:0:0:
64,192,32375,1,2,0:0:0:0:
448,192,32609,1,2,0:0:0:0:
64,192,32609,128,0,32727:0:0:0:0:
64,192,32844,1,0,0:0:0:0:
192,192,32844,1,8,0:0:0:0:
320,192,32844,1,0,0:0:0:0:
448,192,32844,1,0,0:0:0:0:
64,192,33078,1,2,0:0:0:0:
320,192,33078,1,0,0:0:0:0:
192,192,33078,128,0,33195:0:0:0:0:
320,192,33313,1,2,0:0:0:0:
448,192,33313,128,0,33430:0:0:0:0:
64,192,33547,1,0,0:0:0:0:
192,192,33547,1,0,0:0:0:0:
448,192,33547,1,4,0:0:0:0:
192,192,33781,1,0,0:0:0:0:
448,192,33781,1,2,0:0:0:0:
64,192,33781,128,0,33898:0:0:0:0:
320,192,34016,128,0,34133:0:0:0:0:
448,192,34016,1,2,0:0:0:0:
64,192,34250,1,0,0:0:0:0:
192,192,34250,1,0,0:0:0:0:
448,192,34250,1,4,0:0:0:0:
320,192,34367,1,2,0:0:0:0:
64,192,34484,1,0,0:0:0:0:
192,192,34484,1,2,0:0:0:0:
448,192,34602,1,0,0:0:0:0:
320,192,34602,1,2,0:0:0:0:
192,192,34719,1,0,0:0:0:0:
64,192,34719,1,0,0:0:0:0:
448,192,34719,1,4,0:0:0:0:
192,192,34953,1,0,0:0:0:0:
64,192,34953,1,2,0:0:0:0:
320,192,34953,128,0,35070:0:0:0:0:
448,192,35188,1,2,0:0:0:0:
192,192,35188,128,0,35305:0:0:0:0:
64,192,35422,1,0,0:0:0:0:
192,192,35422,1,8,0:0:0:0:
320,192,35422,1,0,0:0:0:0:
448,192,35422,1,0,0:0:0:0:
192,192,35656,1,0,0:0:0:0:
448,192,35656,1,2,0:0:0:0:
64,192,35656,128,0,35773:0:0:0:0:
448,192,35891,128,0,36008:0:0:0:0:
320,192,35891,1,2,0:0:0:0:
64,192,36125,1,0,0:0:0:0:
192,192,36125,1,0,0:0:0:0:
448,192,36125,1,4,0:0:0:0:
192,192,36359,1,0,0:0:0:0:
320,192,36359,128,0,36477:0:0:0:0:
448,192,36359,1,2,0:0:0:0:
64,192,36594,1,0,0:0:0:0:
448,192,36594,1,2,0:0:0:0:
192,192,36594,128,0,36711:0:0:0:0:
192,192,36828,1,8,0:0:0:0:
448,192,36828,1,2,0:0:0:0:
64,192,36828,1,4,0:0:0:0:
320,192,36945,1,0,0:0:0:0:
64,192,37063,1,4,0:0:0:0:
192,192,37063,1,8,0:0:0:0:
448,192,37063,1,2,0:0:0:0:
320,192,37180,1,0,0:0:0:0:
64,192,37297,1,4,0:0:0:0:
448,192,37297,1,2,0:0:0:0:
192,192,37297,1,8,0:0:0:0:
320,192,37414,1,0,0:0:0:0:
64,192,37531,128,12,38000:0:0:0:0:
448,192,37531,1,4,0:0:0:0:
448,192,37883,1,8,0:0:0:0:
320,192,37883,1,0,0:0:0:0:
320,192,38117,1,0,0:0:0:0:
448,192,38117,1,8,0:0:0:0:
64,192,38234,128,0,38469:0:0:0:0:
192,192,38234,1,4,0:0:0:0:
192,192,38469,128,0,38703:0:0:0:0:
320,192,38469,1,0,0:0:0:0:
448,192,38703,1,8,0:0:0:0:
320,192,38762,1,0,0:0:0:0:
64,192,38820,1,0,0:0:0:0:
320,192,38938,1,4,0:0:0:0:
192,192,38938,1,0,0:0:0:0:
448,192,38938,128,0,39875:0:0:0:0:
320,192,39172,1,0,0:0:0:0:
64,192,39289,1,8,0:0:0:0:
192,192,39289,1,0,0:0:0:0:
320,192,39406,1,0,0:0:0:0:
64,192,39523,1,8,0:0:0:0:
192,192,39523,1,0,0:0:0:0:
320,192,39641,1,0,0:0:0:0:
192,192,39875,1,0,0:0:0:0:
448,192,40109,1,0,0:0:0:0:
64,192,40109,1,8,0:0:0:0:
320,192,40227,1,0,0:0:0:0:
64,192,40344,1,4,0:0:0:0:
448,192,40344,1,4,0:0:0:0:
64,192,40578,1,0,0:0:0:0:
192,192,40578,1,0,0:0:0:0:
320,192,40695,1,8,0:0:0:0:
448,192,40695,1,0,0:0:0:0:
192,192,40813,1,0,0:0:0:0:
64,192,40930,1,0,0:0:0:0:
320,192,40930,1,8,0:0:0:0:
192,192,41047,1,0,0:0:0:0:
320,192,41164,1,0,0:0:0:0:
192,192,41281,1,0,0:0:0:0:
64,192,41281,1,0,0:0:0:0:
448,192,41398,1,0,0:0:0:0:
320,192,41516,1,0,0:0:0:0:
64,192,41516,1,8,0:0:0:0:
192,192,41633,128,0,41750:0:0:0:0:
64,192,41867,128,6,41984:0:0:0:0:
192,192,41867,128,0,41984:0:0:0:0:
320,192,41867,128,0,41984:0:0:0:0:
448,192,41867,128,0,41984:0:0:0:0:
64,192,42102,128,6,42219:0:0:0:0:
192,192,42102,128,0,42219:0:0:0:0:
320,192,42102,128,0,42219:0:0:0:0:
448,192,42102,128,0,42219:0:0:0:0:
64,192,42336,1,6,0:0:0:0:
192,192,42336,1,0,0:0:0:0:
320,192,42336,1,0,0:0:0:0:
448,192,42336,1,0,0:0:0:0:
64,192,42453,1,6,0:0:0:0:
192,192,42453,1,0,0:0:0:0:
320,192,42453,1,0,0:0:0:0:
448,192,42570,1,6,0:0:0:0:
320,192,42688,1,2,0:0:0:0:
64,192,42688,1,0,0:0:0:0:
192,192,42805,1,0,0:0:0:0:
64,192,42922,1,2,0:0:0:0:
448,192,42922,1,0,0:0:0:0:
320,192,43039,1,8,0:0:0:0:
192,192,43039,1,0,0:0:0:0:
192,192,43156,1,0,0:0:0:0:
64,192,43156,1,6,0:0:0:0:
448,192,43156,1,0,0:0:0:0:
192,192,43391,1,0,0:0:0:0:
448,192,43391,1,0,0:0:0:0:
320,192,43508,1,0,0:0:0:0:
64,192,43625,1,0,0:0:0:0:
448,192,43625,1,0,0:0:0:0:
192,192,43742,1,0,0:0:0:0:
64,192,43859,1,4,0:0:0:0:
320,192,43859,1,0,0:0:0:0:
448,192,43859,1,0,0:0:0:0:
64,192,44094,1,4,0:0:0:0:
320,192,44094,1,0,0:0:0:0:
448,192,44094,1,0,0:0:0:0:
64,192,44328,1,0,0:0:0:0:
192,192,44328,1,0,0:0:0:0:
448,192,44328,1,4,0:0:0:0:
320,192,44563,1,0,0:0:0:0:
192,192,44563,1,0,0:0:0:0:
448,192,44563,1,6,0:0:0:0:
64,192,44797,1,0,0:0:0:0:
320,192,44797,1,0,0:0:0:0:
192,192,44914,1,0,0:0:0:0:
448,192,44914,1,8,0:0:0:0:
64,192,45031,1,0,0:0:0:0:
320,192,45031,1,0,0:0:0:0:
192,192,45148,1,0,0:0:0:0:
320,192,45266,5,14,0:0:0:0:
64,192,45266,1,0,0:0:0:0:
448,192,45266,1,0,0:0:0:0:
448,192,45500,1,4,0:0:0:0:
320,192,45500,1,0,0:0:0:0:
192,192,45500,1,0,0:0:0:0:
320,192,45617,1,8,0:0:0:0:
64,192,45617,1,2,0:0:0:0:
64,192,45734,1,0,0:0:0:0:
192,192,45734,1,6,0:0:0:0:
448,192,45734,1,0,0:0:0:0:
320,192,45852,1,2,0:0:0:0:
192,192,45852,1,0,0:0:0:0:
64,192,45969,1,6,0:0:0:0:
448,192,45969,1,2,0:0:0:0:
192,192,46086,1,0,0:0:0:0:
320,192,46203,1,0,0:0:0:0:
448,192,46203,1,0,0:0:0:0:
448,192,46320,1,8,0:0:0:0:
320,192,46320,1,0,0:0:0:0:
64,192,46438,1,0,0:0:0:0:
192,192,46438,1,0,0:0:0:0:
448,192,46555,1,8,0:0:0:0:
320,192,46672,1,2,0:0:0:0:
64,192,46672,1,6,0:0:0:0:
192,192,46730,1,0,0:0:0:0:
448,192,46789,1,0,0:0:0:0:
64,192,46906,1,0,0:0:0:0:
192,192,46906,1,0,0:0:0:0:
192,192,47023,1,0,0:0:0:0:
64,192,47023,1,0,0:0:0:0:
320,192,47141,1,0,0:0:0:0:
448,192,47141,1,8,0:0:0:0:
192,192,47258,1,0,0:0:0:0:
448,192,47375,1,2,0:0:0:0:
320,192,47375,1,4,0:0:0:0:
192,192,47492,1,8,0:0:0:0:
64,192,47492,1,0,0:0:0:0:
448,192,47609,1,0,0:0:0:0:
320,192,47609,1,0,0:0:0:0:
320,192,47727,1,8,0:0:0:0:
448,192,47727,1,0,0:0:0:0:
192,192,47844,1,0,0:0:0:0:
64,192,47844,1,0,0:0:0:0:
320,192,47961,1,0,0:0:0:0:
64,192,48078,1,6,0:0:0:0:
448,192,48078,1,0,0:0:0:0:
320,192,48195,1,0,0:0:0:0:
448,192,48313,1,0,0:0:0:0:
192,192,48313,1,0,0:0:0:0:
320,192,48430,1,0,0:0:0:0:
64,192,48430,1,0,0:0:0:0:
192,192,48547,1,0,0:0:0:0:
448,192,48547,1,0,0:0:0:0:
320,192,48664,1,0,0:0:0:0:
192,192,48781,1,0,0:0:0:0:
64,192,48781,128,6,49016:0:0:0:0:
448,192,49016,1,0,0:0:0:0:
320,192,49016,1,0,0:0:0:0:
64,192,49133,1,0,0:0:0:0:
192,192,49133,1,8,0:0:0:0:
320,192,49250,1,0,0:0:0:0:
448,192,49250,1,0,0:0:0:0:
192,192,49367,1,8,0:0:0:0:
64,192,49367,1,0,0:0:0:0:
64,192,49484,1,6,0:0:0:0:
320,192,49484,1,0,0:0:0:0:
448,192,49484,1,0,0:0:0:0:
64,192,49719,1,0,0:0:0:0:
192,192,49719,1,0,0:0:0:0:
448,192,49719,1,6,0:0:0:0:
64,192,49953,1,0,0:0:0:0:
192,192,49953,1,0,0:0:0:0:
320,192,49953,1,14,0:0:0:0:
448,192,50188,1,0,0:0:0:0:
192,192,50188,1,0,0:0:0:0:
64,192,50188,1,0,0:0:0:0:
320,192,50305,1,0,0:0:0:0:
448,192,50305,1,8,0:0:0:0:
64,192,50422,1,0,0:0:0:0:
448,192,50539,1,8,0:0:0:0:
320,192,50539,1,0,0:0:0:0:
192,192,50656,1,0,0:0:0:0:
448,192,50773,1,0,0:0:0:0:
320,192,50891,1,0,0:0:0:0:
192,192,50891,1,6,0:0:0:0:
64,192,50891,1,0,0:0:0:0:
64,192,51125,1,0,0:0:0:0:
192,192,51125,1,0,0:0:0:0:
448,192,51125,1,6,0:0:0:0:
64,192,51359,1,6,0:0:0:0:
192,192,51359,1,0,0:0:0:0:
448,192,51359,1,6,0:0:0:0:
64,192,51594,1,6,0:0:0:0:
320,192,51594,1,0,0:0:0:0:
448,192,51594,1,6,0:0:0:0:
192,192,51711,1,0,0:0:0:0:
320,192,51828,1,0,0:0:0:0:
64,192,51828,1,0,0:0:0:0:
448,192,51945,1,0,0:0:0:0:
192,192,51945,1,8,0:0:0:0:
320,192,52063,1,0,0:0:0:0:
448,192,52180,1,0,0:0:0:0:
64,192,52297,1,4,0:0:0:0:
320,192,52297,1,0,0:0:0:0:
192,192,52297,1,0,0:0:0:0:
448,192,52414,1,0,0:0:0:0:
320,192,52531,1,0,0:0:0:0:
64,192,52531,1,0,0:0:0:0:
192,192,52648,1,0,0:0:0:0:
448,192,52648,1,8,0:0:0:0:
320,192,52766,1,0,0:0:0:0:
448,192,52883,1,0,0:0:0:0:
320,192,53000,1,0,0:0:0:0:
192,192,53000,1,0,0:0:0:0:
64,192,53000,1,4,0:0:0:0:
448,192,53117,1,0,0:0:0:0:
320,192,53117,1,0,0:0:0:0:
320,192,53234,1,0,0:0:0:0:
64,192,53234,1,0,0:0:0:0:
192,192,53352,1,8,0:0:0:0:
448,192,53352,1,0,0:0:0:0:
64,192,53469,1,0,0:0:0:0:
320,192,53586,1,0,0:0:0:0:
64,192,53703,1,0,0:0:0:0:
192,192,53703,1,0,0:0:0:0:
448,192,53703,1,6,0:0:0:0:
320,192,53820,1,0,0:0:0:0:
64,192,53938,1,0,0:0:0:0:
192,192,53938,1,0,0:0:0:0:
448,192,53938,1,6,0:0:0:0:
320,192,54055,1,0,0:0:0:0:
64,192,54172,1,0,0:0:0:0:
192,192,54172,1,0,0:0:0:0:
448,192,54172,1,6,0:0:0:0:
320,192,54289,1,0,0:0:0:0:
192,192,54406,1,0,0:0:0:0:
448,192,54406,1,6,0:0:0:0:
64,192,54406,1,0,0:0:0:0:
320,192,54523,1,0,0:0:0:0:
448,192,54641,1,8,0:0:0:0:
192,192,54641,1,0,0:0:0:0:
64,192,54758,1,0,0:0:0:0:
448,192,54875,1,0,0:0:0:0:
320,192,54992,1,0,0:0:0:0:
64,192,54992,1,8,0:0:0:0:
448,192,55109,1,0,0:0:0:0:
64,192,55227,1,0,0:0:0:0:
320,192,55227,1,0,0:0:0:0:
192,192,55344,1,0,0:0:0:0:
448,192,55344,1,10,0:0:0:0:
320,192,55461,1,0,0:0:0:0:
448,192,55578,1,4,0:0:0:0:
192,192,55578,1,0,0:0:0:0:
64,192,55578,1,0,0:0:0:0:
64,192,55813,1,0,0:0:0:0:
192,192,55813,1,0,0:0:0:0:
448,192,55813,1,4,0:0:0:0:
448,192,56047,1,4,0:0:0:0:
192,192,56047,1,0,0:0:0:0:
64,192,56047,1,0,0:0:0:0:
320,192,56164,1,0,0:0:0:0:
192,192,56281,1,0,0:0:0:0:
448,192,56281,1,8,0:0:0:0:
320,192,56398,1,0,0:0:0:0:
448,192,56516,1,0,0:0:0:0:
192,192,56516,1,0,0:0:0:0:
320,192,56633,1,8,0:0:0:0:
64,192,56633,1,0,0:0:0:0:
192,192,56750,1,0,0:0:0:0:
64,192,56867,1,0,0:0:0:0:
320,192,56867,1,0,0:0:0:0:
448,192,56984,1,10,0:0:0:0:
192,192,56984,1,0,0:0:0:0:
320,192,57102,1,0,0:0:0:0:
192,192,57219,1,0,0:0:0:0:
448,192,57219,1,4,0:0:0:0:
64,192,57219,1,0,0:0:0:0:
64,192,57453,1,0,0:0:0:0:
192,192,57453,1,0,0:0:0:0:
448,192,57453,1,4,0:0:0:0:
64,192,57688,1,0,0:0:0:0:
192,192,57688,1,0,0:0:0:0:
448,192,57688,1,4,0:0:0:0:
320,192,57805,1,0,0:0:0:0:
448,192,57922,1,8,0:0:0:0:
192,192,57922,1,0,0:0:0:0:
64,192,58039,1,0,0:0:0:0:
448,192,58156,1,0,0:0:0:0:
320,192,58273,1,0,0:0:0:0:
64,192,58273,1,8,0:0:0:0:
448,192,58391,1,0,0:0:0:0:
64,192,58508,1,0,0:0:0:0:
320,192,58508,1,0,0:0:0:0:
192,192,58625,1,0,0:0:0:0:
448,192,58625,1,10,0:0:0:0:
320,192,58742,1,0,0:0:0:0:
448,192,58859,1,4,0:0:0:0:
192,192,58859,1,0,0:0:0:0:
64,192,58859,1,0,0:0:0:0:
64,192,59094,1,0,0:0:0:0:
192,192,59094,1,0,0:0:0:0:
448,192,59094,1,4,0:0:0:0:
448,192,59328,1,4,0:0:0:0:
192,192,59328,1,0,0:0:0:0:
64,192,59328,1,0,0:0:0:0:
64,192,59563,1,2,0:0:0:0:
192,192,59680,1,0,0:0:0:0:
320,192,59680,1,0,0:0:0:0:
448,192,59680,1,4,0:0:0:0:
448,192,59914,1,2,0:0:0:0:
64,192,60031,1,6,0:0:0:0:
320,192,60031,1,0,0:0:0:0:
192,192,60031,1,0,0:0:0:0:
320,192,60266,1,2,0:0:0:0:
64,192,60383,1,0,0:0:0:0:
192,192,60383,1,0,0:0:0:0:
448,192,60383,1,6,0:0:0:0:
64,192,60734,1,4,0:0:0:0:
448,192,60734,1,4,0:0:0:0:
192,192,60734,1,0,0:0:0:0:
320,192,60852,1,0,0:0:0:0:
192,192,60969,1,0,0:0:0:0:
64,192,60969,1,8,0:0:0:0:
320,192,61086,1,0,0:0:0:0:
192,192,61203,1,0,0:0:0:0:
64,192,61203,1,0,0:0:0:0:
448,192,61320,1,8,0:0:0:0:
320,192,61320,1,0,0:0:0:0:
192,192,61438,1,0,0:0:0:0:
448,192,61555,1,0,0:0:0:0:
320,192,61555,1,0,0:0:0:0:
192,192,61672,1,0,0:0:0:0:
64,192,61672,1,8,0:0:0:0:
320,192,61789,1,0,0:0:0:0:
64,192,61906,1,0,0:0:0:0:
192,192,61906,1,0,0:0:0:0:
448,192,61906,1,4,0:0:0:0:
64,192,62141,1,4,0:0:0:0:
320,192,62141,1,0,0:0:0:0:
448,192,62141,1,0,0:0:0:0:
64,192,62375,1,4,0:0:0:0:
320,192,62375,1,0,0:0:0:0:
448,192,62375,1,0,0:0:0:0:
192,192,62492,1,0,0:0:0:0:
320,192,62609,1,0,0:0:0:0:
448,192,62609,1,8,0:0:0:0:
64,192,62727,1,0,0:0:0:0:
192,192,62844,1,0,0:0:0:0:
320,192,62844,1,0,0:0:0:0:
64,192,62961,1,0,0:0:0:0:
448,192,62961,1,8,0:0:0:0:
192,192,63078,1,0,0:0:0:0:
448,192,63195,1,0,0:0:0:0:
320,192,63195,1,0,0:0:0:0:
64,192,63313,1,8,0:0:0:0:
192,192,63313,1,0,0:0:0:0:
320,192,63430,1,0,0:0:0:0:
64,192,63547,1,0,0:0:0:0:
192,192,63547,1,0,0:0:0:0:
448,192,63547,1,4,0:0:0:0:
64,192,63781,1,0,0:0:0:0:
320,192,63781,1,0,0:0:0:0:
448,192,63781,1,4,0:0:0:0:
192,192,64016,1,0,0:0:0:0:
64,192,64016,1,0,0:0:0:0:
448,192,64016,1,4,0:0:0:0:
320,192,64133,1,0,0:0:0:0:
64,192,64250,1,0,0:0:0:0:
448,192,64250,1,8,0:0:0:0:
192,192,64367,1,0,0:0:0:0:
320,192,64484,1,0,0:0:0:0:
448,192,64484,1,0,0:0:0:0:
64,192,64602,1,0,0:0:0:0:
192,192,64602,1,8,0:0:0:0:
320,192,64719,1,0,0:0:0:0:
448,192,64836,1,0,0:0:0:0:
64,192,64836,1,0,0:0:0:0:
192,192,64953,1,0,0:0:0:0:
320,192,64953,1,8,0:0:0:0:
448,192,65070,1,0,0:0:0:0:
64,192,65188,1,0,0:0:0:0:
192,192,65188,1,0,0:0:0:0:
320,192,65188,1,4,0:0:0:0:
64,192,65422,1,0,0:0:0:0:
192,192,65422,1,0,0:0:0:0:
448,192,65422,1,4,0:0:0:0:
64,192,65656,1,4,0:0:0:0:
320,192,65656,1,4,0:0:0:0:
448,192,65656,1,4,0:0:0:0:
192,192,66008,1,0,0:0:0:0:
64,192,66008,1,0,0:0:0:0:
448,192,66008,1,4,0:0:0:0:
64,192,66359,1,0,0:0:0:0:
192,192,66359,1,0,0:0:0:0:
448,192,66359,1,4,0:0:0:0:
64,192,66711,1,0,0:0:0:0:
448,192,66711,1,12,0:0:0:0:
320,192,66711,1,0,0:0:0:0:
64,192,67063,1,6,0:0:0:0:
320,192,67063,1,2,0:0:0:0:
192,192,67180,1,2,0:0:0:0:
448,192,67180,1,2,0:0:0:0:
320,192,67297,1,2,0:0:0:0:
192,192,67414,1,2,0:0:0:0:
64,192,67414,1,6,0:0:0:0:
320,192,67531,1,2,0:0:0:0:
448,192,67531,1,2,0:0:0:0:
192,192,67648,1,2,0:0:0:0:
64,192,67766,1,6,0:0:0:0:
448,192,67766,1,6,0:0:0:0:
320,192,67883,1,2,0:0:0:0:
192,192,67883,1,2,0:0:0:0:
64,192,68000,1,2,0:0:0:0:
192,192,68117,1,2,0:0:0:0:
448,192,68117,1,6,0:0:0:0:
64,192,68234,1,2,0:0:0:0:
320,192,68234,1,2,0:0:0:0:
448,192,68352,1,2,0:0:0:0:
64,192,68469,128,0,69055:0:0:0:0:
192,192,68469,1,4,0:0:0:0:
448,192,68820,128,10,69055:0:0:0:0:
320,192,68820,1,0,0:0:0:0:
320,192,69055,128,0,69172:0:0:0:0:
192,192,69055,1,0,0:0:0:0:
192,192,69172,128,0,69406:0:0:0:0:
320,192,69406,128,0,69641:0:0:0:0:
64,192,69406,1,0,0:0:0:0:
448,192,69406,1,0,0:0:0:0:
448,192,69641,128,0,69875:0:0:0:0:
192,192,69641,1,0,0:0:0:0:
64,192,69875,1,0,0:0:0:0:
320,192,69875,1,0,0:0:0:0:
192,192,69992,1,8,0:0:0:0:
320,192,70109,1,0,0:0:0:0:
448,192,70109,1,0,0:0:0:0:
64,192,70227,1,8,0:0:0:0:
192,192,70344,1,0,0:0:0:0:
448,192,70344,1,0,0:0:0:0:
192,192,70578,1,0,0:0:0:0:
64,192,70578,1,8,0:0:0:0:
448,192,70578,1,0,0:0:0:0:
320,192,70813,1,8,0:0:0:0:
64,192,70813,1,8,0:0:0:0:
448,192,70813,1,0,0:0:0:0:
192,192,70930,1,10,0:0:0:0:
320,192,71047,1,2,0:0:0:0:
448,192,71164,1,2,0:0:0:0:
192,192,71281,1,0,0:0:0:0:
64,192,71281,1,4,0:0:0:0:
320,192,71281,1,0,0:0:0:0:
192,192,71633,128,0,71750:0:0:0:0:
64,192,71633,1,0,0:0:0:0:
448,192,71633,1,0,0:0:0:0:
320,192,71750,128,0,71867:0:0:0:0:
192,192,71867,1,0,0:0:0:0:
448,192,71984,1,4,0:0:0:0:
64,192,71984,128,0,72453:0:0:0:0:
448,192,72219,128,0,72453:0:0:0:0:
320,192,72453,128,8,72570:0:0:0:0:
192,192,72453,1,0,0:0:0:0:
192,192,72570,128,0,72688:0:0:0:0:
64,192,72688,1,0,0:0:0:0:
320,192,72688,1,0,0:0:0:0:
448,192,72805,1,0,0:0:0:0:
192,192,72805,1,0,0:0:0:0:
320,192,72922,1,0,0:0:0:0:
64,192,72922,1,0,0:0:0:0:
192,192,73039,1,0,0:0:0:0:
448,192,73039,1,0,0:0:0:0:
320,192,73156,1,0,0:0:0:0:
64,192,73156,1,0,0:0:0:0:
192,192,73273,1,0,0:0:0:0:
64,192,73391,128,4,73977:0:0:0:0:
448,192,73391,128,4,73977:0:0:0:0:
320,192,73625,1,8,0:0:0:0:
192,192,73742,1,2,0:0:0:0:
320,192,73859,1,10,0:0:0:0:
192,192,73977,1,10,0:0:0:0:
320,192,74094,1,0,0:0:0:0:
64,192,74094,1,4,0:0:0:0:
448,192,74094,1,0,0:0:0:0:
192,192,74328,1,0,0:0:0:0:
320,192,74328,1,0,0:0:0:0:
448,192,74445,1,0,0:0:0:0:
64,192,74445,1,8,0:0:0:0:
192,192,74563,1,0,0:0:0:0:
320,192,74680,1,0,0:0:0:0:
448,192,74680,1,10,0:0:0:0:
192,192,74797,1,0,0:0:0:0:
64,192,74797,128,0,75031:0:0:0:0:
448,192,75031,128,0,75148:0:0:0:0:
320,192,75266,1,0,0:0:0:0:
192,192,75266,1,8,0:0:0:0:
64,192,75383,1,0,0:0:0:0:
320,192,75500,1,0,0:0:0:0:
448,192,75500,1,4,0:0:0:0:
192,192,75617,1,0,0:0:0:0:
64,192,75617,1,8,0:0:0:0:
320,192,75734,1,0,0:0:0:0:
192,192,75852,1,0,0:0:0:0:
64,192,75852,1,8,0:0:0:0:
320,192,75969,1,0,0:0:0:0:
192,192,76086,1,0,0:0:0:0:
320,192,76203,1,0,0:0:0:0:
448,192,76203,128,8,76438:0:0:0:0:
64,192,76438,128,0,76672:0:0:0:0:
320,192,76672,128,0,76906:0:0:0:0:
192,192,76906,1,0,0:0:0:0:
64,192,76906,1,0,0:0:0:0:
448,192,76906,1,4,0:0:0:0:
64,192,77609,1,0,0:0:0:0:
320,192,77609,1,0,0:0:0:0:
448,192,77609,1,0,0:0:0:0:
192,192,77727,1,0,0:0:0:0:
64,192,77844,1,0,0:0:0:0:
320,192,77961,1,0,0:0:0:0:
448,192,78078,1,0,0:0:0:0:
320,192,78195,1,0,0:0:0:0:
192,192,78313,1,0,0:0:0:0:
64,192,78313,1,0,0:0:0:0:
448,192,78313,1,0,0:0:0:0:
320,192,78430,1,0,0:0:0:0:
192,192,78547,1,0,0:0:0:0:
64,192,78547,1,0,0:0:0:0:
448,192,78547,1,0,0:0:0:0:
320,192,78664,1,0,0:0:0:0:
64,192,78781,1,0,0:0:0:0:
448,192,78781,1,0,0:0:0:0:
192,192,78898,1,0,0:0:0:0:
64,192,79016,128,0,79250:0:0:0:0:
320,192,79016,128,0,79250:0:0:0:0:
448,192,79016,128,0,79250:0:0:0:0:
64,192,79367,1,8,0:0:0:0:
192,192,79426,1,0,0:0:0:0:
320,192,79484,1,0,0:0:0:0:
448,192,79543,1,0,0:0:0:0:
64,192,79602,1,8,0:0:0:0:
192,192,79660,1,0,0:0:0:0:
448,192,79719,1,2,0:0:0:0:
320,192,79719,1,2,0:0:0:0:
192,192,79953,1,2,0:0:0:0:
448,192,79953,1,2,0:0:0:0:
320,192,80070,1,2,0:0:0:0:
448,192,80188,1,2,0:0:0:0:
64,192,80305,1,2,0:0:0:0:
192,192,80422,1,2,0:0:0:0:
320,192,80422,1,2,0:0:0:0:
448,192,80422,1,2,0:0:0:0:
320,192,80656,1,2,0:0:0:0:
64,192,80656,1,2,0:0:0:0:
64,192,80891,1,2,0:0:0:0:
192,192,80891,1,2,0:0:0:0:
320,192,81125,1,2,0:0:0:0:
448,192,81125,1,2,0:0:0:0:
64,192,81125,1,2,0:0:0:0:
320,192,81359,1,2,0:0:0:0:
448,192,81477,1,2,0:0:0:0:
320,192,81594,1,2,0:0:0:0:
192,192,81711,1,2,0:0:0:0:
64,192,81828,1,2,0:0:0:0:
448,192,81828,1,2,0:0:0:0:
448,192,82063,1,2,0:0:0:0:
192,192,82297,1,2,0:0:0:0:
192,192,82531,1,2,0:0:0:0:
64,192,82531,1,2,0:0:0:0:
320,192,82648,1,2,0:0:0:0:
192,192,82766,1,2,0:0:0:0:
448,192,82883,1,2,0:0:0:0:
320,192,83000,1,2,0:0:0:0:
448,192,83117,1,2,0:0:0:0:
64,192,83234,1,2,0:0:0:0:
192,192,83234,1,2,0:0:0:0:
320,192,83352,1,2,0:0:0:0:
192,192,83469,1,2,0:0:0:0:
320,192,83586,1,2,0:0:0:0:
448,192,83703,1,2,0:0:0:0:
320,192,83820,1,2,0:0:0:0:
64,192,83938,1,2,0:0:0:0:
192,192,83938,1,2,0:0:0:0:
448,192,84055,1,2,0:0:0:0:
64,192,84172,1,2,0:0:0:0:
320,192,84289,1,2,0:0:0:0:
192,192,84406,1,2,0:0:0:0:
320,192,84523,1,2,0:0:0:0:
64,192,84641,1,2,0:0:0:0:
448,192,84641,1,2,0:0:0:0:
192,192,84758,1,2,0:0:0:0:
64,192,84875,1,2,0:0:0:0:
320,192,84992,1,2,0:0:0:0:
448,192,85109,1,2,0:0:0:0:
320,192,85227,1,2,0:0:0:0:
192,192,85344,1,2,0:0:0:0:
64,192,85344,1,2,0:0:0:0:
448,192,85344,1,6,0:0:0:0:
320,192,85578,1,0,0:0:0:0:
192,192,85695,1,0,0:0:0:0:
64,192,85813,1,0,0:0:0:0:
320,192,85813,1,0,0:0:0:0:
448,192,85930,1,0,0:0:0:0:
320,192,86047,1,4,0:0:0:0:
192,192,86047,1,0,0:0:0:0:
192,192,86281,1,0,0:0:0:0:
64,192,86281,1,0,0:0:0:0:
192,192,86516,1,0,0:0:0:0:
448,192,86516,1,0,0:0:0:0:
64,192,86750,1,4,0:0:0:0:
320,192,86750,1,0,0:0:0:0:
448,192,86750,1,0,0:0:0:0:
192,192,86867,1,0,0:0:0:0:
320,192,86984,1,0,0:0:0:0:
64,192,86984,1,0,0:0:0:0:
448,192,87102,1,0,0:0:0:0:
64,192,87219,1,0,0:0:0:0:
320,192,87219,1,0,0:0:0:0:
192,192,87336,1,0,0:0:0:0:
320,192,87453,1,2,0:0:0:0:
448,192,87453,1,6,0:0:0:0:
192,192,87688,1,2,0:0:0:0:
320,192,87688,1,2,0:0:0:0:
64,192,87922,1,6,0:0:0:0:
192,192,87922,1,2,0:0:0:0:
320,192,88156,1,4,0:0:0:0:
448,192,88156,1,0,0:0:0:0:
192,192,88156,1,4,0:0:0:0:
64,192,88273,1,0,0:0:0:0:
192,192,88391,1,4,0:0:0:0:
320,192,88391,1,4,0:0:0:0:
448,192,88391,1,0,0:0:0:0:
64,192,88508,1,0,0:0:0:0:
448,192,88625,1,4,0:0:0:0:
320,192,88625,1,4,0:0:0:0:
192,192,88742,1,0,0:0:0:0:
64,192,88859,1,4,0:0:0:0:
320,192,88859,1,4,0:0:0:0:
448,192,88859,1,0,0:0:0:0:
192,192,88977,1,0,0:0:0:0:
64,192,89094,1,4,0:0:0:0:
320,192,89094,1,4,0:0:0:0:
448,192,89094,1,0,0:0:0:0:
192,192,89211,1,0,0:0:0:0:
64,192,89328,1,4,0:0:0:0:
448,192,89328,1,4,0:0:0:0:
320,192,89445,1,0,0:0:0:0:
64,192,89563,1,0,0:0:0:0:
192,192,89563,1,4,0:0:0:0:
448,192,89563,1,4,0:0:0:0:
320,192,89680,1,0,0:0:0:0:
64,192,89797,1,0,0:0:0:0:
192,192,89797,1,4,0:0:0:0:
448,192,89797,1,4,0:0:0:0:
320,192,89914,1,0,0:0:0:0:
448,192,90031,1,4,0:0:0:0:
192,192,90031,1,4,0:0:0:0:
64,192,90148,1,0,0:0:0:0:
192,192,90266,1,4,0:0:0:0:
320,192,90266,1,4,0:0:0:0:
448,192,90266,1,0,0:0:0:0:
64,192,90383,1,0,0:0:0:0:
192,192,90500,1,4,0:0:0:0:
448,192,90500,1,0,0:0:0:0:
320,192,90500,1,4,0:0:0:0:
64,192,90617,1,0,0:0:0:0:
192,192,90734,1,4,0:0:0:0:
320,192,90734,1,4,0:0:0:0:
448,192,90734,1,0,0:0:0:0:
64,192,90969,1,0,0:0:0:0:
192,192,90969,1,0,0:0:0:0:
448,192,90969,1,0,0:0:0:0:
320,192,91086,1,0,0:0:0:0:
192,192,91203,1,0,0:0:0:0:
448,192,91203,1,8,0:0:0:0:
64,192,91320,1,0,0:0:0:0:
320,192,91438,1,0,0:0:0:0:
448,192,91438,1,0,0:0:0:0:
192,192,91555,1,0,0:0:0:0:
64,192,91555,1,8,0:0:0:0:
448,192,91672,1,0,0:0:0:0:
320,192,91789,1,0,0:0:0:0:
192,192,91906,1,0,0:0:0:0:
448,192,91906,1,8,0:0:0:0:
64,192,92141,1,4,0:0:0:0:
192,192,92141,1,0,0:0:0:0:
320,192,92141,1,0,0:0:0:0:
64,192,92375,1,0,0:0:0:0:
320,192,92375,1,0,0:0:0:0:
448,192,92375,1,4,0:0:0:0:
64,192,92609,1,4,0:0:0:0:
192,192,92609,1,0,0:0:0:0:
320,192,92609,1,0,0:0:0:0:
448,192,92844,1,0,0:0:0:0:
192,192,92844,1,0,0:0:0:0:
64,192,92961,1,0,0:0:0:0:
448,192,93078,1,0,0:0:0:0:
320,192,93078,1,0,0:0:0:0:
192,192,93195,1,0,0:0:0:0:
64,192,93195,1,0,0:0:0:0:
320,192,93313,1,0,0:0:0:0:
448,192,93313,1,0,0:0:0:0:
192,192,93430,1,0,0:0:0:0:
64,192,93547,1,0,0:0:0:0:
448,192,93547,1,0,0:0:0:0:
192,192,93781,128,0,94016:0:0:0:0:
64,192,93781,1,0,0:0:0:0:
448,192,93781,1,4,0:0:0:0:
320,192,94016,128,0,94250:0:0:0:0:
64,192,94016,1,0,0:0:0:0:
448,192,94016,1,4,0:0:0:0:
448,192,94250,128,4,94484:0:0:0:0:
64,192,94250,1,0,0:0:0:0:
192,192,94250,1,0,0:0:0:0:
64,192,94484,1,8,0:0:0:0:
320,192,94484,1,0,0:0:0:0:
192,192,94602,1,0,0:0:0:0:
320,192,94719,1,0,0:0:0:0:
448,192,94719,1,0,0:0:0:0:
192,192,94836,1,0,0:0:0:0:
64,192,94836,1,8,0:0:0:0:
320,192,94953,1,0,0:0:0:0:
448,192,94953,1,0,0:0:0:0:
192,192,95070,1,0,0:0:0:0:
320,192,95188,1,0,0:0:0:0:
64,192,95188,1,8,0:0:0:0:
64,192,95422,1,2,0:0:0:0:
192,192,95422,1,2,0:0:0:0:
448,192,95422,1,2,0:0:0:0:
64,192,95656,1,2,0:0:0:0:
320,192,95656,1,2,0:0:0:0:
448,192,95656,1,2,0:0:0:0:
192,192,95891,128,4,96125:0:0:0:0:
64,192,95891,128,4,96125:0:0:0:0:
448,192,95891,128,4,96125:0:0:0:0:
64,192,96242,128,4,96477:0:0:0:0:
320,192,96242,128,4,96477:0:0:0:0:
448,192,96242,128,4,96477:0:0:0:0:
64,192,96594,128,4,96828:0:0:0:0:
192,192,96594,128,4,96828:0:0:0:0:
320,192,96594,128,4,96828:0:0:0:0:
448,192,96945,128,4,97180:0:0:0:0:
320,192,96945,128,4,97180:0:0:0:0:
64,192,96945,128,4,97180:0:0:0:0:
64,192,97297,1,0,0:0:0:0:
320,192,97297,1,0,0:0:0:0:
192,192,97414,1,0,0:0:0:0:
448,192,97531,1,8,0:0:0:0:
64,192,97531,1,8,0:0:0:0:
192,192,97648,1,0,0:0:0:0:
320,192,97766,1,0,0:0:0:0:
448,192,97766,1,0,0:0:0:0:
192,192,97883,1,0,0:0:0:0:
64,192,97883,1,8,0:0:0:0:
320,192,98000,1,0,0:0:0:0:
448,192,98000,1,0,0:0:0:0:
192,192,98117,1,0,0:0:0:0:
64,192,98234,1,8,0:0:0:0:
320,192,98234,1,0,0:0:0:0:
448,192,98352,1,0,0:0:0:0:
64,192,98469,1,4,0:0:0:0:
192,192,98469,1,0,0:0:0:0:
320,192,98469,1,0,0:0:0:0:
448,192,98703,1,0,0:0:0:0:
320,192,98703,1,0,0:0:0:0:
64,192,98703,1,4,0:0:0:0:
64,192,98938,1,4,0:0:0:0:
192,192,98938,1,0,0:0:0:0:
320,192,98938,1,0,0:0:0:0:
448,192,99172,1,8,0:0:0:0:
320,192,99172,1,0,0:0:0:0:
192,192,99230,1,0,0:0:0:0:
64,192,99289,1,0,0:0:0:0:
448,192,99318,1,0,0:0:0:0:
320,192,99406,1,0,0:0:0:0:
192,192,99406,1,0,0:0:0:0:
64,192,99523,1,8,0:0:0:0:
448,192,99523,1,0,0:0:0:0:
192,192,99641,1,0,0:0:0:0:
320,192,99641,1,0,0:0:0:0:
64,192,99758,1,0,0:0:0:0:
320,192,99875,1,0,0:0:0:0:
448,192,99875,1,0,0:0:0:0:
64,192,99992,1,0,0:0:0:0:
192,192,100109,1,4,0:0:0:0:
320,192,100109,1,0,0:0:0:0:
448,192,100227,1,0,0:0:0:0:
192,192,100344,1,4,0:0:0:0:
64,192,100344,1,0,0:0:0:0:
320,192,100461,1,0,0:0:0:0:
448,192,100578,1,0,0:0:0:0:
64,192,100578,1,4,0:0:0:0:
192,192,100695,1,0,0:0:0:0:
320,192,100813,1,0,0:0:0:0:
64,192,100813,1,8,0:0:0:0:
448,192,100930,1,0,0:0:0:0:
192,192,101047,1,0,0:0:0:0:
320,192,101047,1,0,0:0:0:0:
448,192,101164,1,8,0:0:0:0:
64,192,101164,1,0,0:0:0:0:
320,192,101281,1,0,0:0:0:0:
192,192,101281,1,0,0:0:0:0:
64,192,101398,1,0,0:0:0:0:
448,192,101516,1,0,0:0:0:0:
320,192,101516,1,0,0:0:0:0:
192,192,101633,1,0,0:0:0:0:
320,192,101750,1,0,0:0:0:0:
64,192,101750,1,0,0:0:0:0:
448,192,101750,1,4,0:0:0:0:
64,192,101984,1,0,0:0:0:0:
192,192,101984,1,0,0:0:0:0:
448,192,101984,1,4,0:0:0:0:
320,192,102219,1,0,0:0:0:0:
448,192,102219,1,4,0:0:0:0:
192,192,102219,1,0,0:0:0:0:
192,192,102453,1,0,0:0:0:0:
320,192,102570,1,4,0:0:0:0:
448,192,102570,1,8,0:0:0:0:
64,192,102570,1,0,0:0:0:0:
64,192,102922,1,4,0:0:0:0:
192,192,102922,1,0,0:0:0:0:
320,192,102922,1,0,0:0:0:0:
320,192,103156,1,0,0:0:0:0:
192,192,103273,1,4,0:0:0:0:
64,192,103273,1,8,0:0:0:0:
448,192,103273,1,0,0:0:0:0:
192,192,103625,1,2,0:0:0:0:
448,192,103625,1,2,0:0:0:0:
320,192,103742,1,2,0:0:0:0:
64,192,103742,1,2,0:0:0:0:
192,192,103859,1,2,0:0:0:0:
448,192,103859,1,2,0:0:0:0:
64,192,103977,1,2,0:0:0:0:
320,192,103977,1,2,0:0:0:0:
448,192,104094,1,2,0:0:0:0:
192,192,104094,1,2,0:0:0:0:
320,192,104211,1,2,0:0:0:0:
64,192,104211,1,2,0:0:0:0:
448,192,104328,1,2,0:0:0:0:
192,192,104445,1,2,0:0:0:0:
320,192,104445,1,2,0:0:0:0:
64,192,104563,1,2,0:0:0:0:
448,192,104563,1,2,0:0:0:0:
192,192,104680,1,2,0:0:0:0:
320,192,104680,1,2,0:0:0:0:
64,192,104797,1,2,0:0:0:0:
448,192,104797,1,2,0:0:0:0:
320,192,104914,1,2,0:0:0:0:
192,192,104914,1,2,0:0:0:0:
64,192,105031,1,6,0:0:0:0:
192,192,105148,1,2,0:0:0:0:
448,192,105148,1,2,0:0:0:0:
320,192,105266,1,2,0:0:0:0:
64,192,105266,1,2,0:0:0:0:
448,192,105383,1,6,0:0:0:0:
192,192,105383,1,2,0:0:0:0:
320,192,105500,1,2,0:0:0:0:
64,192,105500,1,2,0:0:0:0:
192,192,105617,1,2,0:0:0:0:
448,192,105734,1,2,0:0:0:0:
64,192,105734,1,6,0:0:0:0:
192,192,105852,1,2,0:0:0:0:
320,192,105852,1,2,0:0:0:0:
448,192,105969,1,2,0:0:0:0:
64,192,105969,1,2,0:0:0:0:
320,192,106086,1,6,0:0:0:0:
192,192,106086,1,2,0:0:0:0:
448,192,106203,1,2,0:0:0:0:
64,192,106203,1,2,0:0:0:0:
192,192,106320,1,2,0:0:0:0:
64,192,106438,128,0,106906:0:0:0:0:
320,192,106438,1,0,0:0:0:0:
448,192,106555,1,0,0:0:0:0:
192,192,106672,1,0,0:0:0:0:
320,192,106789,1,0,0:0:0:0:
448,192,106789,1,8,0:0:0:0:
192,192,106906,1,0,0:0:0:0:
320,192,107023,1,0,0:0:0:0:
448,192,107023,1,8,0:0:0:0:
192,192,107141,1,0,0:0:0:0:
64,192,107141,128,0,107258:0:0:0:0:
192,192,107375,1,0,0:0:0:0:
320,192,107375,1,0,0:0:0:0:
448,192,107492,1,0,0:0:0:0:
64,192,107609,1,0,0:0:0:0:
192,192,107609,1,0,0:0:0:0:
448,192,107727,1,0,0:0:0:0:
320,192,107727,1,0,0:0:0:0:
192,192,107844,1,0,0:0:0:0:
64,192,107844,1,0,0:0:0:0:
448,192,107961,1,2,0:0:0:0:
64,192,108078,1,2,0:0:0:0:
192,192,108195,1,2,0:0:0:0:
320,192,108313,1,2,0:0:0:0:
448,192,108430,1,2,0:0:0:0:
320,192,108547,1,2,0:0:0:0:
64,192,108664,1,2,0:0:0:0:
192,192,108781,1,2,0:0:0:0:
320,192,108898,1,2,0:0:0:0:
192,192,109016,1,2,0:0:0:0:
64,192,109133,1,2,0:0:0:0:
448,192,109250,1,2,0:0:0:0:
320,192,109367,1,0,0:0:0:0:
192,192,109367,1,0,0:0:0:0:
448,192,109367,1,2,0:0:0:0:
64,192,109367,1,2,0:0:0:0:
64,192,109602,1,2,0:0:0:0:
192,192,109602,1,0,0:0:0:0:
448,192,109602,1,2,0:0:0:0:
320,192,109602,1,0,0:0:0:0:
64,192,110305,128,6,112063:0:0:0:0:
448,192,110305,128,6,111828:0:0:0:0:
320,192,110305,128,0,111945:0:0:0:0:
192,192,110305,1,0,0:0:0:0:
