osu file format v14

[General]
AudioFilename: audio.mp3
AudioLeadIn: 0
PreviewTime: -1
Countdown: 0
SampleSet: None
StackLeniency: 0.7
Mode: 3
LetterboxInBreaks: 0
SpecialStyle: 0
WidescreenStoryboard: 0

[Editor]
DistanceSpacing: 0.5
BeatDivisor: 4
GridSize: 32
TimelineZoom: 1

[Metadata]
Title:Alstroemeria
TitleUnicode:アルストロメリア
Artist:TAG
ArtistUnicode:TAG
Creator:IControl
Version:Another
Source:jubeat copius
Tags:
BeatmapID:2852519
BeatmapSetID:956118

[Difficulty]
HPDrainRate:9
CircleSize:4
OverallDifficulty:9
ApproachRate:5
SliderMultiplier:1.4
SliderTickRate:1

[Events]
//Background and Video events
0,0,"alstroemeria-bouquet-closeup.jpg",0,0
//Break Periods
//Storyboard Layer 0 (Background)
//Storyboard Layer 1 (Fail)
//Storyboard Layer 2 (Pass)
//Storyboard Layer 3 (Foreground)
//Storyboard Layer 4 (Overlay)
//Storyboard Sound Samples

[TimingPoints]
366,416.666666666667,4,2,1,25,1,0

[HitObjects]
448,192,366,5,4,0:0:0:0:
64,192,366,1,0,0:0:0:0:
320,192,366,1,4,0:0:0:0:
320,192,678,1,0,0:0:0:0:
64,192,678,1,0,0:0:0:0:
192,192,782,1,0,0:0:0:0:
64,192,886,1,0,0:0:0:0:
192,192,991,1,0,0:0:0:0:
320,192,1095,1,0,0:0:0:0:
448,192,1199,1,0,0:0:0:0:
192,192,1199,1,0,0:0:0:0:
320,192,1303,1,0,0:0:0:0:
192,192,1407,1,0,0:0:0:0:
64,192,1407,1,0,0:0:0:0:
320,192,1511,1,0,0:0:0:0:
448,192,1616,1,0,0:0:0:0:
320,192,1720,1,4,0:0:0:0:
192,192,1720,1,4,0:0:0:0:
64,192,1720,1,0,0:0:0:0:
448,192,1928,1,4,0:0:0:0:
320,192,1928,1,4,0:0:0:0:
320,192,2241,1,0,0:0:0:0:
448,192,2345,1,0,0:0:0:0:
64,192,2449,1,0,0:0:0:0:
192,192,2449,1,0,0:0:0:0:
320,192,2553,1,0,0:0:0:0:
192,192,2657,1,0,0:0:0:0:
64,192,2761,1,0,0:0:0:0:
192,192,2866,1,0,0:0:0:0:
320,192,2866,1,0,0:0:0:0:
448,192,2970,1,0,0:0:0:0:
320,192,3074,1,0,0:0:0:0:
192,192,3178,1,0,0:0:0:0:
448,192,3282,1,0,0:0:0:0:
320,192,3386,1,4,0:0:0:0:
64,192,3386,1,0,0:0:0:0:
192,192,3386,1,4,0:0:0:0:
448,192,3595,1,4,0:0:0:0:
320,192,3595,1,4,0:0:0:0:
64,192,3907,1,0,0:0:0:0:
448,192,3907,1,0,0:0:0:0:
192,192,4011,1,0,0:0:0:0:
320,192,4116,1,0,0:0:0:0:
448,192,4220,1,0,0:0:0:0:
320,192,4324,1,0,0:0:0:0:
192,192,4428,1,0,0:0:0:0:
64,192,4532,1,0,0:0:0:0:
320,192,4532,1,4,0:0:0:0:
448,192,4532,1,4,0:0:0:0:
192,192,4636,1,0,0:0:0:0:
64,192,4741,1,0,0:0:0:0:
320,192,4845,1,0,0:0:0:0:
448,192,4949,1,0,0:0:0:0:
192,192,5053,1,0,0:0:0:0:
64,192,5157,1,0,0:0:0:0:
192,192,5261,1,4,0:0:0:0:
320,192,5261,1,4,0:0:0:0:
448,192,5261,1,0,0:0:0:0:
320,192,5470,1,8,0:0:0:0:
192,192,5574,1,12,0:0:0:0:
64,192,5574,1,0,0:0:0:0:
448,192,5678,1,8,0:0:0:0:
64,192,5782,1,8,0:0:0:0:
192,192,5886,1,4,0:0:0:0:
448,192,5886,1,8,0:0:0:0:
320,192,5991,1,8,0:0:0:0:
64,192,5991,1,0,0:0:0:0:
448,192,6095,1,8,0:0:0:0:
320,192,6199,1,0,0:0:0:0:
192,192,6199,1,4,0:0:0:0:
64,192,6199,1,4,0:0:0:0:
448,192,6303,1,8,0:0:0:0:
192,192,6407,1,0,0:0:0:0:
64,192,6511,1,8,0:0:0:0:
320,192,6616,1,4,0:0:0:0:
448,192,6616,1,4,0:0:0:0:
192,192,6616,1,0,0:0:0:0:
64,192,6720,1,8,0:0:0:0:
448,192,6824,1,8,0:0:0:0:
320,192,6928,1,8,0:0:0:0:
64,192,7032,1,4,0:0:0:0:
192,192,7032,1,4,0:0:0:0:
448,192,7032,1,0,0:0:0:0:
320,192,7345,1,0,0:0:0:0:
192,192,7345,1,0,0:0:0:0:
448,192,7449,1,0,0:0:0:0:
320,192,7553,1,0,0:0:0:0:
192,192,7657,1,0,0:0:0:0:
320,192,7761,1,0,0:0:0:0:
64,192,7866,1,0,0:0:0:0:
448,192,7866,1,0,0:0:0:0:
192,192,7970,1,0,0:0:0:0:
320,192,8074,1,0,0:0:0:0:
64,192,8074,1,0,0:0:0:0:
448,192,8178,1,0,0:0:0:0:
320,192,8282,1,0,0:0:0:0:
64,192,8386,1,4,0:0:0:0:
192,192,8386,1,4,0:0:0:0:
448,192,8386,1,0,0:0:0:0:
320,192,8595,1,4,0:0:0:0:
192,192,8595,1,4,0:0:0:0:
320,192,8907,1,0,0:0:0:0:
448,192,9011,1,0,0:0:0:0:
320,192,9116,1,0,0:0:0:0:
192,192,9116,1,0,0:0:0:0:
448,192,9220,1,0,0:0:0:0:
64,192,9324,1,0,0:0:0:0:
192,192,9428,1,0,0:0:0:0:
448,192,9532,1,2,0:0:0:0:
320,192,9532,1,2,0:0:0:0:
64,192,9532,1,0,0:0:0:0:
192,192,9636,1,0,0:0:0:0:
320,192,9741,1,0,0:0:0:0:
448,192,9741,1,0,0:0:0:0:
192,192,9845,1,0,0:0:0:0:
320,192,9949,1,0,0:0:0:0:
448,192,10053,1,0,0:0:0:0:
192,192,10053,1,4,0:0:0:0:
64,192,10053,1,4,0:0:0:0:
448,192,10261,1,4,0:0:0:0:
320,192,10261,1,4,0:0:0:0:
64,192,10574,1,0,0:0:0:0:
320,192,10574,1,0,0:0:0:0:
448,192,10678,1,0,0:0:0:0:
320,192,10782,1,0,0:0:0:0:
192,192,10782,1,0,0:0:0:0:
448,192,10886,1,0,0:0:0:0:
192,192,10991,1,0,0:0:0:0:
64,192,11095,1,0,0:0:0:0:
448,192,11199,1,4,0:0:0:0:
320,192,11199,1,0,0:0:0:0:
192,192,11199,1,0,0:0:0:0:
64,192,11303,1,0,0:0:0:0:
192,192,11407,1,0,0:0:0:0:
320,192,11407,1,0,0:0:0:0:
64,192,11511,1,0,0:0:0:0:
320,192,11616,1,0,0:0:0:0:
448,192,11616,1,0,0:0:0:0:
192,192,11720,1,0,0:0:0:0:
448,192,11824,1,8,0:0:0:0:
192,192,11928,1,12,0:0:0:0:
64,192,11928,1,12,0:0:0:0:
320,192,11928,1,8,0:0:0:0:
448,192,12136,1,8,0:0:0:0:
64,192,12241,1,8,0:0:0:0:
192,192,12241,1,8,0:0:0:0:
320,192,12241,1,8,0:0:0:0:
448,192,12345,1,8,0:0:0:0:
320,192,12449,1,8,0:0:0:0:
64,192,12449,1,8,0:0:0:0:
192,192,12449,1,8,0:0:0:0:
448,192,12553,1,8,0:0:0:0:
64,192,12657,1,8,0:0:0:0:
192,192,12761,1,8,0:0:0:0:
320,192,12866,1,8,0:0:0:0:
64,192,12866,1,4,0:0:0:0:
448,192,12970,1,8,0:0:0:0:
320,192,13074,1,8,0:0:0:0:
448,192,13178,1,8,0:0:0:0:
192,192,13282,1,4,0:0:0:0:
64,192,13282,1,8,0:0:0:0:
320,192,13386,1,8,0:0:0:0:
192,192,13491,1,8,0:0:0:0:
64,192,13595,1,8,0:0:0:0:
192,192,13699,1,0,0:0:0:0:
320,192,13699,1,4,0:0:0:0:
448,192,13699,1,2,0:0:0:0:
64,192,13907,1,0,0:0:0:0:
448,192,14011,1,0,0:0:0:0:
320,192,14011,1,0,0:0:0:0:
192,192,14011,1,0,0:0:0:0:
192,192,14220,1,0,0:0:0:0:
64,192,14324,1,0,0:0:0:0:
448,192,14324,1,0,0:0:0:0:
320,192,14324,1,0,0:0:0:0:
448,192,14532,1,0,0:0:0:0:
64,192,14741,1,0,0:0:0:0:
448,192,14949,1,0,0:0:0:0:
64,192,15053,1,0,0:0:0:0:
192,192,15053,1,4,0:0:0:0:
320,192,15053,1,4,0:0:0:0:
448,192,15261,1,4,0:0:0:0:
320,192,15261,1,4,0:0:0:0:
192,192,15574,1,0,0:0:0:0:
64,192,15574,1,0,0:0:0:0:
448,192,15574,1,0,0:0:0:0:
320,192,15782,1,0,0:0:0:0:
64,192,15886,1,0,0:0:0:0:
192,192,15886,1,0,0:0:0:0:
448,192,15886,1,0,0:0:0:0:
320,192,16095,1,0,0:0:0:0:
192,192,16199,1,0,0:0:0:0:
64,192,16199,1,0,0:0:0:0:
448,192,16199,1,0,0:0:0:0:
64,192,16407,1,0,0:0:0:0:
448,192,16511,1,0,0:0:0:0:
320,192,16511,1,0,0:0:0:0:
64,192,16720,1,0,0:0:0:0:
320,192,16720,1,4,0:0:0:0:
448,192,16720,1,4,0:0:0:0:
192,192,16824,1,0,0:0:0:0:
448,192,16928,1,4,0:0:0:0:
320,192,16928,1,4,0:0:0:0:
64,192,17032,1,4,0:0:0:0:
192,192,17032,1,4,0:0:0:0:
320,192,17032,1,0,0:0:0:0:
64,192,17345,1,0,0:0:0:0:
192,192,17345,1,0,0:0:0:0:
320,192,17345,1,0,0:0:0:0:
64,192,17657,1,0,0:0:0:0:
192,192,17657,1,0,0:0:0:0:
448,192,17657,1,0,0:0:0:0:
448,192,17866,1,4,0:0:0:0:
320,192,17866,1,4,0:0:0:0:
64,192,17866,1,0,0:0:0:0:
64,192,18074,1,0,0:0:0:0:
448,192,18282,1,0,0:0:0:0:
320,192,18386,1,0,0:0:0:0:
64,192,18386,1,0,0:0:0:0:
320,192,18595,1,4,0:0:0:0:
192,192,18595,1,2,0:0:0:0:
448,192,18595,1,4,0:0:0:0:
64,192,18907,1,4,0:0:0:0:
192,192,18907,1,4,0:0:0:0:
448,192,18907,1,8,0:0:0:0:
320,192,19116,1,8,0:0:0:0:
192,192,19220,1,4,0:0:0:0:
448,192,19220,1,8,0:0:0:0:
64,192,19220,1,4,0:0:0:0:
320,192,19428,1,8,0:0:0:0:
192,192,19532,1,4,0:0:0:0:
64,192,19532,1,4,0:0:0:0:
448,192,19636,1,8,0:0:0:0:
320,192,19636,1,8,0:0:0:0:
192,192,19741,1,8,0:0:0:0:
64,192,19845,1,8,0:0:0:0:
320,192,19845,1,4,0:0:0:0:
448,192,19845,1,4,0:0:0:0:
192,192,19949,128,2,20157:0:0:0:0:
64,192,20157,1,8,0:0:0:0:
320,192,20261,1,8,0:0:0:0:
64,192,20366,1,4,0:0:0:0:
448,192,20366,1,0,0:0:0:0:
192,192,20366,1,4,0:0:0:0:
320,192,20574,1,0,0:0:0:0:
448,192,20678,1,0,0:0:0:0:
64,192,20678,1,0,0:0:0:0:
192,192,20678,1,0,0:0:0:0:
64,192,20886,1,0,0:0:0:0:
448,192,20991,1,0,0:0:0:0:
320,192,20991,1,0,0:0:0:0:
192,192,20991,1,0,0:0:0:0:
64,192,21407,1,0,0:0:0:0:
192,192,21616,1,0,0:0:0:0:
320,192,21616,1,0,0:0:0:0:
192,192,21720,1,4,0:0:0:0:
320,192,21824,1,4,0:0:0:0:
448,192,22032,1,0,0:0:0:0:
448,192,22241,1,0,0:0:0:0:
320,192,22345,1,0,0:0:0:0:
448,192,22553,1,0,0:0:0:0:
64,192,22553,1,0,0:0:0:0:
192,192,22761,1,0,0:0:0:0:
320,192,22761,1,0,0:0:0:0:
448,192,22761,1,0,0:0:0:0:
64,192,23491,1,0,0:0:0:0:
192,192,23595,1,0,0:0:0:0:
64,192,23699,1,4,0:0:0:0:
448,192,24011,1,0,0:0:0:0:
320,192,24011,1,0,0:0:0:0:
192,192,24324,1,0,0:0:0:0:
192,192,24532,1,4,0:0:0:0:
448,192,24532,1,0,0:0:0:0:
64,192,24532,1,4,0:0:0:0:
320,192,24845,1,0,0:0:0:0:
192,192,25261,1,4,0:0:0:0:
64,192,25261,1,0,0:0:0:0:
448,192,25261,1,4,0:0:0:0:
320,192,25574,1,12,0:0:0:0:
448,192,25574,1,12,0:0:0:0:
64,192,25574,1,8,0:0:0:0:
192,192,25782,1,8,0:0:0:0:
64,192,25886,1,8,0:0:0:0:
320,192,25886,1,12,0:0:0:0:
448,192,25886,1,12,0:0:0:0:
320,192,26095,1,8,0:0:0:0:
64,192,26199,1,12,0:0:0:0:
192,192,26303,1,8,0:0:0:0:
448,192,26407,1,8,0:0:0:0:
320,192,26511,1,8,0:0:0:0:
192,192,26616,1,8,0:0:0:0:
448,192,26824,1,8,0:0:0:0:
192,192,26928,1,8,0:0:0:0:
448,192,27032,1,4,0:0:0:0:
64,192,27032,1,0,0:0:0:0:
320,192,27032,1,4,0:0:0:0:
64,192,27345,1,0,0:0:0:0:
192,192,27345,1,0,0:0:0:0:
192,192,27657,1,0,0:0:0:0:
320,192,27657,1,0,0:0:0:0:
64,192,28386,1,4,0:0:0:0:
192,192,28491,1,0,0:0:0:0:
448,192,28595,1,4,0:0:0:0:
64,192,28595,1,0,0:0:0:0:
320,192,28595,1,4,0:0:0:0:
320,192,29324,1,0,0:0:0:0:
64,192,29532,1,0,0:0:0:0:
320,192,29532,1,0,0:0:0:0:
192,192,29741,1,0,0:0:0:0:
448,192,29741,1,0,0:0:0:0:
448,192,29949,1,4,0:0:0:0:
320,192,29949,1,4,0:0:0:0:
64,192,29949,1,0,0:0:0:0:
448,192,30157,1,0,0:0:0:0:
192,192,30157,1,0,0:0:0:0:
320,192,30366,1,4,0:0:0:0:
192,192,30366,1,4,0:0:0:0:
64,192,30366,1,0,0:0:0:0:
192,192,30678,1,0,0:0:0:0:
320,192,30678,1,0,0:0:0:0:
64,192,30991,1,0,0:0:0:0:
192,192,30991,1,0,0:0:0:0:
448,192,30991,1,0,0:0:0:0:
320,192,31199,1,4,0:0:0:0:
448,192,31199,1,0,0:0:0:0:
192,192,31199,1,4,0:0:0:0:
192,192,31824,1,0,0:0:0:0:
320,192,31928,1,0,0:0:0:0:
192,192,32032,1,4,0:0:0:0:
64,192,32032,1,4,0:0:0:0:
448,192,32241,1,0,0:0:0:0:
320,192,32241,1,4,0:0:0:0:
192,192,32241,1,4,0:0:0:0:
64,192,32449,1,0,0:0:0:0:
192,192,32553,1,4,0:0:0:0:
448,192,32553,1,0,0:0:0:0:
320,192,32553,1,4,0:0:0:0:
320,192,32761,1,0,0:0:0:0:
192,192,32866,1,0,0:0:0:0:
64,192,32970,1,0,0:0:0:0:
320,192,33074,128,2,33282:0:0:0:0:
192,192,33074,1,0,0:0:0:0:
64,192,33178,1,0,0:0:0:0:
448,192,33282,128,2,33491:0:0:0:0:
192,192,33282,1,0,0:0:0:0:
192,192,33491,128,2,33699:0:0:0:0:
320,192,33491,1,0,0:0:0:0:
448,192,33699,1,2,0:0:0:0:
64,192,33699,1,2,0:0:0:0:
320,192,33699,1,4,0:0:0:0:
320,192,34011,1,0,0:0:0:0:
448,192,34116,1,0,0:0:0:0:
192,192,34116,1,0,0:0:0:0:
64,192,34116,1,0,0:0:0:0:
64,192,34324,1,0,0:0:0:0:
320,192,34324,1,2,2:2:0:0:
320,192,34428,1,2,2:2:0:0:
64,192,34532,1,0,0:0:0:0:
192,192,34532,1,0,0:0:0:0:
320,192,34741,1,0,0:0:0:0:
192,192,34741,1,0,0:0:0:0:
448,192,34949,1,0,0:0:0:0:
320,192,34949,1,0,0:0:0:0:
64,192,34949,1,0,0:0:0:0:
192,192,35157,1,0,0:0:0:0:
320,192,35157,1,2,0:0:0:0:
64,192,35157,128,2,35574:0:0:0:0:
448,192,35574,1,2,0:0:0:0:
448,192,35678,1,2,0:0:0:0:
192,192,35678,1,2,0:0:0:0:
320,192,35991,1,2,0:0:0:0:
320,192,36095,1,2,0:0:0:0:
64,192,36095,1,2,0:0:0:0:
320,192,36407,1,2,0:0:0:0:
64,192,36407,1,2,0:0:0:0:
320,192,36616,1,2,0:0:0:0:
448,192,36720,1,2,0:0:0:0:
192,192,36720,1,2,0:0:0:0:
448,192,36928,1,4,0:0:0:0:
64,192,36928,1,0,0:0:0:0:
192,192,36928,1,6,0:0:0:0:
320,192,37241,1,2,0:0:0:0:
448,192,37241,128,2,37657:0:0:0:0:
192,192,37449,1,2,0:0:0:0:
64,192,37449,128,2,37657:0:0:0:0:
320,192,37657,1,2,0:0:0:0:
320,192,37761,1,2,0:0:0:0:
448,192,37866,1,2,0:0:0:0:
192,192,37866,128,2,38282:0:0:0:0:
64,192,38074,1,2,0:0:0:0:
448,192,38282,1,2,0:0:0:0:
320,192,38282,1,2,0:0:0:0:
192,192,38491,1,2,0:0:0:0:
192,192,38699,1,2,0:0:0:0:
64,192,38699,1,2,0:0:0:0:
448,192,38907,1,2,0:0:0:0:
192,192,39011,1,2,0:0:0:0:
64,192,39011,1,2,0:0:0:0:
448,192,39011,1,2,0:0:0:0:
320,192,39220,1,2,0:0:0:0:
64,192,39324,1,2,0:0:0:0:
320,192,39324,1,2,0:0:0:0:
448,192,39428,1,2,0:0:0:0:
192,192,39532,1,4,0:0:0:0:
64,192,39532,128,2,40366:0:0:0:0:
448,192,39741,1,2,0:0:0:0:
320,192,39741,1,4,0:0:0:0:
192,192,39949,1,10,0:0:0:0:
448,192,39949,128,2,40366:0:0:0:0:
320,192,40157,1,0,0:0:0:0:
192,192,40366,1,4,0:0:0:0:
192,192,40991,1,0,0:0:0:0:
64,192,40991,128,0,41824:0:0:0:0:
192,192,41199,1,0,0:0:0:0:
192,192,41407,1,0,0:0:0:0:
320,192,41616,1,0,0:0:0:0:
448,192,41824,1,0,0:0:0:0:
64,192,42241,1,2,0:0:0:0:
320,192,42345,1,2,0:0:0:0:
64,192,42345,1,2,0:0:0:0:
192,192,42657,1,2,0:0:0:0:
448,192,42761,1,2,0:0:0:0:
192,192,42761,1,2,0:0:0:0:
448,192,43074,1,2,0:0:0:0:
192,192,43074,1,2,0:0:0:0:
192,192,43282,1,2,0:0:0:0:
64,192,43386,1,2,0:0:0:0:
320,192,43386,1,2,0:0:0:0:
64,192,43595,1,2,0:0:0:0:
320,192,43595,1,6,0:0:0:0:
448,192,43595,1,2,0:0:0:0:
448,192,43907,128,2,44324:0:0:0:0:
320,192,43907,1,2,0:0:0:0:
192,192,44116,1,2,0:0:0:0:
64,192,44116,128,2,44324:0:0:0:0:
320,192,44324,1,2,0:0:0:0:
192,192,44428,1,2,0:0:0:0:
192,192,44532,1,2,0:0:0:0:
320,192,44532,128,6,45157:0:0:0:0:
64,192,44741,1,2,0:0:0:0:
192,192,44949,1,2,0:0:0:0:
448,192,44949,128,2,45157:0:0:0:0:
64,192,45157,1,2,0:0:0:0:
64,192,45366,1,0,0:0:0:0:
192,192,45366,1,0,0:0:0:0:
448,192,45366,1,0,0:0:0:0:
64,192,45678,1,0,0:0:0:0:
192,192,45678,1,0,0:0:0:0:
448,192,45678,1,0,0:0:0:0:
64,192,45991,1,0,0:0:0:0:
192,192,46095,1,0,0:0:0:0:
320,192,46199,1,2,0:0:0:0:
320,192,46303,1,2,0:0:0:0:
64,192,46407,1,0,0:0:0:0:
448,192,46616,1,0,0:0:0:0:
320,192,46616,1,4,0:0:0:0:
192,192,46616,1,4,0:0:0:0:
64,192,46824,1,0,0:0:0:0:
192,192,46928,1,0,0:0:0:0:
448,192,47032,1,0,0:0:0:0:
64,192,47032,128,4,47345:0:0:0:0:
448,192,47345,1,0,0:0:0:0:
448,192,47657,1,0,0:0:0:0:
64,192,47657,1,0,0:0:0:0:
320,192,47761,1,0,0:0:0:0:
192,192,47761,1,0,0:0:0:0:
448,192,47866,1,0,0:0:0:0:
448,192,47970,1,0,0:0:0:0:
64,192,47970,1,0,0:0:0:0:
192,192,48074,1,0,0:0:0:0:
448,192,48282,1,0,0:0:0:0:
192,192,48282,1,0,0:0:0:0:
320,192,48386,1,0,0:0:0:0:
192,192,48491,1,0,0:0:0:0:
64,192,48595,1,4,0:0:0:0:
448,192,48595,1,12,0:0:0:0:
448,192,48803,1,8,0:0:0:0:
320,192,48803,1,8,0:0:0:0:
192,192,48907,1,8,0:0:0:0:
64,192,49011,1,8,0:0:0:0:
448,192,49116,1,8,0:0:0:0:
192,192,49116,1,8,0:0:0:0:
320,192,49220,1,8,0:0:0:0:
192,192,49324,1,8,0:0:0:0:
64,192,49428,1,8,0:0:0:0:
320,192,49428,1,8,0:0:0:0:
448,192,49428,128,10,49949:0:0:0:0:
192,192,49532,1,8,0:0:0:0:
320,192,49636,1,8,0:0:0:0:
192,192,49741,1,8,0:0:0:0:
64,192,49845,1,8,0:0:0:0:
320,192,49949,1,8,0:0:0:0:
192,192,49949,128,12,50366:0:0:0:0:
320,192,50157,1,8,0:0:0:0:
64,192,50261,1,8,0:0:0:0:
448,192,50366,1,4,0:0:0:0:
320,192,50470,1,0,0:0:0:0:
448,192,50574,1,0,0:0:0:0:
192,192,50678,1,0,0:0:0:0:
320,192,50782,1,4,0:0:0:0:
448,192,50782,1,0,0:0:0:0:
64,192,50886,1,0,0:0:0:0:
320,192,50991,1,0,0:0:0:0:
192,192,50991,1,0,0:0:0:0:
448,192,51095,1,0,0:0:0:0:
64,192,51199,1,0,0:0:0:0:
320,192,51199,1,8,0:0:0:0:
192,192,51303,1,0,0:0:0:0:
448,192,51303,1,0,0:0:0:0:
320,192,51407,1,0,0:0:0:0:
64,192,51407,1,0,0:0:0:0:
192,192,51511,1,0,0:0:0:0:
64,192,51616,1,0,0:0:0:0:
320,192,51616,1,8,0:0:0:0:
448,192,51616,1,0,0:0:0:0:
192,192,51720,1,0,0:0:0:0:
320,192,51824,1,0,0:0:0:0:
64,192,51824,1,0,0:0:0:0:
448,192,51928,1,0,0:0:0:0:
320,192,52032,1,2,0:0:0:0:
192,192,52032,1,0,0:0:0:0:
64,192,52032,1,0,0:0:0:0:
448,192,52136,1,0,0:0:0:0:
320,192,52241,1,0,0:0:0:0:
192,192,52241,1,0,0:0:0:0:
64,192,52345,1,0,0:0:0:0:
448,192,52345,1,0,0:0:0:0:
192,192,52449,1,0,0:0:0:0:
320,192,52449,1,4,0:0:0:0:
64,192,52553,1,0,0:0:0:0:
192,192,52657,1,0,0:0:0:0:
448,192,52657,1,0,0:0:0:0:
64,192,52761,1,0,0:0:0:0:
192,192,52866,1,8,0:0:0:0:
320,192,52970,1,0,0:0:0:0:
448,192,52970,1,0,0:0:0:0:
192,192,53074,1,0,0:0:0:0:
64,192,53074,1,0,0:0:0:0:
320,192,53178,1,0,0:0:0:0:
64,192,53282,1,0,0:0:0:0:
448,192,53282,1,0,0:0:0:0:
192,192,53282,1,8,0:0:0:0:
320,192,53386,1,0,0:0:0:0:
192,192,53491,1,0,0:0:0:0:
448,192,53491,1,0,0:0:0:0:
64,192,53595,1,0,0:0:0:0:
320,192,53699,1,8,0:0:0:0:
192,192,53699,1,0,0:0:0:0:
448,192,53699,1,0,0:0:0:0:
64,192,53803,1,0,0:0:0:0:
320,192,53907,1,0,0:0:0:0:
192,192,54011,1,0,0:0:0:0:
448,192,54116,1,0,0:0:0:0:
320,192,54116,1,4,0:0:0:0:
192,192,54220,1,0,0:0:0:0:
448,192,54324,1,0,0:0:0:0:
64,192,54324,1,0,0:0:0:0:
192,192,54428,1,0,0:0:0:0:
448,192,54532,1,0,0:0:0:0:
320,192,54532,1,8,0:0:0:0:
64,192,54636,1,0,0:0:0:0:
192,192,54636,1,0,0:0:0:0:
448,192,54741,1,0,0:0:0:0:
320,192,54741,1,0,0:0:0:0:
192,192,54845,1,0,0:0:0:0:
448,192,54949,1,0,0:0:0:0:
64,192,54949,1,0,0:0:0:0:
320,192,54949,1,8,0:0:0:0:
192,192,55053,1,0,0:0:0:0:
320,192,55157,1,0,0:0:0:0:
64,192,55261,1,0,0:0:0:0:
320,192,55366,1,0,0:0:0:0:
192,192,55366,1,0,0:0:0:0:
448,192,55366,128,0,55991:0:0:0:0:
192,192,55678,1,0,0:0:0:0:
64,192,55991,128,0,57032:0:0:0:0:
320,192,55991,1,0,0:0:0:0:
192,192,56199,1,8,0:0:0:0:
320,192,56303,1,0,0:0:0:0:
448,192,56303,1,0,0:0:0:0:
192,192,56407,1,0,0:0:0:0:
320,192,56511,1,0,0:0:0:0:
192,192,56616,1,10,0:0:0:0:
448,192,56616,1,8,0:0:0:0:
320,192,56824,1,8,0:0:0:0:
448,192,56824,1,8,0:0:0:0:
192,192,56928,1,8,0:0:0:0:
448,192,57032,1,2,0:0:0:0:
320,192,57032,1,2,0:0:0:0:
192,192,57136,1,0,0:0:0:0:
64,192,57241,1,0,0:0:0:0:
448,192,57241,1,0,0:0:0:0:
320,192,57345,1,0,0:0:0:0:
192,192,57345,1,0,0:0:0:0:
64,192,57449,1,4,0:0:0:0:
448,192,57553,1,0,0:0:0:0:
320,192,57657,1,0,0:0:0:0:
192,192,57657,1,0,0:0:0:0:
64,192,57761,1,0,0:0:0:0:
448,192,57866,1,0,0:0:0:0:
320,192,57866,1,8,0:0:0:0:
64,192,57970,1,0,0:0:0:0:
192,192,57970,1,0,0:0:0:0:
320,192,58074,1,0,0:0:0:0:
192,192,58178,1,0,0:0:0:0:
448,192,58282,1,4,0:0:0:0:
64,192,58282,1,0,0:0:0:0:
320,192,58282,1,8,0:0:0:0:
192,192,58386,1,0,0:0:0:0:
448,192,58491,1,0,0:0:0:0:
64,192,58491,1,0,0:0:0:0:
320,192,58595,1,0,0:0:0:0:
448,192,58699,1,0,0:0:0:0:
192,192,58699,1,8,0:0:0:0:
64,192,58699,1,0,0:0:0:0:
320,192,58803,1,0,0:0:0:0:
448,192,58907,1,0,0:0:0:0:
320,192,59011,1,0,0:0:0:0:
64,192,59011,1,0,0:0:0:0:
192,192,59116,1,0,0:0:0:0:
448,192,59116,1,8,0:0:0:0:
64,192,59220,1,0,0:0:0:0:
192,192,59324,1,0,0:0:0:0:
320,192,59324,1,0,0:0:0:0:
448,192,59428,1,0,0:0:0:0:
192,192,59532,1,8,0:0:0:0:
320,192,59532,1,0,0:0:0:0:
64,192,59636,1,0,0:0:0:0:
448,192,59636,1,0,0:0:0:0:
192,192,59741,1,0,0:0:0:0:
320,192,59845,1,0,0:0:0:0:
448,192,59949,1,4,0:0:0:0:
64,192,59949,1,0,0:0:0:0:
192,192,59949,1,4,0:0:0:0:
320,192,60053,1,0,0:0:0:0:
448,192,60157,1,0,0:0:0:0:
192,192,60157,1,0,0:0:0:0:
320,192,60261,1,0,0:0:0:0:
192,192,60366,1,2,0:0:0:0:
64,192,60366,1,0,0:0:0:0:
448,192,60366,1,0,0:0:0:0:
320,192,60470,1,0,0:0:0:0:
192,192,60574,1,0,0:0:0:0:
320,192,60678,1,0,0:0:0:0:
448,192,60678,1,0,0:0:0:0:
64,192,60782,1,0,0:0:0:0:
192,192,60782,1,4,0:0:0:0:
448,192,60886,1,0,0:0:0:0:
192,192,60991,1,0,0:0:0:0:
320,192,60991,1,0,0:0:0:0:
64,192,61095,1,0,0:0:0:0:
320,192,61199,1,8,0:0:0:0:
448,192,61199,1,0,0:0:0:0:
192,192,61303,1,0,0:0:0:0:
64,192,61303,1,0,0:0:0:0:
320,192,61407,1,0,0:0:0:0:
448,192,61407,1,0,0:0:0:0:
192,192,61511,1,0,0:0:0:0:
64,192,61616,1,0,0:0:0:0:
320,192,61616,1,12,0:0:0:0:
448,192,61616,1,4,0:0:0:0:
192,192,61720,1,0,0:0:0:0:
448,192,61824,1,0,0:0:0:0:
320,192,61928,1,0,0:0:0:0:
192,192,62032,1,0,0:0:0:0:
64,192,62032,1,4,0:0:0:0:
448,192,62032,1,4,0:0:0:0:
320,192,62136,1,0,0:0:0:0:
64,192,62241,1,0,0:0:0:0:
448,192,62345,1,4,0:0:0:0:
320,192,62345,1,4,0:0:0:0:
192,192,62345,1,0,0:0:0:0:
64,192,62449,1,0,0:0:0:0:
448,192,62553,1,0,0:0:0:0:
192,192,62657,1,4,0:0:0:0:
64,192,62657,1,0,0:0:0:0:
320,192,62657,1,0,0:0:0:0:
448,192,62761,1,0,0:0:0:0:
192,192,62866,1,0,0:0:0:0:
64,192,62866,1,0,0:0:0:0:
448,192,62970,1,4,0:0:0:0:
320,192,62970,1,4,0:0:0:0:
192,192,63074,1,0,0:0:0:0:
448,192,63178,1,0,0:0:0:0:
64,192,63282,1,4,0:0:0:0:
192,192,63282,1,4,0:0:0:0:
320,192,63282,1,0,0:0:0:0:
320,192,63491,1,2,0:0:0:0:
192,192,63491,1,0,0:0:0:0:
448,192,63491,1,0,0:0:0:0:
64,192,63595,1,0,0:0:0:0:
320,192,63699,1,0,0:0:0:0:
448,192,63699,1,0,0:0:0:0:
192,192,63699,128,4,63907:0:0:0:0:
64,192,64011,1,0,0:0:0:0:
448,192,64011,128,0,64220:0:0:0:0:
320,192,64324,1,0,0:0:0:0:
192,192,64324,1,0,0:0:0:0:
64,192,64532,1,0,0:0:0:0:
320,192,64532,1,0,0:0:0:0:
192,192,64532,1,0,0:0:0:0:
64,192,64741,128,0,64845:0:0:0:0:
448,192,64845,1,0,0:0:0:0:
320,192,64845,128,0,65053:0:0:0:0:
448,192,65157,128,0,65366:0:0:0:0:
192,192,65157,1,0,0:0:0:0:
64,192,65157,1,0,0:0:0:0:
320,192,65261,1,0,0:0:0:0:
64,192,65366,1,4,0:0:0:0:
192,192,65366,128,0,65678:0:0:0:0:
448,192,65678,1,0,0:0:0:0:
320,192,65678,128,0,65991:0:0:0:0:
64,192,65886,1,0,0:0:0:0:
448,192,65991,128,0,66199:0:0:0:0:
192,192,65991,1,0,0:0:0:0:
192,192,66199,1,0,0:0:0:0:
64,192,66199,128,0,66511:0:0:0:0:
320,192,66511,1,0,0:0:0:0:
448,192,66511,1,0,0:0:0:0:
192,192,66511,1,0,0:0:0:0:
448,192,66824,1,0,0:0:0:0:
320,192,66824,1,0,0:0:0:0:
64,192,66928,1,0,0:0:0:0:
320,192,67032,1,0,0:0:0:0:
192,192,67032,1,0,0:0:0:0:
448,192,67032,128,0,67241:0:0:0:0:
192,192,67345,128,0,67553:0:0:0:0:
64,192,67345,1,0,0:0:0:0:
448,192,67657,128,0,67866:0:0:0:0:
320,192,67657,1,0,0:0:0:0:
64,192,67866,1,0,0:0:0:0:
192,192,67866,128,4,68178:0:0:0:0:
448,192,68178,128,0,68386:0:0:0:0:
320,192,68386,1,0,0:0:0:0:
64,192,68491,128,0,68595:0:0:0:0:
192,192,68595,1,0,0:0:0:0:
320,192,68595,1,0,0:0:0:0:
448,192,68699,1,8,0:0:0:0:
64,192,68907,1,8,0:0:0:0:
448,192,68907,1,8,0:0:0:0:
192,192,68907,1,8,0:0:0:0:
320,192,69011,128,8,69324:0:0:0:0:
64,192,69220,1,8,0:0:0:0:
192,192,69324,1,8,0:0:0:0:
448,192,69324,1,8,0:0:0:0:
64,192,69532,128,8,69845:0:0:0:0:
192,192,69532,1,8,0:0:0:0:
448,192,69532,1,8,0:0:0:0:
320,192,69636,1,8,0:0:0:0:
448,192,69741,1,8,0:0:0:0:
320,192,69845,1,8,0:0:0:0:
192,192,69949,1,0,0:0:0:0:
448,192,69949,128,0,70157:0:0:0:0:
320,192,70157,1,8,0:0:0:0:
192,192,70261,1,8,0:0:0:0:
320,192,70366,1,0,0:0:0:0:
448,192,70366,1,0,0:0:0:0:
64,192,70366,128,4,70574:0:0:0:0:
448,192,70678,1,0,0:0:0:0:
192,192,70678,128,0,70886:0:0:0:0:
448,192,70991,1,0,0:0:0:0:
320,192,70991,1,0,0:0:0:0:
64,192,71199,1,0,0:0:0:0:
448,192,71199,1,0,0:0:0:0:
192,192,71199,1,0,0:0:0:0:
448,192,71407,128,0,71511:0:0:0:0:
320,192,71511,1,0,0:0:0:0:
64,192,71511,128,0,71720:0:0:0:0:
448,192,71824,128,0,72032:0:0:0:0:
320,192,71824,1,0,0:0:0:0:
192,192,71824,1,0,0:0:0:0:
64,192,71928,1,0,0:0:0:0:
320,192,72032,1,0,0:0:0:0:
192,192,72032,128,0,72345:0:0:0:0:
448,192,72345,1,0,0:0:0:0:
320,192,72345,128,0,72657:0:0:0:0:
64,192,72553,1,0,0:0:0:0:
192,192,72657,128,0,72866:0:0:0:0:
448,192,72657,1,0,0:0:0:0:
448,192,72866,1,0,0:0:0:0:
64,192,72866,128,0,73178:0:0:0:0:
320,192,73178,1,0,0:0:0:0:
448,192,73178,1,0,0:0:0:0:
192,192,73178,1,0,0:0:0:0:
320,192,73491,1,0,0:0:0:0:
192,192,73491,1,0,0:0:0:0:
448,192,73595,1,0,0:0:0:0:
64,192,73699,1,2,0:0:0:0:
192,192,73699,1,2,0:0:0:0:
320,192,73699,128,2,73907:0:0:0:0:
64,192,73907,128,2,74116:0:0:0:0:
320,192,74011,1,2,0:0:0:0:
192,192,74116,128,2,74220:0:0:0:0:
448,192,74220,128,2,74428:0:0:0:0:
64,192,74428,128,2,74636:0:0:0:0:
320,192,74428,1,2,0:0:0:0:
320,192,74532,128,4,74741:0:0:0:0:
192,192,74741,128,2,74949:0:0:0:0:
448,192,74741,1,2,0:0:0:0:
64,192,74845,1,2,0:0:0:0:
448,192,74949,128,2,75053:0:0:0:0:
64,192,74949,1,2,0:0:0:0:
320,192,75053,128,2,75261:0:0:0:0:
64,192,75261,1,4,0:0:0:0:
448,192,75261,1,2,0:0:0:0:
192,192,75366,1,2,0:0:0:0:
448,192,75366,1,2,0:0:0:0:
320,192,75574,1,2,0:0:0:0:
448,192,75678,1,2,0:0:0:0:
192,192,75678,1,2,0:0:0:0:
64,192,75678,1,6,0:0:0:0:
448,192,75782,1,2,0:0:0:0:
64,192,75886,1,2,0:0:0:0:
192,192,75991,1,2,0:0:0:0:
320,192,75991,1,2,0:0:0:0:
64,192,76199,1,10,0:0:0:0:
320,192,76199,1,10,0:0:0:0:
448,192,76199,1,10,0:0:0:0:
64,192,76407,1,10,0:0:0:0:
448,192,76511,1,10,0:0:0:0:
320,192,76511,1,10,0:0:0:0:
192,192,76511,1,10,0:0:0:0:
448,192,76720,1,10,0:0:0:0:
320,192,76824,1,10,0:0:0:0:
192,192,76824,1,10,0:0:0:0:
64,192,76824,1,10,0:0:0:0:
192,192,77032,1,0,0:0:0:0:
448,192,77032,1,0,0:0:0:0:
64,192,77032,128,4,78386:0:0:0:0:
320,192,77241,1,0,0:0:0:0:
192,192,77345,1,0,0:0:0:0:
448,192,77345,1,0,0:0:0:0:
320,192,77553,1,0,0:0:0:0:
192,192,77657,1,0,0:0:0:0:
448,192,77657,1,0,0:0:0:0:
320,192,77761,1,0,0:0:0:0:
192,192,77866,1,0,0:0:0:0:
448,192,77866,1,0,0:0:0:0:
320,192,77866,1,0,0:0:0:0:
448,192,78074,1,0,0:0:0:0:
192,192,78074,1,0,0:0:0:0:
320,192,78282,1,0,0:0:0:0:
448,192,78386,1,0,0:0:0:0:
192,192,78386,1,4,0:0:0:0:
64,192,78595,1,0,0:0:0:0:
320,192,78595,1,4,0:0:0:0:
448,192,78595,1,4,0:0:0:0:
64,192,78907,128,8,79532:0:0:0:0:
192,192,78907,1,0,0:0:0:0:
448,192,78907,1,0,0:0:0:0:
320,192,79011,1,8,0:0:0:0:
192,192,79116,1,8,0:0:0:0:
320,192,79220,1,8,0:0:0:0:
448,192,79220,1,8,0:0:0:0:
192,192,79324,1,8,0:0:0:0:
320,192,79428,1,8,0:0:0:0:
192,192,79532,1,8,0:0:0:0:
448,192,79532,1,8,0:0:0:0:
64,192,79671,1,8,0:0:0:0:
320,192,79671,1,8,0:0:0:0:
448,192,79671,1,8,0:0:0:0:
320,192,79810,1,8,0:0:0:0:
192,192,79810,1,8,0:0:0:0:
448,192,79949,1,8,0:0:0:0:
64,192,79949,1,8,0:0:0:0:
320,192,79949,1,8,0:0:0:0:
64,192,80088,1,8,0:0:0:0:
192,192,80088,1,8,0:0:0:0:
448,192,80088,1,8,0:0:0:0:
448,192,80227,1,8,0:0:0:0:
320,192,80227,1,8,0:0:0:0:
192,192,80227,1,8,0:0:0:0:
64,192,80366,1,4,0:0:0:0:
192,192,80366,1,4,0:0:0:0:
320,192,80470,1,0,0:0:0:0:
448,192,80574,1,0,0:0:0:0:
192,192,80678,1,0,0:0:0:0:
320,192,80782,1,8,0:0:0:0:
64,192,80782,1,0,0:0:0:0:
448,192,80782,1,0,0:0:0:0:
192,192,80886,1,0,0:0:0:0:
320,192,80991,1,0,0:0:0:0:
448,192,80991,1,0,0:0:0:0:
64,192,81095,1,0,0:0:0:0:
192,192,81199,1,0,0:0:0:0:
64,192,81303,1,0,0:0:0:0:
320,192,81303,1,0,0:0:0:0:
448,192,81407,1,0,0:0:0:0:
320,192,81511,1,0,0:0:0:0:
192,192,81616,1,0,0:0:0:0:
64,192,81616,1,0,0:0:0:0:
448,192,81616,1,8,0:0:0:0:
320,192,81720,1,0,0:0:0:0:
64,192,81824,1,0,0:0:0:0:
448,192,81824,1,0,0:0:0:0:
320,192,81928,1,0,0:0:0:0:
192,192,82032,1,0,0:0:0:0:
448,192,82136,1,0,0:0:0:0:
64,192,82241,1,0,0:0:0:0:
192,192,82345,1,0,0:0:0:0:
448,192,82449,1,8,0:0:0:0:
64,192,82449,1,0,0:0:0:0:
320,192,82449,1,0,0:0:0:0:
192,192,82553,1,0,0:0:0:0:
448,192,82657,1,0,0:0:0:0:
64,192,82657,1,0,0:0:0:0:
320,192,82761,1,0,0:0:0:0:
192,192,82866,1,0,0:0:0:0:
448,192,82970,1,0,0:0:0:0:
320,192,82970,1,0,0:0:0:0:
64,192,83074,1,0,0:0:0:0:
448,192,83178,1,0,0:0:0:0:
64,192,83282,1,0,0:0:0:0:
320,192,83282,1,0,0:0:0:0:
192,192,83282,1,8,0:0:0:0:
448,192,83386,1,0,0:0:0:0:
192,192,83491,1,0,0:0:0:0:
64,192,83491,1,0,0:0:0:0:
320,192,83595,1,0,0:0:0:0:
64,192,83699,1,0,0:0:0:0:
192,192,83699,1,0,0:0:0:0:
448,192,83803,1,0,0:0:0:0:
320,192,83907,1,0,0:0:0:0:
448,192,84011,1,0,0:0:0:0:
192,192,84116,1,0,0:0:0:0:
320,192,84116,1,8,0:0:0:0:
64,192,84116,1,0,0:0:0:0:
448,192,84220,1,0,0:0:0:0:
192,192,84324,1,0,0:0:0:0:
320,192,84428,1,0,0:0:0:0:
64,192,84532,1,0,0:0:0:0:
192,192,84532,1,0,0:0:0:0:
448,192,84636,1,0,0:0:0:0:
64,192,84741,1,0,0:0:0:0:
448,192,84845,1,0,0:0:0:0:
320,192,84949,1,0,0:0:0:0:
192,192,84949,1,8,0:0:0:0:
64,192,84949,1,0,0:0:0:0:
448,192,85053,1,0,0:0:0:0:
192,192,85157,1,0,0:0:0:0:
320,192,85157,1,0,0:0:0:0:
448,192,85261,1,0,0:0:0:0:
192,192,85366,1,8,0:0:0:0:
64,192,85366,1,0,0:0:0:0:
448,192,85991,1,0,0:0:0:0:
448,192,86616,1,8,0:0:0:0:
192,192,86616,1,12,0:0:0:0:
192,192,86824,1,0,0:0:0:0:
64,192,86928,1,0,0:0:0:0:
320,192,87032,1,4,0:0:0:0:
448,192,87032,1,4,0:0:0:0:
64,192,87136,1,0,0:0:0:0:
192,192,87241,1,0,0:0:0:0:
320,192,87345,1,0,0:0:0:0:
448,192,87449,1,8,0:0:0:0:
64,192,87449,1,0,0:0:0:0:
320,192,87553,1,0,0:0:0:0:
448,192,87657,1,0,0:0:0:0:
192,192,87657,1,0,0:0:0:0:
64,192,87761,1,0,0:0:0:0:
192,192,87866,1,0,0:0:0:0:
320,192,87866,1,4,0:0:0:0:
448,192,87970,1,0,0:0:0:0:
192,192,88074,1,0,0:0:0:0:
64,192,88074,1,0,0:0:0:0:
320,192,88178,1,0,0:0:0:0:
448,192,88282,1,4,0:0:0:0:
192,192,88282,1,8,0:0:0:0:
64,192,88386,1,0,0:0:0:0:
192,192,88491,1,0,0:0:0:0:
64,192,88595,1,0,0:0:0:0:
320,192,88699,1,12,0:0:0:0:
448,192,88699,1,0,0:0:0:0:
192,192,88803,1,0,0:0:0:0:
448,192,88907,1,0,0:0:0:0:
192,192,89011,1,0,0:0:0:0:
64,192,89116,1,0,0:0:0:0:
320,192,89116,1,8,0:0:0:0:
448,192,89116,1,8,0:0:0:0:
192,192,89220,1,0,0:0:0:0:
320,192,89324,1,0,0:0:0:0:
64,192,89428,1,0,0:0:0:0:
448,192,89532,1,4,0:0:0:0:
320,192,89532,1,4,0:0:0:0:
64,192,89636,1,0,0:0:0:0:
192,192,89741,1,8,0:0:0:0:
320,192,89741,1,0,0:0:0:0:
64,192,89845,1,0,0:0:0:0:
320,192,89949,1,8,0:0:0:0:
192,192,89949,1,0,0:0:0:0:
448,192,89949,1,12,0:0:0:0:
64,192,90053,1,0,0:0:0:0:
320,192,90157,1,0,0:0:0:0:
192,192,90261,1,0,0:0:0:0:
64,192,90366,1,8,0:0:0:0:
320,192,90366,1,4,0:0:0:0:
192,192,90470,1,0,0:0:0:0:
320,192,90574,1,0,0:0:0:0:
64,192,90678,1,0,0:0:0:0:
320,192,90782,1,4,0:0:0:0:
448,192,90782,1,4,0:0:0:0:
192,192,90782,1,8,0:0:0:0:
64,192,90886,1,0,0:0:0:0:
448,192,90991,1,0,0:0:0:0:
320,192,90991,1,0,0:0:0:0:
192,192,91095,1,0,0:0:0:0:
320,192,91199,1,0,0:0:0:0:
448,192,91199,1,0,0:0:0:0:
64,192,91199,1,0,0:0:0:0:
192,192,91303,1,0,0:0:0:0:
320,192,91407,1,0,0:0:0:0:
64,192,91511,1,0,0:0:0:0:
448,192,91616,1,4,0:0:0:0:
320,192,91616,1,4,0:0:0:0:
320,192,91720,1,0,0:0:0:0:
64,192,91824,1,0,0:0:0:0:
192,192,91824,1,0,0:0:0:0:
192,192,91928,1,0,0:0:0:0:
448,192,92032,1,8,0:0:0:0:
320,192,92032,1,8,0:0:0:0:
64,192,92032,1,8,0:0:0:0:
192,192,92136,1,0,0:0:0:0:
320,192,92241,1,0,0:0:0:0:
192,192,92345,1,8,0:0:0:0:
64,192,92345,1,8,0:0:0:0:
448,192,92345,1,8,0:0:0:0:
320,192,92449,1,0,0:0:0:0:
192,192,92553,1,0,0:0:0:0:
320,192,92657,1,12,0:0:0:0:
448,192,92657,1,8,0:0:0:0:
448,192,92761,1,0,0:0:0:0:
64,192,92866,1,8,0:0:0:0:
192,192,92866,1,8,0:0:0:0:
320,192,92866,1,4,0:0:0:0:
448,192,92970,1,0,0:0:0:0:
320,192,93074,1,0,0:0:0:0:
64,192,93178,1,0,0:0:0:0:
320,192,93282,1,0,0:0:0:0:
192,192,93282,128,2,93491:0:0:0:0:
448,192,93282,1,0,0:0:0:0:
64,192,93386,1,0,0:0:0:0:
320,192,93491,1,0,0:0:0:0:
448,192,93491,128,2,93699:0:0:0:0:
64,192,93595,1,0,0:0:0:0:
192,192,93699,1,4,0:0:0:0:
320,192,93699,1,4,0:0:0:0:
64,192,93803,1,0,0:0:0:0:
448,192,93907,1,0,0:0:0:0:
320,192,94011,1,0,0:0:0:0:
192,192,94011,1,0,0:0:0:0:
64,192,94116,1,4,0:0:0:0:
192,192,94220,1,0,0:0:0:0:
64,192,94324,1,0,0:0:0:0:
448,192,94324,1,0,0:0:0:0:
320,192,94324,1,0,0:0:0:0:
192,192,94428,1,0,0:0:0:0:
320,192,94532,1,8,0:0:0:0:
192,192,94636,1,0,0:0:0:0:
448,192,94636,1,0,0:0:0:0:
64,192,94636,1,0,0:0:0:0:
320,192,94741,1,0,0:0:0:0:
448,192,94845,1,0,0:0:0:0:
320,192,94949,1,0,0:0:0:0:
192,192,94949,1,0,0:0:0:0:
64,192,94949,1,0,0:0:0:0:
448,192,95053,1,0,0:0:0:0:
320,192,95157,1,0,0:0:0:0:
192,192,95157,1,0,0:0:0:0:
64,192,95261,1,0,0:0:0:0:
192,192,95366,1,4,0:0:0:0:
320,192,95366,1,0,0:0:0:0:
448,192,95366,1,0,0:0:0:0:
64,192,95470,1,0,0:0:0:0:
192,192,95574,1,0,0:0:0:0:
64,192,95678,1,0,0:0:0:0:
320,192,95678,1,0,0:0:0:0:
448,192,95678,1,0,0:0:0:0:
192,192,95782,1,4,0:0:0:0:
320,192,95886,1,0,0:0:0:0:
448,192,95991,1,0,0:0:0:0:
192,192,95991,1,0,0:0:0:0:
320,192,96095,1,0,0:0:0:0:
192,192,96199,1,8,0:0:0:0:
320,192,96303,1,0,0:0:0:0:
448,192,96303,1,0,0:0:0:0:
64,192,96303,1,0,0:0:0:0:
192,192,96407,1,0,0:0:0:0:
320,192,96511,1,0,0:0:0:0:
448,192,96616,1,4,0:0:0:0:
192,192,96616,1,0,0:0:0:0:
64,192,96616,1,0,0:0:0:0:
320,192,96720,1,0,0:0:0:0:
448,192,96824,1,0,0:0:0:0:
64,192,96824,1,0,0:0:0:0:
192,192,96928,1,0,0:0:0:0:
320,192,97032,1,4,0:0:0:0:
64,192,97032,1,0,0:0:0:0:
448,192,97032,1,0,0:0:0:0:
192,192,97136,1,0,0:0:0:0:
320,192,97241,1,0,0:0:0:0:
192,192,97345,1,0,0:0:0:0:
64,192,97345,1,0,0:0:0:0:
320,192,97449,1,8,0:0:0:0:
448,192,97553,1,0,0:0:0:0:
192,192,97657,1,0,0:0:0:0:
64,192,97657,1,0,0:0:0:0:
320,192,97657,1,0,0:0:0:0:
448,192,97761,1,0,0:0:0:0:
320,192,97866,1,8,0:0:0:0:
192,192,97970,1,0,0:0:0:0:
64,192,97970,1,0,0:0:0:0:
448,192,97970,1,0,0:0:0:0:
320,192,98074,1,0,0:0:0:0:
64,192,98178,1,0,0:0:0:0:
448,192,98282,1,4,0:0:0:0:
320,192,98282,1,0,0:0:0:0:
192,192,98282,1,0,0:0:0:0:
64,192,98386,1,0,0:0:0:0:
192,192,98491,1,0,0:0:0:0:
320,192,98491,1,0,0:0:0:0:
448,192,98595,1,0,0:0:0:0:
320,192,98699,1,0,0:0:0:0:
192,192,98699,1,0,0:0:0:0:
64,192,98699,128,12,99324:0:0:0:0:
448,192,98803,1,0,0:0:0:0:
192,192,98907,1,0,0:0:0:0:
448,192,99011,1,0,0:0:0:0:
192,192,99116,1,0,0:0:0:0:
320,192,99116,1,0,0:0:0:0:
448,192,99220,1,0,0:0:0:0:
320,192,99324,128,12,99949:0:0:0:0:
192,192,99324,1,0,0:0:0:0:
448,192,99428,1,0,0:0:0:0:
192,192,99532,1,0,0:0:0:0:
64,192,99636,1,0,0:0:0:0:
448,192,99636,1,0,0:0:0:0:
192,192,99741,1,0,0:0:0:0:
64,192,99845,1,0,0:0:0:0:
448,192,99949,1,8,0:0:0:0:
192,192,99949,1,8,0:0:0:0:
64,192,100053,1,8,0:0:0:0:
192,192,100157,1,8,0:0:0:0:
448,192,100157,1,8,0:0:0:0:
320,192,100261,1,8,0:0:0:0:
64,192,100366,1,4,0:0:0:0:
192,192,100366,1,4,0:0:0:0:
448,192,100366,1,0,0:0:0:0:
320,192,100470,1,0,0:0:0:0:
64,192,100574,1,0,0:0:0:0:
448,192,100678,1,0,0:0:0:0:
320,192,100782,1,0,0:0:0:0:
64,192,100886,1,0,0:0:0:0:
192,192,100991,1,0,0:0:0:0:
320,192,100991,1,4,0:0:0:0:
448,192,100991,1,4,0:0:0:0:
64,192,101095,1,0,0:0:0:0:
320,192,101199,1,0,0:0:0:0:
448,192,101303,1,0,0:0:0:0:
64,192,101303,1,0,0:0:0:0:
192,192,101303,1,0,0:0:0:0:
320,192,101407,1,0,0:0:0:0:
64,192,101511,1,0,0:0:0:0:
320,192,101616,1,0,0:0:0:0:
448,192,101616,1,0,0:0:0:0:
64,192,101720,1,0,0:0:0:0:
192,192,101824,1,0,0:0:0:0:
320,192,101824,1,0,0:0:0:0:
448,192,101824,1,0,0:0:0:0:
64,192,101928,1,0,0:0:0:0:
192,192,102032,1,0,0:0:0:0:
320,192,102032,1,0,0:0:0:0:
448,192,102032,1,0,0:0:0:0:
64,192,102136,1,2,0:0:0:0:
192,192,102241,1,2,0:0:0:0:
192,192,102345,1,2,0:0:0:0:
448,192,102345,1,2,0:0:0:0:
320,192,102449,1,2,0:0:0:0:
320,192,102553,1,2,0:0:0:0:
192,192,102657,1,12,0:0:0:0:
64,192,102657,1,12,0:0:0:0:
448,192,102657,1,8,0:0:0:0:
320,192,102761,1,0,0:0:0:0:
64,192,102866,1,0,0:0:0:0:
320,192,102970,1,0,0:0:0:0:
448,192,102970,1,0,0:0:0:0:
192,192,102970,1,0,0:0:0:0:
64,192,103074,1,0,0:0:0:0:
192,192,103178,1,0,0:0:0:0:
64,192,103282,1,8,0:0:0:0:
320,192,103282,1,8,0:0:0:0:
448,192,103282,1,8,0:0:0:0:
192,192,103386,1,0,0:0:0:0:
448,192,103491,1,0,0:0:0:0:
320,192,103595,1,0,0:0:0:0:
192,192,103699,1,4,0:0:0:0:
64,192,103699,1,4,0:0:0:0:
448,192,103699,1,8,0:0:0:0:
320,192,103803,1,0,0:0:0:0:
192,192,103907,1,0,0:0:0:0:
448,192,104011,1,0,0:0:0:0:
320,192,104116,1,0,0:0:0:0:
192,192,104116,1,0,0:0:0:0:
64,192,104220,1,0,0:0:0:0:
320,192,104324,1,0,0:0:0:0:
448,192,104324,1,0,0:0:0:0:
192,192,104324,1,8,0:0:0:0:
64,192,104428,1,0,0:0:0:0:
320,192,104532,1,0,0:0:0:0:
192,192,104636,1,0,0:0:0:0:
64,192,104636,1,0,0:0:0:0:
448,192,104636,1,0,0:0:0:0:
320,192,104741,1,0,0:0:0:0:
192,192,104845,1,0,0:0:0:0:
64,192,104949,1,12,0:0:0:0:
448,192,104949,1,12,0:0:0:0:
192,192,105053,1,0,0:0:0:0:
64,192,105157,1,0,0:0:0:0:
320,192,105157,1,0,0:0:0:0:
448,192,105157,1,0,0:0:0:0:
192,192,105261,1,0,0:0:0:0:
448,192,105366,1,4,0:0:0:0:
320,192,105366,1,8,0:0:0:0:
192,192,105470,1,0,0:0:0:0:
64,192,105574,1,0,0:0:0:0:
320,192,105574,1,0,0:0:0:0:
192,192,105678,1,8,0:0:0:0:
448,192,105678,1,0,0:0:0:0:
320,192,105782,1,0,0:0:0:0:
64,192,105886,1,0,0:0:0:0:
192,192,105886,1,8,0:0:0:0:
448,192,105991,1,0,0:0:0:0:
320,192,105991,1,0,0:0:0:0:
192,192,106095,1,0,0:0:0:0:
64,192,106199,1,12,0:0:0:0:
320,192,106199,1,12,0:0:0:0:
448,192,106199,1,12,0:0:0:0:
448,192,106407,1,0,0:0:0:0:
192,192,106616,1,0,0:0:0:0:
64,192,106685,1,0,0:0:0:0:
192,192,106754,1,0,0:0:0:0:
320,192,106824,1,0,0:0:0:0:
448,192,106893,1,0,0:0:0:0:
64,192,106893,1,0,0:0:0:0:
320,192,106963,1,0,0:0:0:0:
192,192,107032,1,0,0:0:0:0:
64,192,107032,1,0,0:0:0:0:
448,192,107032,128,4,108178:0:0:0:0:
320,192,107345,1,0,0:0:0:0:
192,192,107345,1,0,0:0:0:0:
64,192,107449,1,0,0:0:0:0:
320,192,107553,1,0,0:0:0:0:
192,192,107657,1,0,0:0:0:0:
64,192,107761,1,0,0:0:0:0:
192,192,107866,1,0,0:0:0:0:
320,192,107866,1,0,0:0:0:0:
64,192,107970,1,0,0:0:0:0:
192,192,108074,1,0,0:0:0:0:
320,192,108074,1,0,0:0:0:0:
64,192,108178,1,0,0:0:0:0:
192,192,108282,1,0,0:0:0:0:
320,192,108386,1,4,0:0:0:0:
448,192,108386,1,4,0:0:0:0:
64,192,108386,1,0,0:0:0:0:
192,192,108595,128,4,109845:0:0:0:0:
64,192,108595,1,4,0:0:0:0:
320,192,108907,1,0,0:0:0:0:
64,192,109011,1,0,0:0:0:0:
320,192,109116,1,0,0:0:0:0:
448,192,109116,1,0,0:0:0:0:
64,192,109220,1,0,0:0:0:0:
320,192,109324,1,0,0:0:0:0:
448,192,109428,1,0,0:0:0:0:
320,192,109532,1,0,0:0:0:0:
64,192,109532,1,0,0:0:0:0:
448,192,109636,1,0,0:0:0:0:
320,192,109741,1,0,0:0:0:0:
64,192,109741,1,0,0:0:0:0:
448,192,109845,1,0,0:0:0:0:
64,192,109949,1,0,0:0:0:0:
192,192,110053,1,4,0:0:0:0:
320,192,110053,1,4,0:0:0:0:
448,192,110053,1,0,0:0:0:0:
448,192,110261,1,4,0:0:0:0:
64,192,110261,128,4,110991:0:0:0:0:
320,192,110574,1,0,0:0:0:0:
192,192,110678,1,0,0:0:0:0:
320,192,110782,1,0,0:0:0:0:
448,192,110782,1,0,0:0:0:0:
192,192,110886,1,0,0:0:0:0:
320,192,110991,1,0,0:0:0:0:
448,192,111095,1,0,0:0:0:0:
192,192,111199,1,4,0:0:0:0:
320,192,111199,1,0,0:0:0:0:
64,192,111199,1,4,0:0:0:0:
448,192,111303,1,0,0:0:0:0:
192,192,111407,1,0,0:0:0:0:
64,192,111407,1,0,0:0:0:0:
320,192,111511,1,0,0:0:0:0:
448,192,111616,1,0,0:0:0:0:
192,192,111616,1,0,0:0:0:0:
320,192,111720,1,0,0:0:0:0:
448,192,111824,1,0,0:0:0:0:
320,192,111928,1,4,0:0:0:0:
192,192,111928,128,4,112657:0:0:0:0:
448,192,112136,1,8,0:0:0:0:
320,192,112241,1,8,0:0:0:0:
64,192,112241,1,8,0:0:0:0:
448,192,112345,1,8,0:0:0:0:
320,192,112449,1,8,0:0:0:0:
64,192,112449,1,8,0:0:0:0:
448,192,112553,1,8,0:0:0:0:
320,192,112657,1,8,0:0:0:0:
448,192,112761,1,8,0:0:0:0:
320,192,112866,1,8,0:0:0:0:
192,192,112866,1,12,0:0:0:0:
64,192,112866,1,8,0:0:0:0:
448,192,112970,1,8,0:0:0:0:
320,192,113074,1,8,0:0:0:0:
192,192,113178,1,8,0:0:0:0:
320,192,113282,1,12,0:0:0:0:
64,192,113282,1,8,0:0:0:0:
448,192,113282,1,8,0:0:0:0:
192,192,113386,1,8,0:0:0:0:
320,192,113491,1,8,0:0:0:0:
448,192,113491,1,8,0:0:0:0:
192,192,113595,1,8,0:0:0:0:
448,192,113699,1,4,0:0:0:0:
64,192,113699,1,0,0:0:0:0:
320,192,113699,128,4,114845:0:0:0:0:
192,192,114011,1,0,0:0:0:0:
448,192,114116,1,0,0:0:0:0:
64,192,114116,1,0,0:0:0:0:
192,192,114220,1,0,0:0:0:0:
64,192,114324,1,0,0:0:0:0:
448,192,114428,1,0,0:0:0:0:
64,192,114532,1,0,0:0:0:0:
192,192,114532,1,0,0:0:0:0:
448,192,114636,1,0,0:0:0:0:
192,192,114741,1,0,0:0:0:0:
64,192,114741,1,0,0:0:0:0:
448,192,114845,1,0,0:0:0:0:
192,192,114949,1,0,0:0:0:0:
320,192,115053,1,4,0:0:0:0:
448,192,115053,1,0,0:0:0:0:
64,192,115053,1,4,0:0:0:0:
192,192,115261,1,4,0:0:0:0:
448,192,115261,128,4,116511:0:0:0:0:
192,192,115574,1,0,0:0:0:0:
320,192,115678,1,0,0:0:0:0:
192,192,115782,1,0,0:0:0:0:
64,192,115782,1,0,0:0:0:0:
320,192,115886,1,0,0:0:0:0:
64,192,115991,1,0,0:0:0:0:
192,192,116095,1,0,0:0:0:0:
320,192,116199,1,0,0:0:0:0:
64,192,116199,128,2,116511:0:0:0:0:
192,192,116303,1,0,0:0:0:0:
320,192,116407,1,0,0:0:0:0:
192,192,116511,1,0,0:0:0:0:
320,192,116616,1,0,0:0:0:0:
64,192,116720,1,4,0:0:0:0:
192,192,116720,1,4,0:0:0:0:
448,192,116720,1,0,0:0:0:0:
192,192,116928,128,4,117866:0:0:0:0:
64,192,116928,1,4,0:0:0:0:
448,192,117241,1,0,0:0:0:0:
320,192,117345,1,0,0:0:0:0:
64,192,117449,1,0,0:0:0:0:
448,192,117449,1,0,0:0:0:0:
320,192,117553,1,0,0:0:0:0:
64,192,117657,1,0,0:0:0:0:
320,192,117866,1,4,0:0:0:0:
448,192,117866,128,4,118595:0:0:0:0:
64,192,117970,1,0,0:0:0:0:
192,192,118074,1,0,0:0:0:0:
320,192,118178,1,0,0:0:0:0:
192,192,118282,1,0,0:0:0:0:
320,192,118386,1,0,0:0:0:0:
192,192,118491,1,0,0:0:0:0:
320,192,118595,1,0,0:0:0:0:
64,192,118595,128,12,120574:0:0:0:0:
192,192,118803,1,0,0:0:0:0:
320,192,118907,1,0,0:0:0:0:
448,192,118907,128,0,119324:0:0:0:0:
192,192,119011,1,0,0:0:0:0:
320,192,119116,1,0,0:0:0:0:
192,192,119220,1,0,0:0:0:0:
320,192,119324,1,0,0:0:0:0:
192,192,119428,1,0,0:0:0:0:
320,192,119532,1,0,0:0:0:0:
448,192,119532,1,0,0:0:0:0:
192,192,119636,1,0,0:0:0:0:
448,192,119741,1,0,0:0:0:0:
192,192,119845,1,0,0:0:0:0:
448,192,119949,1,0,0:0:0:0:
320,192,119949,1,0,0:0:0:0:
192,192,120053,1,0,0:0:0:0:
320,192,120157,1,0,0:0:0:0:
192,192,120261,1,0,0:0:0:0:
448,192,120366,1,0,0:0:0:0:
320,192,120418,1,0,0:0:0:0:
192,192,120470,1,0,0:0:0:0:
